  0
SECTION
  2
HEADER
  9
$ACADVER
  1
AC1015
  9
$ACADMAINTVER
 70
    20
  9
$DWGCODEPAGE
  3
ANSI_1252
  9
$INSBASE
 10
0.0
 20
0.0
 30
0.0
  9
$EXTMIN
 10
3.531607056025356
 20
-5.567467501553494
 30
0.0
  9
$EXTMAX
 10
260.5760235892548
 20
107.1514458606146
 30
0.0
  9
$LIMMIN
 10
0.0
 20
0.0
  9
$LIMMAX
 10
12.0
 20
9.0
  9
$ORTHOMODE
 70
     0
  9
$REGENMODE
 70
     1
  9
$FILLMODE
 70
     1
  9
$QTEXTMODE
 70
     0
  9
$MIRRTEXT
 70
     0
  9
$LTSCALE
 40
1.0
  9
$ATTMODE
 70
     1
  9
$TEXTSIZE
 40
0.2
  9
$TRACEWID
 40
0.05
  9
$TEXTSTYLE
  7
Standard
  9
$CLAYER
  8
0
  9
$CELTYPE
  6
ByLayer
  9
$CECOLOR
 62
   256
  9
$CELTSCALE
 40
1.0
  9
$DISPSILH
 70
     0
  9
$DIMSCALE
 40
1.0
  9
$DIMASZ
 40
0.18
  9
$DIMEXO
 40
0.0625
  9
$DIMDLI
 40
0.38
  9
$DIMRND
 40
0.0
  9
$DIMDLE
 40
0.0
  9
$DIMEXE
 40
0.18
  9
$DIMTP
 40
0.0
  9
$DIMTM
 40
0.0
  9
$DIMTXT
 40
0.18
  9
$DIMCEN
 40
0.09
  9
$DIMTSZ
 40
0.0
  9
$DIMTOL
 70
     0
  9
$DIMLIM
 70
     0
  9
$DIMTIH
 70
     1
  9
$DIMTOH
 70
     1
  9
$DIMSE1
 70
     0
  9
$DIMSE2
 70
     0
  9
$DIMTAD
 70
     0
  9
$DIMZIN
 70
     0
  9
$DIMBLK
  1

  9
$DIMASO
 70
     1
  9
$DIMSHO
 70
     1
  9
$DIMPOST
  1

  9
$DIMAPOST
  1

  9
$DIMALT
 70
     0
  9
$DIMALTD
 70
     2
  9
$DIMALTF
 40
25.4
  9
$DIMLFAC
 40
1.0
  9
$DIMTOFL
 70
     0
  9
$DIMTVP
 40
0.0
  9
$DIMTIX
 70
     0
  9
$DIMSOXD
 70
     0
  9
$DIMSAH
 70
     0
  9
$DIMBLK1
  1

  9
$DIMBLK2
  1

  9
$DIMSTYLE
  2
Standard
  9
$DIMCLRD
 70
     0
  9
$DIMCLRE
 70
     0
  9
$DIMCLRT
 70
     0
  9
$DIMTFAC
 40
1.0
  9
$DIMGAP
 40
0.09
  9
$DIMJUST
 70
     0
  9
$DIMSD1
 70
     0
  9
$DIMSD2
 70
     0
  9
$DIMTOLJ
 70
     1
  9
$DIMTZIN
 70
     0
  9
$DIMALTZ
 70
     0
  9
$DIMALTTZ
 70
     0
  9
$DIMUPT
 70
     0
  9
$DIMDEC
 70
     4
  9
$DIMTDEC
 70
     4
  9
$DIMALTU
 70
     2
  9
$DIMALTTD
 70
     2
  9
$DIMTXSTY
  7
Standard
  9
$DIMAUNIT
 70
     0
  9
$DIMADEC
 70
     0
  9
$DIMALTRND
 40
0.0
  9
$DIMAZIN
 70
     0
  9
$DIMDSEP
 70
    46
  9
$DIMATFIT
 70
     3
  9
$DIMFRAC
 70
     0
  9
$DIMLDRBLK
  1

  9
$DIMLUNIT
 70
     2
  9
$DIMLWD
 70
    -2
  9
$DIMLWE
 70
    -2
  9
$DIMTMOVE
 70
     0
  9
$LUNITS
 70
     2
  9
$LUPREC
 70
     4
  9
$SKETCHINC
 40
0.1
  9
$FILLETRAD
 40
0.0
  9
$AUNITS
 70
     0
  9
$AUPREC
 70
     0
  9
$MENU
  1
.
  9
$ELEVATION
 40
0.0
  9
$PELEVATION
 40
0.0
  9
$THICKNESS
 40
0.0
  9
$LIMCHECK
 70
     0
  9
$CHAMFERA
 40
0.0
  9
$CHAMFERB
 40
0.0
  9
$CHAMFERC
 40
0.0
  9
$CHAMFERD
 40
0.0
  9
$SKPOLY
 70
     0
  9
$TDCREATE
 40
2456457.614004132
  9
$TDUCREATE
 40
2456457.530670799
  9
$TDUPDATE
 40
2456457.614579213
  9
$TDUUPDATE
 40
2456457.531245880
  9
$TDINDWG
 40
0.0005752546
  9
$TDUSRTIMER
 40
0.0005752546
  9
$USRTIMER
 70
     1
  9
$ANGBASE
 50
0.0
  9
$ANGDIR
 70
     0
  9
$PDMODE
 70
     0
  9
$PDSIZE
 40
0.0
  9
$PLINEWID
 40
0.0
  9
$SPLFRAME
 70
     0
  9
$SPLINETYPE
 70
     6
  9
$SPLINESEGS
 70
     8
  9
$HANDSEED
  5
7E7
  9
$SURFTAB1
 70
     6
  9
$SURFTAB2
 70
     6
  9
$SURFTYPE
 70
     6
  9
$SURFU
 70
     6
  9
$SURFV
 70
     6
  9
$UCSBASE
  2

  9
$UCSNAME
  2

  9
$UCSORG
 10
0.0
 20
0.0
 30
0.0
  9
$UCSXDIR
 10
1.0
 20
0.0
 30
0.0
  9
$UCSYDIR
 10
0.0
 20
1.0
 30
0.0
  9
$UCSORTHOREF
  2

  9
$UCSORTHOVIEW
 70
     0
  9
$UCSORGTOP
 10
0.0
 20
0.0
 30
0.0
  9
$UCSORGBOTTOM
 10
0.0
 20
0.0
 30
0.0
  9
$UCSORGLEFT
 10
0.0
 20
0.0
 30
0.0
  9
$UCSORGRIGHT
 10
0.0
 20
0.0
 30
0.0
  9
$UCSORGFRONT
 10
0.0
 20
0.0
 30
0.0
  9
$UCSORGBACK
 10
0.0
 20
0.0
 30
0.0
  9
$PUCSBASE
  2

  9
$PUCSNAME
  2

  9
$PUCSORG
 10
0.0
 20
0.0
 30
0.0
  9
$PUCSXDIR
 10
1.0
 20
0.0
 30
0.0
  9
$PUCSYDIR
 10
0.0
 20
1.0
 30
0.0
  9
$PUCSORTHOREF
  2

  9
$PUCSORTHOVIEW
 70
     0
  9
$PUCSORGTOP
 10
0.0
 20
0.0
 30
0.0
  9
$PUCSORGBOTTOM
 10
0.0
 20
0.0
 30
0.0
  9
$PUCSORGLEFT
 10
0.0
 20
0.0
 30
0.0
  9
$PUCSORGRIGHT
 10
0.0
 20
0.0
 30
0.0
  9
$PUCSORGFRONT
 10
0.0
 20
0.0
 30
0.0
  9
$PUCSORGBACK
 10
0.0
 20
0.0
 30
0.0
  9
$USERI1
 70
     0
  9
$USERI2
 70
     0
  9
$USERI3
 70
     0
  9
$USERI4
 70
     0
  9
$USERI5
 70
     0
  9
$USERR1
 40
0.0
  9
$USERR2
 40
0.0
  9
$USERR3
 40
0.0
  9
$USERR4
 40
0.0
  9
$USERR5
 40
0.0
  9
$WORLDVIEW
 70
     1
  9
$SHADEDGE
 70
     3
  9
$SHADEDIF
 70
    70
  9
$TILEMODE
 70
     1
  9
$MAXACTVP
 70
    64
  9
$PINSBASE
 10
0.0
 20
0.0
 30
0.0
  9
$PLIMCHECK
 70
     0
  9
$PEXTMIN
 10
0.0
 20
0.0
 30
0.0
  9
$PEXTMAX
 10
0.0
 20
0.0
 30
0.0
  9
$PLIMMIN
 10
0.0
 20
0.0
  9
$PLIMMAX
 10
12.0
 20
9.0
  9
$UNITMODE
 70
     0
  9
$VISRETAIN
 70
     1
  9
$PLINEGEN
 70
     0
  9
$PSLTSCALE
 70
     1
  9
$TREEDEPTH
 70
  3020
  9
$CMLSTYLE
  2
Standard
  9
$CMLJUST
 70
     0
  9
$CMLSCALE
 40
1.0
  9
$PROXYGRAPHICS
 70
     1
  9
$MEASUREMENT
 70
     0
  9
$CELWEIGHT
370
    -1
  9
$ENDCAPS
280
     0
  9
$JOINSTYLE
280
     0
  9
$LWDISPLAY
290
     0
  9
$INSUNITS
 70
     1
  9
$HYPERLINKBASE
  1

  9
$STYLESHEET
  1

  9
$XEDIT
290
     1
  9
$CEPSNTYPE
380
     0
  9
$PSTYLEMODE
290
     1
  9
$FINGERPRINTGUID
  2
{CEC62C6E-D8C6-4037-B867-B28A801E350F}
  9
$VERSIONGUID
  2
{5E9DD7E6-EF30-493C-9012-C5D1A918FDB9}
  9
$EXTNAMES
290
     1
  9
$PSVPSCALE
 40
0.0
  9
$OLESTARTUP
290
     0
  0
ENDSEC
  0
SECTION
  2
CLASSES
  0
CLASS
  1
ACDBDICTIONARYWDFLT
  2
AcDbDictionaryWithDefault
  3
ObjectDBX Classes
 90
        0
280
     0
281
     0
  0
CLASS
  1
ACDBPLACEHOLDER
  2
AcDbPlaceHolder
  3
ObjectDBX Classes
 90
        0
280
     0
281
     0
  0
CLASS
  1
LAYOUT
  2
AcDbLayout
  3
ObjectDBX Classes
 90
        0
280
     0
281
     0
  0
CLASS
  1
DICTIONARYVAR
  2
AcDbDictionaryVar
  3
ObjectDBX Classes
 90
        0
280
     0
281
     0
  0
CLASS
  1
TABLESTYLE
  2
AcDbTableStyle
  3
ObjectDBX Classes
 90
     4095
280
     0
281
     0
  0
CLASS
  1
MATERIAL
  2
AcDbMaterial
  3
ObjectDBX Classes
 90
     1153
280
     0
281
     0
  0
CLASS
  1
VISUALSTYLE
  2
AcDbVisualStyle
  3
ObjectDBX Classes
 90
     4095
280
     0
281
     0
  0
CLASS
  1
SCALE
  2
AcDbScale
  3
ObjectDBX Classes
 90
     1153
280
     0
281
     0
  0
CLASS
  1
MLEADERSTYLE
  2
AcDbMLeaderStyle
  3
ACDB_MLEADERSTYLE_CLASS
 90
     4095
280
     0
281
     0
  0
CLASS
  1
CELLSTYLEMAP
  2
AcDbCellStyleMap
  3
ObjectDBX Classes
 90
     1152
280
     0
281
     0
  0
CLASS
  1
SORTENTSTABLE
  2
AcDbSortentsTable
  3
ObjectDBX Classes
 90
        0
280
     0
281
     0
  0
ENDSEC
  0
SECTION
  2
TABLES
  0
TABLE
  2
VPORT
  5
8
330
0
100
AcDbSymbolTable
 70
     1
  0
VPORT
  5
94
330
8
100
AcDbSymbolTableRecord
100
AcDbViewportTableRecord
  2
*Active
 70
     0
 10
0.0
 20
0.0
 11
1.0
 21
1.0
 12
160.909649547424
 22
77.40681938486435
 13
0.0
 23
0.0
 14
0.5
 24
0.5
 15
0.5
 25
0.5
 16
0.0
 26
0.0
 36
1.0
 17
0.0
 27
0.0
 37
0.0
 40
343.11161603978
 41
1.207207207207207
 42
50.0
 43
0.0
 44
0.0
 50
0.0
 51
0.0
 71
     0
 72
  1000
 73
     1
 74
     3
 75
     0
 76
     0
 77
     0
 78
     0
281
     0
 65
     1
110
0.0
120
0.0
130
0.0
111
1.0
121
0.0
131
0.0
112
0.0
122
1.0
132
0.0
 79
     0
146
0.0
  0
ENDTAB
  0
TABLE
  2
LTYPE
  5
5
330
0
100
AcDbSymbolTable
 70
     1
  0
LTYPE
  5
14
330
5
100
AcDbSymbolTableRecord
100
AcDbLinetypeTableRecord
  2
ByBlock
 70
     0
  3

 72
    65
 73
     0
 40
0.0
  0
LTYPE
  5
15
330
5
100
AcDbSymbolTableRecord
100
AcDbLinetypeTableRecord
  2
ByLayer
 70
     0
  3

 72
    65
 73
     0
 40
0.0
  0
LTYPE
  5
16
330
5
100
AcDbSymbolTableRecord
100
AcDbLinetypeTableRecord
  2
Continuous
 70
     0
  3
Solid line
 72
    65
 73
     0
 40
0.0
  0
ENDTAB
  0
TABLE
  2
LAYER
  5
2
330
0
100
AcDbSymbolTable
 70
     3
  0
LAYER
  5
10
102
{ACAD_XDICTIONARY
360
E6
102
}
330
2
100
AcDbSymbolTableRecord
100
AcDbLayerTableRecord
  2
0
 70
     0
 62
     7
  6
Continuous
370
    -3
390
F
  0
LAYER
  5
1A1
330
2
100
AcDbSymbolTableRecord
100
AcDbLayerTableRecord
  2
Defpoints
 70
     0
 62
     7
  6
Continuous
290
     0
370
    -3
390
F
  0
LAYER
  5
1A2
102
{ACAD_XDICTIONARY
360
7D3
102
}
330
2
100
AcDbSymbolTableRecord
100
AcDbLayerTableRecord
  2
QUOTE
 70
     0
 62
     7
  6
Continuous
370
    13
390
F
1001
AcAecLayerStandard
1000

1000

  0
ENDTAB
  0
TABLE
  2
STYLE
  5
3
330
0
100
AcDbSymbolTable
 70
     2
  0
STYLE
  5
11
330
3
100
AcDbSymbolTableRecord
100
AcDbTextStyleTableRecord
  2
Standard
 70
     0
 40
0.0
 41
1.0
 50
0.0
 71
     0
 42
0.2
  3
txt.shx
  4

  0
STYLE
  5
DC
330
3
100
AcDbSymbolTableRecord
100
AcDbTextStyleTableRecord
  2
Annotativa
 70
     0
 40
0.0
 41
1.0
 50
0.0
 71
     0
 42
0.2
  3
txt.shx
  4

1001
AcadAnnotative
1000
AnnotativeData
1002
{
1070
     1
1070
     1
1002
}
  0
ENDTAB
  0
TABLE
  2
VIEW
  5
6
330
0
100
AcDbSymbolTable
 70
     1
  0
ENDTAB
  0
TABLE
  2
UCS
  5
7
330
0
100
AcDbSymbolTable
 70
     0
  0
ENDTAB
  0
TABLE
  2
APPID
  5
9
330
0
100
AcDbSymbolTable
 70
     7
  0
APPID
  5
12
330
9
100
AcDbSymbolTableRecord
100
AcDbRegAppTableRecord
  2
ACAD
 70
     0
  0
APPID
  5
DD
330
9
100
AcDbSymbolTableRecord
100
AcDbRegAppTableRecord
  2
AcadAnnoPO
 70
     0
  0
APPID
  5
DE
330
9
100
AcDbSymbolTableRecord
100
AcDbRegAppTableRecord
  2
AcadAnnotative
 70
     0
  0
APPID
  5
DF
330
9
100
AcDbSymbolTableRecord
100
AcDbRegAppTableRecord
  2
ACAD_DSTYLE_DIMJAG
 70
     0
  0
APPID
  5
E0
330
9
100
AcDbSymbolTableRecord
100
AcDbRegAppTableRecord
  2
ACAD_DSTYLE_DIMTALN
 70
     0
  0
APPID
  5
107
330
9
100
AcDbSymbolTableRecord
100
AcDbRegAppTableRecord
  2
ACAD_MLEADERVER
 70
     0
  0
APPID
  5
1A3
330
9
100
AcDbSymbolTableRecord
100
AcDbRegAppTableRecord
  2
AcAecLayerStandard
 70
     0
  0
ENDTAB
  0
TABLE
  2
DIMSTYLE
  5
A
330
0
100
AcDbSymbolTable
 70
     2
100
AcDbDimStyleTable
 71
     2
340
27
340
E1
  0
DIMSTYLE
105
27
102
{ACAD_REACTORS
330
626
330
627
330
49E
330
49F
330
4A0
330
4E4
330
4E5
102
}
330
A
100
AcDbSymbolTableRecord
100
AcDbDimStyleTableRecord
  2
Standard
 70
     0
340
11
  0
DIMSTYLE
105
E1
330
A
100
AcDbSymbolTableRecord
100
AcDbDimStyleTableRecord
  2
Annotativa
 70
     0
 40
0.0
340
11
1001
AcadAnnotative
1000
AnnotativeData
1002
{
1070
     1
1070
     1
1002
}
1001
ACAD_DSTYLE_DIMJAG
1070
   388
1040
1.5
1001
ACAD_DSTYLE_DIMTALN
1070
   392
1070
     0
  0
ENDTAB
  0
TABLE
  2
BLOCK_RECORD
  5
1
330
0
100
AcDbSymbolTable
 70
    16
  0
BLOCK_RECORD
  5
1F
330
1
100
AcDbSymbolTableRecord
100
AcDbBlockTableRecord
  2
*Model_Space
340
22
  0
BLOCK_RECORD
  5
58
330
1
100
AcDbSymbolTableRecord
100
AcDbBlockTableRecord
  2
*Paper_Space
340
59
  0
BLOCK_RECORD
  5
5D
330
1
100
AcDbSymbolTableRecord
100
AcDbBlockTableRecord
  2
*Paper_Space0
340
5E
  0
BLOCK_RECORD
  5
14D
330
1
100
AcDbSymbolTableRecord
100
AcDbBlockTableRecord
  2
*D1
340
0
  0
BLOCK_RECORD
  5
159
330
1
100
AcDbSymbolTableRecord
100
AcDbBlockTableRecord
  2
*D2
340
0
  0
BLOCK_RECORD
  5
165
330
1
100
AcDbSymbolTableRecord
100
AcDbBlockTableRecord
  2
*D3
340
0
  0
BLOCK_RECORD
  5
171
330
1
100
AcDbSymbolTableRecord
100
AcDbBlockTableRecord
  2
*D4
340
0
  0
BLOCK_RECORD
  5
17D
330
1
100
AcDbSymbolTableRecord
100
AcDbBlockTableRecord
  2
*D5
340
0
  0
BLOCK_RECORD
  5
189
330
1
100
AcDbSymbolTableRecord
100
AcDbBlockTableRecord
  2
*D6
340
0
  0
BLOCK_RECORD
  5
195
330
1
100
AcDbSymbolTableRecord
100
AcDbBlockTableRecord
  2
*D7
340
0
  0
BLOCK_RECORD
  5
6A2
330
1
100
AcDbSymbolTableRecord
100
AcDbBlockTableRecord
  2
*D9
340
0
  0
BLOCK_RECORD
  5
6AF
330
1
100
AcDbSymbolTableRecord
100
AcDbBlockTableRecord
  2
*D10
340
0
  0
BLOCK_RECORD
  5
6BC
330
1
100
AcDbSymbolTableRecord
100
AcDbBlockTableRecord
  2
*D11
340
0
  0
BLOCK_RECORD
  5
6C9
330
1
100
AcDbSymbolTableRecord
100
AcDbBlockTableRecord
  2
*D12
340
0
  0
BLOCK_RECORD
  5
6D6
330
1
100
AcDbSymbolTableRecord
100
AcDbBlockTableRecord
  2
*D13
340
0
  0
BLOCK_RECORD
  5
6E3
330
1
100
AcDbSymbolTableRecord
100
AcDbBlockTableRecord
  2
*D14
340
0
  0
BLOCK_RECORD
  5
6F0
330
1
100
AcDbSymbolTableRecord
100
AcDbBlockTableRecord
  2
*D15
340
0
  0
ENDTAB
  0
ENDSEC
  0
SECTION
  2
BLOCKS
  0
BLOCK
  5
20
330
1F
100
AcDbEntity
  8
0
100
AcDbBlockBegin
  2
*Model_Space
 70
     0
 10
0.0
 20
0.0
 30
0.0
  3
*Model_Space
  1

  0
ENDBLK
  5
21
330
1F
100
AcDbEntity
  8
0
100
AcDbBlockEnd
  0
BLOCK
  5
5A
330
58
100
AcDbEntity
 67
     1
  8
0
100
AcDbBlockBegin
  2
*Paper_Space
 70
     0
 10
0.0
 20
0.0
 30
0.0
  3
*Paper_Space
  1

  0
ENDBLK
  5
5B
330
58
100
AcDbEntity
 67
     1
  8
0
100
AcDbBlockEnd
  0
BLOCK
  5
5F
330
5D
100
AcDbEntity
 67
     1
  8
0
100
AcDbBlockBegin
  2
*Paper_Space0
 70
     0
 10
0.0
 20
0.0
 30
0.0
  3
*Paper_Space0
  1

  0
ENDBLK
  5
60
330
5D
100
AcDbEntity
 67
     1
  8
0
100
AcDbBlockEnd
  0
BLOCK
  5
14E
330
14D
100
AcDbEntity
  8
0
 62
     1
100
AcDbBlockBegin
  2
*D1
 70
     1
 10
0.0
 20
0.0
 30
0.0
  3
*D1
  1

  0
LINE
  5
14F
330
14D
100
AcDbEntity
  8
QUOTE
 62
     0
370
    -2
100
AcDbLine
 10
-334.0280502379843
 20
-458.8768790065868
 30
0.0
 11
-339.8498885697318
 21
-458.8768790065868
 31
0.0
  0
LINE
  5
150
330
14D
100
AcDbEntity
  8
QUOTE
 62
     0
370
    -2
100
AcDbLine
 10
-328.4247700699589
 20
-368.3768790065868
 30
0.0
 11
-339.8498885697317
 21
-368.3768790065868
 31
0.0
  0
LINE
  5
151
330
14D
100
AcDbEntity
  8
QUOTE
 62
     0
370
    -2
100
AcDbLine
 10
-338.5998885697318
 20
-456.3768790065868
 30
0.0
 11
-338.5998885697317
 21
-370.8768790065868
 31
0.0
  0
SOLID
  5
152
330
14D
100
AcDbEntity
  8
QUOTE
 62
     0
100
AcDbTrace
 10
-339.0165552363985
 20
-456.3768790065868
 30
0.0
 11
-338.1832219030651
 21
-456.3768790065868
 31
0.0
 12
-338.5998885697318
 22
-458.8768790065868
 32
0.0
 13
-338.5998885697318
 23
-458.8768790065868
 33
0.0
  0
SOLID
  5
153
330
14D
100
AcDbEntity
  8
QUOTE
 62
     0
100
AcDbTrace
 10
-339.0165552363984
 20
-370.8768790065868
 30
0.0
 11
-338.183221903065
 21
-370.8768790065868
 31
0.0
 12
-338.5998885697317
 22
-368.3768790065868
 32
0.0
 13
-338.5998885697317
 23
-368.3768790065868
 33
0.0
  0
MTEXT
  5
154
330
14D
100
AcDbEntity
  8
QUOTE
 62
     0
100
AcDbMText
 10
-342.0986801721824
 20
-413.6268790065869
 30
0.0
 40
5.0
 41
0.0
 71
     5
 72
     1
  1
90,5
 11
0.0000000000000001
 21
1.0
 31
0.0
 73
     1
 44
1.0
1001
ACAD
1000
MTEXTBEGIN
1070
    73
1070
     1
1070
    44
1040
1.0
1070
    74
1070
     0
1000
MTEXTEND
  0
POINT
  5
155
330
14D
100
AcDbEntity
  8
Defpoints
 62
     0
100
AcDbPoint
 10
-333.4030502379843
 20
-458.8768790065868
 30
0.0
  0
POINT
  5
156
330
14D
100
AcDbEntity
  8
Defpoints
 62
     0
100
AcDbPoint
 10
-327.7997700699589
 20
-368.3768790065868
 30
0.0
  0
POINT
  5
157
330
14D
100
AcDbEntity
  8
Defpoints
 62
     0
100
AcDbPoint
 10
-338.5998885697317
 20
-368.3768790065868
 30
0.0
  0
ENDBLK
  5
158
330
14D
100
AcDbEntity
  8
0
 62
     1
100
AcDbBlockEnd
  0
BLOCK
  5
15A
330
159
100
AcDbEntity
  8
0
 62
     1
100
AcDbBlockBegin
  2
*D2
 70
     1
 10
0.0
 20
0.0
 30
0.0
  3
*D2
  1

  0
LINE
  5
15B
330
159
100
AcDbEntity
  8
QUOTE
 62
     0
370
    -2
100
AcDbLine
 10
-327.7997700699589
 20
-367.7518790065868
 30
0.0
 11
-327.7997700699589
 21
-359.4504612501253
 31
0.0
  0
LINE
  5
15C
330
159
100
AcDbEntity
  8
QUOTE
 62
     0
370
    -2
100
AcDbLine
 10
-283.8030502379843
 20
-370.212242839056
 30
0.0
 11
-283.8030502379843
 21
-359.4504612501253
 31
0.0
  0
LINE
  5
15D
330
159
100
AcDbEntity
  8
QUOTE
 62
     0
370
    -2
100
AcDbLine
 10
-325.2997700699589
 20
-360.7004612501253
 30
0.0
 11
-286.3030502379843
 21
-360.7004612501253
 31
0.0
  0
SOLID
  5
15E
330
159
100
AcDbEntity
  8
QUOTE
 62
     0
100
AcDbTrace
 10
-325.2997700699589
 20
-360.2837945834586
 30
0.0
 11
-325.2997700699589
 21
-361.117127916792
 31
0.0
 12
-327.7997700699589
 22
-360.7004612501253
 32
0.0
 13
-327.7997700699589
 23
-360.7004612501253
 33
0.0
  0
SOLID
  5
15F
330
159
100
AcDbEntity
  8
QUOTE
 62
     0
100
AcDbTrace
 10
-286.3030502379843
 20
-360.2837945834586
 30
0.0
 11
-286.3030502379843
 21
-361.117127916792
 31
0.0
 12
-283.8030502379843
 22
-360.7004612501253
 32
0.0
 13
-283.8030502379843
 23
-360.7004612501253
 33
0.0
  0
MTEXT
  5
160
330
159
100
AcDbEntity
  8
QUOTE
 62
     0
100
AcDbMText
 10
-305.8014101539716
 20
-357.5754612501253
 30
0.0
 40
5.0
 41
0.0
 71
     5
 72
     1
  1
44
 73
     1
 44
1.0
1001
ACAD
1000
MTEXTBEGIN
1070
    73
1070
     1
1070
    44
1040
1.0
1070
    74
1070
     0
1000
MTEXTEND
  0
POINT
  5
161
330
159
100
AcDbEntity
  8
Defpoints
 62
     0
100
AcDbPoint
 10
-327.7997700699589
 20
-368.3768790065868
 30
0.0
  0
POINT
  5
162
330
159
100
AcDbEntity
  8
Defpoints
 62
     0
100
AcDbPoint
 10
-283.8030502379843
 20
-370.8372428390559
 30
0.0
  0
POINT
  5
163
330
159
100
AcDbEntity
  8
Defpoints
 62
     0
100
AcDbPoint
 10
-283.8030502379843
 20
-360.7004612501253
 30
0.0
  0
ENDBLK
  5
164
330
159
100
AcDbEntity
  8
0
 62
     1
100
AcDbBlockEnd
  0
BLOCK
  5
166
330
165
100
AcDbEntity
  8
0
 62
     1
100
AcDbBlockBegin
  2
*D3
 70
     1
 10
0.0
 20
0.0
 30
0.0
  3
*D3
  1

  0
LINE
  5
167
330
165
100
AcDbEntity
  8
QUOTE
 62
     0
370
    -2
100
AcDbLine
 10
-327.7997700699589
 20
-453.813789839056
 30
0.0
 11
-327.7997700699589
 21
-469.6693746122933
 31
0.0
  0
LINE
  5
168
330
165
100
AcDbEntity
  8
QUOTE
 62
     0
370
    -2
100
AcDbLine
 10
-262.799770069959
 20
-431.4597193390559
 30
0.0
 11
-262.799770069959
 21
-469.6693746122933
 31
0.0
  0
LINE
  5
169
330
165
100
AcDbEntity
  8
QUOTE
 62
     0
370
    -2
100
AcDbLine
 10
-325.2997700699589
 20
-468.4193746122933
 30
0.0
 11
-265.299770069959
 21
-468.4193746122933
 31
0.0
  0
SOLID
  5
16A
330
165
100
AcDbEntity
  8
QUOTE
 62
     0
100
AcDbTrace
 10
-325.2997700699589
 20
-468.0027079456267
 30
0.0
 11
-325.2997700699589
 21
-468.8360412789601
 31
0.0
 12
-327.7997700699589
 22
-468.4193746122933
 32
0.0
 13
-327.7997700699589
 23
-468.4193746122933
 33
0.0
  0
SOLID
  5
16B
330
165
100
AcDbEntity
  8
QUOTE
 62
     0
100
AcDbTrace
 10
-265.299770069959
 20
-468.0027079456267
 30
0.0
 11
-265.299770069959
 21
-468.8360412789601
 31
0.0
 12
-262.799770069959
 22
-468.4193746122933
 32
0.0
 13
-262.799770069959
 23
-468.4193746122933
 33
0.0
  0
MTEXT
  5
16C
330
165
100
AcDbEntity
  8
QUOTE
 62
     0
100
AcDbMText
 10
-296.2997700699589
 20
-465.2943746122933
 30
0.0
 40
5.0
 41
0.0
 71
     5
 72
     1
  1
65
 73
     1
 44
1.0
1001
ACAD
1000
MTEXTBEGIN
1070
    73
1070
     1
1070
    44
1040
1.0
1070
    74
1070
     0
1000
MTEXTEND
  0
POINT
  5
16D
330
165
100
AcDbEntity
  8
Defpoints
 62
     0
100
AcDbPoint
 10
-327.7997700699589
 20
-453.1887898390559
 30
0.0
  0
POINT
  5
16E
330
165
100
AcDbEntity
  8
Defpoints
 62
     0
100
AcDbPoint
 10
-262.799770069959
 20
-430.8347193390559
 30
0.0
  0
POINT
  5
16F
330
165
100
AcDbEntity
  8
Defpoints
 62
     0
100
AcDbPoint
 10
-262.799770069959
 20
-468.4193746122933
 30
0.0
  0
ENDBLK
  5
170
330
165
100
AcDbEntity
  8
0
 62
     1
100
AcDbBlockEnd
  0
BLOCK
  5
172
330
171
100
AcDbEntity
  8
0
 62
     1
100
AcDbBlockBegin
  2
*D4
 70
     1
 10
0.0
 20
0.0
 30
0.0
  3
*D4
  1

  0
LINE
  5
173
330
171
100
AcDbEntity
  8
QUOTE
 62
     0
370
    -2
100
AcDbLine
 10
-411.1722059270437
 20
-367.9511184973243
 30
0.0
 11
-411.1722059270437
 21
-359.6261279083936
 31
0.0
  0
LINE
  5
174
330
171
100
AcDbEntity
  8
QUOTE
 62
     0
370
    -2
100
AcDbLine
 10
-366.1722069270437
 20
-367.9511184973243
 30
0.0
 11
-366.1722069270437
 21
-359.6261279083936
 31
0.0
  0
LINE
  5
175
330
171
100
AcDbEntity
  8
QUOTE
 62
     0
370
    -2
100
AcDbLine
 10
-408.6722059270437
 20
-360.8761279083936
 30
0.0
 11
-368.6722069270438
 21
-360.8761279083936
 31
0.0
  0
SOLID
  5
176
330
171
100
AcDbEntity
  8
QUOTE
 62
     0
100
AcDbTrace
 10
-408.6722059270437
 20
-360.4594612417269
 30
0.0
 11
-408.6722059270437
 21
-361.2927945750603
 31
0.0
 12
-411.1722059270437
 22
-360.8761279083936
 32
0.0
 13
-411.1722059270437
 23
-360.8761279083936
 33
0.0
  0
SOLID
  5
177
330
171
100
AcDbEntity
  8
QUOTE
 62
     0
100
AcDbTrace
 10
-368.6722069270438
 20
-360.4594612417269
 30
0.0
 11
-368.6722069270438
 21
-361.2927945750603
 31
0.0
 12
-366.1722069270437
 22
-360.8761279083936
 32
0.0
 13
-366.1722069270437
 23
-360.8761279083936
 33
0.0
  0
MTEXT
  5
178
330
171
100
AcDbEntity
  8
QUOTE
 62
     0
100
AcDbMText
 10
-388.6722064270438
 20
-357.7511279083936
 30
0.0
 40
5.0
 41
0.0
 71
     5
 72
     1
  1
45
 73
     1
 44
1.0
1001
ACAD
1000
MTEXTBEGIN
1070
    73
1070
     1
1070
    44
1040
1.0
1070
    74
1070
     0
1000
MTEXTEND
  0
POINT
  5
179
330
171
100
AcDbEntity
  8
Defpoints
 62
     0
100
AcDbPoint
 10
-411.1722059270437
 20
-368.5761184973243
 30
0.0
  0
POINT
  5
17A
330
171
100
AcDbEntity
  8
Defpoints
 62
     0
100
AcDbPoint
 10
-366.1722069270437
 20
-368.5761184973243
 30
0.0
  0
POINT
  5
17B
330
171
100
AcDbEntity
  8
Defpoints
 62
     0
100
AcDbPoint
 10
-366.1722069270437
 20
-360.8761279083936
 30
0.0
  0
ENDBLK
  5
17C
330
171
100
AcDbEntity
  8
0
 62
     1
100
AcDbBlockEnd
  0
BLOCK
  5
17E
330
17D
100
AcDbEntity
  8
0
 62
     1
100
AcDbBlockBegin
  2
*D5
 70
     1
 10
0.0
 20
0.0
 30
0.0
  3
*D5
  1

  0
LINE
  5
17F
330
17D
100
AcDbEntity
  8
QUOTE
 62
     0
370
    -2
100
AcDbLine
 10
-411.3472097530693
 20
-453.3760974972394
 30
0.0
 11
-423.1648270848167
 21
-453.3760974972394
 31
0.0
  0
LINE
  5
180
330
17D
100
AcDbEntity
  8
QUOTE
 62
     0
370
    -2
100
AcDbLine
 10
-411.3472069270438
 20
-368.3761054973243
 30
0.0
 11
-423.1648270848167
 21
-368.3761054973243
 31
0.0
  0
LINE
  5
181
330
17D
100
AcDbEntity
  8
QUOTE
 62
     0
370
    -2
100
AcDbLine
 10
-421.9148270848168
 20
-450.8760974972394
 30
0.0
 11
-421.9148270848167
 21
-370.8761054973243
 31
0.0
  0
SOLID
  5
182
330
17D
100
AcDbEntity
  8
QUOTE
 62
     0
100
AcDbTrace
 10
-422.3314937514834
 20
-450.8760974972394
 30
0.0
 11
-421.4981604181501
 21
-450.8760974972394
 31
0.0
 12
-421.9148270848168
 22
-453.3760974972394
 32
0.0
 13
-421.9148270848168
 23
-453.3760974972394
 33
0.0
  0
SOLID
  5
183
330
17D
100
AcDbEntity
  8
QUOTE
 62
     0
100
AcDbTrace
 10
-422.3314937514833
 20
-370.8761054973243
 30
0.0
 11
-421.4981604181501
 21
-370.8761054973243
 31
0.0
 12
-421.9148270848167
 22
-368.3761054973243
 32
0.0
 13
-421.9148270848167
 23
-368.3761054973243
 33
0.0
  0
MTEXT
  5
184
330
17D
100
AcDbEntity
  8
QUOTE
 62
     0
100
AcDbMText
 10
-425.0398270848166
 20
-410.8761014972819
 30
0.0
 40
5.0
 41
0.0
 71
     5
 72
     1
  1
85
 11
0.0000000000000001
 21
1.0
 31
0.0
 73
     1
 44
1.0
1001
ACAD
1000
MTEXTBEGIN
1070
    73
1070
     1
1070
    44
1040
1.0
1070
    74
1070
     0
1000
MTEXTEND
  0
POINT
  5
185
330
17D
100
AcDbEntity
  8
Defpoints
 62
     0
100
AcDbPoint
 10
-410.7222097530693
 20
-453.3760974972394
 30
0.0
  0
POINT
  5
186
330
17D
100
AcDbEntity
  8
Defpoints
 62
     0
100
AcDbPoint
 10
-410.7222069270437
 20
-368.3761054973243
 30
0.0
  0
POINT
  5
187
330
17D
100
AcDbEntity
  8
Defpoints
 62
     0
100
AcDbPoint
 10
-421.9148270848167
 20
-368.3761054973243
 30
0.0
  0
ENDBLK
  5
188
330
17D
100
AcDbEntity
  8
0
 62
     1
100
AcDbBlockEnd
  0
BLOCK
  5
18A
330
189
100
AcDbEntity
  8
0
 62
     1
100
AcDbBlockBegin
  2
*D6
 70
     1
 10
0.0
 20
0.0
 30
0.0
  3
*D6
  1

  0
LINE
  5
18B
330
189
100
AcDbEntity
  8
QUOTE
 62
     0
370
    -2
100
AcDbLine
 10
-502.0182321120819
 20
-367.9511184973243
 30
0.0
 11
-502.0182321120819
 21
-359.6261279083936
 31
0.0
  0
LINE
  5
18C
330
189
100
AcDbEntity
  8
QUOTE
 62
     0
370
    -2
100
AcDbLine
 10
-457.0182331120819
 20
-367.9511184973243
 30
0.0
 11
-457.0182331120819
 21
-359.6261279083936
 31
0.0
  0
LINE
  5
18D
330
189
100
AcDbEntity
  8
QUOTE
 62
     0
370
    -2
100
AcDbLine
 10
-499.5182321120819
 20
-360.8761279083936
 30
0.0
 11
-459.5182331120819
 21
-360.8761279083936
 31
0.0
  0
SOLID
  5
18E
330
189
100
AcDbEntity
  8
QUOTE
 62
     0
100
AcDbTrace
 10
-499.5182321120819
 20
-360.4594612417269
 30
0.0
 11
-499.5182321120819
 21
-361.2927945750603
 31
0.0
 12
-502.0182321120819
 22
-360.8761279083936
 32
0.0
 13
-502.0182321120819
 23
-360.8761279083936
 33
0.0
  0
SOLID
  5
18F
330
189
100
AcDbEntity
  8
QUOTE
 62
     0
100
AcDbTrace
 10
-459.5182331120819
 20
-360.4594612417269
 30
0.0
 11
-459.5182331120819
 21
-361.2927945750603
 31
0.0
 12
-457.0182331120819
 22
-360.8761279083936
 32
0.0
 13
-457.0182331120819
 23
-360.8761279083936
 33
0.0
  0
MTEXT
  5
190
330
189
100
AcDbEntity
  8
QUOTE
 62
     0
100
AcDbMText
 10
-479.5182326120819
 20
-357.7511279083936
 30
0.0
 40
5.0
 41
0.0
 71
     5
 72
     1
  1
45
 73
     1
 44
1.0
1001
ACAD
1000
MTEXTBEGIN
1070
    73
1070
     1
1070
    44
1040
1.0
1070
    74
1070
     0
1000
MTEXTEND
  0
POINT
  5
191
330
189
100
AcDbEntity
  8
Defpoints
 62
     0
100
AcDbPoint
 10
-502.0182321120819
 20
-368.5761184973243
 30
0.0
  0
POINT
  5
192
330
189
100
AcDbEntity
  8
Defpoints
 62
     0
100
AcDbPoint
 10
-457.0182331120819
 20
-368.5761184973243
 30
0.0
  0
POINT
  5
193
330
189
100
AcDbEntity
  8
Defpoints
 62
     0
100
AcDbPoint
 10
-457.0182331120819
 20
-360.8761279083936
 30
0.0
  0
ENDBLK
  5
194
330
189
100
AcDbEntity
  8
0
 62
     1
100
AcDbBlockEnd
  0
BLOCK
  5
196
330
195
100
AcDbEntity
  8
0
 62
     1
100
AcDbBlockBegin
  2
*D7
 70
     1
 10
0.0
 20
0.0
 30
0.0
  3
*D7
  1

  0
LINE
  5
197
330
195
100
AcDbEntity
  8
QUOTE
 62
     0
370
    -2
100
AcDbLine
 10
-502.1932359381075
 20
-453.3760974972394
 30
0.0
 11
-514.010853269855
 21
-453.3760974972394
 31
0.0
  0
LINE
  5
198
330
195
100
AcDbEntity
  8
QUOTE
 62
     0
370
    -2
100
AcDbLine
 10
-502.193233112082
 20
-368.3761054973243
 30
0.0
 11
-514.010853269855
 21
-368.3761054973243
 31
0.0
  0
LINE
  5
199
330
195
100
AcDbEntity
  8
QUOTE
 62
     0
370
    -2
100
AcDbLine
 10
-512.760853269855
 20
-450.8760974972394
 30
0.0
 11
-512.760853269855
 21
-370.8761054973243
 31
0.0
  0
SOLID
  5
19A
330
195
100
AcDbEntity
  8
QUOTE
 62
     0
100
AcDbTrace
 10
-513.1775199365216
 20
-450.8760974972394
 30
0.0
 11
-512.3441866031884
 21
-450.8760974972394
 31
0.0
 12
-512.760853269855
 22
-453.3760974972394
 32
0.0
 13
-512.760853269855
 23
-453.3760974972394
 33
0.0
  0
SOLID
  5
19B
330
195
100
AcDbEntity
  8
QUOTE
 62
     0
100
AcDbTrace
 10
-513.1775199365216
 20
-370.8761054973243
 30
0.0
 11
-512.3441866031884
 21
-370.8761054973243
 31
0.0
 12
-512.760853269855
 22
-368.3761054973243
 32
0.0
 13
-512.760853269855
 23
-368.3761054973243
 33
0.0
  0
MTEXT
  5
19C
330
195
100
AcDbEntity
  8
QUOTE
 62
     0
100
AcDbMText
 10
-515.8858532698549
 20
-410.8761014972818
 30
0.0
 40
5.0
 41
0.0
 71
     5
 72
     1
  1
85
 11
0.0000000000000001
 21
1.0
 31
0.0
 73
     1
 44
1.0
1001
ACAD
1000
MTEXTBEGIN
1070
    73
1070
     1
1070
    44
1040
1.0
1070
    74
1070
     0
1000
MTEXTEND
  0
POINT
  5
19D
330
195
100
AcDbEntity
  8
Defpoints
 62
     0
100
AcDbPoint
 10
-501.5682359381075
 20
-453.3760974972394
 30
0.0
  0
POINT
  5
19E
330
195
100
AcDbEntity
  8
Defpoints
 62
     0
100
AcDbPoint
 10
-501.568233112082
 20
-368.3761054973243
 30
0.0
  0
POINT
  5
19F
330
195
100
AcDbEntity
  8
Defpoints
 62
     0
100
AcDbPoint
 10
-512.760853269855
 20
-368.3761054973243
 30
0.0
  0
ENDBLK
  5
1A0
330
195
100
AcDbEntity
  8
0
 62
     1
100
AcDbBlockEnd
  0
BLOCK
  5
6A3
330
6A2
100
AcDbEntity
  8
0
100
AcDbBlockBegin
  2
*D9
 70
     1
 10
0.0
 20
0.0
 30
0.0
  3
*D9
  1

  0
LINE
  5
793
330
6A2
100
AcDbEntity
  8
QUOTE
 62
     0
370
    -2
100
AcDbLine
 10
21.35756154713181
 20
96.83828861341561
 30
0.0
 11
21.35756154713181
 21
104.6557792023463
 31
0.0
  0
LINE
  5
794
330
6A2
100
AcDbEntity
  8
QUOTE
 62
     0
370
    -2
100
AcDbLine
 10
66.35756054713175
 20
96.83828861341561
 30
0.0
 11
66.35756054713175
 21
104.6557792023463
 31
0.0
  0
LINE
  5
795
330
6A2
100
AcDbEntity
  8
QUOTE
 62
     0
370
    -2
100
AcDbLine
 10
26.35756154713181
 20
104.4757792023463
 30
0.0
 11
36.68422771379845
 21
104.4757792023463
 31
0.0
  0
LINE
  5
796
330
6A2
100
AcDbEntity
  8
QUOTE
 62
     0
370
    -2
100
AcDbLine
 10
61.35756054713175
 20
104.4757792023463
 30
0.0
 11
51.03089438046511
 21
104.4757792023463
 31
0.0
  0
SOLID
  5
797
330
6A2
100
AcDbEntity
  8
QUOTE
 62
     0
100
AcDbTrace
 10
26.35756154713181
 20
105.3091125356796
 30
0.0
 11
26.35756154713181
 21
103.6424458690129
 31
0.0
 12
21.35756154713181
 22
104.4757792023463
 32
0.0
 13
21.35756154713181
 23
104.4757792023463
 33
0.0
  0
SOLID
  5
798
330
6A2
100
AcDbEntity
  8
QUOTE
 62
     0
100
AcDbTrace
 10
61.35756054713175
 20
105.3091125356796
 30
0.0
 11
61.35756054713175
 21
103.6424458690129
 31
0.0
 12
66.35756054713175
 22
104.4757792023463
 32
0.0
 13
66.35756054713175
 23
104.4757792023463
 33
0.0
  0
MTEXT
  5
799
330
6A2
100
AcDbEntity
  8
QUOTE
 62
     0
100
AcDbMText
 10
43.85756104713178
 20
104.4757792023463
 30
0.0
 40
5.0
 41
0.0
 71
     5
 72
     1
  1
\A1;45.0
 73
     1
 44
1.0
1001
ACAD
1000
MTEXTBEGIN
1070
    73
1070
     1
1070
    44
1040
1.0
1070
    74
1070
     0
1000
MTEXTEND
  0
POINT
  5
79A
330
6A2
100
AcDbEntity
  8
Defpoints
 62
     0
100
AcDbPoint
 10
21.35756154713181
 20
96.77578861341562
 30
0.0
  0
POINT
  5
79B
330
6A2
100
AcDbEntity
  8
Defpoints
 62
     0
100
AcDbPoint
 10
66.35756054713175
 20
96.77578861341562
 30
0.0
  0
POINT
  5
79C
330
6A2
100
AcDbEntity
  8
Defpoints
 62
     0
100
AcDbPoint
 10
66.35756054713175
 20
104.4757792023463
 30
0.0
  0
ENDBLK
  5
6A4
330
6A2
100
AcDbEntity
  8
0
100
AcDbBlockEnd
  0
BLOCK
  5
6B0
330
6AF
100
AcDbEntity
  8
0
100
AcDbBlockBegin
  2
*D10
 70
     1
 10
0.0
 20
0.0
 30
0.0
  3
*D10
  1

  0
LINE
  5
789
330
6AF
100
AcDbEntity
  8
QUOTE
 62
     0
370
    -2
100
AcDbLine
 10
21.74505772110615
 20
11.97580961350047
 30
0.0
 11
10.43494038935869
 21
11.97580961350047
 31
0.0
  0
LINE
  5
78A
330
6AF
100
AcDbEntity
  8
QUOTE
 62
     0
370
    -2
100
AcDbLine
 10
21.74506054713174
 20
96.97580161341557
 30
0.0
 11
10.43494038935871
 21
96.97580161341557
 31
0.0
  0
LINE
  5
78B
330
6AF
100
AcDbEntity
  8
QUOTE
 62
     0
370
    -2
100
AcDbLine
 10
10.61494038935869
 20
16.97580961350048
 30
0.0
 11
10.6149403893587
 21
51.88580561345801
 31
0.0
  0
LINE
  5
78C
330
6AF
100
AcDbEntity
  8
QUOTE
 62
     0
370
    -2
100
AcDbLine
 10
10.6149403893587
 20
91.97580161341557
 30
0.0
 11
10.6149403893587
 21
57.06580561345802
 31
0.0
  0
SOLID
  5
78D
330
6AF
100
AcDbEntity
  8
QUOTE
 62
     0
100
AcDbTrace
 10
9.781607056025356
 20
16.97580961350048
 30
0.0
 11
11.44827372269202
 21
16.97580961350048
 31
0.0
 12
10.61494038935869
 22
11.97580961350047
 32
0.0
 13
10.61494038935869
 23
11.97580961350047
 33
0.0
  0
SOLID
  5
78E
330
6AF
100
AcDbEntity
  8
QUOTE
 62
     0
100
AcDbTrace
 10
9.781607056025372
 20
91.97580161341557
 30
0.0
 11
11.44827372269204
 21
91.97580161341557
 31
0.0
 12
10.61494038935871
 22
96.97580161341557
 32
0.0
 13
10.61494038935871
 23
96.97580161341557
 33
0.0
  0
MTEXT
  5
78F
330
6AF
100
AcDbEntity
  8
QUOTE
 62
     0
100
AcDbMText
 10
10.61494038935869
 20
54.47580561345802
 30
0.0
 40
5.0
 41
0.0
 71
     5
 72
     1
  1
\A1;85.0
 73
     1
 44
1.0
1001
ACAD
1000
MTEXTBEGIN
1070
    73
1070
     1
1070
    44
1040
1.0
1070
    74
1070
     0
1000
MTEXTEND
  0
POINT
  5
790
330
6AF
100
AcDbEntity
  8
Defpoints
 62
     0
100
AcDbPoint
 10
21.80755772110615
 20
11.97580961350047
 30
0.0
  0
POINT
  5
791
330
6AF
100
AcDbEntity
  8
Defpoints
 62
     0
100
AcDbPoint
 10
21.80756054713175
 20
96.97580161341557
 30
0.0
  0
POINT
  5
792
330
6AF
100
AcDbEntity
  8
Defpoints
 62
     0
100
AcDbPoint
 10
10.61494038935871
 20
96.97580161341557
 30
0.0
  0
ENDBLK
  5
6B1
330
6AF
100
AcDbEntity
  8
0
100
AcDbBlockEnd
  0
BLOCK
  5
6BD
330
6BC
100
AcDbEntity
  8
0
100
AcDbBlockBegin
  2
*D11
 70
     1
 10
0.0
 20
0.0
 30
0.0
  3
*D11
  1

  0
LINE
  5
7BB
330
6BC
100
AcDbEntity
  8
QUOTE
 62
     0
370
    -2
100
AcDbLine
 10
189.9102434212294
 20
6.475028104153068
 30
0.0
 11
184.5959050894819
 21
6.475028104153069
 31
0.0
  0
LINE
  5
7BC
330
6BC
100
AcDbEntity
  8
QUOTE
 62
     0
370
    -2
100
AcDbLine
 10
195.5135235892548
 20
96.97502810415308
 30
0.0
 11
184.595905089482
 21
96.97502810415308
 31
0.0
  0
LINE
  5
7BD
330
6BC
100
AcDbEntity
  8
QUOTE
 62
     0
370
    -2
100
AcDbLine
 10
184.775905089482
 20
11.47502810415307
 30
0.0
 11
184.775905089482
 21
49.13502810415306
 31
0.0
  0
LINE
  5
7BE
330
6BC
100
AcDbEntity
  8
QUOTE
 62
     0
370
    -2
100
AcDbLine
 10
184.775905089482
 20
91.97502810415306
 30
0.0
 11
184.775905089482
 21
54.31502810415307
 31
0.0
  0
SOLID
  5
7BF
330
6BC
100
AcDbEntity
  8
QUOTE
 62
     0
100
AcDbTrace
 10
183.9425717561486
 20
11.47502810415307
 30
0.0
 11
185.6092384228153
 21
11.47502810415307
 31
0.0
 12
184.775905089482
 22
6.475028104153069
 32
0.0
 13
184.775905089482
 23
6.475028104153069
 33
0.0
  0
SOLID
  5
7C0
330
6BC
100
AcDbEntity
  8
QUOTE
 62
     0
100
AcDbTrace
 10
183.9425717561486
 20
91.97502810415306
 30
0.0
 11
185.6092384228153
 21
91.97502810415306
 31
0.0
 12
184.775905089482
 22
96.97502810415308
 32
0.0
 13
184.775905089482
 23
96.97502810415308
 33
0.0
  0
MTEXT
  5
7C1
330
6BC
100
AcDbEntity
  8
QUOTE
 62
     0
100
AcDbMText
 10
184.775905089482
 20
51.72502810415309
 30
0.0
 40
5.0
 41
0.0
 71
     5
 72
     1
  1
\A1;90.5
 73
     1
 44
1.0
1001
ACAD
1000
MTEXTBEGIN
1070
    73
1070
     1
1070
    44
1040
1.0
1070
    74
1070
     0
1000
MTEXTEND
  0
POINT
  5
7C2
330
6BC
100
AcDbEntity
  8
Defpoints
 62
     0
100
AcDbPoint
 10
189.9727434212294
 20
6.475028104153068
 30
0.0
  0
POINT
  5
7C3
330
6BC
100
AcDbEntity
  8
Defpoints
 62
     0
100
AcDbPoint
 10
195.5760235892548
 20
96.97502810415308
 30
0.0
  0
POINT
  5
7C4
330
6BC
100
AcDbEntity
  8
Defpoints
 62
     0
100
AcDbPoint
 10
184.775905089482
 20
96.97502810415308
 30
0.0
  0
ENDBLK
  5
6BE
330
6BC
100
AcDbEntity
  8
0
100
AcDbBlockEnd
  0
BLOCK
  5
6CA
330
6C9
100
AcDbEntity
  8
0
100
AcDbBlockBegin
  2
*D12
 70
     1
 10
0.0
 20
0.0
 30
0.0
  3
*D12
  1

  0
LINE
  5
7B1
330
6C9
100
AcDbEntity
  8
QUOTE
 62
     0
370
    -2
100
AcDbLine
 10
195.5760235892548
 20
97.03752810415307
 30
0.0
 11
195.5760235892548
 21
104.8314458606146
 31
0.0
  0
LINE
  5
7B2
330
6C9
100
AcDbEntity
  8
QUOTE
 62
     0
370
    -2
100
AcDbLine
 10
239.5727434212294
 20
94.57716427168396
 30
0.0
 11
239.5727434212294
 21
104.8314458606146
 31
0.0
  0
LINE
  5
7B3
330
6C9
100
AcDbEntity
  8
QUOTE
 62
     0
370
    -2
100
AcDbLine
 10
200.5760235892548
 20
104.6514458606146
 30
0.0
 11
210.4010501719088
 21
104.6514458606146
 31
0.0
  0
LINE
  5
7B4
330
6C9
100
AcDbEntity
  8
QUOTE
 62
     0
370
    -2
100
AcDbLine
 10
234.5727434212295
 20
104.6514458606146
 30
0.0
 11
224.7477168385755
 21
104.6514458606146
 31
0.0
  0
SOLID
  5
7B5
330
6C9
100
AcDbEntity
  8
QUOTE
 62
     0
100
AcDbTrace
 10
200.5760235892548
 20
105.4847791939479
 30
0.0
 11
200.5760235892548
 21
103.8181125272813
 31
0.0
 12
195.5760235892548
 22
104.6514458606146
 32
0.0
 13
195.5760235892548
 23
104.6514458606146
 33
0.0
  0
SOLID
  5
7B6
330
6C9
100
AcDbEntity
  8
QUOTE
 62
     0
100
AcDbTrace
 10
234.5727434212295
 20
105.4847791939479
 30
0.0
 11
234.5727434212295
 21
103.8181125272813
 31
0.0
 12
239.5727434212294
 22
104.6514458606146
 32
0.0
 13
239.5727434212294
 23
104.6514458606146
 33
0.0
  0
MTEXT
  5
7B7
330
6C9
100
AcDbEntity
  8
QUOTE
 62
     0
100
AcDbMText
 10
217.5743835052422
 20
104.6514458606146
 30
0.0
 40
5.0
 41
0.0
 71
     5
 72
     1
  1
\A1;44.0
 73
     1
 44
1.0
1001
ACAD
1000
MTEXTBEGIN
1070
    73
1070
     1
1070
    44
1040
1.0
1070
    74
1070
     0
1000
MTEXTEND
  0
POINT
  5
7B8
330
6C9
100
AcDbEntity
  8
Defpoints
 62
     0
100
AcDbPoint
 10
195.5760235892548
 20
96.97502810415308
 30
0.0
  0
POINT
  5
7B9
330
6C9
100
AcDbEntity
  8
Defpoints
 62
     0
100
AcDbPoint
 10
239.5727434212294
 20
94.51466427168396
 30
0.0
  0
POINT
  5
7BA
330
6C9
100
AcDbEntity
  8
Defpoints
 62
     0
100
AcDbPoint
 10
239.5727434212294
 20
104.6514458606146
 30
0.0
  0
ENDBLK
  5
6CB
330
6C9
100
AcDbEntity
  8
0
100
AcDbBlockEnd
  0
BLOCK
  5
6D7
330
6D6
100
AcDbEntity
  8
0
100
AcDbBlockBegin
  2
*D13
 70
     1
 10
0.0
 20
0.0
 30
0.0
  3
*D13
  1

  0
LINE
  5
7C5
330
6D6
100
AcDbEntity
  8
QUOTE
 62
     0
370
    -2
100
AcDbLine
 10
195.5760235892548
 20
12.10061727168391
 30
0.0
 11
195.5760235892548
 21
-3.247467501553494
 31
0.0
  0
LINE
  5
7C6
330
6D6
100
AcDbEntity
  8
QUOTE
 62
     0
370
    -2
100
AcDbLine
 10
260.5760235892548
 20
34.45468777168395
 30
0.0
 11
260.5760235892548
 21
-3.247467501553494
 31
0.0
  0
LINE
  5
7C7
330
6D6
100
AcDbEntity
  8
QUOTE
 62
     0
370
    -2
100
AcDbLine
 10
200.5760235892548
 20
-3.067467501553494
 30
0.0
 11
219.9026902559215
 21
-3.067467501553494
 31
0.0
  0
LINE
  5
7C8
330
6D6
100
AcDbEntity
  8
QUOTE
 62
     0
370
    -2
100
AcDbLine
 10
255.5760235892547
 20
-3.067467501553494
 30
0.0
 11
234.2493569225882
 21
-3.067467501553494
 31
0.0
  0
SOLID
  5
7C9
330
6D6
100
AcDbEntity
  8
QUOTE
 62
     0
100
AcDbTrace
 10
200.5760235892548
 20
-2.23413416822016
 30
0.0
 11
200.5760235892548
 21
-3.900800834886828
 31
0.0
 12
195.5760235892548
 22
-3.067467501553494
 32
0.0
 13
195.5760235892548
 23
-3.067467501553494
 33
0.0
  0
SOLID
  5
7CA
330
6D6
100
AcDbEntity
  8
QUOTE
 62
     0
100
AcDbTrace
 10
255.5760235892547
 20
-2.23413416822016
 30
0.0
 11
255.5760235892547
 21
-3.900800834886828
 31
0.0
 12
260.5760235892548
 22
-3.067467501553494
 32
0.0
 13
260.5760235892548
 23
-3.067467501553494
 33
0.0
  0
MTEXT
  5
7CB
330
6D6
100
AcDbEntity
  8
QUOTE
 62
     0
100
AcDbMText
 10
227.0760235892548
 20
-3.067467501553494
 30
0.0
 40
5.0
 41
0.0
 71
     5
 72
     1
  1
\A1;65.0
 73
     1
 44
1.0
1001
ACAD
1000
MTEXTBEGIN
1070
    73
1070
     1
1070
    44
1040
1.0
1070
    74
1070
     0
1000
MTEXTEND
  0
POINT
  5
7CC
330
6D6
100
AcDbEntity
  8
Defpoints
 62
     0
100
AcDbPoint
 10
195.5760235892548
 20
12.16311727168391
 30
0.0
  0
POINT
  5
7CD
330
6D6
100
AcDbEntity
  8
Defpoints
 62
     0
100
AcDbPoint
 10
260.5760235892548
 20
34.51718777168395
 30
0.0
  0
POINT
  5
7CE
330
6D6
100
AcDbEntity
  8
Defpoints
 62
     0
100
AcDbPoint
 10
260.5760235892548
 20
-3.067467501553494
 30
0.0
  0
ENDBLK
  5
6D8
330
6D6
100
AcDbEntity
  8
0
100
AcDbBlockEnd
  0
BLOCK
  5
6E4
330
6E3
100
AcDbEntity
  8
0
100
AcDbBlockBegin
  2
*D14
 70
     1
 10
0.0
 20
0.0
 30
0.0
  3
*D14
  1

  0
LINE
  5
79D
330
6E3
100
AcDbEntity
  8
QUOTE
 62
     0
370
    -2
100
AcDbLine
 10
112.20358773217
 20
96.83828861341561
 30
0.0
 11
112.20358773217
 21
104.6557792023463
 31
0.0
  0
LINE
  5
79E
330
6E3
100
AcDbEntity
  8
QUOTE
 62
     0
370
    -2
100
AcDbLine
 10
157.20358673217
 20
96.83828861341561
 30
0.0
 11
157.20358673217
 21
104.6557792023463
 31
0.0
  0
LINE
  5
79F
330
6E3
100
AcDbEntity
  8
QUOTE
 62
     0
370
    -2
100
AcDbLine
 10
117.20358773217
 20
104.4757792023463
 30
0.0
 11
127.5302538988366
 21
104.4757792023463
 31
0.0
  0
LINE
  5
7A0
330
6E3
100
AcDbEntity
  8
QUOTE
 62
     0
370
    -2
100
AcDbLine
 10
152.20358673217
 20
104.4757792023463
 30
0.0
 11
141.8769205655033
 21
104.4757792023463
 31
0.0
  0
SOLID
  5
7A1
330
6E3
100
AcDbEntity
  8
QUOTE
 62
     0
100
AcDbTrace
 10
117.20358773217
 20
105.3091125356796
 30
0.0
 11
117.20358773217
 21
103.6424458690129
 31
0.0
 12
112.20358773217
 22
104.4757792023463
 32
0.0
 13
112.20358773217
 23
104.4757792023463
 33
0.0
  0
SOLID
  5
7A2
330
6E3
100
AcDbEntity
  8
QUOTE
 62
     0
100
AcDbTrace
 10
152.20358673217
 20
105.3091125356796
 30
0.0
 11
152.20358673217
 21
103.6424458690129
 31
0.0
 12
157.20358673217
 22
104.4757792023463
 32
0.0
 13
157.20358673217
 23
104.4757792023463
 33
0.0
  0
MTEXT
  5
7A3
330
6E3
100
AcDbEntity
  8
QUOTE
 62
     0
100
AcDbMText
 10
134.7035872321699
 20
104.4757792023463
 30
0.0
 40
5.0
 41
0.0
 71
     5
 72
     1
  1
\A1;45.0
 73
     1
 44
1.0
1001
ACAD
1000
MTEXTBEGIN
1070
    73
1070
     1
1070
    44
1040
1.0
1070
    74
1070
     0
1000
MTEXTEND
  0
POINT
  5
7A4
330
6E3
100
AcDbEntity
  8
Defpoints
 62
     0
100
AcDbPoint
 10
112.20358773217
 20
96.77578861341562
 30
0.0
  0
POINT
  5
7A5
330
6E3
100
AcDbEntity
  8
Defpoints
 62
     0
100
AcDbPoint
 10
157.20358673217
 20
96.77578861341562
 30
0.0
  0
POINT
  5
7A6
330
6E3
100
AcDbEntity
  8
Defpoints
 62
     0
100
AcDbPoint
 10
157.20358673217
 20
104.4757792023463
 30
0.0
  0
ENDBLK
  5
6E5
330
6E3
100
AcDbEntity
  8
0
100
AcDbBlockEnd
  0
BLOCK
  5
6F1
330
6F0
100
AcDbEntity
  8
0
100
AcDbBlockBegin
  2
*D15
 70
     1
 10
0.0
 20
0.0
 30
0.0
  3
*D15
  1

  0
LINE
  5
7A7
330
6F0
100
AcDbEntity
  8
QUOTE
 62
     0
370
    -2
100
AcDbLine
 10
112.5910839061444
 20
11.97580961350047
 30
0.0
 11
101.2809665743969
 21
11.97580961350047
 31
0.0
  0
LINE
  5
7A8
330
6F0
100
AcDbEntity
  8
QUOTE
 62
     0
370
    -2
100
AcDbLine
 10
112.5910867321699
 20
96.97580161341557
 30
0.0
 11
101.280966574397
 21
96.97580161341557
 31
0.0
  0
LINE
  5
7A9
330
6F0
100
AcDbEntity
  8
QUOTE
 62
     0
370
    -2
100
AcDbLine
 10
101.4609665743969
 20
16.97580961350048
 30
0.0
 11
101.460966574397
 21
51.88580561345802
 31
0.0
  0
LINE
  5
7AA
330
6F0
100
AcDbEntity
  8
QUOTE
 62
     0
370
    -2
100
AcDbLine
 10
101.460966574397
 20
91.97580161341557
 30
0.0
 11
101.460966574397
 21
57.06580561345803
 31
0.0
  0
SOLID
  5
7AB
330
6F0
100
AcDbEntity
  8
QUOTE
 62
     0
100
AcDbTrace
 10
100.6276332410636
 20
16.97580961350048
 30
0.0
 11
102.2942999077303
 21
16.97580961350048
 31
0.0
 12
101.4609665743969
 22
11.97580961350047
 32
0.0
 13
101.4609665743969
 23
11.97580961350047
 33
0.0
  0
SOLID
  5
7AC
330
6F0
100
AcDbEntity
  8
QUOTE
 62
     0
100
AcDbTrace
 10
100.6276332410636
 20
91.97580161341557
 30
0.0
 11
102.2942999077303
 21
91.97580161341557
 31
0.0
 12
101.460966574397
 22
96.97580161341557
 32
0.0
 13
101.460966574397
 23
96.97580161341557
 33
0.0
  0
MTEXT
  5
7AD
330
6F0
100
AcDbEntity
  8
QUOTE
 62
     0
100
AcDbMText
 10
101.4609665743969
 20
54.47580561345804
 30
0.0
 40
5.0
 41
0.0
 71
     5
 72
     1
  1
\A1;85.0
 73
     1
 44
1.0
1001
ACAD
1000
MTEXTBEGIN
1070
    73
1070
     1
1070
    44
1040
1.0
1070
    74
1070
     0
1000
MTEXTEND
  0
POINT
  5
7AE
330
6F0
100
AcDbEntity
  8
Defpoints
 62
     0
100
AcDbPoint
 10
112.6535839061444
 20
11.97580961350047
 30
0.0
  0
POINT
  5
7AF
330
6F0
100
AcDbEntity
  8
Defpoints
 62
     0
100
AcDbPoint
 10
112.6535867321699
 20
96.97580161341557
 30
0.0
  0
POINT
  5
7B0
330
6F0
100
AcDbEntity
  8
Defpoints
 62
     0
100
AcDbPoint
 10
101.460966574397
 20
96.97580161341557
 30
0.0
  0
ENDBLK
  5
6F2
330
6F0
100
AcDbEntity
  8
0
100
AcDbBlockEnd
  0
ENDSEC
  0
SECTION
  2
ENTITIES
  0
LINE
  5
426
330
1F
100
AcDbEntity
  8
0
 62
     7
 48
0.4337890000000001
370
    35
100
AcDbLine
 10
239.5727434212294
 20
77.16311727168392
 30
0.0
 11
239.5727434212294
 21
94.51466427168396
 31
0.0
  0
ARC
  5
427
330
1F
100
AcDbEntity
  8
0
 62
     7
370
    35
100
AcDbCircle
 10
237.0727434212295
 20
94.51466427168396
 30
0.0
 40
2.5
100
AcDbArc
 50
0.0
 51
89.49999900000154
  0
LINE
  5
428
330
1F
100
AcDbEntity
  8
0
 62
     7
 48
0.36545
370
    35
100
AcDbLine
 10
256.5934765892547
 20
77.03555227168391
 30
0.0
 11
239.5727434212294
 21
77.16311727168392
 31
0.0
  0
LINE
  5
429
330
1F
100
AcDbEntity
  8
0
 62
     7
 48
0.062502
370
    35
100
AcDbLine
 10
256.5934765892547
 20
77.03555227168391
 30
0.0
 11
258.5934766951567
 21
77.01373611750767
 31
0.0
  0
ARC
  5
42A
330
1F
100
AcDbEntity
  8
0
 62
     7
370
    35
100
AcDbCircle
 10
258.5760235892548
 20
75.01381227168394
 30
0.0
 40
2.0
100
AcDbArc
 50
0.0
 51
89.49999900000154
  0
LINE
  5
42B
330
1F
100
AcDbEntity
  8
0
 62
     7
 48
0.010238
370
    35
100
AcDbLine
 10
260.5760235892548
 20
75.01381227168394
 30
0.0
 11
260.5760235892548
 21
74.60428127168398
 31
0.0
  0
LINE
  5
42C
330
1F
100
AcDbEntity
  8
0
 62
     7
370
    35
100
AcDbLine
 10
260.5760235892548
 20
74.60428127168398
 30
0.0
 11
260.5760235892548
 21
34.72195327168396
 31
0.0
  0
LINE
  5
42D
330
1F
100
AcDbEntity
  8
0
 62
     7
 48
0.010238
370
    35
100
AcDbLine
 10
260.5760235892548
 20
34.72195327168396
 30
0.0
 11
260.5760235892548
 21
34.31242227168394
 31
0.0
  0
LINE
  5
42E
330
1F
100
AcDbEntity
  8
0
 62
     7
370
    35
100
AcDbLine
 10
258.5760235892548
 20
75.03562827168394
 30
0.0
 11
258.5760235892548
 21
34.29060627168394
 31
0.0
  0
ARC
  5
42F
330
1F
100
AcDbEntity
  8
0
 62
     7
370
    35
100
AcDbCircle
 10
256.5760235892548
 20
75.03562827168394
 30
0.0
 40
2.0
100
AcDbArc
 50
0.0
 51
89.49999900000154
  0
ARC
  5
430
330
1F
100
AcDbEntity
  8
0
 62
     7
370
    35
100
AcDbCircle
 10
258.5760235892548
 20
34.31242227168394
 30
0.0
 40
2.0
100
AcDbArc
 50
270.5000009999984
 51
0.0
  0
LINE
  5
431
330
1F
100
AcDbEntity
  8
0
 62
     7
 48
0.4255620000000001
370
    35
100
AcDbLine
 10
220.0727434212295
 20
97.16311727168392
 30
0.0
 11
237.0945604212295
 21
97.01456927168392
 31
0.0
  0
ARC
  5
432
330
1F
100
AcDbEntity
  8
0
 62
     7
370
    35
100
AcDbCircle
 10
237.3727524212295
 20
22.06312627168399
 30
0.0
 40
0.199989
100
AcDbArc
 50
359.9993880000009
 51
90.00057600000067
  0
LINE
  5
433
330
1F
100
AcDbEntity
  8
0
 62
     7
 48
0.188726
370
    35
100
AcDbLine
 10
237.5727434212294
 20
22.06312627168399
 30
0.0
 11
237.5727434212294
 21
14.51409227168397
 31
0.0
  0
ARC
  5
434
330
1F
100
AcDbEntity
  8
0
 62
     7
370
    35
100
AcDbCircle
 10
237.3727534212294
 20
14.51408827168393
 30
0.0
 40
0.199989
100
AcDbArc
 50
270.4994069999975
 51
0.0005609999991484
  0
ARC
  5
435
330
1F
100
AcDbEntity
  8
0
 62
     7
370
    35
100
AcDbCircle
 10
222.2727334212294
 20
14.38231327168393
 30
0.0
 40
0.199989
100
AcDbArc
 50
179.9993769999985
 51
270.5005890000047
  0
LINE
  5
436
330
1F
100
AcDbEntity
  8
0
 62
     7
 48
0.377515
370
    35
100
AcDbLine
 10
237.3744954212294
 20
14.31410727168395
 30
0.0
 11
222.2744804212295
 21
14.18233227168395
 31
0.0
  0
LINE
  5
437
330
1F
100
AcDbEntity
  8
0
 62
     7
 48
0.19202
370
    35
100
AcDbLine
 10
222.0727434212295
 20
14.38231727168392
 30
0.0
 11
222.0727434212295
 21
22.06312627168399
 31
0.0
  0
ARC
  5
438
330
1F
100
AcDbEntity
  8
0
 62
     7
370
    35
100
AcDbCircle
 10
222.2727334212294
 20
22.06312627168399
 30
0.0
 40
0.199989
100
AcDbArc
 50
89.99938800000093
 51
180.000581999996
  0
LINE
  5
439
330
1F
100
AcDbEntity
  8
0
 62
     7
 48
0.3775
370
    35
100
AcDbLine
 10
222.2727354212294
 20
22.26311527168395
 30
0.0
 11
237.3727504212295
 21
22.26311527168395
 31
0.0
  0
ARC
  5
43A
330
1F
100
AcDbEntity
  8
0
 62
     7
370
    35
100
AcDbCircle
 10
228.6727444212294
 20
26.86311827168396
 30
0.0
 40
0.2
100
AcDbArc
 50
269.9999969999958
 51
0.0
  0
LINE
  5
43B
330
1F
100
AcDbEntity
  8
0
 62
     7
 48
0.14
370
    35
100
AcDbLine
 10
228.8727434212294
 20
26.86311827168396
 30
0.0
 11
228.8727434212294
 21
32.46311627168393
 31
0.0
  0
ARC
  5
43C
330
1F
100
AcDbEntity
  8
0
 62
     7
370
    35
100
AcDbCircle
 10
228.6727444212294
 20
32.46311627168393
 30
0.0
 40
0.2
100
AcDbArc
 50
0.0
 51
90.00000299999769
  0
ARC
  5
43D
330
1F
100
AcDbEntity
  8
0
 62
     7
370
    35
100
AcDbCircle
 10
225.0727434212294
 20
32.46311627168393
 30
0.0
 40
0.2
100
AcDbArc
 50
90.00000299999769
 51
180.0000050000005
  0
LINE
  5
43E
330
1F
100
AcDbEntity
  8
0
 62
     7
 48
0.14
370
    35
100
AcDbLine
 10
224.8727434212294
 20
26.86311827168396
 30
0.0
 11
224.8727434212294
 21
32.46311627168393
 31
0.0
  0
ARC
  5
43F
330
1F
100
AcDbEntity
  8
0
 62
     7
370
    35
100
AcDbCircle
 10
225.0727434212294
 20
26.86311827168396
 30
0.0
 40
0.2
100
AcDbArc
 50
180.0000050000005
 51
269.9999969999958
  0
LINE
  5
440
330
1F
100
AcDbEntity
  8
0
 62
     7
 48
0.09
370
    35
100
AcDbLine
 10
228.6727444212294
 20
26.66311727168392
 30
0.0
 11
225.0727434212294
 21
26.66311727168392
 31
0.0
  0
LINE
  5
441
330
1F
100
AcDbEntity
  8
0
 62
     7
 48
0.09
370
    35
100
AcDbLine
 10
228.6727444212294
 20
32.66311727168392
 30
0.0
 11
225.0727434212294
 21
32.66311727168392
 31
0.0
  0
ARC
  5
442
330
1F
100
AcDbEntity
  8
0
 62
     7
370
    35
100
AcDbCircle
 10
225.0727434212294
 20
82.46311627168394
 30
0.0
 40
0.2
100
AcDbArc
 50
90.00000299999769
 51
180.0000050000005
  0
LINE
  5
443
330
1F
100
AcDbEntity
  8
0
 62
     7
 48
0.14
370
    35
100
AcDbLine
 10
224.8727434212294
 20
82.46311627168394
 30
0.0
 11
224.8727434212294
 21
76.86311827168395
 31
0.0
  0
ARC
  5
444
330
1F
100
AcDbEntity
  8
0
 62
     7
370
    35
100
AcDbCircle
 10
225.0727434212294
 20
76.86311827168395
 30
0.0
 40
0.2
100
AcDbArc
 50
180.0000050000005
 51
269.9999969999958
  0
ARC
  5
445
330
1F
100
AcDbEntity
  8
0
 62
     7
370
    35
100
AcDbCircle
 10
228.6727444212294
 20
82.46311627168394
 30
0.0
 40
0.2
100
AcDbArc
 50
0.0
 51
90.00000299999769
  0
LINE
  5
446
330
1F
100
AcDbEntity
  8
0
 62
     7
 48
0.14
370
    35
100
AcDbLine
 10
228.8727434212294
 20
82.46311627168394
 30
0.0
 11
228.8727434212294
 21
76.86311827168395
 31
0.0
  0
ARC
  5
447
330
1F
100
AcDbEntity
  8
0
 62
     7
370
    35
100
AcDbCircle
 10
228.6727444212294
 20
76.86311827168395
 30
0.0
 40
0.2
100
AcDbArc
 50
269.9999969999958
 51
0.0
  0
LINE
  5
448
330
1F
100
AcDbEntity
  8
0
 62
     7
 48
0.09
370
    35
100
AcDbLine
 10
228.6727444212294
 20
82.66311727168391
 30
0.0
 11
225.0727434212294
 21
82.66311727168391
 31
0.0
  0
LINE
  5
449
330
1F
100
AcDbEntity
  8
0
 62
     7
 48
0.09
370
    35
100
AcDbLine
 10
228.6727444212294
 20
76.66311727168391
 30
0.0
 11
225.0727434212294
 21
76.66311727168391
 31
0.0
  0
LINE
  5
44A
330
1F
100
AcDbEntity
  8
0
 62
     7
370
    35
100
AcDbLine
 10
220.0727434212295
 20
12.36312527168394
 30
0.0
 11
220.0710052872367
 21
97.16310216559833
 31
0.0
  0
LINE
  5
44B
330
1F
100
AcDbEntity
  8
0
 62
     7
 48
0.4255620000000001
370
    35
100
AcDbLine
 10
220.0727434212295
 20
12.16311727168391
 30
0.0
 11
237.0945604212295
 21
12.31166527168392
 31
0.0
  0
LINE
  5
44C
330
1F
100
AcDbEntity
  8
0
 62
     7
 48
0.005
370
    35
100
AcDbLine
 10
220.0727434212295
 20
12.16311727168391
 30
0.0
 11
220.0727434212295
 21
12.36312527168394
 31
0.0
  0
ARC
  5
44D
330
1F
100
AcDbEntity
  8
0
 62
     7
370
    35
100
AcDbCircle
 10
237.0727434212295
 20
14.81157027168393
 30
0.0
 40
2.5
100
AcDbArc
 50
270.5000009999984
 51
0.0
  0
LINE
  5
44E
330
1F
100
AcDbEntity
  8
0
 62
     7
 48
0.4337890000000001
370
    35
100
AcDbLine
 10
239.5727434212294
 20
14.81157027168393
 30
0.0
 11
239.5727434212294
 21
32.16311727168392
 31
0.0
  0
LINE
  5
44F
330
1F
100
AcDbEntity
  8
0
 62
     7
 48
0.36545
370
    35
100
AcDbLine
 10
256.5934766951567
 20
32.29068242586021
 30
0.0
 11
239.5727434212294
 21
32.16311727168392
 31
0.0
  0
ARC
  5
450
330
1F
100
AcDbEntity
  8
0
 62
     7
370
    35
100
AcDbCircle
 10
256.5760235892548
 20
34.29060627168394
 30
0.0
 40
2.0
100
AcDbArc
 50
270.5000009999984
 51
0.0
  0
LINE
  5
451
330
1F
100
AcDbEntity
  8
0
 62
     7
 48
0.062502
370
    35
100
AcDbLine
 10
256.5934765892547
 20
32.29068227168392
 30
0.0
 11
258.5760235892548
 21
32.30798356284356
 31
0.0
  0
LINE
  5
452
330
1F
100
AcDbEntity
  8
0
 62
     7
 48
0.01625
370
    35
100
AcDbLine
 10
239.5727434212294
 20
88.66311727168392
 30
0.0
 11
239.5727434212294
 21
89.31311927168394
 31
0.0
  0
LINE
  5
453
330
1F
100
AcDbEntity
  8
0
 62
     7
 48
0.055
370
    35
100
AcDbLine
 10
239.5727434212294
 20
89.31311927168394
 30
0.0
 11
239.5727434212294
 21
91.51311527168394
 31
0.0
  0
LINE
  5
454
330
1F
100
AcDbEntity
  8
0
 62
     7
 48
0.01625
370
    35
100
AcDbLine
 10
239.5727434212294
 20
86.06311727168394
 30
0.0
 11
239.5727434212294
 21
86.71311627168392
 31
0.0
  0
LINE
  5
455
330
1F
100
AcDbEntity
  8
0
 62
     7
 48
0.01625
370
    35
100
AcDbLine
 10
239.5727434212294
 20
87.36311827168396
 30
0.0
 11
239.5727434212294
 21
88.01311527168394
 31
0.0
  0
LINE
  5
456
330
1F
100
AcDbEntity
  8
0
 62
     7
 48
0.003739
370
    35
100
AcDbLine
 10
228.7231594212294
 20
77.16311727168392
 30
0.0
 11
228.8727184212294
 21
77.16311727168392
 31
0.0
  0
LINE
  5
457
330
1F
100
AcDbEntity
  8
0
 62
     7
 48
0.003739
370
    35
100
AcDbLine
 10
228.7231594212294
 20
82.16311727168392
 30
0.0
 11
228.8727184212294
 21
82.16311727168392
 31
0.0
  0
LINE
  5
458
330
1F
100
AcDbEntity
  8
0
 62
     7
 48
0.002467
370
    35
100
AcDbLine
 10
224.8740534212295
 20
77.16311727168392
 30
0.0
 11
224.9727434212295
 21
77.16311727168392
 31
0.0
  0
LINE
  5
459
330
1F
100
AcDbEntity
  8
0
 62
     7
 48
0.057147
370
    35
100
AcDbLine
 10
226.4372614212295
 20
77.16311727168392
 30
0.0
 11
228.7231594212294
 21
77.16311727168392
 31
0.0
  0
LINE
  5
45A
330
1F
100
AcDbEntity
  8
0
 62
     7
 48
0.025
370
    35
100
AcDbLine
 10
225.4372614212294
 20
77.16311727168392
 30
0.0
 11
226.4372614212295
 21
77.16311727168392
 31
0.0
  0
LINE
  5
45B
330
1F
100
AcDbEntity
  8
0
 62
     7
 48
0.011603
370
    35
100
AcDbLine
 10
225.4372614212294
 20
77.16311727168392
 30
0.0
 11
224.9731594212294
 21
77.16311727168392
 31
0.0
  0
LINE
  5
45C
330
1F
100
AcDbEntity
  8
0
 62
     7
 48
0.002467
370
    35
100
AcDbLine
 10
224.8740534212295
 20
82.16311727168392
 30
0.0
 11
224.9727434212295
 21
82.16311727168392
 31
0.0
  0
LINE
  5
45D
330
1F
100
AcDbEntity
  8
0
 62
     7
 48
0.125
370
    13
100
AcDbLine
 10
224.8740534212295
 20
77.16311727168392
 30
0.0
 11
224.8740534212295
 21
82.16311727168392
 31
0.0
  0
LINE
  5
45E
330
1F
100
AcDbEntity
  8
0
 62
     7
 48
0.151237
370
    13
100
AcDbLine
 10
197.3727454212294
 20
76.63836927168393
 30
0.0
 11
197.3727454212294
 21
82.68786527168396
 31
0.0
  0
LINE
  5
45F
330
1F
100
AcDbEntity
  8
0
 62
     7
370
    13
100
AcDbLine
 10
197.7797234212294
 20
83.08780327168392
 30
0.0
 11
220.0727434212295
 21
82.70042327168397
 31
0.0
  0
ARC
  5
460
330
1F
100
AcDbEntity
  8
0
 62
     7
370
    13
100
AcDbCircle
 10
197.7727424212294
 20
82.68786527168396
 30
0.0
 40
0.4
100
AcDbArc
 50
89.0000009999956
 51
179.9999640000016
  0
ARC
  5
461
330
1F
100
AcDbEntity
  8
0
 62
     7
370
    13
100
AcDbCircle
 10
197.7727424212294
 20
76.63836927168393
 30
0.0
 40
0.4
100
AcDbArc
 50
179.9999949999995
 51
270.9999580000015
  0
LINE
  5
462
330
1F
100
AcDbEntity
  8
0
 62
     7
370
    13
100
AcDbLine
 10
197.7797234212294
 20
76.23843127168396
 30
0.0
 11
220.0727434212295
 21
76.62581127168397
 31
0.0
  0
LINE
  5
463
330
1F
100
AcDbEntity
  8
0
 62
     7
370
    13
100
AcDbLine
 10
197.7797234212294
 20
33.08780327168398
 30
0.0
 11
220.0727434212295
 21
32.70042327168397
 31
0.0
  0
ARC
  5
464
330
1F
100
AcDbEntity
  8
0
 62
     7
370
    13
100
AcDbCircle
 10
197.7727424212294
 20
32.68786527168396
 30
0.0
 40
0.4
100
AcDbArc
 50
89.0000009999956
 51
179.9999640000016
  0
LINE
  5
465
330
1F
100
AcDbEntity
  8
0
 62
     7
 48
0.151237
370
    13
100
AcDbLine
 10
197.3727454212294
 20
26.63836927168399
 30
0.0
 11
197.3727454212294
 21
32.68786527168396
 31
0.0
  0
ARC
  5
466
330
1F
100
AcDbEntity
  8
0
 62
     7
370
    13
100
AcDbCircle
 10
197.7727424212294
 20
26.63836927168399
 30
0.0
 40
0.4
100
AcDbArc
 50
179.9999949999995
 51
270.9999580000015
  0
LINE
  5
467
330
1F
100
AcDbEntity
  8
0
 62
     7
370
    13
100
AcDbLine
 10
197.7797234212294
 20
26.23843127168397
 30
0.0
 11
220.0727434212295
 21
26.62581127168397
 31
0.0
  0
LINE
  5
468
330
1F
100
AcDbEntity
  8
0
 62
     7
370
    35
100
AcDbLine
 10
220.0727434212295
 20
97.16311727168392
 30
0.0
 11
195.7185244212294
 21
96.95145527168399
 31
0.0
  0
ARC
  5
469
330
1F
100
AcDbEntity
  8
0
 62
     7
370
    35
100
AcDbCircle
 10
196.3337664212294
 20
96.16311727168392
 30
0.0
 40
1.0
100
AcDbArc
 50
127.9696589999996
 51
164.5439970000028
  0
LINE
  5
46A
330
1F
100
AcDbEntity
  8
0
 62
     7
370
    35
100
AcDbLine
 10
220.0727434212295
 20
12.16311727168391
 30
0.0
 11
190.5727414212294
 21
12.16311727168391
 31
0.0
  0
ARC
  5
46B
330
1F
100
AcDbEntity
  8
0
 62
     7
370
    35
100
AcDbCircle
 10
190.5727414212294
 20
13.16311727168391
 30
0.0
 40
1.0
100
AcDbArc
 50
180.0000050000005
 51
269.9999969999958
  0
LINE
  5
46C
330
1F
100
AcDbEntity
  8
0
 62
     7
370
    35
100
AcDbLine
 10
189.5727414212294
 20
13.16311727168391
 30
0.0
 11
189.5727414212294
 21
35.96311627168393
 31
0.0
  0
LINE
  5
46D
330
1F
100
AcDbEntity
  8
0
 62
     7
 48
0.1
370
    35
100
AcDbLine
 10
189.5727414212294
 20
71.46311627168393
 30
0.0
 11
189.5727414212294
 21
75.46311627168392
 31
0.0
  0
ARC
  5
46E
330
1F
100
AcDbEntity
  8
0
 62
     7
370
    35
100
AcDbCircle
 10
190.5731574212294
 20
71.46353227168396
 30
0.0
 40
1.000413999999999
100
AcDbArc
 50
180.0237230000013
 51
269.9762760000037
  0
LINE
  5
46F
330
1F
100
AcDbEntity
  8
0
 62
     7
 48
0.0425
370
    35
100
AcDbLine
 10
192.2727424212294
 20
70.46311727168393
 30
0.0
 11
190.5727414212294
 21
70.46311727168393
 31
0.0
  0
LINE
  5
470
330
1F
100
AcDbEntity
  8
0
 62
     7
 48
0.070711
370
    35
100
AcDbLine
 10
192.2727424212294
 20
70.46311727168393
 30
0.0
 11
194.2727424212294
 21
72.46311627168393
 31
0.0
  0
LINE
  5
471
330
1F
100
AcDbEntity
  8
0
 62
     7
 48
0.0325
370
    35
100
AcDbLine
 10
195.5727414212294
 20
72.46311627168393
 30
0.0
 11
194.2727424212294
 21
72.46311627168393
 31
0.0
  0
LINE
  5
472
330
1F
100
AcDbEntity
  8
0
 62
     7
370
    35
100
AcDbLine
 10
195.5727414212294
 20
36.96311627168393
 30
0.0
 11
195.5727414212294
 21
72.46311627168393
 31
0.0
  0
LINE
  5
473
330
1F
100
AcDbEntity
  8
0
 62
     7
 48
0.125
370
    35
100
AcDbLine
 10
195.5727414212294
 20
36.96311627168393
 30
0.0
 11
190.5727414212294
 21
36.96311627168393
 31
0.0
  0
ARC
  5
474
330
1F
100
AcDbEntity
  8
0
 62
     7
370
    35
100
AcDbCircle
 10
190.5727414212294
 20
35.96311627168393
 30
0.0
 40
1.0
100
AcDbArc
 50
90.00000299999769
 51
180.0000050000005
  0
LINE
  5
475
330
1F
100
AcDbEntity
  8
0
 62
     7
370
    35
100
AcDbLine
 10
195.3699334212294
 20
96.42961627168393
 30
0.0
 11
189.5727414212294
 21
75.46311627168392
 31
0.0
  0
LINE
  5
476
330
1F
100
AcDbEntity
  8
0
 62
     7
 48
0.125
370
    13
100
AcDbLine
 10
224.8740534212295
 20
27.16311727168392
 30
0.0
 11
224.8740534212295
 21
32.16311727168392
 31
0.0
  0
LINE
  5
477
330
1F
100
AcDbEntity
  8
0
 62
     7
 48
0.002467
370
    35
100
AcDbLine
 10
224.8740534212295
 20
27.16311727168392
 30
0.0
 11
224.9727434212295
 21
27.16311727168392
 31
0.0
  0
LINE
  5
478
330
1F
100
AcDbEntity
  8
0
 62
     7
 48
0.002467
370
    35
100
AcDbLine
 10
224.8740534212295
 20
32.16311727168392
 30
0.0
 11
224.9727434212295
 21
32.16311727168392
 31
0.0
  0
LINE
  5
479
330
1F
100
AcDbEntity
  8
0
 62
     7
 48
0.003739
370
    35
100
AcDbLine
 10
228.7231594212294
 20
32.16311727168392
 30
0.0
 11
228.8727184212294
 21
32.16311727168392
 31
0.0
  0
LINE
  5
47A
330
1F
100
AcDbEntity
  8
0
 62
     7
 48
0.057147
370
    35
100
AcDbLine
 10
226.4372614212295
 20
32.16311727168392
 30
0.0
 11
228.7231594212294
 21
32.16311727168392
 31
0.0
  0
LINE
  5
47B
330
1F
100
AcDbEntity
  8
0
 62
     7
 48
0.025
370
    35
100
AcDbLine
 10
225.4372614212294
 20
32.16311727168392
 30
0.0
 11
226.4372614212295
 21
32.16311727168392
 31
0.0
  0
LINE
  5
47C
330
1F
100
AcDbEntity
  8
0
 62
     7
 48
0.011603
370
    35
100
AcDbLine
 10
225.4372614212294
 20
32.16311727168392
 30
0.0
 11
224.9731594212294
 21
32.16311727168392
 31
0.0
  0
LINE
  5
47D
330
1F
100
AcDbEntity
  8
0
 62
     7
 48
0.003739
370
    35
100
AcDbLine
 10
228.7231594212294
 20
27.16311727168392
 30
0.0
 11
228.8727184212294
 21
27.16311727168392
 31
0.0
  0
LINE
  5
47E
330
1F
100
AcDbEntity
  8
0
 62
     7
 48
0.125
370
    13
100
AcDbLine
 10
226.4372614212295
 20
32.16311727168392
 30
0.0
 11
226.4372614212295
 21
27.16311727168392
 31
0.0
  0
LINE
  5
47F
330
1F
100
AcDbEntity
  8
0
 62
     7
 48
0.057147
370
    35
100
AcDbLine
 10
226.4372614212295
 20
27.16311727168392
 30
0.0
 11
228.7231594212294
 21
27.16311727168392
 31
0.0
  0
LINE
  5
480
330
1F
100
AcDbEntity
  8
0
 62
     7
 48
0.025
370
    35
100
AcDbLine
 10
225.4372614212294
 20
27.16311727168392
 30
0.0
 11
226.4372614212295
 21
27.16311727168392
 31
0.0
  0
LINE
  5
481
330
1F
100
AcDbEntity
  8
0
 62
     7
 48
0.011603
370
    35
100
AcDbLine
 10
225.4372614212294
 20
27.16311727168392
 30
0.0
 11
224.9731594212294
 21
27.16311727168392
 31
0.0
  0
LINE
  5
482
330
1F
100
AcDbEntity
  8
0
 62
     7
 48
0.125
370
    13
100
AcDbLine
 10
226.4372614212295
 20
77.16311727168392
 30
0.0
 11
226.4372614212295
 21
82.16311727168392
 31
0.0
  0
LINE
  5
483
330
1F
100
AcDbEntity
  8
0
 62
     7
 48
0.057147
370
    35
100
AcDbLine
 10
226.4372614212295
 20
82.16311727168392
 30
0.0
 11
228.7231594212294
 21
82.16311727168392
 31
0.0
  0
LINE
  5
484
330
1F
100
AcDbEntity
  8
0
 62
     7
 48
0.025
370
    35
100
AcDbLine
 10
225.4372614212294
 20
82.16311727168392
 30
0.0
 11
226.4372614212295
 21
82.16311727168392
 31
0.0
  0
LINE
  5
485
330
1F
100
AcDbEntity
  8
0
 62
     7
 48
0.011603
370
    35
100
AcDbLine
 10
225.4372614212294
 20
82.16311727168392
 30
0.0
 11
224.9731594212294
 21
82.16311727168392
 31
0.0
  0
LINE
  5
486
330
1F
100
AcDbEntity
  8
0
 62
     7
 48
0.0425
370
    35
100
AcDbLine
 10
189.9727434212294
 20
8.475028104153068
 30
0.0
 11
191.6727444212294
 21
8.475028104153068
 31
0.0
  0
LINE
  5
487
330
1F
100
AcDbEntity
  8
0
 62
     7
 48
0.035
370
    35
100
AcDbLine
 10
189.6727444212294
 20
8.175029104153054
 30
0.0
 11
189.6727444212294
 21
6.775027104153025
 31
0.0
  0
ARC
  5
488
330
1F
100
AcDbEntity
  8
0
 62
     7
370
    35
100
AcDbCircle
 10
189.9727434212294
 20
6.775027104153025
 30
0.0
 40
0.3
100
AcDbArc
 50
179.9999949999995
 51
269.9999969999958
  0
ARC
  5
489
330
1F
100
AcDbEntity
  8
0
 62
     7
370
    35
100
AcDbCircle
 10
189.9727434212294
 20
8.175029104153054
 30
0.0
 40
0.3
100
AcDbArc
 50
90.00000299999769
 51
147.9869900000014
  0
LINE
  5
48A
330
1F
100
AcDbEntity
  8
0
 62
     7
 48
0.055
370
    13
100
AcDbLine
 10
192.8727454212294
 20
36.96310727168395
 30
0.0
 11
192.8727454212294
 21
39.16311727168391
 31
0.0
  0
LINE
  5
48B
330
1F
100
AcDbEntity
  8
0
 62
     7
 48
0.035
370
    35
100
AcDbLine
 10
194.2727424212294
 20
39.16311727168391
 30
0.0
 11
192.8727454212294
 21
39.16311727168391
 31
0.0
  0
LINE
  5
48C
330
1F
100
AcDbEntity
  8
0
 62
     7
 48
0.055
370
    13
100
AcDbLine
 10
194.2727424212294
 20
36.96310727168395
 30
0.0
 11
194.2727424212294
 21
39.16311727168391
 31
0.0
  0
LINE
  5
48D
330
1F
100
AcDbEntity
  8
0
 62
     7
 48
0.057206
370
    35
100
AcDbLine
 10
195.4727434212294
 20
9.686767104153034
 30
0.0
 11
195.4727434212295
 21
12.16311727168391
 31
0.0
  0
LINE
  5
48E
330
1F
100
AcDbEntity
  8
0
 62
     7
 48
0.040765
370
    35
100
AcDbLine
 10
195.4727434212294
 20
8.405627104153097
 30
0.0
 11
195.4727434212294
 21
6.775027104153025
 31
0.0
  0
LINE
  5
48F
330
1F
100
AcDbEntity
  8
0
 62
     7
 48
0.032028
370
    35
100
AcDbLine
 10
195.4727434212294
 20
9.686767104153034
 30
0.0
 11
195.4727434212294
 21
8.405627104153097
 31
0.0
  0
ARC
  5
490
330
1F
100
AcDbEntity
  8
0
 62
     7
370
    35
100
AcDbCircle
 10
195.1727444212294
 20
6.775027104153025
 30
0.0
 40
0.3
100
AcDbArc
 50
269.9999969999958
 51
0.0
  0
LINE
  5
491
330
1F
100
AcDbEntity
  8
0
 62
     7
 48
0.046324
370
    13
100
AcDbLine
 10
195.1727444212294
 20
8.32797910415303
 30
0.0
 11
195.1727444212294
 21
6.475028104153068
 31
0.0
  0
LINE
  5
492
330
1F
100
AcDbEntity
  8
0
 62
     7
 48
0.032029
370
    13
100
AcDbLine
 10
195.1727444212294
 20
9.609122104153072
 30
0.0
 11
195.1727444212294
 21
8.32797910415303
 31
0.0
  0
ELLIPSE
  5
493
330
1F
100
AcDbEntity
  8
0
 62
     7
370
    13
100
AcDbEllipse
 10
194.2730444212294
 20
9.609572104153073
 30
0.0
 11
0.0456021784715514
 21
3.005565308731606
 31
0.0
210
0.0
220
0.0
230
1.0
 40
0.2992814881343077
 41
-1.566405148222047
 42
-0.5510350119106358
  0
LINE
  5
494
330
1F
100
AcDbEntity
  8
0
 62
     7
 48
0.032028
370
    35
100
AcDbLine
 10
191.6727444212294
 20
8.405627104153097
 30
0.0
 11
191.6727444212294
 21
9.686767104153034
 31
0.0
  0
LINE
  5
495
330
1F
100
AcDbEntity
  8
0
 62
     7
 48
0.040765
370
    35
100
AcDbLine
 10
191.6727444212294
 20
8.405627104153097
 30
0.0
 11
191.6727444212294
 21
6.775027104153025
 31
0.0
  0
LINE
  5
496
330
1F
100
AcDbEntity
  8
0
 62
     7
 48
0.057206
370
    35
100
AcDbLine
 10
191.6727444212294
 20
9.686767104153034
 30
0.0
 11
191.6727444212294
 21
12.16311727168391
 31
0.0
  0
LINE
  5
497
330
1F
100
AcDbEntity
  8
0
 62
     7
 48
0.046324
370
    13
100
AcDbLine
 10
191.9727434212294
 20
8.32797910415303
 30
0.0
 11
191.9727434212294
 21
6.475028104153068
 31
0.0
  0
LINE
  5
498
330
1F
100
AcDbEntity
  8
0
 62
     7
 48
0.08
370
    35
100
AcDbLine
 10
191.9727434212294
 20
6.475028104153068
 30
0.0
 11
195.1727444212294
 21
6.475028104153068
 31
0.0
  0
LINE
  5
499
330
1F
100
AcDbEntity
  8
0
 62
     7
 48
0.032029
370
    13
100
AcDbLine
 10
191.9727434212294
 20
8.32797910415303
 30
0.0
 11
191.9727434212294
 21
9.609122104153072
 31
0.0
  0
ELLIPSE
  5
49A
330
1F
100
AcDbEntity
  8
0
 62
     7
370
    13
100
AcDbEllipse
 10
192.8724624212294
 20
9.609542104153035
 30
0.0
 11
-0.0584791183594507
 21
2.917595213434286
 31
0.0
210
0.0
220
0.0
230
1.0
 40
0.3082617645086919
 41
0.4987352716589264
 42
1.564762523621442
  0
ARC
  5
49B
330
1F
100
AcDbEntity
  8
0
 62
     7
370
    35
100
AcDbCircle
 10
191.9727434212294
 20
6.775027104153025
 30
0.0
 40
0.3
100
AcDbArc
 50
179.9999949999995
 51
269.9999969999958
  0
LINE
  5
49C
330
1F
100
AcDbEntity
  8
0
 62
     7
 48
0.05
370
    35
100
AcDbLine
 10
189.9727434212294
 20
6.475028104153068
 30
0.0
 11
191.9727434212294
 21
6.475028104153068
 31
0.0
  0
ARC
  5
49D
330
1F
100
AcDbEntity
  8
0
 62
     7
370
    35
100
AcDbCircle
 10
189.9810744212294
 20
8.172229104153018
 30
0.0
 40
0.308463
100
AcDbArc
 50
148.3659290000015
 51
179.4795309999963
  0
DIMENSION
  5
49E
330
1F
100
AcDbEntity
  8
QUOTE
 62
     1
100
AcDbDimension
  2
*D11
 10
184.775905089482
 20
96.97502810415308
 30
0.0
 11
184.775905089482
 21
51.72502810415309
 31
0.0
 70
    32
 71
     5
 42
90.5
  3
Standard
100
AcDbAlignedDimension
 13
189.9727434212294
 23
6.475028104153068
 33
0.0
 14
195.5760235892548
 24
96.97502810415308
 34
0.0
 50
90.0
100
AcDbRotatedDimension
1001
ACAD
1000
DSTYLE
1002
{
1070
   271
1070
     1
1070
    41
1040
5.0
1070
   140
1040
5.0
1002
}
  0
DIMENSION
  5
49F
330
1F
100
AcDbEntity
  8
QUOTE
 62
     1
100
AcDbDimension
  2
*D12
 10
239.5727434212294
 20
104.6514458606146
 30
0.0
 11
217.5743835052422
 21
104.6514458606146
 31
0.0
 70
    32
 71
     5
 42
43.99671983197464
  3
Standard
100
AcDbAlignedDimension
 13
195.5760235892548
 23
96.97502810415308
 33
0.0
 14
239.5727434212294
 24
94.51466427168396
 34
0.0
100
AcDbRotatedDimension
1001
ACAD
1000
DSTYLE
1002
{
1070
   271
1070
     1
1070
    41
1040
5.0
1070
   140
1040
5.0
1002
}
  0
DIMENSION
  5
4A0
330
1F
100
AcDbEntity
  8
QUOTE
 62
     1
100
AcDbDimension
  2
*D13
 10
260.5760235892548
 20
-3.067467501553494
 30
0.0
 11
227.0760235892548
 21
-3.067467501553494
 31
0.0
 70
   160
 71
     5
 42
64.99999999999994
  3
Standard
100
AcDbAlignedDimension
 13
195.5760235892548
 23
12.16311727168391
 33
0.0
 14
260.5760235892548
 24
34.51718777168395
 34
0.0
100
AcDbRotatedDimension
1001
ACAD
1000
DSTYLE
1002
{
1070
   271
1070
     1
1070
    41
1040
5.0
1070
   140
1040
5.0
1002
}
  0
LINE
  5
4A1
330
1F
100
AcDbEntity
  8
0
 62
     7
 48
0.0525
370
    35
100
AcDbLine
 10
134.7035797321463
 20
87.17582261350043
 30
0.0
 11
132.6035737321463
 21
87.17582261350043
 31
0.0
  0
LINE
  5
4A2
330
1F
100
AcDbEntity
  8
0
 62
     7
 48
0.0525
370
    35
100
AcDbLine
 10
134.7035797321463
 20
87.17582261350043
 30
0.0
 11
136.8035857321463
 21
87.17582261350043
 31
0.0
  0
LINE
  5
4A3
330
1F
100
AcDbEntity
  8
0
 62
     7
 48
0.01625
370
    35
100
AcDbLine
 10
136.8035857321463
 20
87.17582261350043
 30
0.0
 11
136.8035857321463
 21
87.82581661350041
 31
0.0
  0
LINE
  5
4A4
330
1F
100
AcDbEntity
  8
0
 62
     7
 48
0.0525
370
    35
100
AcDbLine
 10
134.7035797321463
 20
87.82581661350041
 30
0.0
 11
136.8035857321463
 21
87.82581661350041
 31
0.0
  0
LINE
  5
4A5
330
1F
100
AcDbEntity
  8
0
 62
     7
 48
0.0525
370
    35
100
AcDbLine
 10
134.7035797321463
 20
87.82581661350041
 30
0.0
 11
132.6035737321463
 21
87.82581661350041
 31
0.0
  0
LINE
  5
4A6
330
1F
100
AcDbEntity
  8
0
 62
     7
 48
0.01625
370
    35
100
AcDbLine
 10
132.6035737321463
 20
87.17582261350043
 30
0.0
 11
132.6035737321463
 21
87.82581661350041
 31
0.0
  0
LINE
  5
4A7
330
1F
100
AcDbEntity
  8
0
 62
     7
370
    13
100
AcDbLine
 10
112.2035797321463
 20
94.32737261350041
 30
0.0
 11
157.2035797321463
 21
94.32737261350041
 31
0.0
  0
LINE
  5
4A8
330
1F
100
AcDbEntity
  8
0
 62
     7
370
    35
100
AcDbLine
 10
112.4035814538571
 20
76.97565796617624
 30
0.0
 11
157.0035780173851
 21
76.97565796621205
 31
0.0
  0
CIRCLE
  5
4A9
330
1F
100
AcDbEntity
  8
0
 62
     7
370
    35
100
AcDbCircle
 10
134.7035797321463
 20
88.47581061350041
 30
0.0
 40
3.25
  0
LINE
  5
4AA
330
1F
100
AcDbEntity
  8
0
 62
     7
 48
0.4512500000000001
370
    13
100
AcDbLine
 10
112.2035797321463
 20
34.10331261350041
 30
0.0
 11
138.7035797321463
 21
34.10331261350041
 31
0.0
  0
LINE
  5
4AB
330
1F
100
AcDbEntity
  8
0
 62
     7
 48
0.4512500000000001
370
    13
100
AcDbLine
 10
114.453702352973
 20
74.84830761350036
 30
0.0
 11
138.7035797321463
 21
74.84830761350043
 31
0.0
  0
LINE
  5
4AC
330
1F
100
AcDbEntity
  8
0
 62
     7
 48
0.057497
370
    35
100
AcDbLine
 10
112.2035797321463
 20
12.32435161350042
 30
0.0
 11
112.2035797321463
 21
14.62424761350041
 31
0.0
  0
LINE
  5
4AD
330
1F
100
AcDbEntity
  8
0
 62
     7
 48
0.044999
370
    35
100
AcDbLine
 10
112.2035797321463
 20
74.84830761350043
 30
0.0
 11
112.2035797321463
 21
76.64826461350043
 31
0.0
  0
LINE
  5
4AE
330
1F
100
AcDbEntity
  8
0
 62
     7
370
    35
100
AcDbLine
 10
112.2035797321463
 20
74.84830761350043
 30
0.0
 11
112.2035797321463
 21
34.10331261350041
 31
0.0
  0
LINE
  5
4AF
330
1F
100
AcDbEntity
  8
0
 62
     7
 48
0.044999
370
    35
100
AcDbLine
 10
112.2035797321463
 20
32.30335561350046
 30
0.0
 11
112.2035797321463
 21
34.10331261350041
 31
0.0
  0
LINE
  5
4B0
330
1F
100
AcDbEntity
  8
0
 62
     7
 48
0.057497
370
    35
100
AcDbLine
 10
112.2035797321463
 20
94.32737261350041
 30
0.0
 11
112.2035797321463
 21
96.62726861350046
 31
0.0
  0
LINE
  5
4B1
330
1F
100
AcDbEntity
  8
0
 62
     7
 48
0.438746
370
    35
100
AcDbLine
 10
112.2035797321463
 20
76.77753761350044
 30
0.0
 11
112.2035797321463
 21
94.32737261350041
 31
0.0
  0
ARC
  5
4B2
330
1F
100
AcDbEntity
  8
0
 62
     7
370
    35
100
AcDbCircle
 10
112.4025547321462
 20
76.77656061350041
 30
0.0
 40
0.1991
100
AcDbArc
 50
89.70453500000116
 51
179.7196940000004
  0
LINE
  5
4B3
330
1F
100
AcDbEntity
  8
0
 62
     7
 48
0.003713
370
    35
100
AcDbLine
 10
112.2035797321463
 20
96.77579761350045
 30
0.0
 11
112.2035797321463
 21
96.62726861350046
 31
0.0
  0
ARC
  5
4B4
330
1F
100
AcDbEntity
  8
0
 62
     7
370
    35
100
AcDbCircle
 10
112.4035917321462
 20
96.77579761350045
 30
0.0
 40
0.200004
100
AcDbArc
 50
90.00166899999753
 51
180.0008829999983
  0
LINE
  5
4B5
330
1F
100
AcDbEntity
  8
0
 62
     7
 48
0.003232
370
    35
100
AcDbLine
 10
112.2035797321463
 20
32.30335561350046
 30
0.0
 11
112.2035797321463
 21
32.17408261350044
 31
0.0
  0
ARC
  5
4B6
330
1F
100
AcDbEntity
  8
0
 62
     7
370
    35
100
AcDbCircle
 10
112.4025547321462
 20
32.17505961350042
 30
0.0
 40
0.199099
100
AcDbArc
 50
180.2805110000001
 51
270.2958269999978
  0
LINE
  5
4B7
330
1F
100
AcDbEntity
  8
0
 62
     7
 48
0.003232
370
    35
100
AcDbLine
 10
112.2035797321463
 20
76.64826461350043
 30
0.0
 11
112.2035797321463
 21
76.77753761350044
 31
0.0
  0
LINE
  5
4B8
330
1F
100
AcDbEntity
  8
0
 62
     7
 48
0.003713
370
    35
100
AcDbLine
 10
112.2035797321463
 20
12.17582261350043
 30
0.0
 11
112.2035797321463
 21
12.32435161350042
 31
0.0
  0
ARC
  5
4B9
330
1F
100
AcDbEntity
  8
0
 62
     7
370
    35
100
AcDbCircle
 10
112.4035917321462
 20
12.17582261350043
 30
0.0
 40
0.200004
100
AcDbArc
 50
179.9991170000016
 51
269.9983310000025
  0
LINE
  5
4BA
330
1F
100
AcDbEntity
  8
0
 62
     7
 48
0.438746
370
    35
100
AcDbLine
 10
112.2035797321463
 20
14.62424761350041
 30
0.0
 11
112.2035797321463
 21
32.17408261350044
 31
0.0
  0
LINE
  5
4BB
330
1F
100
AcDbEntity
  8
0
 62
     7
 48
0.4512500000000001
370
    13
100
AcDbLine
 10
138.7035797321463
 20
74.84830761350043
 30
0.0
 11
154.953702352973
 21
74.84830761350043
 31
0.0
  0
LINE
  5
4BC
330
1F
100
AcDbEntity
  8
0
 62
     7
 48
0.4512500000000001
370
    13
100
AcDbLine
 10
138.7035797321463
 20
34.10331261350041
 30
0.0
 11
157.2035797321462
 21
34.10331261350041
 31
0.0
  0
LINE
  5
4BD
330
1F
100
AcDbEntity
  8
0
 62
     7
370
    35
100
AcDbLine
 10
112.4035859061206
 20
96.97580161341557
 30
0.0
 11
157.0035735651533
 21
96.97580161341541
 31
0.0
  0
LINE
  5
4BE
330
1F
100
AcDbEntity
  8
0
 62
     7
370
    35
100
AcDbLine
 10
112.4035859061206
 20
11.97581861358526
 30
0.0
 11
157.0035735407182
 21
11.97581861358475
 31
0.0
  0
LINE
  5
4BF
330
1F
100
AcDbEntity
  8
0
 62
     7
370
    13
100
AcDbLine
 10
112.2035797321463
 20
14.62424761350041
 30
0.0
 11
157.2035797321463
 21
14.62424761350041
 31
0.0
  0
LINE
  5
4C0
330
1F
100
AcDbEntity
  8
0
 62
     7
 48
0.057497
370
    35
100
AcDbLine
 10
157.2035797321463
 20
12.32435161350042
 30
0.0
 11
157.2035797321463
 21
14.62424761350041
 31
0.0
  0
LINE
  5
4C1
330
1F
100
AcDbEntity
  8
0
 62
     7
 48
0.044999
370
    35
100
AcDbLine
 10
157.2035797321463
 20
74.84830761350043
 30
0.0
 11
157.2035797321463
 21
76.64826461350043
 31
0.0
  0
LINE
  5
4C2
330
1F
100
AcDbEntity
  8
0
 62
     7
370
    35
100
AcDbLine
 10
157.2035797321463
 20
74.84830761350043
 30
0.0
 11
157.2035797321463
 21
34.10331261350041
 31
0.0
  0
LINE
  5
4C3
330
1F
100
AcDbEntity
  8
0
 62
     7
 48
0.044999
370
    35
100
AcDbLine
 10
157.2035797321463
 20
32.30335561350046
 30
0.0
 11
157.2035797321463
 21
34.10331261350041
 31
0.0
  0
LINE
  5
4C4
330
1F
100
AcDbEntity
  8
0
 62
     7
 48
0.057497
370
    35
100
AcDbLine
 10
157.2035797321463
 20
94.32737261350041
 30
0.0
 11
157.2035797321463
 21
96.62726861350046
 31
0.0
  0
LINE
  5
4C5
330
1F
100
AcDbEntity
  8
0
 62
     7
 48
0.438746
370
    35
100
AcDbLine
 10
157.2035797321463
 20
94.32737261350041
 30
0.0
 11
157.2035797321463
 21
76.77753761350044
 31
0.0
  0
ARC
  5
4C6
330
1F
100
AcDbEntity
  8
0
 62
     7
370
    35
100
AcDbCircle
 10
157.0046047321462
 20
76.77656061350041
 30
0.0
 40
0.1991
100
AcDbArc
 50
0.2803049999992694
 51
90.29546299999548
  0
LINE
  5
4C7
330
1F
100
AcDbEntity
  8
0
 62
     7
 48
0.003713
370
    35
100
AcDbLine
 10
157.2035797321463
 20
96.62726861350046
 30
0.0
 11
157.2035797321463
 21
96.77579761350045
 31
0.0
  0
ARC
  5
4C8
330
1F
100
AcDbEntity
  8
0
 62
     7
370
    35
100
AcDbCircle
 10
157.0035677321462
 20
96.77579761350045
 30
0.0
 40
0.200004
100
AcDbArc
 50
359.9991079999987
 51
89.99832899999965
  0
LINE
  5
4C9
330
1F
100
AcDbEntity
  8
0
 62
     7
 48
0.003232
370
    35
100
AcDbLine
 10
157.2035797321463
 20
32.30335561350046
 30
0.0
 11
157.2035797321463
 21
32.17408261350044
 31
0.0
  0
ARC
  5
4CA
330
1F
100
AcDbEntity
  8
0
 62
     7
370
    35
100
AcDbCircle
 10
157.0046047321462
 20
32.17505961350042
 30
0.0
 40
0.199099
100
AcDbArc
 50
269.7041680000002
 51
359.7194799999999
  0
LINE
  5
4CB
330
1F
100
AcDbEntity
  8
0
 62
     7
 48
0.003232
370
    35
100
AcDbLine
 10
157.2035797321463
 20
76.77753761350044
 30
0.0
 11
157.2035797321463
 21
76.64826461350043
 31
0.0
  0
LINE
  5
4CC
330
1F
100
AcDbEntity
  8
0
 62
     7
 48
0.003713
370
    35
100
AcDbLine
 10
157.2035797321463
 20
12.32435161350042
 30
0.0
 11
157.2035797321463
 21
12.17582261350043
 31
0.0
  0
ARC
  5
4CD
330
1F
100
AcDbEntity
  8
0
 62
     7
370
    35
100
AcDbCircle
 10
157.0035677321462
 20
12.17582261350043
 30
0.0
 40
0.200004
100
AcDbArc
 50
270.001663999997
 51
0.0008839999997646
  0
LINE
  5
4CE
330
1F
100
AcDbEntity
  8
0
 62
     7
 48
0.438746
370
    35
100
AcDbLine
 10
157.2035797321463
 20
32.17408261350044
 30
0.0
 11
157.2035797321463
 21
14.62424761350041
 31
0.0
  0
CIRCLE
  5
4CF
330
1F
100
AcDbEntity
  8
0
 62
     7
370
    35
100
AcDbCircle
 10
134.7035797321463
 20
80.47581061350042
 30
0.0
 40
3.150000000000005
  0
CIRCLE
  5
4D0
330
1F
100
AcDbEntity
  8
0
 62
     7
370
    35
100
AcDbCircle
 10
145.7035797321463
 20
28.47581061350041
 30
0.0
 40
3.150000000000005
  0
CIRCLE
  5
4D1
330
1F
100
AcDbEntity
  8
0
 62
     7
370
    35
100
AcDbCircle
 10
123.7035797321463
 20
28.47581061350041
 30
0.0
 40
3.150000000000005
  0
LINE
  5
4D2
330
1F
100
AcDbEntity
  8
0
 62
     7
370
    35
100
AcDbLine
 10
112.4024357873098
 20
31.97596064903019
 30
0.0
 11
157.0035767403087
 21
31.97596326739182
 31
0.0
  0
LINE
  5
4D3
330
1F
100
AcDbEntity
  8
0
 62
     7
 48
0.03625
370
    35
100
AcDbLine
 10
134.7035797321463
 20
85.87580361350047
 30
0.0
 11
133.2535827321463
 21
85.87580361350047
 31
0.0
  0
LINE
  5
4D4
330
1F
100
AcDbEntity
  8
0
 62
     7
 48
0.03625
370
    35
100
AcDbLine
 10
134.7035797321463
 20
85.87580361350047
 30
0.0
 11
136.1535767321463
 21
85.87580361350047
 31
0.0
  0
LINE
  5
4D5
330
1F
100
AcDbEntity
  8
0
 62
     7
 48
0.01625
370
    35
100
AcDbLine
 10
136.1535767321463
 20
85.87580361350047
 30
0.0
 11
136.1535767321463
 21
86.52579761350045
 31
0.0
  0
LINE
  5
4D6
330
1F
100
AcDbEntity
  8
0
 62
     7
 48
0.03625
370
    35
100
AcDbLine
 10
134.7035797321463
 20
86.52579761350045
 30
0.0
 11
136.1535767321463
 21
86.52579761350045
 31
0.0
  0
LINE
  5
4D7
330
1F
100
AcDbEntity
  8
0
 62
     7
 48
0.03625
370
    35
100
AcDbLine
 10
134.7035797321463
 20
86.52579761350045
 30
0.0
 11
133.2535827321463
 21
86.52579761350045
 31
0.0
  0
LINE
  5
4D8
330
1F
100
AcDbEntity
  8
0
 62
     7
 48
0.01625
370
    35
100
AcDbLine
 10
133.2535827321463
 20
85.87580361350047
 30
0.0
 11
133.2535827321463
 21
86.52579761350045
 31
0.0
  0
LINE
  5
4D9
330
1F
100
AcDbEntity
  8
0
 62
     7
 48
0.060625
370
    35
100
AcDbLine
 10
135.0285767321463
 20
89.12580361350046
 30
0.0
 11
137.4535797321463
 21
89.12580361350046
 31
0.0
  0
LINE
  5
4DA
330
1F
100
AcDbEntity
  8
0
 62
     7
 48
0.055
370
    35
100
AcDbLine
 10
135.0285767321463
 20
89.12580361350046
 30
0.0
 11
135.0285767321463
 21
91.32581661350043
 31
0.0
  0
LINE
  5
4DB
330
1F
100
AcDbEntity
  8
0
 62
     7
 48
0.008125
370
    35
100
AcDbLine
 10
134.7035797321463
 20
91.32581661350043
 30
0.0
 11
135.0285767321463
 21
91.32581661350043
 31
0.0
  0
LINE
  5
4DC
330
1F
100
AcDbEntity
  8
0
 62
     7
 48
0.008125
370
    35
100
AcDbLine
 10
134.7035797321463
 20
91.32581661350043
 30
0.0
 11
134.3785827321463
 21
91.32581661350043
 31
0.0
  0
LINE
  5
4DD
330
1F
100
AcDbEntity
  8
0
 62
     7
 48
0.055
370
    35
100
AcDbLine
 10
134.3785827321463
 20
89.12580361350046
 30
0.0
 11
134.3785827321463
 21
91.32581661350043
 31
0.0
  0
LINE
  5
4DE
330
1F
100
AcDbEntity
  8
0
 62
     7
 48
0.060625
370
    35
100
AcDbLine
 10
134.3785827321463
 20
89.12580361350046
 30
0.0
 11
131.9535797321463
 21
89.12580361350046
 31
0.0
  0
LINE
  5
4DF
330
1F
100
AcDbEntity
  8
0
 62
     7
 48
0.01625
370
    35
100
AcDbLine
 10
131.9535797321463
 20
88.47581061350041
 30
0.0
 11
131.9535797321463
 21
89.12580361350046
 31
0.0
  0
LINE
  5
4E0
330
1F
100
AcDbEntity
  8
0
 62
     7
 48
0.06875
370
    35
100
AcDbLine
 10
134.7035797321463
 20
88.47581061350041
 30
0.0
 11
131.9535797321463
 21
88.47581061350041
 31
0.0
  0
LINE
  5
4E1
330
1F
100
AcDbEntity
  8
0
 62
     7
 48
0.06875
370
    35
100
AcDbLine
 10
134.7035797321463
 20
88.47581061350041
 30
0.0
 11
137.4535797321463
 21
88.47581061350041
 31
0.0
  0
LINE
  5
4E2
330
1F
100
AcDbEntity
  8
0
 62
     7
 48
0.01625
370
    35
100
AcDbLine
 10
137.4535797321463
 20
88.47581061350041
 30
0.0
 11
137.4535797321463
 21
89.12580361350046
 31
0.0
  0
POINT
  5
4E3
330
1F
100
AcDbEntity
  8
0
 62
     7
370
     5
100
AcDbPoint
 10
134.7035797321463
 20
88.47581061350041
 30
0.0
  0
DIMENSION
  5
4E4
330
1F
100
AcDbEntity
  8
QUOTE
 62
     1
100
AcDbDimension
  2
*D14
 10
157.20358673217
 20
104.4757792023463
 30
0.0
 11
134.7035872321699
 21
104.4757792023463
 31
0.0
 70
    32
 71
     5
 42
44.999999
  3
Standard
100
AcDbAlignedDimension
 13
112.20358773217
 23
96.77578861341562
 33
0.0
 14
157.20358673217
 24
96.77578861341562
 34
0.0
100
AcDbRotatedDimension
1001
ACAD
1000
DSTYLE
1002
{
1070
   271
1070
     1
1070
    41
1040
5.0
1070
   140
1040
5.0
1002
}
  0
DIMENSION
  5
4E5
330
1F
100
AcDbEntity
  8
QUOTE
 62
     1
100
AcDbDimension
  2
*D15
 10
101.460966574397
 20
96.97580161341557
 30
0.0
 11
101.4609665743969
 21
54.47580561345804
 31
0.0
 70
    32
 71
     5
 42
84.9999919999151
  3
Standard
100
AcDbAlignedDimension
 13
112.6535839061444
 23
11.97580961350047
 33
0.0
 14
112.6535867321699
 24
96.97580161341557
 34
0.0
 50
90.0
100
AcDbRotatedDimension
1001
ACAD
1000
DSTYLE
1002
{
1070
   271
1070
     1
1070
    41
1040
5.0
1070
   140
1040
5.0
1002
}
  0
ARC
  5
4E6
330
1F
100
AcDbEntity
  8
0
 62
     7
370
    35
100
AcDbCircle
 10
137.2852617234194
 20
8.893543445862349
 30
0.0
 40
0.5
100
AcDbArc
 50
269.9999969999958
 51
344.9999999999993
  0
ARC
  5
4E7
330
1F
100
AcDbEntity
  8
0
 62
     7
370
    35
100
AcDbCircle
 10
132.1218967234194
 20
8.893543445862349
 30
0.0
 40
0.5
100
AcDbArc
 50
195.0000060000005
 51
269.9999969999958
  0
LINE
  5
4E8
330
1F
100
AcDbEntity
  8
0
 62
     7
 48
0.129084
370
    35
100
AcDbLine
 10
137.2852617234194
 20
8.393543445862349
 30
0.0
 11
132.1218967234194
 21
8.393543445862349
 31
0.0
  0
LINE
  5
4E9
330
1F
100
AcDbEntity
  8
0
 62
     7
 48
0.019411
370
    35
100
AcDbLine
 10
137.7682247234195
 20
8.764133445862341
 30
0.0
 11
137.9691867234195
 21
9.514133445862341
 31
0.0
  0
ARC
  5
4EA
330
1F
100
AcDbEntity
  8
0
 62
     7
370
    35
100
AcDbCircle
 10
137.4862237234194
 20
9.643543445862349
 30
0.0
 40
0.5
100
AcDbArc
 50
344.9999999999993
 51
90.00000299999769
  0
LINE
  5
4EB
330
1F
100
AcDbEntity
  8
0
 62
     7
 48
0.019411
370
    35
100
AcDbLine
 10
131.6389337234195
 20
8.764133445862341
 30
0.0
 11
131.4379727234195
 21
9.514133445862341
 31
0.0
  0
ARC
  5
4EC
330
1F
100
AcDbEntity
  8
0
 62
     7
370
    35
100
AcDbCircle
 10
131.9209347234195
 20
9.643543445862349
 30
0.0
 40
0.5
100
AcDbArc
 50
90.00000299999769
 51
195.0000060000005
  0
LINE
  5
4ED
330
1F
100
AcDbEntity
  8
0
 62
     7
 48
0.018868
370
    35
100
AcDbLine
 10
132.6756497234195
 20
10.14354344586235
 30
0.0
 11
131.9209347234195
 21
10.14354344586235
 31
0.0
  0
ARC
  5
4EE
330
1F
100
AcDbEntity
  8
0
 62
     7
370
    35
100
AcDbCircle
 10
132.6756497234195
 20
10.4435424458623
 30
0.0
 40
0.3
100
AcDbArc
 50
269.9999969999958
 51
351.5850319999997
  0
LINE
  5
4EF
330
1F
100
AcDbEntity
  8
0
 62
     7
 48
0.018868
370
    35
100
AcDbLine
 10
137.4862237234194
 20
10.14354344586235
 30
0.0
 11
136.7315097234195
 21
10.14354344586235
 31
0.0
  0
ARC
  5
4F0
330
1F
100
AcDbEntity
  8
0
 62
     7
370
    35
100
AcDbCircle
 10
134.7035797234194
 20
10.14354344586235
 30
0.0
 40
1.75
100
AcDbArc
 50
8.414968000000305
 51
171.5850339999998
  0
ARC
  5
4F1
330
1F
100
AcDbEntity
  8
0
 62
     7
370
    35
100
AcDbCircle
 10
136.7315097234195
 20
10.4435424458623
 30
0.0
 40
0.3
100
AcDbArc
 50
188.4149660000002
 51
269.9999969999958
  0
LINE
  5
4F2
330
1F
100
AcDbEntity
  8
0
 62
     7
 48
0.061249
370
    35
100
AcDbLine
 10
140.0433567234195
 20
9.527637445862353
 30
0.0
 11
140.6774497234195
 21
11.97581861358492
 31
0.0
  0
LINE
  5
4F3
330
1F
100
AcDbEntity
  8
0
 62
     7
 48
0.033158
370
    35
100
AcDbLine
 10
140.0433567234195
 20
9.527637445862353
 30
0.0
 11
139.7000767234195
 21
8.24649444586231
 31
0.0
  0
ARC
  5
4F4
330
1F
100
AcDbEntity
  8
0
 62
     7
370
    35
100
AcDbCircle
 10
137.2852617234194
 20
8.893543445862349
 30
0.0
 40
2.5
100
AcDbArc
 50
269.9999969999958
 51
344.9999999999993
  0
LINE
  5
4F5
330
1F
100
AcDbEntity
  8
0
 62
     7
 48
0.129084
370
    35
100
AcDbLine
 10
132.1218967234194
 20
6.393543445862349
 30
0.0
 11
137.2852617234194
 21
6.393543445862349
 31
0.0
  0
ARC
  5
4F6
330
1F
100
AcDbEntity
  8
0
 62
     7
370
    35
100
AcDbCircle
 10
132.1218967234194
 20
8.893543445862349
 30
0.0
 40
2.5
100
AcDbArc
 50
195.0000060000005
 51
269.9999969999958
  0
LINE
  5
4F7
330
1F
100
AcDbEntity
  8
0
 62
     7
 48
0.033158
370
    35
100
AcDbLine
 10
129.3638017234195
 20
9.527637445862353
 30
0.0
 11
129.7070817234195
 21
8.24649444586231
 31
0.0
  0
LINE
  5
4F8
330
1F
100
AcDbEntity
  8
0
 62
     7
 48
0.061234
370
    35
100
AcDbLine
 10
129.3638017234195
 20
9.527637445862353
 30
0.0
 11
128.7298597234195
 21
11.97581861358509
 31
0.0
  0
SOLID
  5
4F9
330
1F
100
AcDbEntity
  8
0
 62
     1
370
     5
100
AcDbTrace
 10
120.9885277321463
 20
36.07131557333327
 30
0.0
 11
121.0041487321463
 21
35.91006057333323
 31
0.0
 12
121.0002347321463
 22
35.99108457333324
 32
0.0
 13
121.0002347321463
 23
35.99108457333324
 33
0.0
  0
LINE
  5
4FA
330
1F
100
AcDbEntity
  8
0
 62
     1
 48
0.004117
370
    13
100
AcDbLine
 10
113.8441487321462
 20
35.07006457333324
 30
0.0
 11
113.6802737321463
 21
35.08620857333324
 31
0.0
  0
LINE
  5
4FB
330
1F
100
AcDbEntity
  8
0
 62
     1
 48
0.004117
370
    13
100
AcDbLine
 10
113.6802737321463
 20
35.08620857333324
 30
0.0
 11
113.5226917321463
 21
35.13399857333326
 31
0.0
  0
LINE
  5
4FC
330
1F
100
AcDbEntity
  8
0
 62
     1
 48
0.004117
370
    13
100
AcDbLine
 10
113.5226917321463
 20
35.13399857333326
 30
0.0
 11
113.3774707321462
 21
35.21163557333324
 31
0.0
  0
LINE
  5
4FD
330
1F
100
AcDbEntity
  8
0
 62
     1
 48
0.004117
370
    13
100
AcDbLine
 10
113.3774707321462
 20
35.21163557333324
 30
0.0
 11
113.2501777321463
 21
35.31609657333325
 31
0.0
  0
LINE
  5
4FE
330
1F
100
AcDbEntity
  8
0
 62
     1
 48
0.004117
370
    13
100
AcDbLine
 10
113.2501777321463
 20
35.31609657333325
 30
0.0
 11
113.1457157321463
 21
35.44338557333322
 31
0.0
  0
LINE
  5
4FF
330
1F
100
AcDbEntity
  8
0
 62
     1
 48
0.004117
370
    13
100
AcDbLine
 10
113.1457157321463
 20
35.44338557333322
 30
0.0
 11
113.0680867321463
 21
35.58861857333324
 31
0.0
  0
LINE
  5
500
330
1F
100
AcDbEntity
  8
0
 62
     1
 48
0.004116
370
    13
100
AcDbLine
 10
113.0680867321463
 20
35.58861857333324
 30
0.0
 11
113.0202887321463
 21
35.74618157333322
 31
0.0
  0
LINE
  5
501
330
1F
100
AcDbEntity
  8
0
 62
     1
 48
0.004117
370
    13
100
AcDbLine
 10
113.0202887321463
 20
35.74618157333322
 30
0.0
 11
113.0041487321463
 21
35.91006057333323
 31
0.0
  0
LINE
  5
502
330
1F
100
AcDbEntity
  8
0
 62
     1
 48
0.004117
370
    13
100
AcDbLine
 10
113.0041487321463
 20
35.91006057333323
 30
0.0
 11
113.0202887321463
 21
36.07393957333324
 31
0.0
  0
LINE
  5
503
330
1F
100
AcDbEntity
  8
0
 62
     1
 48
0.004117
370
    13
100
AcDbLine
 10
113.0202887321463
 20
36.07393957333324
 30
0.0
 11
113.0680867321463
 21
36.23153257333326
 31
0.0
  0
LINE
  5
504
330
1F
100
AcDbEntity
  8
0
 62
     1
 48
0.004116
370
    13
100
AcDbLine
 10
113.0680867321463
 20
36.23153257333326
 30
0.0
 11
113.1457157321463
 21
36.37673557333324
 31
0.0
  0
LINE
  5
505
330
1F
100
AcDbEntity
  8
0
 62
     1
 48
0.004117
370
    13
100
AcDbLine
 10
113.1457157321463
 20
36.37673557333324
 30
0.0
 11
113.2501777321463
 21
36.50405457333324
 31
0.0
  0
LINE
  5
506
330
1F
100
AcDbEntity
  8
0
 62
     1
 48
0.004117
370
    13
100
AcDbLine
 10
113.2501777321463
 20
36.50405457333324
 30
0.0
 11
113.3774707321462
 21
36.60851657333325
 31
0.0
  0
LINE
  5
507
330
1F
100
AcDbEntity
  8
0
 62
     1
 48
0.004116
370
    13
100
AcDbLine
 10
113.3774707321462
 20
36.60851657333325
 30
0.0
 11
113.5226917321463
 21
36.68612257333325
 31
0.0
  0
LINE
  5
508
330
1F
100
AcDbEntity
  8
0
 62
     1
 48
0.004117
370
    13
100
AcDbLine
 10
113.5226917321463
 20
36.68612257333325
 30
0.0
 11
113.6802737321463
 21
36.73394357333325
 31
0.0
  0
LINE
  5
509
330
1F
100
AcDbEntity
  8
0
 62
     1
 48
0.004117
370
    13
100
AcDbLine
 10
113.6802737321463
 20
36.73394357333325
 30
0.0
 11
113.8441487321462
 21
36.75005657333327
 31
0.0
  0
LINE
  5
50A
330
1F
100
AcDbEntity
  8
0
 62
     1
 48
0.011
370
    13
100
AcDbLine
 10
113.8441487321462
 20
36.75005657333327
 30
0.0
 11
114.2841477321463
 21
36.75005657333327
 31
0.0
  0
LINE
  5
50B
330
1F
100
AcDbEntity
  8
0
 62
     1
 48
0.012
370
    13
100
AcDbLine
 10
114.2841477321463
 20
36.75005657333327
 30
0.0
 11
114.2841477321463
 21
36.27007657333326
 31
0.0
  0
LINE
  5
50C
330
1F
100
AcDbEntity
  8
0
 62
     1
 48
0.016
370
    13
100
AcDbLine
 10
114.2841477321463
 20
36.27007657333326
 30
0.0
 11
113.6441487321462
 21
36.27007657333326
 31
0.0
  0
LINE
  5
50D
330
1F
100
AcDbEntity
  8
0
 62
     1
 48
0.018
370
    13
100
AcDbLine
 10
113.6441487321462
 20
36.27007657333326
 30
0.0
 11
113.6441487321462
 21
35.55007557333323
 31
0.0
  0
LINE
  5
50E
330
1F
100
AcDbEntity
  8
0
 62
     1
 48
0.003
370
    13
100
AcDbLine
 10
113.6441487321462
 20
35.55007557333323
 30
0.0
 11
113.7641477321463
 21
35.55007557333323
 31
0.0
  0
LINE
  5
50F
330
1F
100
AcDbEntity
  8
0
 62
     1
 48
0.015
370
    13
100
AcDbLine
 10
113.7641477321463
 20
35.55007557333323
 30
0.0
 11
113.7641477321463
 21
36.15008157333324
 31
0.0
  0
LINE
  5
510
330
1F
100
AcDbEntity
  8
0
 62
     1
 48
0.013
370
    13
100
AcDbLine
 10
113.7641477321463
 20
36.15008157333324
 30
0.0
 11
114.2841477321463
 21
36.15008157333324
 31
0.0
  0
LINE
  5
511
330
1F
100
AcDbEntity
  8
0
 62
     1
 48
0.027
370
    13
100
AcDbLine
 10
114.2841477321463
 20
36.15008157333324
 30
0.0
 11
114.2841477321463
 21
35.07006457333324
 31
0.0
  0
LINE
  5
512
330
1F
100
AcDbEntity
  8
0
 62
     1
 48
0.011
370
    13
100
AcDbLine
 10
114.2841477321463
 20
35.07006457333324
 30
0.0
 11
113.8441487321462
 21
35.07006457333324
 31
0.0
  0
LINE
  5
513
330
1F
100
AcDbEntity
  8
0
 62
     1
 48
0.032
370
    13
100
AcDbLine
 10
114.4041467321462
 20
35.07006457333324
 30
0.0
 11
115.6841487321463
 21
35.07006457333324
 31
0.0
  0
LINE
  5
514
330
1F
100
AcDbEntity
  8
0
 62
     1
 48
0.012
370
    13
100
AcDbLine
 10
115.6841487321463
 20
35.07006457333324
 30
0.0
 11
115.6841487321463
 21
35.55007557333323
 31
0.0
  0
LINE
  5
515
330
1F
100
AcDbEntity
  8
0
 62
     1
 48
0.019
370
    13
100
AcDbLine
 10
115.6841487321463
 20
35.55007557333323
 30
0.0
 11
114.9241507321463
 21
35.55007557333323
 31
0.0
  0
LINE
  5
516
330
1F
100
AcDbEntity
  8
0
 62
     1
 48
0.003
370
    13
100
AcDbLine
 10
114.9241507321463
 20
35.55007557333323
 30
0.0
 11
114.9241507321463
 21
35.67007057333325
 31
0.0
  0
LINE
  5
517
330
1F
100
AcDbEntity
  8
0
 62
     1
 48
0.019
370
    13
100
AcDbLine
 10
114.9241507321463
 20
35.67007057333325
 30
0.0
 11
115.6841487321463
 21
35.67007057333325
 31
0.0
  0
LINE
  5
518
330
1F
100
AcDbEntity
  8
0
 62
     1
 48
0.012
370
    13
100
AcDbLine
 10
115.6841487321463
 20
35.67007057333325
 30
0.0
 11
115.6841487321463
 21
36.15008157333324
 31
0.0
  0
LINE
  5
519
330
1F
100
AcDbEntity
  8
0
 62
     1
 48
0.019
370
    13
100
AcDbLine
 10
115.6841487321463
 20
36.15008157333324
 30
0.0
 11
114.9241507321463
 21
36.15008157333324
 31
0.0
  0
LINE
  5
51A
330
1F
100
AcDbEntity
  8
0
 62
     1
 48
0.003
370
    13
100
AcDbLine
 10
114.9241507321463
 20
36.15008157333324
 30
0.0
 11
114.9241507321463
 21
36.27007657333326
 31
0.0
  0
LINE
  5
51B
330
1F
100
AcDbEntity
  8
0
 62
     1
 48
0.005
370
    13
100
AcDbLine
 10
114.9241507321463
 20
36.27007657333326
 30
0.0
 11
115.1241477321463
 21
36.27007657333326
 31
0.0
  0
LINE
  5
51C
330
1F
100
AcDbEntity
  8
0
 62
     1
 48
0.012
370
    13
100
AcDbLine
 10
115.1241477321463
 20
36.27007657333326
 30
0.0
 11
115.1241477321463
 21
36.75005657333327
 31
0.0
  0
LINE
  5
51D
330
1F
100
AcDbEntity
  8
0
 62
     1
 48
0.018
370
    13
100
AcDbLine
 10
115.1241477321463
 20
36.75005657333327
 30
0.0
 11
114.4041467321462
 21
36.75005657333327
 31
0.0
  0
LINE
  5
51E
330
1F
100
AcDbEntity
  8
0
 62
     1
 48
0.042
370
    13
100
AcDbLine
 10
114.4041467321462
 20
36.75005657333327
 30
0.0
 11
114.4041467321462
 21
35.07006457333324
 31
0.0
  0
LINE
  5
51F
330
1F
100
AcDbEntity
  8
0
 62
     1
 48
0.012322
370
    13
100
AcDbLine
 10
116.4970417321463
 20
35.07006457333324
 30
0.0
 11
116.0041487321463
 21
35.07006457333324
 31
0.0
  0
LINE
  5
520
330
1F
100
AcDbEntity
  8
0
 62
     1
 48
0.030806
370
    13
100
AcDbLine
 10
116.0041487321463
 20
35.07006457333324
 30
0.0
 11
115.7241467321462
 21
36.27007657333326
 31
0.0
  0
LINE
  5
521
330
1F
100
AcDbEntity
  8
0
 62
     1
 48
0.012
370
    13
100
AcDbLine
 10
115.7241467321462
 20
36.27007657333326
 30
0.0
 11
115.2441507321463
 21
36.27007657333326
 31
0.0
  0
LINE
  5
522
330
1F
100
AcDbEntity
  8
0
 62
     1
 48
0.012
370
    13
100
AcDbLine
 10
115.2441507321463
 20
36.27007657333326
 30
0.0
 11
115.2441507321463
 21
36.75005657333327
 31
0.0
  0
LINE
  5
523
330
1F
100
AcDbEntity
  8
0
 62
     1
 48
0.021522
370
    13
100
AcDbLine
 10
115.2441507321463
 20
36.75005657333327
 30
0.0
 11
116.1050437321462
 21
36.75005657333327
 31
0.0
  0
LINE
  5
524
330
1F
100
AcDbEntity
  8
0
 62
     1
 48
0.020423
370
    13
100
AcDbLine
 10
116.1050437321462
 20
36.75005657333327
 30
0.0
 11
116.2906707321463
 21
35.95452457333323
 31
0.0
  0
LINE
  5
525
330
1F
100
AcDbEntity
  8
0
 62
     1
 48
0.020282
370
    13
100
AcDbLine
 10
116.2906707321463
 20
35.95452457333323
 30
0.0
 11
116.4497777321463
 21
36.75005657333327
 31
0.0
  0
LINE
  5
526
330
1F
100
AcDbEntity
  8
0
 62
     1
 48
0.012
370
    13
100
AcDbLine
 10
116.4497777321463
 20
36.75005657333327
 30
0.0
 11
116.9297817321463
 21
36.75005657333327
 31
0.0
  0
LINE
  5
527
330
1F
100
AcDbEntity
  8
0
 62
     1
 48
0.019008
370
    13
100
AcDbLine
 10
116.9297817321463
 20
36.75005657333327
 30
0.0
 11
117.1025527321463
 21
36.00960857333325
 31
0.0
  0
LINE
  5
528
330
1F
100
AcDbEntity
  8
0
 62
     1
 48
0.018878
370
    13
100
AcDbLine
 10
117.1025527321463
 20
36.00960857333325
 30
0.0
 11
117.2506427321462
 21
36.75005657333327
 31
0.0
  0
LINE
  5
529
330
1F
100
AcDbEntity
  8
0
 62
     1
 48
0.023838
370
    13
100
AcDbLine
 10
117.2506427321462
 20
36.75005657333327
 30
0.0
 11
118.2041497321463
 21
36.75005657333327
 31
0.0
  0
LINE
  5
52A
330
1F
100
AcDbEntity
  8
0
 62
     1
 48
0.012
370
    13
100
AcDbLine
 10
118.2041497321463
 20
36.75005657333327
 30
0.0
 11
118.2041497321463
 21
36.27007657333326
 31
0.0
  0
LINE
  5
52B
330
1F
100
AcDbEntity
  8
0
 62
     1
 48
0.014
370
    13
100
AcDbLine
 10
118.2041497321463
 20
36.27007657333326
 30
0.0
 11
117.6441487321463
 21
36.27007657333326
 31
0.0
  0
LINE
  5
52C
330
1F
100
AcDbEntity
  8
0
 62
     1
 48
0.030594
370
    13
100
AcDbLine
 10
117.6441487321463
 20
36.27007657333326
 30
0.0
 11
117.4041467321462
 21
35.07006457333324
 31
0.0
  0
LINE
  5
52D
330
1F
100
AcDbEntity
  8
0
 62
     1
 48
0.012238
370
    13
100
AcDbLine
 10
117.4041467321462
 20
35.07006457333324
 30
0.0
 11
116.9146447321462
 21
35.07006457333324
 31
0.0
  0
LINE
  5
52E
330
1F
100
AcDbEntity
  8
0
 62
     1
 48
0.02474
370
    13
100
AcDbLine
 10
116.9146447321462
 20
35.07006457333324
 30
0.0
 11
116.6897837321463
 21
36.03377857333328
 31
0.0
  0
LINE
  5
52F
330
1F
100
AcDbEntity
  8
0
 62
     1
 48
0.02457
370
    13
100
AcDbLine
 10
116.6897837321463
 20
36.03377857333328
 30
0.0
 11
116.4970417321463
 21
35.07006457333324
 31
0.0
  0
LINE
  5
530
330
1F
100
AcDbEntity
  8
0
 62
     1
 48
0.012
370
    13
100
AcDbLine
 10
117.7241467321462
 20
35.07006457333324
 30
0.0
 11
118.2041497321463
 21
35.07006457333324
 31
0.0
  0
LINE
  5
531
330
1F
100
AcDbEntity
  8
0
 62
     1
 48
0.027
370
    13
100
AcDbLine
 10
118.2041497321463
 20
35.07006457333324
 30
0.0
 11
118.2041497321463
 21
36.15008157333324
 31
0.0
  0
LINE
  5
532
330
1F
100
AcDbEntity
  8
0
 62
     1
 48
0.027
370
    13
100
AcDbLine
 10
117.7241467321462
 20
36.15008157333324
 30
0.0
 11
117.7241467321462
 21
35.07006457333324
 31
0.0
  0
LINE
  5
533
330
1F
100
AcDbEntity
  8
0
 62
     1
 48
0.032
370
    13
100
AcDbLine
 10
118.3241487321463
 20
35.07006457333324
 30
0.0
 11
119.6041477321463
 21
35.07006457333324
 31
0.0
  0
LINE
  5
534
330
1F
100
AcDbEntity
  8
0
 62
     1
 48
0.027
370
    13
100
AcDbLine
 10
119.6041477321463
 20
35.07006457333324
 30
0.0
 11
119.6041477321463
 21
36.15008157333324
 31
0.0
  0
LINE
  5
535
330
1F
100
AcDbEntity
  8
0
 62
     1
 48
0.019
370
    13
100
AcDbLine
 10
119.6041477321463
 20
36.15008157333324
 30
0.0
 11
118.8441487321462
 21
36.15008157333324
 31
0.0
  0
LINE
  5
536
330
1F
100
AcDbEntity
  8
0
 62
     1
 48
0.003
370
    13
100
AcDbLine
 10
118.8441487321462
 20
36.15008157333324
 30
0.0
 11
118.8441487321462
 21
36.27007657333326
 31
0.0
  0
LINE
  5
537
330
1F
100
AcDbEntity
  8
0
 62
     1
 48
0.019
370
    13
100
AcDbLine
 10
118.8441487321462
 20
36.27007657333326
 30
0.0
 11
119.6041477321463
 21
36.27007657333326
 31
0.0
  0
LINE
  5
538
330
1F
100
AcDbEntity
  8
0
 62
     1
 48
0.012
370
    13
100
AcDbLine
 10
119.6041477321463
 20
36.27007657333326
 30
0.0
 11
119.6041477321463
 21
36.75005657333327
 31
0.0
  0
LINE
  5
539
330
1F
100
AcDbEntity
  8
0
 62
     1
 48
0.032
370
    13
100
AcDbLine
 10
119.6041477321463
 20
36.75005657333327
 30
0.0
 11
118.3241487321463
 21
36.75005657333327
 31
0.0
  0
LINE
  5
53A
330
1F
100
AcDbEntity
  8
0
 62
     1
 48
0.027
370
    13
100
AcDbLine
 10
118.3241487321463
 20
36.75005657333327
 30
0.0
 11
118.3241487321463
 21
35.67007057333325
 31
0.0
  0
LINE
  5
53B
330
1F
100
AcDbEntity
  8
0
 62
     1
 48
0.019
370
    13
100
AcDbLine
 10
118.3241487321463
 20
35.67007057333325
 30
0.0
 11
119.0841467321463
 21
35.67007057333325
 31
0.0
  0
LINE
  5
53C
330
1F
100
AcDbEntity
  8
0
 62
     1
 48
0.003
370
    13
100
AcDbLine
 10
119.0841467321463
 20
35.67007057333325
 30
0.0
 11
119.0841467321463
 21
35.55007557333323
 31
0.0
  0
LINE
  5
53D
330
1F
100
AcDbEntity
  8
0
 62
     1
 48
0.019
370
    13
100
AcDbLine
 10
119.0841467321463
 20
35.55007557333323
 30
0.0
 11
118.3241487321463
 21
35.55007557333323
 31
0.0
  0
LINE
  5
53E
330
1F
100
AcDbEntity
  8
0
 62
     1
 48
0.012
370
    13
100
AcDbLine
 10
118.3241487321463
 20
35.55007557333323
 30
0.0
 11
118.3241487321463
 21
35.07006457333324
 31
0.0
  0
LINE
  5
53F
330
1F
100
AcDbEntity
  8
0
 62
     1
 48
0.004117
370
    13
100
AcDbLine
 10
120.1641487321462
 20
35.07006457333324
 30
0.0
 11
120.3280247321462
 21
35.08620857333324
 31
0.0
  0
LINE
  5
540
330
1F
100
AcDbEntity
  8
0
 62
     1
 48
0.004117
370
    13
100
AcDbLine
 10
120.3280247321462
 20
35.08620857333324
 30
0.0
 11
120.4856017321463
 21
35.13399857333326
 31
0.0
  0
LINE
  5
541
330
1F
100
AcDbEntity
  8
0
 62
     1
 48
0.004117
370
    13
100
AcDbLine
 10
120.4856017321463
 20
35.13399857333326
 30
0.0
 11
120.6308277321462
 21
35.21163557333324
 31
0.0
  0
LINE
  5
542
330
1F
100
AcDbEntity
  8
0
 62
     1
 48
0.004117
370
    13
100
AcDbLine
 10
120.6308277321462
 20
35.21163557333324
 30
0.0
 11
120.7581197321462
 21
35.31609657333325
 31
0.0
  0
LINE
  5
543
330
1F
100
AcDbEntity
  8
0
 62
     1
 48
0.004117
370
    13
100
AcDbLine
 10
120.7581197321462
 20
35.31609657333325
 30
0.0
 11
120.8625817321463
 21
35.44338557333322
 31
0.0
  0
LINE
  5
544
330
1F
100
AcDbEntity
  8
0
 62
     1
 48
0.004117
370
    13
100
AcDbLine
 10
120.8625817321463
 20
35.44338557333322
 30
0.0
 11
120.9402067321463
 21
35.58861857333324
 31
0.0
  0
LINE
  5
545
330
1F
100
AcDbEntity
  8
0
 62
     1
 48
0.004116
370
    13
100
AcDbLine
 10
120.9402067321463
 20
35.58861857333324
 30
0.0
 11
120.9880087321463
 21
35.74618157333322
 31
0.0
  0
LINE
  5
546
330
1F
100
AcDbEntity
  8
0
 62
     1
 48
0.004117
370
    13
100
AcDbLine
 10
120.9880087321463
 20
35.74618157333322
 30
0.0
 11
121.0041487321463
 21
35.91006057333323
 31
0.0
  0
LINE
  5
547
330
1F
100
AcDbEntity
  8
0
 62
     1
 48
0.002028
370
    13
100
AcDbLine
 10
121.0041487321463
 20
35.91006057333323
 30
0.0
 11
121.0002347321463
 21
35.99108457333324
 31
0.0
  0
LINE
  5
548
330
1F
100
AcDbEntity
  8
0
 62
     1
 48
0.002027
370
    13
100
AcDbLine
 10
121.0002347321463
 20
35.99108457333324
 30
0.0
 11
120.9885277321463
 21
36.07131557333327
 31
0.0
  0
LINE
  5
549
330
1F
100
AcDbEntity
  8
0
 62
     1
 48
0.002028
370
    13
100
AcDbLine
 10
120.9885277321463
 20
36.07131557333327
 30
0.0
 11
120.9691337321463
 21
36.15008157333324
 31
0.0
  0
LINE
  5
54A
330
1F
100
AcDbEntity
  8
0
 62
     1
 48
0.018125
370
    13
100
AcDbLine
 10
120.9691337321463
 20
36.15008157333324
 30
0.0
 11
120.2441507321463
 21
36.15008157333324
 31
0.0
  0
LINE
  5
54B
330
1F
100
AcDbEntity
  8
0
 62
     1
 48
0.003
370
    13
100
AcDbLine
 10
120.2441507321463
 20
36.15008157333324
 30
0.0
 11
120.2441507321463
 21
36.27007657333326
 31
0.0
  0
LINE
  5
54C
330
1F
100
AcDbEntity
  8
0
 62
     1
 48
0.016974
370
    13
100
AcDbLine
 10
120.2441507321463
 20
36.27007657333326
 30
0.0
 11
120.9230937321463
 21
36.27007657333326
 31
0.0
  0
LINE
  5
54D
330
1F
100
AcDbEntity
  8
0
 62
     1
 48
0.004727
370
    13
100
AcDbLine
 10
120.9230937321463
 20
36.27007657333326
 30
0.0
 11
120.8233477321463
 21
36.43069057333327
 31
0.0
  0
LINE
  5
54E
330
1F
100
AcDbEntity
  8
0
 62
     1
 48
0.004728
370
    13
100
AcDbLine
 10
120.8233477321463
 20
36.43069057333327
 30
0.0
 11
120.6901957321462
 21
36.56496757333326
 31
0.0
  0
LINE
  5
54F
330
1F
100
AcDbEntity
  8
0
 62
     1
 48
0.004727
370
    13
100
AcDbLine
 10
120.6901957321462
 20
36.56496757333326
 30
0.0
 11
120.5303897321463
 21
36.66601157333327
 31
0.0
  0
LINE
  5
550
330
1F
100
AcDbEntity
  8
0
 62
     1
 48
0.004727
370
    13
100
AcDbLine
 10
120.5303897321463
 20
36.66601157333327
 30
0.0
 11
120.3520307321462
 21
36.72878657333325
 31
0.0
  0
LINE
  5
551
330
1F
100
AcDbEntity
  8
0
 62
     1
 48
0.004727
370
    13
100
AcDbLine
 10
120.3520307321462
 20
36.72878657333325
 30
0.0
 11
120.1641487321462
 21
36.75005657333327
 31
0.0
  0
LINE
  5
552
330
1F
100
AcDbEntity
  8
0
 62
     1
 48
0.011
370
    13
100
AcDbLine
 10
120.1641487321462
 20
36.75005657333327
 30
0.0
 11
119.7241467321462
 21
36.75005657333327
 31
0.0
  0
LINE
  5
553
330
1F
100
AcDbEntity
  8
0
 62
     1
 48
0.027
370
    13
100
AcDbLine
 10
119.7241467321462
 20
36.75005657333327
 30
0.0
 11
119.7241467321462
 21
35.67007057333325
 31
0.0
  0
LINE
  5
554
330
1F
100
AcDbEntity
  8
0
 62
     1
 48
0.016
370
    13
100
AcDbLine
 10
119.7241467321462
 20
35.67007057333325
 30
0.0
 11
120.3641497321463
 21
35.67007057333325
 31
0.0
  0
LINE
  5
555
330
1F
100
AcDbEntity
  8
0
 62
     1
 48
0.003
370
    13
100
AcDbLine
 10
120.3641497321463
 20
35.67007057333325
 30
0.0
 11
120.3641497321463
 21
35.55007557333323
 31
0.0
  0
LINE
  5
556
330
1F
100
AcDbEntity
  8
0
 62
     1
 48
0.016
370
    13
100
AcDbLine
 10
120.3641497321463
 20
35.55007557333323
 30
0.0
 11
119.7241467321462
 21
35.55007557333323
 31
0.0
  0
LINE
  5
557
330
1F
100
AcDbEntity
  8
0
 62
     1
 48
0.012
370
    13
100
AcDbLine
 10
119.7241467321462
 20
35.55007557333323
 30
0.0
 11
119.7241467321462
 21
35.07006457333324
 31
0.0
  0
LINE
  5
558
330
1F
100
AcDbEntity
  8
0
 62
     1
 48
0.011
370
    13
100
AcDbLine
 10
119.7241467321462
 20
35.07006457333324
 30
0.0
 11
120.1641487321462
 21
35.07006457333324
 31
0.0
  0
LINE
  5
559
330
1F
100
AcDbEntity
  8
0
 62
     1
 48
0.012
370
    13
100
AcDbLine
 10
117.7241467321462
 20
36.15008157333324
 30
0.0
 11
118.2041497321463
 21
36.15008157333324
 31
0.0
  0
ARC
  5
55A
330
1F
100
AcDbEntity
  8
0
 62
     7
370
    35
100
AcDbCircle
 10
135.2494557172988
 20
55.10331261350046
 30
0.0
 40
19.474286
100
AcDbArc
 50
265.582428999999
 51
274.4175589999974
  0
LINE
  5
55B
330
1F
100
AcDbEntity
  8
0
 62
     7
 48
0.004012
370
    35
100
AcDbLine
 10
133.9994557172988
 20
35.82966161350049
 30
0.0
 11
133.9994557172988
 21
35.6868659121256
 31
0.0
  0
LINE
  5
55C
330
1F
100
AcDbEntity
  8
0
 62
     7
 48
0.004012
370
    35
100
AcDbLine
 10
136.4994557172988
 20
35.82966161350049
 30
0.0
 11
136.4994557172988
 21
35.68634695523525
 31
0.0
  0
LINE
  5
55D
330
1F
100
AcDbEntity
  8
0
 62
     7
 48
0.002235
370
    35
100
AcDbLine
 10
133.9994557172988
 20
35.82966161350049
 30
0.0
 11
133.9994557172988
 21
35.91904761350048
 31
0.0
  0
LINE
  5
55E
330
1F
100
AcDbEntity
  8
0
 62
     7
 48
0.002235
370
    35
100
AcDbLine
 10
136.4994557172988
 20
35.82966161350049
 30
0.0
 11
136.4994557172988
 21
35.91904761350048
 31
0.0
  0
LINE
  5
55F
330
1F
100
AcDbEntity
  8
0
 62
     7
 48
0.034827
370
    35
100
AcDbLine
 10
133.7494557172988
 20
34.60453261350045
 30
0.0
 11
133.7494557172988
 21
35.99762961350047
 31
0.0
  0
LINE
  5
560
330
1F
100
AcDbEntity
  8
0
 62
     7
 48
0.075
370
    35
100
AcDbLine
 10
133.7494557172988
 20
34.60453261350045
 30
0.0
 11
136.7494557172988
 21
34.60453261350045
 31
0.0
  0
LINE
  5
561
330
1F
100
AcDbEntity
  8
0
 62
     7
 48
0.034827
370
    35
100
AcDbLine
 10
136.7494557172988
 20
34.60453261350045
 30
0.0
 11
136.7494557172988
 21
35.99762961350047
 31
0.0
  0
LINE
  5
562
330
1F
100
AcDbEntity
  8
0
 62
     7
 48
0.00625
370
    35
100
AcDbLine
 10
133.9994557172988
 20
35.91904761350048
 30
0.0
 11
133.7494557172988
 21
35.91904761350048
 31
0.0
  0
LINE
  5
563
330
1F
100
AcDbEntity
  8
0
 62
     7
 48
0.00625
370
    35
100
AcDbLine
 10
136.7494557172988
 20
35.91904761350048
 30
0.0
 11
136.4994557172988
 21
35.91904761350048
 31
0.0
  0
LINE
  5
564
330
1F
100
AcDbEntity
  8
0
 62
     7
 48
0.075
370
    35
100
AcDbLine
 10
136.7494557172988
 20
35.99762961350047
 30
0.0
 11
133.7494557172988
 21
35.99762961350047
 31
0.0
  0
LINE
  5
565
330
1F
100
AcDbEntity
  8
0
 62
     7
 48
0.040714
370
    35
100
AcDbLine
 10
155.415586352973
 20
73.67951892059341
 30
0.0
 11
155.415586352973
 21
75.3080589205934
 31
0.0
  0
ELLIPSE
  5
566
330
1F
100
AcDbEntity
  8
0
 62
     7
370
    35
100
AcDbEllipse
 10
154.549466352973
 20
75.30793692059342
 30
0.0
 11
-0.000091552734375
 21
-1.500122070312498
 31
0.0
210
0.0
220
0.0
230
1.0
 40
0.5773620000000001
 41
1.570909635475608
 42
2.656116358943498
  0
LINE
  5
567
330
1F
100
AcDbEntity
  8
0
 62
     7
 48
0.094861
370
    35
100
AcDbLine
 10
154.953702352973
 20
72.84025492059339
 30
0.0
 11
154.953702352973
 21
76.63468792059342
 31
0.0
  0
ELLIPSE
  5
568
330
1F
100
AcDbEntity
  8
0
 62
     7
370
    35
100
AcDbEllipse
 10
154.200742352973
 20
74.97999492059341
 30
0.0
 11
0.002655029296875
 21
-2.504547119140624
 31
0.0
210
0.0
220
0.0
230
1.0
 40
0.577318
 41
0.5458891143808911
 42
0.970658599820414
  0
ARC
  5
569
330
1F
100
AcDbEntity
  8
0
 62
     7
370
    35
100
AcDbCircle
 10
155.103238352973
 20
73.67649692059342
 30
0.0
 40
0.312279
100
AcDbArc
 50
339.428363
 51
0.5533809999998443
  0
LINE
  5
56A
330
1F
100
AcDbEntity
  8
0
 62
     7
 48
0.004333
370
    35
100
AcDbLine
 10
154.953702352973
 20
76.63468792059342
 30
0.0
 11
154.953702352973
 21
76.80799792059338
 31
0.0
  0
LINE
  5
56B
330
1F
100
AcDbEntity
  8
0
 62
     7
 48
0.009065
370
    35
100
AcDbLine
 10
154.953702352973
 20
72.47764492059343
 30
0.0
 11
154.953702352973
 21
72.84025492059339
 31
0.0
  0
LINE
  5
56C
330
1F
100
AcDbEntity
  8
0
 62
     7
 48
0.045
370
    35
100
AcDbLine
 10
154.953702352973
 20
72.47764492059343
 30
0.0
 11
156.7536903529729
 21
72.47764492059343
 31
0.0
  0
ARC
  5
56D
330
1F
100
AcDbEntity
  8
0
 62
     7
370
    35
100
AcDbCircle
 10
114.304166352973
 20
73.67649692059342
 30
0.0
 40
0.312279
100
AcDbArc
 50
179.4466230000001
 51
200.5716369999999
  0
ELLIPSE
  5
56E
330
1F
100
AcDbEntity
  8
0
 62
     7
370
    35
100
AcDbEllipse
 10
115.206662352973
 20
74.97999492059341
 30
0.0
 11
-0.002655029296875
 21
-2.504547119140624
 31
0.0
210
0.0
220
0.0
230
1.0
 40
0.577318
 41
5.312526707302497
 42
5.73729619276184
  0
LINE
  5
56F
330
1F
100
AcDbEntity
  8
0
 62
     7
 48
0.094861
370
    35
100
AcDbLine
 10
114.453702352973
 20
72.84025492059339
 30
0.0
 11
114.453702352973
 21
76.63468792059342
 31
0.0
  0
ELLIPSE
  5
570
330
1F
100
AcDbEntity
  8
0
 62
     7
370
    35
100
AcDbEllipse
 10
114.857938352973
 20
75.30793692059342
 30
0.0
 11
0.000091552734375
 21
-1.500122070312498
 31
0.0
210
0.0
220
0.0
230
1.0
 40
0.5773620000000001
 41
3.627068948235792
 42
4.712275671703078
  0
LINE
  5
571
330
1F
100
AcDbEntity
  8
0
 62
     7
 48
0.040714
370
    35
100
AcDbLine
 10
113.991819352973
 20
73.67951892059341
 30
0.0
 11
113.991819352973
 21
75.3080589205934
 31
0.0
  0
LINE
  5
572
330
1F
100
AcDbEntity
  8
0
 62
     7
 48
0.009065
370
    35
100
AcDbLine
 10
114.453702352973
 20
72.47764492059343
 30
0.0
 11
114.453702352973
 21
72.84025492059339
 31
0.0
  0
LINE
  5
573
330
1F
100
AcDbEntity
  8
0
 62
     7
 48
0.004333
370
    35
100
AcDbLine
 10
114.453702352973
 20
76.63468792059342
 30
0.0
 11
114.453702352973
 21
76.80799792059338
 31
0.0
  0
LINE
  5
574
330
1F
100
AcDbEntity
  8
0
 62
     7
 48
0.045
370
    35
100
AcDbLine
 10
112.653714352973
 20
72.47764492059343
 30
0.0
 11
114.453702352973
 21
72.47764492059343
 31
0.0
  0
ARC
  5
575
330
1F
100
AcDbEntity
  8
0
 62
     7
370
    35
100
AcDbCircle
 10
112.653714352973
 20
72.67765692059339
 30
0.0
 40
0.2
100
AcDbArc
 50
180.0000050000005
 51
269.9999970000023
  0
LINE
  5
576
330
1F
100
AcDbEntity
  8
0
 62
     7
 48
0.045
370
    13
100
AcDbLine
 10
154.953702352973
 20
76.80799792059338
 30
0.0
 11
156.9513059240431
 21
76.80799792059332
 31
0.0
  0
LINE
  5
577
330
1F
100
AcDbEntity
  8
0
 62
     7
 48
0.045
370
    13
100
AcDbLine
 10
112.653714352973
 20
76.80799792059338
 30
0.0
 11
114.453702352973
 21
76.80799792059338
 31
0.0
  0
LINE
  5
578
330
1F
100
AcDbEntity
  8
0
 62
     7
 48
0.040714
370
    35
100
AcDbLine
 10
112.453702352973
 20
73.67951892059341
 30
0.0
 11
112.453702352973
 21
75.3080589205934
 31
0.0
  0
LINE
  5
579
330
1F
100
AcDbEntity
  8
0
 62
     7
 48
0.032498
370
    35
100
AcDbLine
 10
112.453702352973
 20
76.60798492059342
 30
0.0
 11
112.453702352973
 21
75.3080589205934
 31
0.0
  0
ELLIPSE
  5
57A
330
1F
100
AcDbEntity
  8
0
 62
     7
370
    13
100
AcDbEllipse
 10
112.653714352973
 20
76.60798492059342
 30
0.0
 11
-0.20001220703125
 21
0.0
 31
0.0
210
0.0
220
0.0
230
1.0
 40
0.9999620000000001
 41
4.712388980384689
 42
6.283185307179585
  0
LINE
  5
57B
330
1F
100
AcDbEntity
  8
0
 62
     7
 48
0.025047
370
    35
100
AcDbLine
 10
112.453702352973
 20
73.67951892059341
 30
0.0
 11
112.453702352973
 21
72.67765692059339
 31
0.0
  0
ARC
  5
57C
330
1F
100
AcDbEntity
  8
0
 62
     7
370
    35
100
AcDbCircle
 10
112.652677352973
 20
76.77641192059337
 30
0.0
 40
0.1991
100
AcDbArc
 50
89.70453500000116
 51
179.7196940000004
  0
LINE
  5
57D
330
1F
100
AcDbEntity
  8
0
 62
     7
 48
0.004235
370
    35
100
AcDbLine
 10
112.453702352973
 20
76.77738892059341
 30
0.0
 11
112.453702352973
 21
76.60798492059342
 31
0.0
  0
LINE
  5
57E
330
1F
100
AcDbEntity
  8
0
 62
     7
 48
0.044999
370
    35
100
AcDbLine
 10
112.2037023494981
 20
74.84831056789971
 30
0.0
 11
112.2037023494981
 21
76.64826756789972
 31
0.0
  0
ARC
  5
57F
330
1F
100
AcDbEntity
  8
0
 62
     7
370
    35
100
AcDbCircle
 10
112.4026773494981
 20
76.7765635678997
 30
0.0
 40
0.1991
100
AcDbArc
 50
89.70453500000116
 51
179.7196940000004
  0
LINE
  5
580
330
1F
100
AcDbEntity
  8
0
 62
     7
 48
0.003232
370
    35
100
AcDbLine
 10
112.2037023494981
 20
76.64826756789972
 30
0.0
 11
112.2037023494981
 21
76.77754056789973
 31
0.0
  0
LINE
  5
581
330
1F
100
AcDbEntity
  8
0
 62
     7
 48
0.044999
370
    35
100
AcDbLine
 10
157.2037023494981
 20
74.84831056789971
 30
0.0
 11
157.2037023494981
 21
76.64826756789972
 31
0.0
  0
ARC
  5
582
330
1F
100
AcDbEntity
  8
0
 62
     7
370
    35
100
AcDbCircle
 10
157.0047273494981
 20
76.7765635678997
 30
0.0
 40
0.1991
100
AcDbArc
 50
0.2803049999992694
 51
90.29546299999548
  0
LINE
  5
583
330
1F
100
AcDbEntity
  8
0
 62
     7
 48
0.003232
370
    35
100
AcDbLine
 10
157.2037023494981
 20
76.77754056789973
 30
0.0
 11
157.2037023494981
 21
76.64826756789972
 31
0.0
  0
ARC
  5
584
330
1F
100
AcDbEntity
  8
0
 62
     7
370
    35
100
AcDbCircle
 10
156.7536903529729
 20
72.67765692059339
 30
0.0
 40
0.2
100
AcDbArc
 50
270.0000029999977
 51
359.9999949999995
  0
LINE
  5
585
330
1F
100
AcDbEntity
  8
0
 62
     7
 48
0.040714
370
    35
100
AcDbLine
 10
156.953702352973
 20
73.67951892059341
 30
0.0
 11
156.953702352973
 21
75.3080589205934
 31
0.0
  0
LINE
  5
586
330
1F
100
AcDbEntity
  8
0
 62
     7
 48
0.032498
370
    35
100
AcDbLine
 10
156.953702352973
 20
76.60798492059342
 30
0.0
 11
156.953702352973
 21
75.3080589205934
 31
0.0
  0
LINE
  5
587
330
1F
100
AcDbEntity
  8
0
 62
     7
 48
0.025047
370
    35
100
AcDbLine
 10
156.953702352973
 20
73.67951892059341
 30
0.0
 11
156.953702352973
 21
72.67765692059339
 31
0.0
  0
ARC
  5
588
330
1F
100
AcDbEntity
  8
0
 62
     7
370
    35
100
AcDbCircle
 10
156.754727352973
 20
76.77641192059343
 30
0.0
 40
0.1990999999999437
100
AcDbArc
 50
0.2803059999833276
 51
90.29546500001835
  0
LINE
  5
589
330
1F
100
AcDbEntity
  8
0
 62
     7
 48
0.004235
370
    35
100
AcDbLine
 10
156.953702352973
 20
76.77738892059341
 30
0.0
 11
156.953702352973
 21
76.60798492059342
 31
0.0
  0
LINE
  5
58A
330
1F
100
AcDbEntity
  8
0
 62
     7
 48
0.040714
370
    35
100
AcDbLine
 10
64.5694375505829
 20
73.67951596619412
 30
0.0
 11
64.5694375505829
 21
75.3080559661941
 31
0.0
  0
ELLIPSE
  5
58B
330
1F
100
AcDbEntity
  8
0
 62
     7
370
    35
100
AcDbEllipse
 10
63.70331755058294
 20
75.30793396619412
 30
0.0
 11
-0.000091552734375
 21
-1.500122070312498
 31
0.0
210
0.0
220
0.0
230
1.0
 40
0.5773620000000001
 41
1.570909635475608
 42
2.656116358943498
  0
LINE
  5
58C
330
1F
100
AcDbEntity
  8
0
 62
     7
 48
0.094861
370
    35
100
AcDbLine
 10
64.10755355058291
 20
72.8402519661941
 30
0.0
 11
64.10755355058291
 21
76.63468496619413
 31
0.0
  0
ELLIPSE
  5
58D
330
1F
100
AcDbEntity
  8
0
 62
     7
370
    35
100
AcDbEllipse
 10
63.35459355058294
 20
74.97999196619412
 30
0.0
 11
0.002655029296875
 21
-2.504547119140624
 31
0.0
210
0.0
220
0.0
230
1.0
 40
0.577318
 41
0.5458891143808911
 42
0.970658599820414
  0
ARC
  5
58E
330
1F
100
AcDbEntity
  8
0
 62
     7
370
    35
100
AcDbCircle
 10
64.25708955058292
 20
73.67649396619412
 30
0.0
 40
0.312279
100
AcDbArc
 50
339.428363
 51
0.5533809999998443
  0
LINE
  5
58F
330
1F
100
AcDbEntity
  8
0
 62
     7
 48
0.004333
370
    35
100
AcDbLine
 10
64.10755355058291
 20
76.63468496619413
 30
0.0
 11
64.10755355058291
 21
76.80799496619409
 31
0.0
  0
LINE
  5
590
330
1F
100
AcDbEntity
  8
0
 62
     7
 48
0.009065
370
    35
100
AcDbLine
 10
64.10755355058291
 20
72.47764196619414
 30
0.0
 11
64.10755355058291
 21
72.8402519661941
 31
0.0
  0
LINE
  5
591
330
1F
100
AcDbEntity
  8
0
 62
     7
 48
0.045
370
    35
100
AcDbLine
 10
64.10755355058291
 20
72.47764196619414
 30
0.0
 11
65.90754155058289
 21
72.47764196619414
 31
0.0
  0
ARC
  5
592
330
1F
100
AcDbEntity
  8
0
 62
     7
370
    35
100
AcDbCircle
 10
23.45801755058301
 20
73.67649396619412
 30
0.0
 40
0.312279
100
AcDbArc
 50
179.4466230000001
 51
200.5716369999999
  0
ELLIPSE
  5
593
330
1F
100
AcDbEntity
  8
0
 62
     7
370
    35
100
AcDbEllipse
 10
24.36051355058294
 20
74.97999196619412
 30
0.0
 11
-0.002655029296875
 21
-2.504547119140624
 31
0.0
210
0.0
220
0.0
230
1.0
 40
0.577318
 41
5.312526707302497
 42
5.73729619276184
  0
LINE
  5
594
330
1F
100
AcDbEntity
  8
0
 62
     7
 48
0.094861
370
    35
100
AcDbLine
 10
23.60755355058291
 20
72.8402519661941
 30
0.0
 11
23.60755355058291
 21
76.63468496619413
 31
0.0
  0
ELLIPSE
  5
595
330
1F
100
AcDbEntity
  8
0
 62
     7
370
    35
100
AcDbEllipse
 10
24.01178955058299
 20
75.30793396619412
 30
0.0
 11
0.000091552734375
 21
-1.500122070312498
 31
0.0
210
0.0
220
0.0
230
1.0
 40
0.5773620000000001
 41
3.627068948235792
 42
4.712275671703078
  0
LINE
  5
596
330
1F
100
AcDbEntity
  8
0
 62
     7
 48
0.040714
370
    35
100
AcDbLine
 10
23.14567055058296
 20
73.67951596619412
 30
0.0
 11
23.14567055058296
 21
75.3080559661941
 31
0.0
  0
LINE
  5
597
330
1F
100
AcDbEntity
  8
0
 62
     7
 48
0.009065
370
    35
100
AcDbLine
 10
23.60755355058291
 20
72.47764196619414
 30
0.0
 11
23.60755355058291
 21
72.8402519661941
 31
0.0
  0
LINE
  5
598
330
1F
100
AcDbEntity
  8
0
 62
     7
 48
0.004333
370
    35
100
AcDbLine
 10
23.60755355058291
 20
76.63468496619413
 30
0.0
 11
23.60755355058291
 21
76.80799496619409
 31
0.0
  0
LINE
  5
599
330
1F
100
AcDbEntity
  8
0
 62
     7
 48
0.045
370
    35
100
AcDbLine
 10
21.80756555058292
 20
72.47764196619414
 30
0.0
 11
23.60755355058291
 21
72.47764196619414
 31
0.0
  0
ARC
  5
59A
330
1F
100
AcDbEntity
  8
0
 62
     7
370
    35
100
AcDbCircle
 10
21.80756555058292
 20
72.6776539661941
 30
0.0
 40
0.2
100
AcDbArc
 50
180.0000050000005
 51
269.9999970000023
  0
LINE
  5
59B
330
1F
100
AcDbEntity
  8
0
 62
     7
 48
0.40625
370
    13
100
AcDbLine
 10
47.85755355058291
 20
74.8481559661941
 30
0.0
 11
64.10755355058291
 21
74.8481559661941
 31
0.0
  0
LINE
  5
59C
330
1F
100
AcDbEntity
  8
0
 62
     7
 48
0.40625
370
    13
100
AcDbLine
 10
23.60755355058291
 20
74.8481559661941
 30
0.0
 11
47.85755355058291
 21
74.8481559661941
 31
0.0
  0
LINE
  5
59D
330
1F
100
AcDbEntity
  8
0
 62
     7
 48
0.045
370
    13
100
AcDbLine
 10
64.10755355058291
 20
76.80799496619409
 30
0.0
 11
66.10515712165306
 21
76.80799496619403
 31
0.0
  0
LINE
  5
59E
330
1F
100
AcDbEntity
  8
0
 62
     7
 48
0.045
370
    13
100
AcDbLine
 10
21.80756555058292
 20
76.80799496619409
 30
0.0
 11
23.60755355058291
 21
76.80799496619409
 31
0.0
  0
LINE
  5
59F
330
1F
100
AcDbEntity
  8
0
 62
     7
 48
0.040714
370
    35
100
AcDbLine
 10
21.60755355058291
 20
73.67951596619412
 30
0.0
 11
21.60755355058291
 21
75.3080559661941
 31
0.0
  0
LINE
  5
5A0
330
1F
100
AcDbEntity
  8
0
 62
     7
 48
0.032498
370
    35
100
AcDbLine
 10
21.60755355058291
 20
76.60798196619413
 30
0.0
 11
21.60755355058291
 21
75.3080559661941
 31
0.0
  0
ELLIPSE
  5
5A1
330
1F
100
AcDbEntity
  8
0
 62
     7
370
    13
100
AcDbEllipse
 10
21.80756555058292
 20
76.60798196619413
 30
0.0
 11
-0.20001220703125
 21
0.0
 31
0.0
210
0.0
220
0.0
230
1.0
 40
0.9999620000000001
 41
4.712388980384689
 42
6.283185307179585
  0
LINE
  5
5A2
330
1F
100
AcDbEntity
  8
0
 62
     7
 48
0.025047
370
    35
100
AcDbLine
 10
21.60755355058291
 20
73.67951596619412
 30
0.0
 11
21.60755355058291
 21
72.6776539661941
 31
0.0
  0
ARC
  5
5A3
330
1F
100
AcDbEntity
  8
0
 62
     7
370
    35
100
AcDbCircle
 10
21.80652855058292
 20
76.77640896619408
 30
0.0
 40
0.1991
100
AcDbArc
 50
89.70453500000116
 51
179.7196940000004
  0
LINE
  5
5A4
330
1F
100
AcDbEntity
  8
0
 62
     7
 48
0.004235
370
    35
100
AcDbLine
 10
21.60755355058291
 20
76.77738596619412
 30
0.0
 11
21.60755355058291
 21
76.60798196619413
 31
0.0
  0
LINE
  5
5A5
330
1F
100
AcDbEntity
  8
0
 62
     7
370
    35
100
AcDbLine
 10
21.80756555058292
 20
76.97565796619414
 30
0.0
 11
65.90754155058289
 21
76.97565796619414
 31
0.0
  0
LINE
  5
5A6
330
1F
100
AcDbEntity
  8
0
 62
     7
 48
0.0525
370
    35
100
AcDbLine
 10
43.85755354710818
 20
87.17582261350043
 30
0.0
 11
41.75754754710806
 21
87.17582261350043
 31
0.0
  0
LINE
  5
5A7
330
1F
100
AcDbEntity
  8
0
 62
     7
 48
0.0525
370
    35
100
AcDbLine
 10
43.85755354710818
 20
87.17582261350043
 30
0.0
 11
45.95755954710807
 21
87.17582261350043
 31
0.0
  0
LINE
  5
5A8
330
1F
100
AcDbEntity
  8
0
 62
     7
 48
0.01625
370
    35
100
AcDbLine
 10
45.95755954710807
 20
87.17582261350043
 30
0.0
 11
45.95755954710807
 21
87.82581661350041
 31
0.0
  0
LINE
  5
5A9
330
1F
100
AcDbEntity
  8
0
 62
     7
 48
0.0525
370
    35
100
AcDbLine
 10
43.85755354710818
 20
87.82581661350041
 30
0.0
 11
45.95755954710807
 21
87.82581661350041
 31
0.0
  0
LINE
  5
5AA
330
1F
100
AcDbEntity
  8
0
 62
     7
 48
0.0525
370
    35
100
AcDbLine
 10
43.85755354710818
 20
87.82581661350041
 30
0.0
 11
41.75754754710806
 21
87.82581661350041
 31
0.0
  0
LINE
  5
5AB
330
1F
100
AcDbEntity
  8
0
 62
     7
 48
0.01625
370
    35
100
AcDbLine
 10
41.75754754710806
 20
87.17582261350043
 30
0.0
 11
41.75754754710806
 21
87.82581661350041
 31
0.0
  0
LINE
  5
5AC
330
1F
100
AcDbEntity
  8
0
 62
     7
370
    13
100
AcDbLine
 10
21.35755354710818
 20
94.32737261350041
 30
0.0
 11
66.35755354710807
 21
94.32737261350041
 31
0.0
  0
LINE
  5
5AD
330
1F
100
AcDbEntity
  8
0
 62
     7
370
    35
100
AcDbLine
 10
21.55755526881899
 20
76.97565796617624
 30
0.0
 11
66.15755183234694
 21
76.97565796621205
 31
0.0
  0
CIRCLE
  5
5AE
330
1F
100
AcDbEntity
  8
0
 62
     7
370
    35
100
AcDbCircle
 10
43.85755354710818
 20
88.47581061350041
 30
0.0
 40
3.25
  0
LINE
  5
5AF
330
1F
100
AcDbEntity
  8
0
 62
     7
 48
0.085422
370
    35
100
AcDbLine
 10
42.14911854710817
 20
39.22581061350042
 30
0.0
 11
45.56598854710808
 21
39.22581061350042
 31
0.0
  0
LINE
  5
5B0
330
1F
100
AcDbEntity
  8
0
 62
     7
 48
0.085422
370
    35
100
AcDbLine
 10
42.14911854710817
 20
69.72581061350041
 30
0.0
 11
45.56598854710808
 21
69.72581061350041
 31
0.0
  0
CIRCLE
  5
5B1
330
1F
100
AcDbEntity
  8
0
 62
     7
370
    13
100
AcDbCircle
 10
34.35755354710818
 20
54.47581061350041
 30
0.0
 40
3.049999999999999
  0
CIRCLE
  5
5B2
330
1F
100
AcDbEntity
  8
0
 62
     7
370
    13
100
AcDbCircle
 10
53.35755354710812
 20
54.47581061350041
 30
0.0
 40
3.049999999999999
  0
LINE
  5
5B3
330
1F
100
AcDbEntity
  8
0
 62
     7
 48
0.0391
370
    13
100
AcDbLine
 10
62.45517954710812
 20
52.44211861350044
 30
0.0
 11
60.89116854710806
 21
52.44211861350044
 31
0.0
  0
LINE
  5
5B4
330
1F
100
AcDbEntity
  8
0
 62
     7
 48
0.165157
370
    13
100
AcDbLine
 10
59.89126054710806
 20
57.50944061350043
 30
0.0
 11
59.89126054710806
 21
64.11573361350042
 31
0.0
  0
ARC
  5
5B5
330
1F
100
AcDbEntity
  8
0
 62
     7
370
    13
100
AcDbCircle
 10
60.89113854710809
 20
57.50937961350041
 30
0.0
 40
0.999873
100
AcDbArc
 50
179.9977779999979
 51
270.0022379999952
  0
ARC
  5
5B6
330
1F
100
AcDbEntity
  8
0
 62
     7
370
    13
100
AcDbCircle
 10
26.82396854710805
 20
51.44224061350048
 30
0.0
 40
0.999873
100
AcDbArc
 50
359.9977699999997
 51
90.0022219999988
  0
LINE
  5
5B7
330
1F
100
AcDbEntity
  8
0
 62
     7
 48
0.0391
370
    13
100
AcDbLine
 10
26.82393854710813
 20
52.44211861350044
 30
0.0
 11
25.25992754710819
 21
52.44211861350044
 31
0.0
  0
ARC
  5
5B8
330
1F
100
AcDbEntity
  8
0
 62
     7
370
    13
100
AcDbCircle
 10
26.82396854710805
 20
57.50937961350041
 30
0.0
 40
0.999873
100
AcDbArc
 50
269.9977570000043
 51
0.0022219999988088
  0
ARC
  5
5B9
330
1F
100
AcDbEntity
  8
0
 62
     7
370
    13
100
AcDbCircle
 10
60.89113854710809
 20
51.44224061350048
 30
0.0
 40
0.999873
100
AcDbArc
 50
89.9977899999985
 51
180.0021939999986
  0
ARC
  5
5BA
330
1F
100
AcDbEntity
  8
0
 62
     7
370
    35
100
AcDbCircle
 10
42.14895054710814
 20
70.22599361350046
 30
0.0
 40
0.5001520000000001
100
AcDbArc
 50
180.0201709999988
 51
270.0201599999957
  0
ARC
  5
5BB
330
1F
100
AcDbEntity
  8
0
 62
     7
370
    35
100
AcDbCircle
 10
45.56615654710799
 20
70.22599361350046
 30
0.0
 40
0.5001520000000001
100
AcDbArc
 50
269.9798350000035
 51
359.9798199999977
  0
ARC
  5
5BC
330
1F
100
AcDbEntity
  8
0
 62
     7
370
    35
100
AcDbCircle
 10
45.56615654710799
 20
38.72562661350043
 30
0.0
 40
0.5001520000000001
100
AcDbArc
 50
0.0201680000009717
 51
90.02016499999658
  0
ARC
  5
5BD
330
1F
100
AcDbEntity
  8
0
 62
     7
370
    35
100
AcDbCircle
 10
42.14895054710814
 20
38.72562661350043
 30
0.0
 40
0.5001520000000001
100
AcDbArc
 50
89.97983300000049
 51
179.9798290000011
  0
LINE
  5
5BE
330
1F
100
AcDbEntity
  8
0
 62
     7
 48
0.070692
370
    35
100
AcDbLine
 10
46.06627854710814
 20
70.22581061350042
 30
0.0
 11
46.06627854710814
 21
73.05347761350043
 31
0.0
  0
ARC
  5
5BF
330
1F
100
AcDbEntity
  8
0
 62
     7
370
    13
100
AcDbCircle
 10
43.85755354710818
 20
54.47581061350041
 30
0.0
 40
18.708498
100
AcDbArc
 50
31.01550300000076
 51
83.21982400000095
  0
LINE
  5
5C0
330
1F
100
AcDbEntity
  8
0
 62
     7
 48
0.0391
370
    13
100
AcDbLine
 10
62.45517954710812
 20
56.50950161350045
 30
0.0
 11
60.89116854710806
 21
56.50950161350045
 31
0.0
  0
ARC
  5
5C1
330
1F
100
AcDbEntity
  8
0
 62
     7
370
    13
100
AcDbCircle
 10
43.85755354710818
 20
54.47581061350041
 30
0.0
 40
18.708498
100
AcDbArc
 50
353.7593480000012
 51
6.240662999999849
  0
LINE
  5
5C2
330
1F
100
AcDbEntity
  8
0
 62
     7
 48
0.165157
370
    13
100
AcDbLine
 10
59.89126054710806
 20
51.4421796135004
 30
0.0
 11
59.89126054710806
 21
44.83588661350046
 31
0.0
  0
ARC
  5
5C3
330
1F
100
AcDbEntity
  8
0
 62
     7
370
    13
100
AcDbCircle
 10
43.85755354710818
 20
54.47581061350041
 30
0.0
 40
18.708498
100
AcDbArc
 50
276.7801619999974
 51
328.9845039999997
  0
LINE
  5
5C4
330
1F
100
AcDbEntity
  8
0
 62
     7
 48
0.070692
370
    35
100
AcDbLine
 10
46.06627854710814
 20
35.8981426135004
 30
0.0
 11
46.06627854710814
 21
38.72581061350042
 31
0.0
  0
LINE
  5
5C5
330
1F
100
AcDbEntity
  8
0
 62
     7
 48
0.070692
370
    35
100
AcDbLine
 10
41.64882854710799
 20
35.8981426135004
 30
0.0
 11
41.64882854710799
 21
38.72581061350042
 31
0.0
  0
ARC
  5
5C6
330
1F
100
AcDbEntity
  8
0
 62
     7
370
    13
100
AcDbCircle
 10
43.85755354710818
 20
54.47581061350041
 30
0.0
 40
18.708498
100
AcDbArc
 50
211.0155020000001
 51
263.2198390000016
  0
LINE
  5
5C7
330
1F
100
AcDbEntity
  8
0
 62
     7
 48
0.165157
370
    13
100
AcDbLine
 10
27.82384654710813
 20
51.4421796135004
 30
0.0
 11
27.82384654710813
 21
44.83588661350046
 31
0.0
  0
ARC
  5
5C8
330
1F
100
AcDbEntity
  8
0
 62
     7
370
    13
100
AcDbCircle
 10
43.85755354710818
 20
54.47581061350041
 30
0.0
 40
18.708498
100
AcDbArc
 50
173.7593430000024
 51
186.2406709999985
  0
LINE
  5
5C9
330
1F
100
AcDbEntity
  8
0
 62
     7
 48
0.0391
370
    13
100
AcDbLine
 10
25.25992754710819
 20
56.50950161350045
 30
0.0
 11
26.82393854710813
 21
56.50950161350045
 31
0.0
  0
LINE
  5
5CA
330
1F
100
AcDbEntity
  8
0
 62
     7
 48
0.165157
370
    13
100
AcDbLine
 10
27.82384654710813
 20
57.50944061350043
 30
0.0
 11
27.82384654710813
 21
64.11573361350042
 31
0.0
  0
ARC
  5
5CB
330
1F
100
AcDbEntity
  8
0
 62
     7
370
    13
100
AcDbCircle
 10
43.85755354710818
 20
54.47581061350041
 30
0.0
 40
18.708498
100
AcDbArc
 50
96.78017400000058
 51
148.9844979999998
  0
LINE
  5
5CC
330
1F
100
AcDbEntity
  8
0
 62
     7
 48
0.070692
370
    35
100
AcDbLine
 10
41.64882854710799
 20
70.22581061350042
 30
0.0
 11
41.64882854710799
 21
73.05347761350043
 31
0.0
  0
LINE
  5
5CD
330
1F
100
AcDbEntity
  8
0
 62
     7
 48
0.4512500000000001
370
    13
100
AcDbLine
 10
21.35755354710807
 20
34.10331261350041
 30
0.0
 11
39.85755354710818
 21
34.10331261350041
 31
0.0
  0
LINE
  5
5CE
330
1F
100
AcDbEntity
  8
0
 62
     7
 48
0.4512500000000001
370
    13
100
AcDbLine
 10
23.60755355058291
 20
74.84830761350036
 30
0.0
 11
39.85755354710818
 21
74.84830761350043
 31
0.0
  0
LINE
  5
5CF
330
1F
100
AcDbEntity
  8
0
 62
     7
 48
0.057497
370
    35
100
AcDbLine
 10
21.35755354710807
 20
12.32435161350042
 30
0.0
 11
21.35755354710807
 21
14.62424761350041
 31
0.0
  0
LINE
  5
5D0
330
1F
100
AcDbEntity
  8
0
 62
     7
 48
0.044999
370
    35
100
AcDbLine
 10
21.35755354710807
 20
74.84830761350043
 30
0.0
 11
21.35755354710807
 21
76.64826461350043
 31
0.0
  0
LINE
  5
5D1
330
1F
100
AcDbEntity
  8
0
 62
     7
370
    35
100
AcDbLine
 10
21.35755354710807
 20
74.84830761350043
 30
0.0
 11
21.35755354710807
 21
34.10331261350041
 31
0.0
  0
LINE
  5
5D2
330
1F
100
AcDbEntity
  8
0
 62
     7
 48
0.044999
370
    35
100
AcDbLine
 10
21.35755354710807
 20
32.30335561350046
 30
0.0
 11
21.35755354710807
 21
34.10331261350041
 31
0.0
  0
LINE
  5
5D3
330
1F
100
AcDbEntity
  8
0
 62
     7
 48
0.057497
370
    35
100
AcDbLine
 10
21.35755354710807
 20
94.32737261350041
 30
0.0
 11
21.35755354710807
 21
96.62726861350046
 31
0.0
  0
LINE
  5
5D4
330
1F
100
AcDbEntity
  8
0
 62
     7
 48
0.438746
370
    35
100
AcDbLine
 10
21.35755354710807
 20
76.77753761350044
 30
0.0
 11
21.35755354710807
 21
94.32737261350041
 31
0.0
  0
ARC
  5
5D5
330
1F
100
AcDbEntity
  8
0
 62
     7
370
    35
100
AcDbCircle
 10
21.55652854710798
 20
76.77656061350041
 30
0.0
 40
0.1991
100
AcDbArc
 50
89.70453500000116
 51
179.7196940000004
  0
LINE
  5
5D6
330
1F
100
AcDbEntity
  8
0
 62
     7
 48
0.003713
370
    35
100
AcDbLine
 10
21.35755354710807
 20
96.77579761350045
 30
0.0
 11
21.35755354710807
 21
96.62726861350046
 31
0.0
  0
ARC
  5
5D7
330
1F
100
AcDbEntity
  8
0
 62
     7
370
    35
100
AcDbCircle
 10
21.55756554710797
 20
96.77579761350045
 30
0.0
 40
0.200004
100
AcDbArc
 50
90.00166899999753
 51
180.0008829999983
  0
LINE
  5
5D8
330
1F
100
AcDbEntity
  8
0
 62
     7
 48
0.003232
370
    35
100
AcDbLine
 10
21.35755354710807
 20
32.30335561350046
 30
0.0
 11
21.35755354710807
 21
32.17408261350044
 31
0.0
  0
ARC
  5
5D9
330
1F
100
AcDbEntity
  8
0
 62
     7
370
    35
100
AcDbCircle
 10
21.55652854710798
 20
32.17505961350042
 30
0.0
 40
0.199099
100
AcDbArc
 50
180.2805110000001
 51
270.2958269999978
  0
LINE
  5
5DA
330
1F
100
AcDbEntity
  8
0
 62
     7
 48
0.003232
370
    35
100
AcDbLine
 10
21.35755354710807
 20
76.64826461350043
 30
0.0
 11
21.35755354710807
 21
76.77753761350044
 31
0.0
  0
LINE
  5
5DB
330
1F
100
AcDbEntity
  8
0
 62
     7
 48
0.003713
370
    35
100
AcDbLine
 10
21.35755354710807
 20
12.17582261350043
 30
0.0
 11
21.35755354710807
 21
12.32435161350042
 31
0.0
  0
ARC
  5
5DC
330
1F
100
AcDbEntity
  8
0
 62
     7
370
    35
100
AcDbCircle
 10
21.55756554710797
 20
12.17582261350043
 30
0.0
 40
0.200004
100
AcDbArc
 50
179.9991170000016
 51
269.9983310000025
  0
LINE
  5
5DD
330
1F
100
AcDbEntity
  8
0
 62
     7
 48
0.438746
370
    35
100
AcDbLine
 10
21.35755354710807
 20
14.62424761350041
 30
0.0
 11
21.35755354710807
 21
32.17408261350044
 31
0.0
  0
LINE
  5
5DE
330
1F
100
AcDbEntity
  8
0
 62
     7
 48
0.4512500000000001
370
    13
100
AcDbLine
 10
47.85755354710812
 20
74.84830761350043
 30
0.0
 11
64.10755355058291
 21
74.84830761350043
 31
0.0
  0
LINE
  5
5DF
330
1F
100
AcDbEntity
  8
0
 62
     7
 48
0.4512500000000001
370
    13
100
AcDbLine
 10
47.85755354710812
 20
34.10331261350041
 30
0.0
 11
66.35755354710801
 21
34.10331261350041
 31
0.0
  0
LINE
  5
5E0
330
1F
100
AcDbEntity
  8
0
 62
     7
370
    35
100
AcDbLine
 10
21.5575597210825
 20
96.97580161341557
 30
0.0
 11
66.15754738011509
 21
96.97580161341541
 31
0.0
  0
LINE
  5
5E1
330
1F
100
AcDbEntity
  8
0
 62
     7
370
    35
100
AcDbLine
 10
21.5575597210825
 20
11.97581861358526
 30
0.0
 11
66.15754735567998
 21
11.97581861358475
 31
0.0
  0
LINE
  5
5E2
330
1F
100
AcDbEntity
  8
0
 62
     7
370
    13
100
AcDbLine
 10
21.35755354710807
 20
14.62424761350041
 30
0.0
 11
66.35755354710807
 21
14.62424761350041
 31
0.0
  0
LINE
  5
5E3
330
1F
100
AcDbEntity
  8
0
 62
     7
 48
0.057497
370
    35
100
AcDbLine
 10
66.35755354710807
 20
12.32435161350042
 30
0.0
 11
66.35755354710807
 21
14.62424761350041
 31
0.0
  0
LINE
  5
5E4
330
1F
100
AcDbEntity
  8
0
 62
     7
 48
0.044999
370
    35
100
AcDbLine
 10
66.35755354710807
 20
74.84830761350043
 30
0.0
 11
66.35755354710807
 21
76.64826461350043
 31
0.0
  0
LINE
  5
5E5
330
1F
100
AcDbEntity
  8
0
 62
     7
370
    35
100
AcDbLine
 10
66.35755354710807
 20
74.84830761350043
 30
0.0
 11
66.35755354710807
 21
34.10331261350041
 31
0.0
  0
LINE
  5
5E6
330
1F
100
AcDbEntity
  8
0
 62
     7
 48
0.044999
370
    35
100
AcDbLine
 10
66.35755354710807
 20
32.30335561350046
 30
0.0
 11
66.35755354710807
 21
34.10331261350041
 31
0.0
  0
LINE
  5
5E7
330
1F
100
AcDbEntity
  8
0
 62
     7
 48
0.057497
370
    35
100
AcDbLine
 10
66.35755354710807
 20
94.32737261350041
 30
0.0
 11
66.35755354710807
 21
96.62726861350046
 31
0.0
  0
LINE
  5
5E8
330
1F
100
AcDbEntity
  8
0
 62
     7
 48
0.438746
370
    35
100
AcDbLine
 10
66.35755354710807
 20
94.32737261350041
 30
0.0
 11
66.35755354710807
 21
76.77753761350044
 31
0.0
  0
ARC
  5
5E9
330
1F
100
AcDbEntity
  8
0
 62
     7
370
    35
100
AcDbCircle
 10
66.15857854710805
 20
76.77656061350041
 30
0.0
 40
0.1991
100
AcDbArc
 50
0.2803049999992694
 51
90.29546299999548
  0
LINE
  5
5EA
330
1F
100
AcDbEntity
  8
0
 62
     7
 48
0.003713
370
    35
100
AcDbLine
 10
66.35755354710807
 20
96.62726861350046
 30
0.0
 11
66.35755354710807
 21
96.77579761350045
 31
0.0
  0
ARC
  5
5EB
330
1F
100
AcDbEntity
  8
0
 62
     7
370
    35
100
AcDbCircle
 10
66.15754154710805
 20
96.77579761350045
 30
0.0
 40
0.200004
100
AcDbArc
 50
359.9991079999987
 51
89.99832899999965
  0
LINE
  5
5EC
330
1F
100
AcDbEntity
  8
0
 62
     7
 48
0.003232
370
    35
100
AcDbLine
 10
66.35755354710807
 20
32.30335561350046
 30
0.0
 11
66.35755354710807
 21
32.17408261350044
 31
0.0
  0
ARC
  5
5ED
330
1F
100
AcDbEntity
  8
0
 62
     7
370
    35
100
AcDbCircle
 10
66.15857854710805
 20
32.17505961350042
 30
0.0
 40
0.199099
100
AcDbArc
 50
269.7041680000002
 51
359.7194799999999
  0
LINE
  5
5EE
330
1F
100
AcDbEntity
  8
0
 62
     7
 48
0.003232
370
    35
100
AcDbLine
 10
66.35755354710807
 20
76.77753761350044
 30
0.0
 11
66.35755354710807
 21
76.64826461350043
 31
0.0
  0
LINE
  5
5EF
330
1F
100
AcDbEntity
  8
0
 62
     7
 48
0.003713
370
    35
100
AcDbLine
 10
66.35755354710807
 20
12.32435161350042
 30
0.0
 11
66.35755354710807
 21
12.17582261350043
 31
0.0
  0
ARC
  5
5F0
330
1F
100
AcDbEntity
  8
0
 62
     7
370
    35
100
AcDbCircle
 10
66.15754154710805
 20
12.17582261350043
 30
0.0
 40
0.200004
100
AcDbArc
 50
270.001663999997
 51
0.0008839999997646
  0
LINE
  5
5F1
330
1F
100
AcDbEntity
  8
0
 62
     7
 48
0.438746
370
    35
100
AcDbLine
 10
66.35755354710807
 20
32.17408261350044
 30
0.0
 11
66.35755354710807
 21
14.62424761350041
 31
0.0
  0
CIRCLE
  5
5F2
330
1F
100
AcDbEntity
  8
0
 62
     7
370
    35
100
AcDbCircle
 10
43.85755354710818
 20
80.47581061350042
 30
0.0
 40
3.150000000000005
  0
CIRCLE
  5
5F3
330
1F
100
AcDbEntity
  8
0
 62
     7
370
    35
100
AcDbCircle
 10
54.85755354710812
 20
28.47581061350041
 30
0.0
 40
3.150000000000005
  0
CIRCLE
  5
5F4
330
1F
100
AcDbEntity
  8
0
 62
     7
370
    35
100
AcDbCircle
 10
32.85755354710818
 20
28.47581061350041
 30
0.0
 40
3.150000000000005
  0
LINE
  5
5F5
330
1F
100
AcDbEntity
  8
0
 62
     7
370
    35
100
AcDbLine
 10
21.55640960227152
 20
31.97596064903019
 30
0.0
 11
66.15755055527052
 21
31.97596326739182
 31
0.0
  0
ARC
  5
5F6
330
1F
100
AcDbEntity
  8
0
 62
     7
370
    35
100
AcDbCircle
 10
43.85755354710818
 20
54.47581061350041
 30
0.0
 40
20.5
100
AcDbArc
 50
101.251843999996
 51
258.7481690000008
  0
ARC
  5
5F7
330
1F
100
AcDbEntity
  8
0
 62
     7
370
    35
100
AcDbCircle
 10
43.85755354710818
 20
54.47581061350041
 30
0.0
 40
20.5
100
AcDbArc
 50
281.2518329999996
 51
78.7481539999971
  0
LINE
  5
5F8
330
1F
100
AcDbEntity
  8
0
 62
     7
 48
0.000355
370
    35
100
AcDbLine
 10
39.85755354710818
 20
32.31098461350047
 30
0.0
 11
39.85755354710818
 21
32.32517561350039
 31
0.0
  0
LINE
  5
5F9
330
1F
100
AcDbEntity
  8
0
 62
     7
 48
0.044998
370
    35
100
AcDbLine
 10
39.85755354710818
 20
34.12510261350042
 30
0.0
 11
39.85755354710818
 21
32.32517561350039
 31
0.0
  0
LINE
  5
5FA
330
1F
100
AcDbEntity
  8
0
 62
     7
 48
0.006119
370
    35
100
AcDbLine
 10
39.85755354710818
 20
34.36985361350043
 30
0.0
 11
39.85755354710818
 21
34.12510261350042
 31
0.0
  0
LINE
  5
5FB
330
1F
100
AcDbEntity
  8
0
 62
     7
 48
0.005
370
    13
100
AcDbLine
 10
40.05755054710812
 20
34.12510261350042
 30
0.0
 11
39.85755354710818
 21
34.12510261350042
 31
0.0
  0
POLYLINE
  5
5FC
330
1F
100
AcDbEntity
  8
0
 62
     7
370
    13
100
AcDb2dPolyline
 66
     1
 10
0.0
 20
0.0
 30
0.0
  0
VERTEX
  5
5FD
330
5FC
100
AcDbEntity
  8
0
370
     0
100
AcDbVertex
100
AcDb2dVertex
 10
39.85755354710818
 20
32.32517561350039
 30
0.0
  0
VERTEX
  5
5FE
330
5FC
100
AcDbEntity
  8
0
370
     0
100
AcDbVertex
100
AcDb2dVertex
 10
39.86797554710802
 20
32.26145461350041
 30
0.0
  0
VERTEX
  5
5FF
330
5FC
100
AcDbEntity
  8
0
370
     0
100
AcDbVertex
100
AcDb2dVertex
 10
39.89815754710799
 20
32.20438661350045
 30
0.0
  0
VERTEX
  5
600
330
5FC
100
AcDbEntity
  8
0
370
     0
100
AcDbVertex
100
AcDb2dVertex
 10
39.94494054710799
 20
32.15992261350044
 30
0.0
  0
VERTEX
  5
601
330
5FC
100
AcDbEntity
  8
0
370
     0
100
AcDbVertex
100
AcDb2dVertex
 10
40.05755054710812
 20
32.12519361350042
 30
0.0
  0
SEQEND
  5
602
330
5FC
100
AcDbEntity
  8
0
370
     0
  0
LINE
  5
603
330
1F
100
AcDbEntity
  8
0
 62
     7
 48
0.006119
370
    35
100
AcDbLine
 10
47.85755354710812
 20
34.36985361350043
 30
0.0
 11
47.85755354710812
 21
34.12510261350042
 31
0.0
  0
LINE
  5
604
330
1F
100
AcDbEntity
  8
0
 62
     7
 48
0.044998
370
    35
100
AcDbLine
 10
47.85755354710812
 20
34.12510261350042
 30
0.0
 11
47.85755354710812
 21
32.32517561350039
 31
0.0
  0
LINE
  5
605
330
1F
100
AcDbEntity
  8
0
 62
     7
 48
0.000355
370
    35
100
AcDbLine
 10
47.85755354710812
 20
32.31098461350047
 30
0.0
 11
47.85755354710812
 21
32.32517561350039
 31
0.0
  0
LINE
  5
606
330
1F
100
AcDbEntity
  8
0
 62
     7
 48
0.19
370
    13
100
AcDbLine
 10
40.05755054710812
 20
32.12519361350042
 30
0.0
 11
47.65755654710807
 21
32.12519361350042
 31
0.0
  0
LINE
  5
607
330
1F
100
AcDbEntity
  8
0
 62
     7
 48
0.19
370
    13
100
AcDbLine
 10
40.05755054710812
 20
34.12510261350042
 30
0.0
 11
47.65755654710807
 21
34.12510261350042
 31
0.0
  0
POLYLINE
  5
608
330
1F
100
AcDbEntity
  8
0
 62
     7
370
    13
100
AcDb2dPolyline
 66
     1
 10
0.0
 20
0.0
 30
0.0
  0
VERTEX
  5
609
330
608
100
AcDbEntity
  8
0
370
     0
100
AcDbVertex
100
AcDb2dVertex
 10
47.65755654710807
 20
32.12519361350042
 30
0.0
  0
VERTEX
  5
60A
330
608
100
AcDbEntity
  8
0
370
     0
100
AcDbVertex
100
AcDb2dVertex
 10
47.72127754710806
 20
32.1356006135004
 30
0.0
  0
VERTEX
  5
60B
330
608
100
AcDbEntity
  8
0
370
     0
100
AcDbVertex
100
AcDb2dVertex
 10
47.77834554710807
 20
32.16578161350043
 30
0.0
  0
VERTEX
  5
60C
330
608
100
AcDbEntity
  8
0
370
     0
100
AcDbVertex
100
AcDb2dVertex
 10
47.82283954710812
 20
32.21256561350043
 30
0.0
  0
VERTEX
  5
60D
330
608
100
AcDbEntity
  8
0
370
     0
100
AcDbVertex
100
AcDb2dVertex
 10
47.85755354710812
 20
32.32517561350039
 30
0.0
  0
SEQEND
  5
60E
330
608
100
AcDbEntity
  8
0
370
     0
  0
LINE
  5
60F
330
1F
100
AcDbEntity
  8
0
 62
     7
 48
0.005
370
    13
100
AcDbLine
 10
47.65755654710807
 20
34.12510261350042
 30
0.0
 11
47.85755354710812
 21
34.12510261350042
 31
0.0
  0
LINE
  5
610
330
1F
100
AcDbEntity
  8
0
 62
     7
 48
0.006119
370
    35
100
AcDbLine
 10
47.85755354710812
 20
74.82651861350041
 30
0.0
 11
47.85755354710812
 21
74.5817676135004
 31
0.0
  0
LINE
  5
611
330
1F
100
AcDbEntity
  8
0
 62
     7
 48
0.005
370
    13
100
AcDbLine
 10
47.65755654710807
 20
74.82651861350041
 30
0.0
 11
47.85755354710812
 21
74.82651861350041
 31
0.0
  0
LINE
  5
612
330
1F
100
AcDbEntity
  8
0
 62
     7
 48
0.006119
370
    35
100
AcDbLine
 10
39.85755354710818
 20
74.82651861350041
 30
0.0
 11
39.85755354710818
 21
74.5817676135004
 31
0.0
  0
LINE
  5
613
330
1F
100
AcDbEntity
  8
0
 62
     7
 48
0.19
370
    13
100
AcDbLine
 10
40.05755054710812
 20
74.82651861350041
 30
0.0
 11
47.65755654710807
 21
74.82651861350041
 31
0.0
  0
LINE
  5
614
330
1F
100
AcDbEntity
  8
0
 62
     7
 48
0.005
370
    13
100
AcDbLine
 10
40.05755054710812
 20
74.82651861350041
 30
0.0
 11
39.85755354710818
 21
74.82651861350041
 31
0.0
  0
LINE
  5
615
330
1F
100
AcDbEntity
  8
0
 62
     7
 48
0.03625
370
    35
100
AcDbLine
 10
43.85755354710818
 20
85.87580361350047
 30
0.0
 11
42.40755654710802
 21
85.87580361350047
 31
0.0
  0
LINE
  5
616
330
1F
100
AcDbEntity
  8
0
 62
     7
 48
0.03625
370
    35
100
AcDbLine
 10
43.85755354710818
 20
85.87580361350047
 30
0.0
 11
45.30755054710811
 21
85.87580361350047
 31
0.0
  0
LINE
  5
617
330
1F
100
AcDbEntity
  8
0
 62
     7
 48
0.01625
370
    35
100
AcDbLine
 10
45.30755054710811
 20
85.87580361350047
 30
0.0
 11
45.30755054710811
 21
86.52579761350045
 31
0.0
  0
LINE
  5
618
330
1F
100
AcDbEntity
  8
0
 62
     7
 48
0.03625
370
    35
100
AcDbLine
 10
43.85755354710818
 20
86.52579761350045
 30
0.0
 11
45.30755054710811
 21
86.52579761350045
 31
0.0
  0
LINE
  5
619
330
1F
100
AcDbEntity
  8
0
 62
     7
 48
0.03625
370
    35
100
AcDbLine
 10
43.85755354710818
 20
86.52579761350045
 30
0.0
 11
42.40755654710802
 21
86.52579761350045
 31
0.0
  0
LINE
  5
61A
330
1F
100
AcDbEntity
  8
0
 62
     7
 48
0.01625
370
    35
100
AcDbLine
 10
42.40755654710802
 20
85.87580361350047
 30
0.0
 11
42.40755654710802
 21
86.52579761350045
 31
0.0
  0
LINE
  5
61B
330
1F
100
AcDbEntity
  8
0
 62
     7
 48
0.060625
370
    35
100
AcDbLine
 10
44.18255054710812
 20
89.12580361350046
 30
0.0
 11
46.60755354710818
 21
89.12580361350046
 31
0.0
  0
LINE
  5
61C
330
1F
100
AcDbEntity
  8
0
 62
     7
 48
0.055
370
    35
100
AcDbLine
 10
44.18255054710812
 20
89.12580361350046
 30
0.0
 11
44.18255054710812
 21
91.32581661350043
 31
0.0
  0
LINE
  5
61D
330
1F
100
AcDbEntity
  8
0
 62
     7
 48
0.008125
370
    35
100
AcDbLine
 10
43.85755354710818
 20
91.32581661350043
 30
0.0
 11
44.18255054710812
 21
91.32581661350043
 31
0.0
  0
LINE
  5
61E
330
1F
100
AcDbEntity
  8
0
 62
     7
 48
0.008125
370
    35
100
AcDbLine
 10
43.85755354710818
 20
91.32581661350043
 30
0.0
 11
43.53255654710801
 21
91.32581661350043
 31
0.0
  0
LINE
  5
61F
330
1F
100
AcDbEntity
  8
0
 62
     7
 48
0.055
370
    35
100
AcDbLine
 10
43.53255654710801
 20
89.12580361350046
 30
0.0
 11
43.53255654710801
 21
91.32581661350043
 31
0.0
  0
LINE
  5
620
330
1F
100
AcDbEntity
  8
0
 62
     7
 48
0.060625
370
    35
100
AcDbLine
 10
43.53255654710801
 20
89.12580361350046
 30
0.0
 11
41.10755354710818
 21
89.12580361350046
 31
0.0
  0
LINE
  5
621
330
1F
100
AcDbEntity
  8
0
 62
     7
 48
0.01625
370
    35
100
AcDbLine
 10
41.10755354710818
 20
88.47581061350041
 30
0.0
 11
41.10755354710818
 21
89.12580361350046
 31
0.0
  0
LINE
  5
622
330
1F
100
AcDbEntity
  8
0
 62
     7
 48
0.06875
370
    35
100
AcDbLine
 10
43.85755354710818
 20
88.47581061350041
 30
0.0
 11
41.10755354710818
 21
88.47581061350041
 31
0.0
  0
LINE
  5
623
330
1F
100
AcDbEntity
  8
0
 62
     7
 48
0.06875
370
    35
100
AcDbLine
 10
43.85755354710818
 20
88.47581061350041
 30
0.0
 11
46.60755354710818
 21
88.47581061350041
 31
0.0
  0
LINE
  5
624
330
1F
100
AcDbEntity
  8
0
 62
     7
 48
0.01625
370
    35
100
AcDbLine
 10
46.60755354710818
 20
88.47581061350041
 30
0.0
 11
46.60755354710818
 21
89.12580361350046
 31
0.0
  0
POINT
  5
625
330
1F
100
AcDbEntity
  8
0
 62
     7
370
     5
100
AcDbPoint
 10
43.85755354710818
 20
88.47581061350041
 30
0.0
  0
DIMENSION
  5
626
330
1F
100
AcDbEntity
  8
QUOTE
 62
     1
100
AcDbDimension
  2
*D9
 10
66.35756054713175
 20
104.4757792023463
 30
0.0
 11
43.85756104713178
 21
104.4757792023463
 31
0.0
 70
    32
 71
     5
 42
44.99999899999994
  3
Standard
100
AcDbAlignedDimension
 13
21.35756154713181
 23
96.77578861341562
 33
0.0
 14
66.35756054713175
 24
96.77578861341562
 34
0.0
100
AcDbRotatedDimension
1001
ACAD
1000
DSTYLE
1002
{
1070
   271
1070
     1
1070
    41
1040
5.0
1070
   140
1040
5.0
1002
}
  0
DIMENSION
  5
627
330
1F
100
AcDbEntity
  8
QUOTE
 62
     1
100
AcDbDimension
  2
*D10
 10
10.61494038935871
 20
96.97580161341557
 30
0.0
 11
10.61494038935869
 21
54.47580561345802
 31
0.0
 70
    32
 71
     5
 42
84.9999919999151
  3
Standard
100
AcDbAlignedDimension
 13
21.80755772110615
 23
11.97580961350047
 33
0.0
 14
21.80756054713175
 24
96.97580161341557
 34
0.0
 50
90.0
100
AcDbRotatedDimension
1001
ACAD
1000
DSTYLE
1002
{
1070
   271
1070
     1
1070
    41
1040
5.0
1070
   140
1040
5.0
1002
}
  0
ARC
  5
628
330
1F
100
AcDbEntity
  8
0
 62
     7
370
    35
100
AcDbCircle
 10
46.43923553838123
 20
8.893543445862349
 30
0.0
 40
0.5
100
AcDbArc
 50
269.9999969999958
 51
345.0000000000023
  0
ARC
  5
629
330
1F
100
AcDbEntity
  8
0
 62
     7
370
    35
100
AcDbCircle
 10
41.27587053838124
 20
8.893543445862349
 30
0.0
 40
0.5
100
AcDbArc
 50
195.0000060000005
 51
269.9999969999958
  0
LINE
  5
62A
330
1F
100
AcDbEntity
  8
0
 62
     7
 48
0.129084
370
    35
100
AcDbLine
 10
46.43923553838123
 20
8.393543445862349
 30
0.0
 11
41.27587053838124
 21
8.393543445862349
 31
0.0
  0
LINE
  5
62B
330
1F
100
AcDbEntity
  8
0
 62
     7
 48
0.019411
370
    35
100
AcDbLine
 10
46.92219853838127
 20
8.764133445862341
 30
0.0
 11
47.12316053838129
 21
9.514133445862341
 31
0.0
  0
ARC
  5
62C
330
1F
100
AcDbEntity
  8
0
 62
     7
370
    35
100
AcDbCircle
 10
46.64019753838124
 20
9.643543445862349
 30
0.0
 40
0.5
100
AcDbArc
 50
345.0000000000023
 51
90.00000299999769
  0
LINE
  5
62D
330
1F
100
AcDbEntity
  8
0
 62
     7
 48
0.019411
370
    35
100
AcDbLine
 10
40.79290753838131
 20
8.764133445862341
 30
0.0
 11
40.5919465383813
 21
9.514133445862341
 31
0.0
  0
ARC
  5
62E
330
1F
100
AcDbEntity
  8
0
 62
     7
370
    35
100
AcDbCircle
 10
41.07490853838135
 20
9.643543445862349
 30
0.0
 40
0.5
100
AcDbArc
 50
90.00000299999769
 51
195.0000060000005
  0
LINE
  5
62F
330
1F
100
AcDbEntity
  8
0
 62
     7
 48
0.018868
370
    35
100
AcDbLine
 10
41.82962353838127
 20
10.14354344586235
 30
0.0
 11
41.07490853838135
 21
10.14354344586235
 31
0.0
  0
ARC
  5
630
330
1F
100
AcDbEntity
  8
0
 62
     7
370
    35
100
AcDbCircle
 10
41.82962353838127
 20
10.4435424458623
 30
0.0
 40
0.3
100
AcDbArc
 50
269.9999969999958
 51
351.5850319999997
  0
LINE
  5
631
330
1F
100
AcDbEntity
  8
0
 62
     7
 48
0.018868
370
    35
100
AcDbLine
 10
46.64019753838124
 20
10.14354344586235
 30
0.0
 11
45.88548353838132
 21
10.14354344586235
 31
0.0
  0
ARC
  5
632
330
1F
100
AcDbEntity
  8
0
 62
     7
370
    35
100
AcDbCircle
 10
43.85755353838123
 20
10.14354344586235
 30
0.0
 40
1.75
100
AcDbArc
 50
8.414968000000305
 51
171.5850339999998
  0
ARC
  5
633
330
1F
100
AcDbEntity
  8
0
 62
     7
370
    35
100
AcDbCircle
 10
45.88548353838132
 20
10.4435424458623
 30
0.0
 40
0.3
100
AcDbArc
 50
188.4149660000002
 51
269.9999969999958
  0
LINE
  5
634
330
1F
100
AcDbEntity
  8
0
 62
     7
 48
0.061249
370
    35
100
AcDbLine
 10
49.19733053838126
 20
9.527637445862353
 30
0.0
 11
49.83142353838127
 21
11.97581861358492
 31
0.0
  0
LINE
  5
635
330
1F
100
AcDbEntity
  8
0
 62
     7
 48
0.033158
370
    35
100
AcDbLine
 10
49.19733053838126
 20
9.527637445862353
 30
0.0
 11
48.85405053838127
 21
8.24649444586231
 31
0.0
  0
ARC
  5
636
330
1F
100
AcDbEntity
  8
0
 62
     7
370
    35
100
AcDbCircle
 10
46.43923553838123
 20
8.893543445862349
 30
0.0
 40
2.5
100
AcDbArc
 50
269.9999969999958
 51
345.0000000000023
  0
LINE
  5
637
330
1F
100
AcDbEntity
  8
0
 62
     7
 48
0.129084
370
    35
100
AcDbLine
 10
41.27587053838124
 20
6.393543445862349
 30
0.0
 11
46.43923553838123
 21
6.393543445862349
 31
0.0
  0
ARC
  5
638
330
1F
100
AcDbEntity
  8
0
 62
     7
370
    35
100
AcDbCircle
 10
41.27587053838124
 20
8.893543445862349
 30
0.0
 40
2.5
100
AcDbArc
 50
195.0000060000005
 51
269.9999969999958
  0
LINE
  5
639
330
1F
100
AcDbEntity
  8
0
 62
     7
 48
0.033158
370
    35
100
AcDbLine
 10
38.51777553838133
 20
9.527637445862353
 30
0.0
 11
38.86105553838127
 21
8.24649444586231
 31
0.0
  0
LINE
  5
63A
330
1F
100
AcDbEntity
  8
0
 62
     7
 48
0.061234
370
    35
100
AcDbLine
 10
38.51777553838133
 20
9.527637445862353
 30
0.0
 11
37.88383353838128
 21
11.97581861358509
 31
0.0
  0
SOLID
  5
63B
330
1F
100
AcDbEntity
  8
0
 62
     1
370
     5
100
AcDbTrace
 10
30.14250154710806
 20
36.07131557333327
 30
0.0
 11
30.15812254710807
 21
35.91006057333323
 31
0.0
 12
30.15420854710806
 22
35.99108457333324
 32
0.0
 13
30.15420854710806
 23
35.99108457333324
 33
0.0
  0
LINE
  5
63C
330
1F
100
AcDbEntity
  8
0
 62
     1
 48
0.004117
370
    13
100
AcDbLine
 10
22.99812254710809
 20
35.07006457333324
 30
0.0
 11
22.83424754710813
 21
35.08620857333324
 31
0.0
  0
LINE
  5
63D
330
1F
100
AcDbEntity
  8
0
 62
     1
 48
0.004117
370
    13
100
AcDbLine
 10
22.83424754710813
 20
35.08620857333324
 30
0.0
 11
22.67666554710809
 21
35.13399857333326
 31
0.0
  0
LINE
  5
63E
330
1F
100
AcDbEntity
  8
0
 62
     1
 48
0.004117
370
    13
100
AcDbLine
 10
22.67666554710809
 20
35.13399857333326
 30
0.0
 11
22.5314445471081
 21
35.21163557333324
 31
0.0
  0
LINE
  5
63F
330
1F
100
AcDbEntity
  8
0
 62
     1
 48
0.004117
370
    13
100
AcDbLine
 10
22.5314445471081
 20
35.21163557333324
 30
0.0
 11
22.40415154710809
 21
35.31609657333325
 31
0.0
  0
LINE
  5
640
330
1F
100
AcDbEntity
  8
0
 62
     1
 48
0.004117
370
    13
100
AcDbLine
 10
22.40415154710809
 20
35.31609657333325
 30
0.0
 11
22.29968954710807
 21
35.44338557333322
 31
0.0
  0
LINE
  5
641
330
1F
100
AcDbEntity
  8
0
 62
     1
 48
0.004117
370
    13
100
AcDbLine
 10
22.29968954710807
 20
35.44338557333322
 30
0.0
 11
22.22206054710807
 21
35.58861857333324
 31
0.0
  0
LINE
  5
642
330
1F
100
AcDbEntity
  8
0
 62
     1
 48
0.004116
370
    13
100
AcDbLine
 10
22.22206054710807
 20
35.58861857333324
 30
0.0
 11
22.17426254710813
 21
35.74618157333322
 31
0.0
  0
LINE
  5
643
330
1F
100
AcDbEntity
  8
0
 62
     1
 48
0.004117
370
    13
100
AcDbLine
 10
22.17426254710813
 20
35.74618157333322
 30
0.0
 11
22.15812254710806
 21
35.91006057333323
 31
0.0
  0
LINE
  5
644
330
1F
100
AcDbEntity
  8
0
 62
     1
 48
0.004117
370
    13
100
AcDbLine
 10
22.15812254710806
 20
35.91006057333323
 30
0.0
 11
22.17426254710813
 21
36.07393957333324
 31
0.0
  0
LINE
  5
645
330
1F
100
AcDbEntity
  8
0
 62
     1
 48
0.004117
370
    13
100
AcDbLine
 10
22.17426254710813
 20
36.07393957333324
 30
0.0
 11
22.22206054710807
 21
36.23153257333326
 31
0.0
  0
LINE
  5
646
330
1F
100
AcDbEntity
  8
0
 62
     1
 48
0.004116
370
    13
100
AcDbLine
 10
22.22206054710807
 20
36.23153257333326
 30
0.0
 11
22.29968954710807
 21
36.37673557333324
 31
0.0
  0
LINE
  5
647
330
1F
100
AcDbEntity
  8
0
 62
     1
 48
0.004117
370
    13
100
AcDbLine
 10
22.29968954710807
 20
36.37673557333324
 30
0.0
 11
22.40415154710809
 21
36.50405457333324
 31
0.0
  0
LINE
  5
648
330
1F
100
AcDbEntity
  8
0
 62
     1
 48
0.004117
370
    13
100
AcDbLine
 10
22.40415154710809
 20
36.50405457333324
 30
0.0
 11
22.5314445471081
 21
36.60851657333325
 31
0.0
  0
LINE
  5
649
330
1F
100
AcDbEntity
  8
0
 62
     1
 48
0.004116
370
    13
100
AcDbLine
 10
22.5314445471081
 20
36.60851657333325
 30
0.0
 11
22.67666554710809
 21
36.68612257333325
 31
0.0
  0
LINE
  5
64A
330
1F
100
AcDbEntity
  8
0
 62
     1
 48
0.004117
370
    13
100
AcDbLine
 10
22.67666554710809
 20
36.68612257333325
 30
0.0
 11
22.83424754710813
 21
36.73394357333325
 31
0.0
  0
LINE
  5
64B
330
1F
100
AcDbEntity
  8
0
 62
     1
 48
0.004117
370
    13
100
AcDbLine
 10
22.83424754710813
 20
36.73394357333325
 30
0.0
 11
22.99812254710809
 21
36.75005657333327
 31
0.0
  0
LINE
  5
64C
330
1F
100
AcDbEntity
  8
0
 62
     1
 48
0.011
370
    13
100
AcDbLine
 10
22.99812254710809
 20
36.75005657333327
 30
0.0
 11
23.43812154710804
 21
36.75005657333327
 31
0.0
  0
LINE
  5
64D
330
1F
100
AcDbEntity
  8
0
 62
     1
 48
0.012
370
    13
100
AcDbLine
 10
23.43812154710804
 20
36.75005657333327
 30
0.0
 11
23.43812154710804
 21
36.27007657333326
 31
0.0
  0
LINE
  5
64E
330
1F
100
AcDbEntity
  8
0
 62
     1
 48
0.016
370
    13
100
AcDbLine
 10
23.43812154710804
 20
36.27007657333326
 30
0.0
 11
22.79812254710805
 21
36.27007657333326
 31
0.0
  0
LINE
  5
64F
330
1F
100
AcDbEntity
  8
0
 62
     1
 48
0.018
370
    13
100
AcDbLine
 10
22.79812254710805
 20
36.27007657333326
 30
0.0
 11
22.79812254710805
 21
35.55007557333323
 31
0.0
  0
LINE
  5
650
330
1F
100
AcDbEntity
  8
0
 62
     1
 48
0.003
370
    13
100
AcDbLine
 10
22.79812254710805
 20
35.55007557333323
 30
0.0
 11
22.91812154710806
 21
35.55007557333323
 31
0.0
  0
LINE
  5
651
330
1F
100
AcDbEntity
  8
0
 62
     1
 48
0.015
370
    13
100
AcDbLine
 10
22.91812154710806
 20
35.55007557333323
 30
0.0
 11
22.91812154710806
 21
36.15008157333324
 31
0.0
  0
LINE
  5
652
330
1F
100
AcDbEntity
  8
0
 62
     1
 48
0.013
370
    13
100
AcDbLine
 10
22.91812154710806
 20
36.15008157333324
 30
0.0
 11
23.43812154710804
 21
36.15008157333324
 31
0.0
  0
LINE
  5
653
330
1F
100
AcDbEntity
  8
0
 62
     1
 48
0.027
370
    13
100
AcDbLine
 10
23.43812154710804
 20
36.15008157333324
 30
0.0
 11
23.43812154710804
 21
35.07006457333324
 31
0.0
  0
LINE
  5
654
330
1F
100
AcDbEntity
  8
0
 62
     1
 48
0.011
370
    13
100
AcDbLine
 10
23.43812154710804
 20
35.07006457333324
 30
0.0
 11
22.99812254710809
 21
35.07006457333324
 31
0.0
  0
LINE
  5
655
330
1F
100
AcDbEntity
  8
0
 62
     1
 48
0.032
370
    13
100
AcDbLine
 10
23.55812054710805
 20
35.07006457333324
 30
0.0
 11
24.83812254710802
 21
35.07006457333324
 31
0.0
  0
LINE
  5
656
330
1F
100
AcDbEntity
  8
0
 62
     1
 48
0.012
370
    13
100
AcDbLine
 10
24.83812254710802
 20
35.07006457333324
 30
0.0
 11
24.83812254710802
 21
35.55007557333323
 31
0.0
  0
LINE
  5
657
330
1F
100
AcDbEntity
  8
0
 62
     1
 48
0.019
370
    13
100
AcDbLine
 10
24.83812254710802
 20
35.55007557333323
 30
0.0
 11
24.07812454710802
 21
35.55007557333323
 31
0.0
  0
LINE
  5
658
330
1F
100
AcDbEntity
  8
0
 62
     1
 48
0.003
370
    13
100
AcDbLine
 10
24.07812454710802
 20
35.55007557333323
 30
0.0
 11
24.07812454710802
 21
35.67007057333325
 31
0.0
  0
LINE
  5
659
330
1F
100
AcDbEntity
  8
0
 62
     1
 48
0.019
370
    13
100
AcDbLine
 10
24.07812454710802
 20
35.67007057333325
 30
0.0
 11
24.83812254710802
 21
35.67007057333325
 31
0.0
  0
LINE
  5
65A
330
1F
100
AcDbEntity
  8
0
 62
     1
 48
0.012
370
    13
100
AcDbLine
 10
24.83812254710802
 20
35.67007057333325
 30
0.0
 11
24.83812254710802
 21
36.15008157333324
 31
0.0
  0
LINE
  5
65B
330
1F
100
AcDbEntity
  8
0
 62
     1
 48
0.019
370
    13
100
AcDbLine
 10
24.83812254710802
 20
36.15008157333324
 30
0.0
 11
24.07812454710802
 21
36.15008157333324
 31
0.0
  0
LINE
  5
65C
330
1F
100
AcDbEntity
  8
0
 62
     1
 48
0.003
370
    13
100
AcDbLine
 10
24.07812454710802
 20
36.15008157333324
 30
0.0
 11
24.07812454710802
 21
36.27007657333326
 31
0.0
  0
LINE
  5
65D
330
1F
100
AcDbEntity
  8
0
 62
     1
 48
0.005
370
    13
100
AcDbLine
 10
24.07812454710802
 20
36.27007657333326
 30
0.0
 11
24.27812154710807
 21
36.27007657333326
 31
0.0
  0
LINE
  5
65E
330
1F
100
AcDbEntity
  8
0
 62
     1
 48
0.012
370
    13
100
AcDbLine
 10
24.27812154710807
 20
36.27007657333326
 30
0.0
 11
24.27812154710807
 21
36.75005657333327
 31
0.0
  0
LINE
  5
65F
330
1F
100
AcDbEntity
  8
0
 62
     1
 48
0.018
370
    13
100
AcDbLine
 10
24.27812154710807
 20
36.75005657333327
 30
0.0
 11
23.55812054710805
 21
36.75005657333327
 31
0.0
  0
LINE
  5
660
330
1F
100
AcDbEntity
  8
0
 62
     1
 48
0.042
370
    13
100
AcDbLine
 10
23.55812054710805
 20
36.75005657333327
 30
0.0
 11
23.55812054710805
 21
35.07006457333324
 31
0.0
  0
LINE
  5
661
330
1F
100
AcDbEntity
  8
0
 62
     1
 48
0.012322
370
    13
100
AcDbLine
 10
25.65101554710805
 20
35.07006457333324
 30
0.0
 11
25.15812254710807
 21
35.07006457333324
 31
0.0
  0
LINE
  5
662
330
1F
100
AcDbEntity
  8
0
 62
     1
 48
0.030806
370
    13
100
AcDbLine
 10
25.15812254710807
 20
35.07006457333324
 30
0.0
 11
24.87812054710798
 21
36.27007657333326
 31
0.0
  0
LINE
  5
663
330
1F
100
AcDbEntity
  8
0
 62
     1
 48
0.012
370
    13
100
AcDbLine
 10
24.87812054710798
 20
36.27007657333326
 30
0.0
 11
24.39812454710807
 21
36.27007657333326
 31
0.0
  0
LINE
  5
664
330
1F
100
AcDbEntity
  8
0
 62
     1
 48
0.012
370
    13
100
AcDbLine
 10
24.39812454710807
 20
36.27007657333326
 30
0.0
 11
24.39812454710807
 21
36.75005657333327
 31
0.0
  0
LINE
  5
665
330
1F
100
AcDbEntity
  8
0
 62
     1
 48
0.021522
370
    13
100
AcDbLine
 10
24.39812454710807
 20
36.75005657333327
 30
0.0
 11
25.25901754710799
 21
36.75005657333327
 31
0.0
  0
LINE
  5
666
330
1F
100
AcDbEntity
  8
0
 62
     1
 48
0.020423
370
    13
100
AcDbLine
 10
25.25901754710799
 20
36.75005657333327
 30
0.0
 11
25.44464454710805
 21
35.95452457333323
 31
0.0
  0
LINE
  5
667
330
1F
100
AcDbEntity
  8
0
 62
     1
 48
0.020282
370
    13
100
AcDbLine
 10
25.44464454710805
 20
35.95452457333323
 30
0.0
 11
25.60375154710801
 21
36.75005657333327
 31
0.0
  0
LINE
  5
668
330
1F
100
AcDbEntity
  8
0
 62
     1
 48
0.012
370
    13
100
AcDbLine
 10
25.60375154710801
 20
36.75005657333327
 30
0.0
 11
26.08375554710801
 21
36.75005657333327
 31
0.0
  0
LINE
  5
669
330
1F
100
AcDbEntity
  8
0
 62
     1
 48
0.019008
370
    13
100
AcDbLine
 10
26.08375554710801
 20
36.75005657333327
 30
0.0
 11
26.25652654710803
 21
36.00960857333325
 31
0.0
  0
LINE
  5
66A
330
1F
100
AcDbEntity
  8
0
 62
     1
 48
0.018878
370
    13
100
AcDbLine
 10
26.25652654710803
 20
36.00960857333325
 30
0.0
 11
26.40461654710805
 21
36.75005657333327
 31
0.0
  0
LINE
  5
66B
330
1F
100
AcDbEntity
  8
0
 62
     1
 48
0.023838
370
    13
100
AcDbLine
 10
26.40461654710805
 20
36.75005657333327
 30
0.0
 11
27.35812354710811
 21
36.75005657333327
 31
0.0
  0
LINE
  5
66C
330
1F
100
AcDbEntity
  8
0
 62
     1
 48
0.012
370
    13
100
AcDbLine
 10
27.35812354710811
 20
36.75005657333327
 30
0.0
 11
27.35812354710811
 21
36.27007657333326
 31
0.0
  0
LINE
  5
66D
330
1F
100
AcDbEntity
  8
0
 62
     1
 48
0.014
370
    13
100
AcDbLine
 10
27.35812354710811
 20
36.27007657333326
 30
0.0
 11
26.79812254710805
 21
36.27007657333326
 31
0.0
  0
LINE
  5
66E
330
1F
100
AcDbEntity
  8
0
 62
     1
 48
0.030594
370
    13
100
AcDbLine
 10
26.79812254710805
 20
36.27007657333326
 30
0.0
 11
26.55812054710805
 21
35.07006457333324
 31
0.0
  0
LINE
  5
66F
330
1F
100
AcDbEntity
  8
0
 62
     1
 48
0.012238
370
    13
100
AcDbLine
 10
26.55812054710805
 20
35.07006457333324
 30
0.0
 11
26.06861854710803
 21
35.07006457333324
 31
0.0
  0
LINE
  5
670
330
1F
100
AcDbEntity
  8
0
 62
     1
 48
0.02474
370
    13
100
AcDbLine
 10
26.06861854710803
 20
35.07006457333324
 30
0.0
 11
25.843757547108
 21
36.03377857333328
 31
0.0
  0
LINE
  5
671
330
1F
100
AcDbEntity
  8
0
 62
     1
 48
0.02457
370
    13
100
AcDbLine
 10
25.843757547108
 20
36.03377857333328
 30
0.0
 11
25.65101554710805
 21
35.07006457333324
 31
0.0
  0
LINE
  5
672
330
1F
100
AcDbEntity
  8
0
 62
     1
 48
0.012
370
    13
100
AcDbLine
 10
26.87812054710799
 20
35.07006457333324
 30
0.0
 11
27.35812354710811
 21
35.07006457333324
 31
0.0
  0
LINE
  5
673
330
1F
100
AcDbEntity
  8
0
 62
     1
 48
0.027
370
    13
100
AcDbLine
 10
27.35812354710811
 20
35.07006457333324
 30
0.0
 11
27.35812354710811
 21
36.15008157333324
 31
0.0
  0
LINE
  5
674
330
1F
100
AcDbEntity
  8
0
 62
     1
 48
0.027
370
    13
100
AcDbLine
 10
26.87812054710799
 20
36.15008157333324
 30
0.0
 11
26.87812054710799
 21
35.07006457333324
 31
0.0
  0
LINE
  5
675
330
1F
100
AcDbEntity
  8
0
 62
     1
 48
0.032
370
    13
100
AcDbLine
 10
27.47812254710812
 20
35.07006457333324
 30
0.0
 11
28.75812154710809
 21
35.07006457333324
 31
0.0
  0
LINE
  5
676
330
1F
100
AcDbEntity
  8
0
 62
     1
 48
0.027
370
    13
100
AcDbLine
 10
28.75812154710809
 20
35.07006457333324
 30
0.0
 11
28.75812154710809
 21
36.15008157333324
 31
0.0
  0
LINE
  5
677
330
1F
100
AcDbEntity
  8
0
 62
     1
 48
0.019
370
    13
100
AcDbLine
 10
28.75812154710809
 20
36.15008157333324
 30
0.0
 11
27.9981225471081
 21
36.15008157333324
 31
0.0
  0
LINE
  5
678
330
1F
100
AcDbEntity
  8
0
 62
     1
 48
0.003
370
    13
100
AcDbLine
 10
27.9981225471081
 20
36.15008157333324
 30
0.0
 11
27.9981225471081
 21
36.27007657333326
 31
0.0
  0
LINE
  5
679
330
1F
100
AcDbEntity
  8
0
 62
     1
 48
0.019
370
    13
100
AcDbLine
 10
27.9981225471081
 20
36.27007657333326
 30
0.0
 11
28.75812154710809
 21
36.27007657333326
 31
0.0
  0
LINE
  5
67A
330
1F
100
AcDbEntity
  8
0
 62
     1
 48
0.012
370
    13
100
AcDbLine
 10
28.75812154710809
 20
36.27007657333326
 30
0.0
 11
28.75812154710809
 21
36.75005657333327
 31
0.0
  0
LINE
  5
67B
330
1F
100
AcDbEntity
  8
0
 62
     1
 48
0.032
370
    13
100
AcDbLine
 10
28.75812154710809
 20
36.75005657333327
 30
0.0
 11
27.47812254710812
 21
36.75005657333327
 31
0.0
  0
LINE
  5
67C
330
1F
100
AcDbEntity
  8
0
 62
     1
 48
0.027
370
    13
100
AcDbLine
 10
27.47812254710812
 20
36.75005657333327
 30
0.0
 11
27.47812254710812
 21
35.67007057333325
 31
0.0
  0
LINE
  5
67D
330
1F
100
AcDbEntity
  8
0
 62
     1
 48
0.019
370
    13
100
AcDbLine
 10
27.47812254710812
 20
35.67007057333325
 30
0.0
 11
28.23812054710811
 21
35.67007057333325
 31
0.0
  0
LINE
  5
67E
330
1F
100
AcDbEntity
  8
0
 62
     1
 48
0.003
370
    13
100
AcDbLine
 10
28.23812054710811
 20
35.67007057333325
 30
0.0
 11
28.23812054710811
 21
35.55007557333323
 31
0.0
  0
LINE
  5
67F
330
1F
100
AcDbEntity
  8
0
 62
     1
 48
0.019
370
    13
100
AcDbLine
 10
28.23812054710811
 20
35.55007557333323
 30
0.0
 11
27.47812254710812
 21
35.55007557333323
 31
0.0
  0
LINE
  5
680
330
1F
100
AcDbEntity
  8
0
 62
     1
 48
0.012
370
    13
100
AcDbLine
 10
27.47812254710812
 20
35.55007557333323
 30
0.0
 11
27.47812254710812
 21
35.07006457333324
 31
0.0
  0
LINE
  5
681
330
1F
100
AcDbEntity
  8
0
 62
     1
 48
0.004117
370
    13
100
AcDbLine
 10
29.31812254710803
 20
35.07006457333324
 30
0.0
 11
29.48199854710811
 21
35.08620857333324
 31
0.0
  0
LINE
  5
682
330
1F
100
AcDbEntity
  8
0
 62
     1
 48
0.004117
370
    13
100
AcDbLine
 10
29.48199854710811
 20
35.08620857333324
 30
0.0
 11
29.63957554710805
 21
35.13399857333326
 31
0.0
  0
LINE
  5
683
330
1F
100
AcDbEntity
  8
0
 62
     1
 48
0.004117
370
    13
100
AcDbLine
 10
29.63957554710805
 20
35.13399857333326
 30
0.0
 11
29.78480154710803
 21
35.21163557333324
 31
0.0
  0
LINE
  5
684
330
1F
100
AcDbEntity
  8
0
 62
     1
 48
0.004117
370
    13
100
AcDbLine
 10
29.78480154710803
 20
35.21163557333324
 30
0.0
 11
29.91209354710804
 21
35.31609657333325
 31
0.0
  0
LINE
  5
685
330
1F
100
AcDbEntity
  8
0
 62
     1
 48
0.004117
370
    13
100
AcDbLine
 10
29.91209354710804
 20
35.31609657333325
 30
0.0
 11
30.01655554710806
 21
35.44338557333322
 31
0.0
  0
LINE
  5
686
330
1F
100
AcDbEntity
  8
0
 62
     1
 48
0.004117
370
    13
100
AcDbLine
 10
30.01655554710806
 20
35.44338557333322
 30
0.0
 11
30.09418054710807
 21
35.58861857333324
 31
0.0
  0
LINE
  5
687
330
1F
100
AcDbEntity
  8
0
 62
     1
 48
0.004116
370
    13
100
AcDbLine
 10
30.09418054710807
 20
35.58861857333324
 30
0.0
 11
30.141982547108
 21
35.74618157333322
 31
0.0
  0
LINE
  5
688
330
1F
100
AcDbEntity
  8
0
 62
     1
 48
0.004117
370
    13
100
AcDbLine
 10
30.141982547108
 20
35.74618157333322
 30
0.0
 11
30.15812254710807
 21
35.91006057333323
 31
0.0
  0
LINE
  5
689
330
1F
100
AcDbEntity
  8
0
 62
     1
 48
0.002028
370
    13
100
AcDbLine
 10
30.15812254710807
 20
35.91006057333323
 30
0.0
 11
30.15420854710806
 21
35.99108457333324
 31
0.0
  0
LINE
  5
68A
330
1F
100
AcDbEntity
  8
0
 62
     1
 48
0.002027
370
    13
100
AcDbLine
 10
30.15420854710806
 20
35.99108457333324
 30
0.0
 11
30.14250154710806
 21
36.07131557333327
 31
0.0
  0
LINE
  5
68B
330
1F
100
AcDbEntity
  8
0
 62
     1
 48
0.002028
370
    13
100
AcDbLine
 10
30.14250154710806
 20
36.07131557333327
 30
0.0
 11
30.12310754710802
 21
36.15008157333324
 31
0.0
  0
LINE
  5
68C
330
1F
100
AcDbEntity
  8
0
 62
     1
 48
0.018125
370
    13
100
AcDbLine
 10
30.12310754710802
 20
36.15008157333324
 30
0.0
 11
29.39812454710807
 21
36.15008157333324
 31
0.0
  0
LINE
  5
68D
330
1F
100
AcDbEntity
  8
0
 62
     1
 48
0.003
370
    13
100
AcDbLine
 10
29.39812454710807
 20
36.15008157333324
 30
0.0
 11
29.39812454710807
 21
36.27007657333326
 31
0.0
  0
LINE
  5
68E
330
1F
100
AcDbEntity
  8
0
 62
     1
 48
0.016974
370
    13
100
AcDbLine
 10
29.39812454710807
 20
36.27007657333326
 30
0.0
 11
30.07706754710807
 21
36.27007657333326
 31
0.0
  0
LINE
  5
68F
330
1F
100
AcDbEntity
  8
0
 62
     1
 48
0.004727
370
    13
100
AcDbLine
 10
30.07706754710807
 20
36.27007657333326
 30
0.0
 11
29.97732154710809
 21
36.43069057333327
 31
0.0
  0
LINE
  5
690
330
1F
100
AcDbEntity
  8
0
 62
     1
 48
0.004728
370
    13
100
AcDbLine
 10
29.97732154710809
 20
36.43069057333327
 30
0.0
 11
29.84416954710809
 21
36.56496757333326
 31
0.0
  0
LINE
  5
691
330
1F
100
AcDbEntity
  8
0
 62
     1
 48
0.004727
370
    13
100
AcDbLine
 10
29.84416954710809
 20
36.56496757333326
 30
0.0
 11
29.68436354710809
 21
36.66601157333327
 31
0.0
  0
LINE
  5
692
330
1F
100
AcDbEntity
  8
0
 62
     1
 48
0.004727
370
    13
100
AcDbLine
 10
29.68436354710809
 20
36.66601157333327
 30
0.0
 11
29.50600454710798
 21
36.72878657333325
 31
0.0
  0
LINE
  5
693
330
1F
100
AcDbEntity
  8
0
 62
     1
 48
0.004727
370
    13
100
AcDbLine
 10
29.50600454710798
 20
36.72878657333325
 30
0.0
 11
29.31812254710803
 21
36.75005657333327
 31
0.0
  0
LINE
  5
694
330
1F
100
AcDbEntity
  8
0
 62
     1
 48
0.011
370
    13
100
AcDbLine
 10
29.31812254710803
 20
36.75005657333327
 30
0.0
 11
28.87812054710798
 21
36.75005657333327
 31
0.0
  0
LINE
  5
695
330
1F
100
AcDbEntity
  8
0
 62
     1
 48
0.027
370
    13
100
AcDbLine
 10
28.87812054710798
 20
36.75005657333327
 30
0.0
 11
28.87812054710798
 21
35.67007057333325
 31
0.0
  0
LINE
  5
696
330
1F
100
AcDbEntity
  8
0
 62
     1
 48
0.016
370
    13
100
AcDbLine
 10
28.87812054710798
 20
35.67007057333325
 30
0.0
 11
29.51812354710808
 21
35.67007057333325
 31
0.0
  0
LINE
  5
697
330
1F
100
AcDbEntity
  8
0
 62
     1
 48
0.003
370
    13
100
AcDbLine
 10
29.51812354710808
 20
35.67007057333325
 30
0.0
 11
29.51812354710808
 21
35.55007557333323
 31
0.0
  0
LINE
  5
698
330
1F
100
AcDbEntity
  8
0
 62
     1
 48
0.016
370
    13
100
AcDbLine
 10
29.51812354710808
 20
35.55007557333323
 30
0.0
 11
28.87812054710798
 21
35.55007557333323
 31
0.0
  0
LINE
  5
699
330
1F
100
AcDbEntity
  8
0
 62
     1
 48
0.012
370
    13
100
AcDbLine
 10
28.87812054710798
 20
35.55007557333323
 30
0.0
 11
28.87812054710798
 21
35.07006457333324
 31
0.0
  0
LINE
  5
69A
330
1F
100
AcDbEntity
  8
0
 62
     1
 48
0.011
370
    13
100
AcDbLine
 10
28.87812054710798
 20
35.07006457333324
 30
0.0
 11
29.31812254710803
 21
35.07006457333324
 31
0.0
  0
LINE
  5
69B
330
1F
100
AcDbEntity
  8
0
 62
     1
 48
0.012
370
    13
100
AcDbLine
 10
26.87812054710799
 20
36.15008157333324
 30
0.0
 11
27.35812354710811
 21
36.15008157333324
 31
0.0
  0
ARC
  5
69C
330
1F
100
AcDbEntity
  8
0
 62
     7
370
    35
100
AcDbCircle
 10
65.90754155058289
 20
72.6776539661941
 30
0.0
 40
0.2
100
AcDbArc
 50
270.0000029999977
 51
359.9999949999995
  0
LINE
  5
69D
330
1F
100
AcDbEntity
  8
0
 62
     7
 48
0.040714
370
    35
100
AcDbLine
 10
66.10755355058291
 20
73.67951596619412
 30
0.0
 11
66.10755355058291
 21
75.3080559661941
 31
0.0
  0
LINE
  5
69E
330
1F
100
AcDbEntity
  8
0
 62
     7
 48
0.032498
370
    35
100
AcDbLine
 10
66.10755355058291
 20
76.60798196619413
 30
0.0
 11
66.10755355058291
 21
75.3080559661941
 31
0.0
  0
LINE
  5
69F
330
1F
100
AcDbEntity
  8
0
 62
     7
 48
0.025047
370
    35
100
AcDbLine
 10
66.10755355058291
 20
73.67951596619412
 30
0.0
 11
66.10755355058291
 21
72.6776539661941
 31
0.0
  0
ARC
  5
6A0
330
1F
100
AcDbEntity
  8
0
 62
     7
370
    35
100
AcDbCircle
 10
65.90857855058295
 20
76.77640896619414
 30
0.0
 40
0.1990999999999437
100
AcDbArc
 50
0.2803059999800708
 51
90.29546500001185
  0
LINE
  5
6A1
330
1F
100
AcDbEntity
  8
0
 62
     7
 48
0.004235
370
    35
100
AcDbLine
 10
66.10755355058291
 20
76.77738596619412
 30
0.0
 11
66.10755355058291
 21
76.60798196619413
 31
0.0
  0
ENDSEC
  0
SECTION
  2
OBJECTS
  0
DICTIONARY
  5
C
330
0
100
AcDbDictionary
281
     1
  3
ACAD_COLOR
350
73
  3
ACAD_GROUP
350
D
  3
ACAD_LAYOUT
350
1A
  3
ACAD_MATERIAL
350
72
  3
ACAD_MLEADERSTYLE
350
D7
  3
ACAD_MLINESTYLE
350
17
  3
ACAD_PLOTSETTINGS
350
19
  3
ACAD_PLOTSTYLENAME
350
E
  3
ACAD_SCALELIST
350
B6
  3
ACAD_TABLESTYLE
350
86
  3
ACAD_VISUALSTYLE
350
99
  3
ACDB_RECOMPOSE_DATA
350
FF
  3
AcDbVariableDictionary
350
66
  3
DWGPROPS
350
7DA
  0
DICTIONARY
  5
E6
330
10
100
AcDbDictionary
280
     1
281
     1
  3
ADSK_XREC_LAYER_RECONCILED
360
7D2
  0
DICTIONARY
  5
7D3
330
1A2
100
AcDbDictionary
280
     1
281
     1
  3
ADSK_XREC_LAYER_RECONCILED
360
7D4
  0
DICTIONARY
  5
73
102
{ACAD_REACTORS
330
C
102
}
330
C
100
AcDbDictionary
281
     1
  0
DICTIONARY
  5
D
102
{ACAD_REACTORS
330
C
102
}
330
C
100
AcDbDictionary
281
     1
  0
DICTIONARY
  5
1A
102
{ACAD_REACTORS
330
C
102
}
330
C
100
AcDbDictionary
281
     1
  3
Layout1
350
59
  3
Layout2
350
5E
  3
Model
350
22
  0
DICTIONARY
  5
72
102
{ACAD_REACTORS
330
C
102
}
330
C
100
AcDbDictionary
281
     1
  3
ByBlock
350
97
  3
ByLayer
350
96
  3
Global
350
98
  0
DICTIONARY
  5
D7
102
{ACAD_REACTORS
330
C
102
}
330
C
100
AcDbDictionary
281
     1
  3
Annotativa
350
E5
  3
Standard
350
D8
  0
DICTIONARY
  5
17
102
{ACAD_REACTORS
330
C
102
}
330
C
100
AcDbDictionary
281
     1
  3
Standard
350
18
  0
DICTIONARY
  5
19
102
{ACAD_REACTORS
330
C
102
}
330
C
100
AcDbDictionary
281
     1
  0
ACDBDICTIONARYWDFLT
  5
E
102
{ACAD_REACTORS
330
C
102
}
330
C
100
AcDbDictionary
281
     1
  3
Normal
350
F
100
AcDbDictionaryWithDefault
340
F
  0
DICTIONARY
  5
B6
102
{ACAD_REACTORS
330
C
102
}
330
C
100
AcDbDictionary
281
     1
  3
A0
350
B7
  3
A1
350
124
  3
A2
350
125
  3
A3
350
126
  3
A4
350
127
  3
A5
350
128
  3
A6
350
129
  3
A7
350
12A
  3
A8
350
12B
  3
A9
350
12C
  3
B0
350
12D
  3
B1
350
12E
  3
B2
350
12F
  3
B3
350
130
  3
B4
350
131
  3
B5
350
132
  3
B6
350
133
  3
B7
350
134
  3
B8
350
135
  3
B9
350
136
  3
C0
350
137
  3
C1
350
138
  3
C2
350
139
  3
C3
350
13A
  3
C4
350
13B
  3
C5
350
13C
  3
C6
350
13D
  3
C7
350
13E
  3
C8
350
13F
  3
C9
350
140
  3
D0
350
141
  3
D1
350
142
  3
D2
350
143
  0
DICTIONARY
  5
86
102
{ACAD_REACTORS
330
C
102
}
330
C
100
AcDbDictionary
281
     1
  3
Standard
350
87
  0
DICTIONARY
  5
99
102
{ACAD_REACTORS
330
C
102
}
330
C
100
AcDbDictionary
281
     1
  3
2dWireframe
350
9F
  3
3D Hidden
350
A1
  3
3dWireframe
350
A0
  3
Basic
350
9E
  3
Brighten
350
A5
  3
ColorChange
350
A9
  3
Conceptual
350
A2
  3
Dim
350
A4
  3
Facepattern
350
A8
  3
Flat
350
9A
  3
FlatWithEdges
350
9B
  3
Gouraud
350
9C
  3
GouraudWithEdges
350
9D
  3
Linepattern
350
A7
  3
Realistic
350
A3
  3
Thicken
350
A6
  0
XRECORD
  5
FF
102
{ACAD_REACTORS
330
C
102
}
330
C
100
AcDbXrecord
280
     1
 90
        1
330
87
  0
DICTIONARY
  5
66
102
{ACAD_REACTORS
330
C
102
}
330
C
100
AcDbDictionary
281
     1
  3
CANNOSCALE
350
F0
  3
CMLEADERSTYLE
350
EF
  3
CTABLESTYLE
350
89
  3
DIMASSOC
350
67
  3
HIDETEXT
350
6B
  3
INDEXCTL
350
7D8
  3
LIGHTINGUNITS
350
7D6
  3
MSLTSCALE
350
7D5
  3
SORTENTS
350
7D7
  0
XRECORD
  5
7DA
102
{ACAD_REACTORS
330
C
102
}
330
C
100
AcDbXrecord
280
     1
  1
DWGPROPS COOKIE
  2

  3

  4

  6

  7

  8
FontanaNZ
  9

300
=
301
=
302
=
303
=
304
=
305
=
306
=
307
=
308
=
309
=
 40
0.0005752546296296
 41
2456457.614004132
 42
2456457.614579213
  1

 90
        0
  0
XRECORD
  5
7D2
102
{ACAD_REACTORS
330
E6
102
}
330
E6
100
AcDbXrecord
280
     1
290
     1
  0
XRECORD
  5
7D4
102
{ACAD_REACTORS
330
7D3
102
}
330
7D3
100
AcDbXrecord
280
     1
290
     1
  0
LAYOUT
  5
59
102
{ACAD_XDICTIONARY
360
7DD
102
}
102
{ACAD_REACTORS
330
1A
102
}
330
1A
100
AcDbPlotSettings
  1

  2
None
  4

  6

 40
0.0
 41
0.0
 42
0.0
 43
0.0
 44
0.0
 45
0.0
 46
0.0
 47
0.0
 48
0.0
 49
0.0
140
0.0
141
0.0
142
1.0
143
1.0
 70
   688
 72
     0
 73
     0
 74
     5
  7

 75
    16
147
1.0
148
0.0
149
0.0
100
AcDbLayout
  1
Layout1
 70
     1
 71
     1
 10
0.0
 20
0.0
 11
12.0
 21
9.0
 12
0.0
 22
0.0
 32
0.0
 14
0.0
 24
0.0
 34
0.0
 15
0.0
 25
0.0
 35
0.0
146
0.0
 13
0.0
 23
0.0
 33
0.0
 16
1.0
 26
0.0
 36
0.0
 17
0.0
 27
1.0
 37
0.0
 76
     0
330
58
  0
LAYOUT
  5
5E
102
{ACAD_XDICTIONARY
360
7DF
102
}
102
{ACAD_REACTORS
330
1A
102
}
330
1A
100
AcDbPlotSettings
  1

  2
None
  4

  6

 40
0.0
 41
0.0
 42
0.0
 43
0.0
 44
0.0
 45
0.0
 46
0.0
 47
0.0
 48
0.0
 49
0.0
140
0.0
141
0.0
142
1.0
143
1.0
 70
   688
 72
     0
 73
     0
 74
     5
  7

 75
    16
147
1.0
148
0.0
149
0.0
100
AcDbLayout
  1
Layout2
 70
     1
 71
     2
 10
0.0
 20
0.0
 11
12.0
 21
9.0
 12
0.0
 22
0.0
 32
0.0
 14
0.0
 24
0.0
 34
0.0
 15
0.0
 25
0.0
 35
0.0
146
0.0
 13
0.0
 23
0.0
 33
0.0
 16
1.0
 26
0.0
 36
0.0
 17
0.0
 27
1.0
 37
0.0
 76
     0
330
5D
  0
LAYOUT
  5
22
102
{ACAD_XDICTIONARY
360
7DB
102
}
102
{ACAD_REACTORS
330
1A
102
}
330
1A
100
AcDbPlotSettings
  1

  2
none_device
  4
ANSI_A_(8.50_x_11.00_Inches)
  6

 40
6.349999904632568
 41
19.04999923706055
 42
6.350006103515625
 43
19.04998779296875
 44
215.8999938964844
 45
279.3999938964844
 46
0.0
 47
0.0
 48
0.0
 49
0.0
140
0.0
141
0.0
142
1.0
143
2.584895464708373
 70
 11952
 72
     0
 73
     1
 74
     0
  7

 75
     0
147
0.3868628397755418
148
0.0
149
0.0
100
AcDbLayout
  1
Model
 70
     1
 71
     0
 10
0.0
 20
0.0
 11
12.0
 21
9.0
 12
0.0
 22
0.0
 32
0.0
 14
0.0
 24
0.0
 34
0.0
 15
0.0
 25
0.0
 35
0.0
146
0.0
 13
0.0
 23
0.0
 33
0.0
 16
1.0
 26
0.0
 36
0.0
 17
0.0
 27
1.0
 37
0.0
 76
     0
330
1F
331
94
  0
MATERIAL
  5
97
102
{ACAD_XDICTIONARY
360
7E4
102
}
102
{ACAD_REACTORS
330
72
102
}
330
72
100
AcDbMaterial
  1
ByBlock
  0
MATERIAL
  5
96
102
{ACAD_XDICTIONARY
360
7E2
102
}
102
{ACAD_REACTORS
330
72
102
}
330
72
100
AcDbMaterial
  1
ByLayer
  0
MATERIAL
  5
98
102
{ACAD_XDICTIONARY
360
110
102
}
102
{ACAD_REACTORS
330
72
102
}
330
72
100
AcDbMaterial
  1
Global
 43
0.0208000000566244
 43
0.0
 43
0.0
 43
0.0
 43
0.0
 43
0.0208000000566244
 43
0.0
 43
0.0
 43
0.0
 43
0.0
 43
1.0
 43
0.0
 43
0.0
 43
0.0
 43
0.0
 43
1.0
 49
0.0208000000566244
 49
0.0
 49
0.0
 49
0.0
 49
0.0
 49
0.0208000000566244
 49
0.0
 49
0.0
 49
0.0
 49
0.0
 49
1.0
 49
0.0
 49
0.0
 49
0.0
 49
0.0
 49
1.0
142
0.0208000000566244
142
0.0
142
0.0
142
0.0
142
0.0
142
0.0208000000566244
142
0.0
142
0.0
142
0.0
142
0.0
142
1.0
142
0.0
142
0.0
142
0.0
142
0.0
142
1.0
144
0.0208000000566244
144
0.0
144
0.0
144
0.0
144
0.0
144
0.0208000000566244
144
0.0
144
0.0
144
0.0
144
0.0
144
1.0
144
0.0
144
0.0
144
0.0
144
0.0
144
1.0
1001
ACAD
1070
    -1
1070
     3
1070
     0
1000

1071
        0
1070
     0
  0
MLEADERSTYLE
  5
E5
102
{ACAD_REACTORS
330
D7
102
}
330
D7
100
AcDbMLeaderStyle
170
     2
171
     1
172
     0
 90
        2
 40
0.0
 41
0.0
173
     1
 91
-1056964608
340
14
 92
       -2
290
     1
 42
0.09
291
     1
 43
0.36
  3
Standard
 44
0.18
300

342
11
174
     1
178
     1
175
     1
176
     0
 93
-1056964608
 45
0.18
292
     0
297
     0
 46
0.18
 94
-1056964608
 47
1.0
 49
1.0
140
1.0
293
     1
141
0.0
294
     1
177
     0
142
1.0
295
     0
296
     1
143
0.125
1001
ACAD_MLEADERVER
1070
     2
  0
MLEADERSTYLE
  5
D8
102
{ACAD_REACTORS
330
D7
102
}
330
D7
100
AcDbMLeaderStyle
170
     2
171
     1
172
     0
 90
        2
 40
0.0
 41
0.0
173
     1
 91
-1056964608
340
14
 92
       -2
290
     1
 42
0.09
291
     1
 43
0.36
  3
Standard
 44
0.18
300

342
11
174
     1
178
     1
175
     1
176
     0
 93
-1056964608
 45
0.18
292
     0
297
     0
 46
0.18
 94
-1056964608
 47
1.0
 49
1.0
140
1.0
293
     1
141
0.0
294
     1
177
     0
142
1.0
295
     0
296
     0
143
0.125
1001
ACAD_MLEADERVER
1070
     2
  0
MLINESTYLE
  5
18
102
{ACAD_REACTORS
330
17
102
}
330
17
100
AcDbMlineStyle
  2
STANDARD
 70
     0
  3

 62
   256
 51
90.0
 52
90.0
 71
     2
 49
0.5
 62
   256
  6
BYLAYER
 49
-0.5
 62
   256
  6
BYLAYER
  0
ACDBPLACEHOLDER
  5
F
102
{ACAD_REACTORS
330
E
102
}
330
E
  0
SCALE
  5
B7
102
{ACAD_REACTORS
330
B6
102
}
330
B6
100
AcDbScale
 70
     0
300
1:1
140
1.0
141
1.0
290
     1
  0
SCALE
  5
124
102
{ACAD_REACTORS
330
B6
102
}
330
B6
100
AcDbScale
 70
     0
300
1:2
140
1.0
141
2.0
290
     0
  0
SCALE
  5
125
102
{ACAD_REACTORS
330
B6
102
}
330
B6
100
AcDbScale
 70
     0
300
1:4
140
1.0
141
4.0
290
     0
  0
SCALE
  5
126
102
{ACAD_REACTORS
330
B6
102
}
330
B6
100
AcDbScale
 70
     0
300
1:5
140
1.0
141
5.0
290
     0
  0
SCALE
  5
127
102
{ACAD_REACTORS
330
B6
102
}
330
B6
100
AcDbScale
 70
     0
300
1:8
140
1.0
141
8.0
290
     0
  0
SCALE
  5
128
102
{ACAD_REACTORS
330
B6
102
}
330
B6
100
AcDbScale
 70
     0
300
1:10
140
1.0
141
10.0
290
     0
  0
SCALE
  5
129
102
{ACAD_REACTORS
330
B6
102
}
330
B6
100
AcDbScale
 70
     0
300
1:16
140
1.0
141
16.0
290
     0
  0
SCALE
  5
12A
102
{ACAD_REACTORS
330
B6
102
}
330
B6
100
AcDbScale
 70
     0
300
1:20
140
1.0
141
20.0
290
     0
  0
SCALE
  5
12B
102
{ACAD_REACTORS
330
B6
102
}
330
B6
100
AcDbScale
 70
     0
300
1:30
140
1.0
141
30.0
290
     0
  0
SCALE
  5
12C
102
{ACAD_REACTORS
330
B6
102
}
330
B6
100
AcDbScale
 70
     0
300
1:40
140
1.0
141
40.0
290
     0
  0
SCALE
  5
12D
102
{ACAD_REACTORS
330
B6
102
}
330
B6
100
AcDbScale
 70
     0
300
1:50
140
1.0
141
50.0
290
     0
  0
SCALE
  5
12E
102
{ACAD_REACTORS
330
B6
102
}
330
B6
100
AcDbScale
 70
     0
300
1:100
140
1.0
141
100.0
290
     0
  0
SCALE
  5
12F
102
{ACAD_REACTORS
330
B6
102
}
330
B6
100
AcDbScale
 70
     0
300
2:1
140
2.0
141
1.0
290
     0
  0
SCALE
  5
130
102
{ACAD_REACTORS
330
B6
102
}
330
B6
100
AcDbScale
 70
     0
300
4:1
140
4.0
141
1.0
290
     0
  0
SCALE
  5
131
102
{ACAD_REACTORS
330
B6
102
}
330
B6
100
AcDbScale
 70
     0
300
8:1
140
8.0
141
1.0
290
     0
  0
SCALE
  5
132
102
{ACAD_REACTORS
330
B6
102
}
330
B6
100
AcDbScale
 70
     0
300
10:1
140
10.0
141
1.0
290
     0
  0
SCALE
  5
133
102
{ACAD_REACTORS
330
B6
102
}
330
B6
100
AcDbScale
 70
     0
300
100:1
140
100.0
141
1.0
290
     0
  0
SCALE
  5
134
102
{ACAD_REACTORS
330
B6
102
}
330
B6
100
AcDbScale
 70
     0
300
1/128" = 1'-0"
140
0.0078125
141
12.0
290
     0
  0
SCALE
  5
135
102
{ACAD_REACTORS
330
B6
102
}
330
B6
100
AcDbScale
 70
     0
300
1/64" = 1'-0"
140
0.015625
141
12.0
290
     0
  0
SCALE
  5
136
102
{ACAD_REACTORS
330
B6
102
}
330
B6
100
AcDbScale
 70
     0
300
1/32" = 1'-0"
140
0.03125
141
12.0
290
     0
  0
SCALE
  5
137
102
{ACAD_REACTORS
330
B6
102
}
330
B6
100
AcDbScale
 70
     0
300
1/16" = 1'-0"
140
0.0625
141
12.0
290
     0
  0
SCALE
  5
138
102
{ACAD_REACTORS
330
B6
102
}
330
B6
100
AcDbScale
 70
     0
300
3/32" = 1'-0"
140
0.09375
141
12.0
290
     0
  0
SCALE
  5
139
102
{ACAD_REACTORS
330
B6
102
}
330
B6
100
AcDbScale
 70
     0
300
1/8" = 1'-0"
140
0.125
141
12.0
290
     0
  0
SCALE
  5
13A
102
{ACAD_REACTORS
330
B6
102
}
330
B6
100
AcDbScale
 70
     0
300
3/16" = 1'-0"
140
0.1875
141
12.0
290
     0
  0
SCALE
  5
13B
102
{ACAD_REACTORS
330
B6
102
}
330
B6
100
AcDbScale
 70
     0
300
1/4" = 1'-0"
140
0.25
141
12.0
290
     0
  0
SCALE
  5
13C
102
{ACAD_REACTORS
330
B6
102
}
330
B6
100
AcDbScale
 70
     0
300
3/8" = 1'-0"
140
0.375
141
12.0
290
     0
  0
SCALE
  5
13D
102
{ACAD_REACTORS
330
B6
102
}
330
B6
100
AcDbScale
 70
     0
300
1/2" = 1'-0"
140
0.5
141
12.0
290
     0
  0
SCALE
  5
13E
102
{ACAD_REACTORS
330
B6
102
}
330
B6
100
AcDbScale
 70
     0
300
3/4" = 1'-0"
140
0.75
141
12.0
290
     0
  0
SCALE
  5
13F
102
{ACAD_REACTORS
330
B6
102
}
330
B6
100
AcDbScale
 70
     0
300
1" = 1'-0"
140
1.0
141
12.0
290
     0
  0
SCALE
  5
140
102
{ACAD_REACTORS
330
B6
102
}
330
B6
100
AcDbScale
 70
     0
300
1-1/2" = 1'-0"
140
1.5
141
12.0
290
     0
  0
SCALE
  5
141
102
{ACAD_REACTORS
330
B6
102
}
330
B6
100
AcDbScale
 70
     0
300
3" = 1'-0"
140
3.0
141
12.0
290
     0
  0
SCALE
  5
142
102
{ACAD_REACTORS
330
B6
102
}
330
B6
100
AcDbScale
 70
     0
300
6" = 1'-0"
140
6.0
141
12.0
290
     0
  0
SCALE
  5
143
102
{ACAD_REACTORS
330
B6
102
}
330
B6
100
AcDbScale
 70
     0
300
1'-0" = 1'-0"
140
12.0
141
12.0
290
     0
  0
TABLESTYLE
  5
87
102
{ACAD_XDICTIONARY
360
104
102
}
102
{ACAD_REACTORS
330
86
102
}
330
86
100
AcDbTableStyle
  3
Standard
 70
     0
 71
     0
 40
0.06
 41
0.06
280
     0
281
     0
  7
Standard
140
0.18
170
     2
 62
     0
 63
     7
283
     0
274
    -2
284
     1
 64
     0
275
    -2
285
     1
 65
     0
276
    -2
286
     1
 66
     0
277
    -2
287
     1
 67
     0
278
    -2
288
     1
 68
     0
279
    -2
289
     1
 69
     0
  7
Standard
140
0.25
170
     5
 62
     0
 63
     7
283
     0
274
    -2
284
     1
 64
     0
275
    -2
285
     1
 65
     0
276
    -2
286
     1
 66
     0
277
    -2
287
     1
 67
     0
278
    -2
288
     1
 68
     0
279
    -2
289
     1
 69
     0
  7
Standard
140
0.18
170
     5
 62
     0
 63
     7
283
     0
274
    -2
284
     1
 64
     0
275
    -2
285
     1
 65
     0
276
    -2
286
     1
 66
     0
277
    -2
287
     1
 67
     0
278
    -2
288
     1
 68
     0
279
    -2
289
     1
 69
     0
  0
VISUALSTYLE
  5
9F
102
{ACAD_REACTORS
330
99
102
}
330
99
100
AcDbVisualStyle
  2
2dWireframe
 70
     4
 71
     0
 72
     2
 73
     1
 90
        0
 40
-0.6
 41
-30.0
 62
     5
 63
     7
 74
     1
 91
        4
 64
     7
 65
   257
 75
     1
175
     1
 42
1.0
 92
        0
 66
   257
 43
1.0
 76
     1
 77
     6
 78
     2
 67
     7
 79
     5
170
     0
171
     0
290
     0
174
     0
 93
        1
 44
0.0
173
     0
291
     0
 45
0.0
1001
ACAD
1000
AcDbSavedByObjectVersion
1070
     0
  0
VISUALSTYLE
  5
A1
102
{ACAD_REACTORS
330
99
102
}
330
99
100
AcDbVisualStyle
  2
3D Hidden
 70
     6
 71
     1
 72
     2
 73
     2
 90
        0
 40
-0.6
 41
-30.0
 62
     5
 63
     7
 74
     2
 91
        2
 64
     7
 65
   257
 75
     2
175
     1
 42
40.0
 92
        0
 66
   257
 43
1.0
 76
     1
 77
     6
 78
     2
 67
     7
 79
     3
170
     0
171
     0
290
     0
174
     0
 93
        1
 44
0.0
173
     0
291
     0
 45
0.0
1001
ACAD
1000
AcDbSavedByObjectVersion
1070
     0
  0
VISUALSTYLE
  5
A0
102
{ACAD_REACTORS
330
99
102
}
330
99
100
AcDbVisualStyle
  2
3dWireframe
 70
     5
 71
     0
 72
     2
 73
     1
 90
        0
 40
-0.6
 41
-30.0
 62
     5
 63
     7
 74
     1
 91
        4
 64
     7
 65
   257
 75
     1
175
     1
 42
1.0
 92
        0
 66
   257
 43
1.0
 76
     1
 77
     6
 78
     2
 67
     7
 79
     5
170
     0
171
     0
290
     0
174
     0
 93
        1
 44
0.0
173
     0
291
     0
 45
0.0
1001
ACAD
1000
AcDbSavedByObjectVersion
1070
     0
  0
VISUALSTYLE
  5
9E
102
{ACAD_REACTORS
330
99
102
}
330
99
100
AcDbVisualStyle
  2
Basic
 70
     7
 71
     1
 72
     0
 73
     1
 90
        0
 40
-0.6
 41
-30.0
 62
     5
 63
     7
 74
     0
 91
        4
 64
     7
 65
   257
 75
     1
175
     1
 42
1.0
 92
        8
 66
     7
 43
1.0
 76
     1
 77
     6
 78
     2
 67
     7
 79
     5
170
     0
171
     0
290
     0
174
     0
 93
        1
 44
0.0
173
     0
291
     1
 45
0.0
1001
ACAD
1000
AcDbSavedByObjectVersion
1070
     0
  0
VISUALSTYLE
  5
A5
102
{ACAD_REACTORS
330
99
102
}
330
99
100
AcDbVisualStyle
  2
Brighten
 70
    12
 71
     2
 72
     2
 73
     1
 90
        0
 40
-0.6
 41
-30.0
 62
     5
 63
     7
 74
     1
 91
        4
 64
     7
 65
   257
 75
     1
175
     1
 42
1.0
 92
        8
 66
     7
 43
1.0
 76
     1
 77
     6
 78
     2
 67
     7
 79
     5
170
     0
171
     0
290
     0
174
     0
 93
        1
 44
50.0
173
     0
291
     1
 45
0.0
1001
ACAD
1000
AcDbSavedByObjectVersion
1070
     0
  0
VISUALSTYLE
  5
A9
102
{ACAD_REACTORS
330
99
102
}
330
99
100
AcDbVisualStyle
  2
ColorChange
 70
    16
 71
     2
 72
     2
 73
     3
 90
        0
 40
-0.6
 41
-30.0
 62
     5
 63
     8
 74
     1
 91
        4
 64
     7
 65
   257
 75
     1
175
     1
 42
1.0
 92
        8
 66
     8
 43
1.0
 76
     1
 77
     6
 78
     2
 67
     7
 79
     5
170
     0
171
     0
290
     0
174
     0
 93
        1
 44
0.0
173
     0
291
     1
 45
0.0
1001
ACAD
1000
AcDbSavedByObjectVersion
1070
     0
  0
VISUALSTYLE
  5
A2
102
{ACAD_REACTORS
330
99
102
}
330
99
100
AcDbVisualStyle
  2
Conceptual
 70
     9
 71
     3
 72
     2
 73
     1
 90
        0
 40
-0.6
 41
-30.0
 62
     5
 63
     7
 74
     2
 91
        2
 64
     7
 65
   257
 75
     1
175
     1
 42
40.0
 92
        8
 66
     7
 43
1.0
 76
     1
 77
     6
 78
     2
 67
     7
 79
     3
170
     0
171
     0
290
     0
174
     0
 93
        1
 44
0.0
173
     0
291
     0
 45
0.0
1001
ACAD
1000
AcDbSavedByObjectVersion
1070
     0
  0
VISUALSTYLE
  5
A4
102
{ACAD_REACTORS
330
99
102
}
330
99
100
AcDbVisualStyle
  2
Dim
 70
    11
 71
     2
 72
     2
 73
     1
 90
        0
 40
-0.6
 41
-30.0
 62
     5
 63
     7
 74
     1
 91
        4
 64
     7
 65
   257
 75
     1
175
     1
 42
1.0
 92
        8
 66
     7
 43
1.0
 76
     1
 77
     6
 78
     2
 67
     7
 79
     5
170
     0
171
     0
290
     0
174
     0
 93
        1
 44
-50.0
173
     0
291
     1
 45
0.0
1001
ACAD
1000
AcDbSavedByObjectVersion
1070
     0
  0
VISUALSTYLE
  5
A8
102
{ACAD_REACTORS
330
99
102
}
330
99
100
AcDbVisualStyle
  2
Facepattern
 70
    15
 71
     2
 72
     2
 73
     1
 90
        0
 40
-0.6
 41
-30.0
 62
     5
 63
     7
 74
     1
 91
        4
 64
     7
 65
   257
 75
     1
175
     1
 42
1.0
 92
        8
 66
     7
 43
1.0
 76
     1
 77
     6
 78
     2
 67
     7
 79
     5
170
     0
171
     0
290
     0
174
     0
 93
        1
 44
0.0
173
     0
291
     1
 45
0.0
1001
ACAD
1000
AcDbSavedByObjectVersion
1070
     0
  0
VISUALSTYLE
  5
9A
102
{ACAD_REACTORS
330
99
102
}
330
99
100
AcDbVisualStyle
  2
Flat
 70
     0
 71
     2
 72
     1
 73
     1
 90
        2
 40
-0.6
 41
30.0
 62
     5
 63
     7
 74
     0
 91
        4
 64
     7
 65
   257
 75
     1
175
     1
 42
1.0
 92
        8
 66
     7
 43
1.0
 76
     1
 77
     6
 78
     2
 67
     7
 79
     5
170
     0
171
     0
290
     0
174
     0
 93
        1
 44
0.0
173
     0
291
     1
 45
0.0
1001
ACAD
1000
AcDbSavedByObjectVersion
1070
     0
  0
VISUALSTYLE
  5
9B
102
{ACAD_REACTORS
330
99
102
}
330
99
100
AcDbVisualStyle
  2
FlatWithEdges
 70
     1
 71
     2
 72
     1
 73
     1
 90
        2
 40
-0.6
 41
30.0
 62
     5
 63
     7
 74
     1
 91
        4
 64
     7
 65
   257
 75
     1
175
     1
 42
1.0
 92
        0
 66
   257
 43
1.0
 76
     1
 77
     6
 78
     2
 67
     7
 79
     5
170
     0
171
     0
290
     0
174
     0
 93
        1
 44
0.0
173
     0
291
     1
 45
0.0
1001
ACAD
1000
AcDbSavedByObjectVersion
1070
     0
  0
VISUALSTYLE
  5
9C
102
{ACAD_REACTORS
330
99
102
}
330
99
100
AcDbVisualStyle
  2
Gouraud
 70
     2
 71
     2
 72
     2
 73
     1
 90
        2
 40
-0.6
 41
30.0
 62
     5
 63
     7
 74
     0
 91
        4
 64
     7
 65
   257
 75
     1
175
     1
 42
1.0
 92
        0
 66
     7
 43
1.0
 76
     1
 77
     6
 78
     2
 67
     7
 79
     5
170
     0
171
     0
290
     0
174
     0
 93
        1
 44
0.0
173
     0
291
     1
 45
0.0
1001
ACAD
1000
AcDbSavedByObjectVersion
1070
     0
  0
VISUALSTYLE
  5
9D
102
{ACAD_REACTORS
330
99
102
}
330
99
100
AcDbVisualStyle
  2
GouraudWithEdges
 70
     3
 71
     2
 72
     2
 73
     1
 90
        2
 40
-0.6
 41
30.0
 62
     5
 63
     7
 74
     1
 91
        4
 64
     7
 65
   257
 75
     1
175
     1
 42
1.0
 92
        0
 66
   257
 43
1.0
 76
     1
 77
     6
 78
     2
 67
     7
 79
     5
170
     0
171
     0
290
     0
174
     0
 93
        1
 44
0.0
173
     0
291
     1
 45
0.0
1001
ACAD
1000
AcDbSavedByObjectVersion
1070
     0
  0
VISUALSTYLE
  5
A7
102
{ACAD_REACTORS
330
99
102
}
330
99
100
AcDbVisualStyle
  2
Linepattern
 70
    14
 71
     2
 72
     2
 73
     1
 90
        0
 40
-0.6
 41
-30.0
 62
     5
 63
     7
 74
     1
 91
        4
 64
     7
 65
   257
 75
     7
175
     7
 42
1.0
 92
        8
 66
     7
 43
1.0
 76
     1
 77
     6
 78
     2
 67
     7
 79
     5
170
     0
171
     0
290
     0
174
     0
 93
        1
 44
0.0
173
     0
291
     1
 45
0.0
1001
ACAD
1000
AcDbSavedByObjectVersion
1070
     0
  0
VISUALSTYLE
  5
A3
102
{ACAD_REACTORS
330
99
102
}
330
99
100
AcDbVisualStyle
  2
Realistic
 70
     8
 71
     2
 72
     2
 73
     1
 90
        0
 40
-0.6
 41
-30.0
 62
     5
 63
     7
 74
     1
 91
        0
 64
     7
 65
   257
 75
     1
175
     1
 42
1.0
 92
        8
 66
     8
 43
1.0
 76
     1
 77
     6
 78
     2
 67
     7
 79
     5
170
     0
171
     0
290
     0
174
     0
 93
       13
 44
0.0
173
     0
291
     0
 45
0.0
1001
ACAD
1000
AcDbSavedByObjectVersion
1070
     0
  0
VISUALSTYLE
  5
A6
102
{ACAD_REACTORS
330
99
102
}
330
99
100
AcDbVisualStyle
  2
Thicken
 70
    13
 71
     2
 72
     2
 73
     1
 90
        0
 40
-0.6
 41
-30.0
 62
     5
 63
     7
 74
     1
 91
        4
 64
     7
 65
   257
 75
     1
175
     1
 42
1.0
 92
       12
 66
     7
 43
1.0
 76
     1
 77
     6
 78
     2
 67
     7
 79
     5
170
     0
171
     0
290
     0
174
     0
 93
        1
 44
0.0
173
     0
291
     1
 45
0.0
1001
ACAD
1000
AcDbSavedByObjectVersion
1070
     0
  0
DICTIONARYVAR
  5
F0
102
{ACAD_REACTORS
330
66
102
}
330
66
100
DictionaryVariables
280
     0
  1
1:1
  0
DICTIONARYVAR
  5
EF
102
{ACAD_REACTORS
330
66
102
}
330
66
100
DictionaryVariables
280
     0
  1
STANDARD
  0
DICTIONARYVAR
  5
89
102
{ACAD_REACTORS
330
66
102
}
330
66
100
DictionaryVariables
280
     0
  1
STANDARD
  0
DICTIONARYVAR
  5
67
102
{ACAD_REACTORS
330
66
102
}
330
66
100
DictionaryVariables
280
     0
  1
2
  0
DICTIONARYVAR
  5
6B
102
{ACAD_REACTORS
330
66
102
}
330
66
100
DictionaryVariables
280
     0
  1
1
  0
DICTIONARYVAR
  5
7D8
102
{ACAD_REACTORS
330
66
102
}
330
66
100
DictionaryVariables
280
     0
  1
0
  0
DICTIONARYVAR
  5
7D6
102
{ACAD_REACTORS
330
66
102
}
330
66
100
DictionaryVariables
280
     0
  1
2
  0
DICTIONARYVAR
  5
7D5
102
{ACAD_REACTORS
330
66
102
}
330
66
100
DictionaryVariables
280
     0
  1
1
  0
DICTIONARYVAR
  5
7D7
102
{ACAD_REACTORS
330
66
102
}
330
66
100
DictionaryVariables
280
     0
  1
127
  0
DICTIONARY
  5
7DD
330
59
100
AcDbDictionary
280
     1
281
     1
  3
ACAD_XREC_ROUNDTRIP
360
7DE
  0
DICTIONARY
  5
7DF
330
5E
100
AcDbDictionary
280
     1
281
     1
  3
ACAD_XREC_ROUNDTRIP
360
7E0
  0
DICTIONARY
  5
7DB
330
22
100
AcDbDictionary
280
     1
281
     1
  3
ACAD_XREC_ROUNDTRIP
360
7DC
  0
DICTIONARY
  5
7E4
330
97
100
AcDbDictionary
280
     1
281
     1
  3
ACAD_XREC_ROUNDTRIP
360
7E5
  0
DICTIONARY
  5
7E2
330
96
100
AcDbDictionary
280
     1
281
     1
  3
ACAD_XREC_ROUNDTRIP
360
7E3
  0
DICTIONARY
  5
110
330
98
100
AcDbDictionary
280
     1
281
     1
  3
ACAD_XREC_ROUNDTRIP
360
7E6
  3
BUMPTILE
360
112
  3
DIFFUSETILE
360
111
  3
OPACITYTILE
360
113
  3
REFLECTIONTILE
360
114
  0
DICTIONARY
  5
104
330
87
100
AcDbDictionary
280
     1
281
     1
  3
ACAD_ROUNDTRIP_2008_TABLESTYLE_CELLSTYLEMAP
360
7D9
  3
ACAD_XREC_ROUNDTRIP
360
7E1
  0
XRECORD
  5
7DE
102
{ACAD_REACTORS
330
7DD
102
}
330
7DD
100
AcDbXrecord
280
     1
102
SHADEPLOT
 70
     0
102
SHADEPLOTRESLEVEL
 70
     2
102
SHADEPLOTCUSTOMDPI
 70
   300
  0
XRECORD
  5
7E0
102
{ACAD_REACTORS
330
7DF
102
}
330
7DF
100
AcDbXrecord
280
     1
102
SHADEPLOT
 70
     0
102
SHADEPLOTRESLEVEL
 70
     2
102
SHADEPLOTCUSTOMDPI
 70
   300
  0
XRECORD
  5
7DC
102
{ACAD_REACTORS
330
7DB
102
}
330
7DB
100
AcDbXrecord
280
     1
102
SHADEPLOT
 70
     0
102
SHADEPLOTRESLEVEL
 70
     2
102
SHADEPLOTCUSTOMDPI
 70
   300
  0
XRECORD
  5
7E5
102
{ACAD_REACTORS
330
7E4
102
}
330
7E4
100
AcDbXrecord
280
     1
102
MATERIAL
148
0.0
149
0.0
149
0.0
 93
        0
 94
       63
282
     0
 72
     1
 77
     1
171
     1
175
     1
179
     1
273
     0
  0
XRECORD
  5
7E3
102
{ACAD_REACTORS
330
7E2
102
}
330
7E2
100
AcDbXrecord
280
     1
102
MATERIAL
148
0.0
149
0.0
149
0.0
 93
        0
 94
       63
282
     0
 72
     1
 77
     1
171
     1
175
     1
179
     1
273
     0
  0
XRECORD
  5
7E6
102
{ACAD_REACTORS
330
110
102
}
330
110
100
AcDbXrecord
280
     1
102
MATERIAL
148
0.0
149
0.0
149
0.0
 93
        0
 94
       63
282
     0
 72
     1
 77
     1
171
     1
175
     1
179
     1
273
     0
  0
XRECORD
  5
112
102
{ACAD_REACTORS
330
110
102
}
330
110
100
AcDbXrecord
280
     1
270
     1
271
     1
  0
XRECORD
  5
111
102
{ACAD_REACTORS
330
110
102
}
330
110
100
AcDbXrecord
280
     1
270
     1
271
     1
  0
XRECORD
  5
113
102
{ACAD_REACTORS
330
110
102
}
330
110
100
AcDbXrecord
280
     1
270
     1
271
     1
  0
XRECORD
  5
114
102
{ACAD_REACTORS
330
110
102
}
330
110
100
AcDbXrecord
280
     1
270
     1
271
     1
  0
CELLSTYLEMAP
  5
7D9
102
{ACAD_REACTORS
330
104
102
}
330
104
100
AcDbCellStyleMap
 90
        3
300
CELLSTYLE
  1
TABLEFORMAT_BEGIN
 90
        5
170
     1
 91
        0
 92
    32768
 62
   257
 93
        1
300
CONTENTFORMAT
  1
CONTENTFORMAT_BEGIN
 90
        0
 91
        0
 92
      512
 93
        0
300

 40
0.0
140
1.0
 94
        5
 62
     0
340
11
144
0.25
309
CONTENTFORMAT_END
171
     1
301
MARGIN
  1
CELLMARGIN_BEGIN
 40
0.06
 40
0.06
 40
0.06
 40
0.06
 40
0.18
 40
0.18
309
CELLMARGIN_END
 94
        6
 95
        1
302
GRIDFORMAT
  1
GRIDFORMAT_BEGIN
 90
        0
 91
        1
 62
     0
 92
       -2
340
0
 93
        0
 40
0.045
309
GRIDFORMAT_END
 95
        2
302
GRIDFORMAT
  1
GRIDFORMAT_BEGIN
 90
        0
 91
        1
 62
     0
 92
       -2
340
0
 93
        0
 40
0.045
309
GRIDFORMAT_END
 95
        4
302
GRIDFORMAT
  1
GRIDFORMAT_BEGIN
 90
        0
 91
        1
 62
     0
 92
       -2
340
0
 93
        0
 40
0.045
309
GRIDFORMAT_END
 95
        8
302
GRIDFORMAT
  1
GRIDFORMAT_BEGIN
 90
        0
 91
        1
 62
     0
 92
       -2
340
0
 93
        0
 40
0.045
309
GRIDFORMAT_END
 95
       16
302
GRIDFORMAT
  1
GRIDFORMAT_BEGIN
 90
        0
 91
        1
 62
     0
 92
       -2
340
0
 93
        0
 40
0.045
309
GRIDFORMAT_END
 95
       32
302
GRIDFORMAT
  1
GRIDFORMAT_BEGIN
 90
        0
 91
        1
 62
     0
 92
       -2
340
0
 93
        0
 40
0.045
309
GRIDFORMAT_END
309
TABLEFORMAT_END
  1
CELLSTYLE_BEGIN
 90
        1
 91
        1
300
_TITLE
309
CELLSTYLE_END
300
CELLSTYLE
  1
TABLEFORMAT_BEGIN
 90
        5
170
     1
 91
        0
 92
        0
 62
   257
 93
        1
300
CONTENTFORMAT
  1
CONTENTFORMAT_BEGIN
 90
        0
 91
        0
 92
      512
 93
        0
300

 40
0.0
140
1.0
 94
        5
 62
     0
340
11
144
0.18
309
CONTENTFORMAT_END
171
     1
301
MARGIN
  1
CELLMARGIN_BEGIN
 40
0.06
 40
0.06
 40
0.06
 40
0.06
 40
0.18
 40
0.18
309
CELLMARGIN_END
 94
        6
 95
        1
302
GRIDFORMAT
  1
GRIDFORMAT_BEGIN
 90
        0
 91
        1
 62
     0
 92
       -2
340
0
 93
        0
 40
0.045
309
GRIDFORMAT_END
 95
        2
302
GRIDFORMAT
  1
GRIDFORMAT_BEGIN
 90
        0
 91
        1
 62
     0
 92
       -2
340
0
 93
        0
 40
0.045
309
GRIDFORMAT_END
 95
        4
302
GRIDFORMAT
  1
GRIDFORMAT_BEGIN
 90
        0
 91
        1
 62
     0
 92
       -2
340
0
 93
        0
 40
0.045
309
GRIDFORMAT_END
 95
        8
302
GRIDFORMAT
  1
GRIDFORMAT_BEGIN
 90
        0
 91
        1
 62
     0
 92
       -2
340
0
 93
        0
 40
0.045
309
GRIDFORMAT_END
 95
       16
302
GRIDFORMAT
  1
GRIDFORMAT_BEGIN
 90
        0
 91
        1
 62
     0
 92
       -2
340
0
 93
        0
 40
0.045
309
GRIDFORMAT_END
 95
       32
302
GRIDFORMAT
  1
GRIDFORMAT_BEGIN
 90
        0
 91
        1
 62
     0
 92
       -2
340
0
 93
        0
 40
0.045
309
GRIDFORMAT_END
309
TABLEFORMAT_END
  1
CELLSTYLE_BEGIN
 90
        2
 91
        1
300
_HEADER
309
CELLSTYLE_END
300
CELLSTYLE
  1
TABLEFORMAT_BEGIN
 90
        5
170
     1
 91
        0
 92
        0
 62
   257
 93
        1
300
CONTENTFORMAT
  1
CONTENTFORMAT_BEGIN
 90
        0
 91
        0
 92
      512
 93
        0
300

 40
0.0
140
1.0
 94
        2
 62
     0
340
11
144
0.18
309
CONTENTFORMAT_END
171
     1
301
MARGIN
  1
CELLMARGIN_BEGIN
 40
0.06
 40
0.06
 40
0.06
 40
0.06
 40
0.18
 40
0.18
309
CELLMARGIN_END
 94
        6
 95
        1
302
GRIDFORMAT
  1
GRIDFORMAT_BEGIN
 90
        0
 91
        1
 62
     0
 92
       -2
340
0
 93
        0
 40
0.045
309
GRIDFORMAT_END
 95
        2
302
GRIDFORMAT
  1
GRIDFORMAT_BEGIN
 90
        0
 91
        1
 62
     0
 92
       -2
340
0
 93
        0
 40
0.045
309
GRIDFORMAT_END
 95
        4
302
GRIDFORMAT
  1
GRIDFORMAT_BEGIN
 90
        0
 91
        1
 62
     0
 92
       -2
340
0
 93
        0
 40
0.045
309
GRIDFORMAT_END
 95
        8
302
GRIDFORMAT
  1
GRIDFORMAT_BEGIN
 90
        0
 91
        1
 62
     0
 92
       -2
340
0
 93
        0
 40
0.045
309
GRIDFORMAT_END
 95
       16
302
GRIDFORMAT
  1
GRIDFORMAT_BEGIN
 90
        0
 91
        1
 62
     0
 92
       -2
340
0
 93
        0
 40
0.045
309
GRIDFORMAT_END
 95
       32
302
GRIDFORMAT
  1
GRIDFORMAT_BEGIN
 90
        0
 91
        1
 62
     0
 92
       -2
340
0
 93
        0
 40
0.045
309
GRIDFORMAT_END
309
TABLEFORMAT_END
  1
CELLSTYLE_BEGIN
 90
        3
 91
        2
300
_DATA
309
CELLSTYLE_END
  0
XRECORD
  5
7E1
102
{ACAD_REACTORS
330
104
102
}
330
104
100
AcDbXrecord
280
     1
102
ACAD_ROUNDTRIP_PRE2007_TABLESTYLE
 90
      512
 91
        0
  1

 92
      512
 93
        0
  2

 94
      512
 95
        0
  3

  0
ENDSEC
  0
EOF
