  0
SECTION
  2
HEADER
  9
$ACADVER
  1
AC1015
  9
$ACADMAINTVER
 70
    20
  9
$DWGCODEPAGE
  3
ANSI_1252
  9
$INSBASE
 10
0.0
 20
0.0
 30
0.0
  9
$EXTMIN
 10
20.31169357065484
 20
17.73515680060593
 30
0.0
  9
$EXTMAX
 10
276.7577966539882
 20
476.7573487006059
 30
0.0
  9
$LIMMIN
 10
0.0
 20
0.0
  9
$LIMMAX
 10
12.0
 20
9.0
  9
$ORTHOMODE
 70
     0
  9
$REGENMODE
 70
     1
  9
$FILLMODE
 70
     1
  9
$QTEXTMODE
 70
     0
  9
$MIRRTEXT
 70
     0
  9
$LTSCALE
 40
1.0
  9
$ATTMODE
 70
     1
  9
$TEXTSIZE
 40
0.2
  9
$TRACEWID
 40
0.05
  9
$TEXTSTYLE
  7
Standard
  9
$CLAYER
  8
0
  9
$CELTYPE
  6
ByLayer
  9
$CECOLOR
 62
   256
  9
$CELTSCALE
 40
1.0
  9
$DISPSILH
 70
     0
  9
$DIMSCALE
 40
1.0
  9
$DIMASZ
 40
0.18
  9
$DIMEXO
 40
0.0625
  9
$DIMDLI
 40
0.38
  9
$DIMRND
 40
0.0
  9
$DIMDLE
 40
0.0
  9
$DIMEXE
 40
0.18
  9
$DIMTP
 40
0.0
  9
$DIMTM
 40
0.0
  9
$DIMTXT
 40
0.18
  9
$DIMCEN
 40
0.09
  9
$DIMTSZ
 40
0.0
  9
$DIMTOL
 70
     0
  9
$DIMLIM
 70
     0
  9
$DIMTIH
 70
     1
  9
$DIMTOH
 70
     1
  9
$DIMSE1
 70
     0
  9
$DIMSE2
 70
     0
  9
$DIMTAD
 70
     0
  9
$DIMZIN
 70
     0
  9
$DIMBLK
  1

  9
$DIMASO
 70
     1
  9
$DIMSHO
 70
     1
  9
$DIMPOST
  1

  9
$DIMAPOST
  1

  9
$DIMALT
 70
     0
  9
$DIMALTD
 70
     2
  9
$DIMALTF
 40
25.4
  9
$DIMLFAC
 40
1.0
  9
$DIMTOFL
 70
     0
  9
$DIMTVP
 40
0.0
  9
$DIMTIX
 70
     0
  9
$DIMSOXD
 70
     0
  9
$DIMSAH
 70
     0
  9
$DIMBLK1
  1

  9
$DIMBLK2
  1

  9
$DIMSTYLE
  2
Standard
  9
$DIMCLRD
 70
     0
  9
$DIMCLRE
 70
     0
  9
$DIMCLRT
 70
     0
  9
$DIMTFAC
 40
1.0
  9
$DIMGAP
 40
0.09
  9
$DIMJUST
 70
     0
  9
$DIMSD1
 70
     0
  9
$DIMSD2
 70
     0
  9
$DIMTOLJ
 70
     1
  9
$DIMTZIN
 70
     0
  9
$DIMALTZ
 70
     0
  9
$DIMALTTZ
 70
     0
  9
$DIMUPT
 70
     0
  9
$DIMDEC
 70
     4
  9
$DIMTDEC
 70
     4
  9
$DIMALTU
 70
     2
  9
$DIMALTTD
 70
     2
  9
$DIMTXSTY
  7
Standard
  9
$DIMAUNIT
 70
     0
  9
$DIMADEC
 70
     0
  9
$DIMALTRND
 40
0.0
  9
$DIMAZIN
 70
     0
  9
$DIMDSEP
 70
    46
  9
$DIMATFIT
 70
     3
  9
$DIMFRAC
 70
     0
  9
$DIMLDRBLK
  1

  9
$DIMLUNIT
 70
     2
  9
$DIMLWD
 70
    -2
  9
$DIMLWE
 70
    -2
  9
$DIMTMOVE
 70
     0
  9
$LUNITS
 70
     2
  9
$LUPREC
 70
     4
  9
$SKETCHINC
 40
0.1
  9
$FILLETRAD
 40
0.0
  9
$AUNITS
 70
     0
  9
$AUPREC
 70
     0
  9
$MENU
  1
.
  9
$ELEVATION
 40
0.0
  9
$PELEVATION
 40
0.0
  9
$THICKNESS
 40
0.0
  9
$LIMCHECK
 70
     0
  9
$CHAMFERA
 40
0.0
  9
$CHAMFERB
 40
0.0
  9
$CHAMFERC
 40
0.0
  9
$CHAMFERD
 40
0.0
  9
$SKPOLY
 70
     0
  9
$TDCREATE
 40
2455511.356971829
  9
$TDUCREATE
 40
2455511.315305162
  9
$TDUPDATE
 40
2455511.357144086
  9
$TDUUPDATE
 40
2455511.315477419
  9
$TDINDWG
 40
0.0001722569
  9
$TDUSRTIMER
 40
0.0001722569
  9
$USRTIMER
 70
     1
  9
$ANGBASE
 50
0.0
  9
$ANGDIR
 70
     0
  9
$PDMODE
 70
     0
  9
$PDSIZE
 40
0.0
  9
$PLINEWID
 40
0.0
  9
$SPLFRAME
 70
     0
  9
$SPLINETYPE
 70
     6
  9
$SPLINESEGS
 70
     8
  9
$HANDSEED
  5
50A
  9
$SURFTAB1
 70
     6
  9
$SURFTAB2
 70
     6
  9
$SURFTYPE
 70
     6
  9
$SURFU
 70
     6
  9
$SURFV
 70
     6
  9
$UCSBASE
  2

  9
$UCSNAME
  2

  9
$UCSORG
 10
0.0
 20
0.0
 30
0.0
  9
$UCSXDIR
 10
1.0
 20
0.0
 30
0.0
  9
$UCSYDIR
 10
0.0
 20
1.0
 30
0.0
  9
$UCSORTHOREF
  2

  9
$UCSORTHOVIEW
 70
     0
  9
$UCSORGTOP
 10
0.0
 20
0.0
 30
0.0
  9
$UCSORGBOTTOM
 10
0.0
 20
0.0
 30
0.0
  9
$UCSORGLEFT
 10
0.0
 20
0.0
 30
0.0
  9
$UCSORGRIGHT
 10
0.0
 20
0.0
 30
0.0
  9
$UCSORGFRONT
 10
0.0
 20
0.0
 30
0.0
  9
$UCSORGBACK
 10
0.0
 20
0.0
 30
0.0
  9
$PUCSBASE
  2

  9
$PUCSNAME
  2

  9
$PUCSORG
 10
0.0
 20
0.0
 30
0.0
  9
$PUCSXDIR
 10
1.0
 20
0.0
 30
0.0
  9
$PUCSYDIR
 10
0.0
 20
1.0
 30
0.0
  9
$PUCSORTHOREF
  2

  9
$PUCSORTHOVIEW
 70
     0
  9
$PUCSORGTOP
 10
0.0
 20
0.0
 30
0.0
  9
$PUCSORGBOTTOM
 10
0.0
 20
0.0
 30
0.0
  9
$PUCSORGLEFT
 10
0.0
 20
0.0
 30
0.0
  9
$PUCSORGRIGHT
 10
0.0
 20
0.0
 30
0.0
  9
$PUCSORGFRONT
 10
0.0
 20
0.0
 30
0.0
  9
$PUCSORGBACK
 10
0.0
 20
0.0
 30
0.0
  9
$USERI1
 70
     0
  9
$USERI2
 70
     0
  9
$USERI3
 70
     0
  9
$USERI4
 70
     0
  9
$USERI5
 70
     0
  9
$USERR1
 40
0.0
  9
$USERR2
 40
0.0
  9
$USERR3
 40
0.0
  9
$USERR4
 40
0.0
  9
$USERR5
 40
0.0
  9
$WORLDVIEW
 70
     1
  9
$SHADEDGE
 70
     3
  9
$SHADEDIF
 70
    70
  9
$TILEMODE
 70
     1
  9
$MAXACTVP
 70
    64
  9
$PINSBASE
 10
0.0
 20
0.0
 30
0.0
  9
$PLIMCHECK
 70
     0
  9
$PEXTMIN
 10
0.0
 20
0.0
 30
0.0
  9
$PEXTMAX
 10
0.0
 20
0.0
 30
0.0
  9
$PLIMMIN
 10
0.0
 20
0.0
  9
$PLIMMAX
 10
12.0
 20
9.0
  9
$UNITMODE
 70
     0
  9
$VISRETAIN
 70
     1
  9
$PLINEGEN
 70
     0
  9
$PSLTSCALE
 70
     1
  9
$TREEDEPTH
 70
  3020
  9
$CMLSTYLE
  2
Standard
  9
$CMLJUST
 70
     0
  9
$CMLSCALE
 40
1.0
  9
$PROXYGRAPHICS
 70
     1
  9
$MEASUREMENT
 70
     0
  9
$CELWEIGHT
370
    -1
  9
$ENDCAPS
280
     0
  9
$JOINSTYLE
280
     0
  9
$LWDISPLAY
290
     0
  9
$INSUNITS
 70
     1
  9
$HYPERLINKBASE
  1

  9
$STYLESHEET
  1

  9
$XEDIT
290
     1
  9
$CEPSNTYPE
380
     0
  9
$PSTYLEMODE
290
     1
  9
$FINGERPRINTGUID
  2
{4785AB4C-9CD8-4F3A-B90A-31A9DBF89BD0}
  9
$VERSIONGUID
  2
{0CDFF30F-1CD9-4551-A2AA-AA3E9ED04B0F}
  9
$EXTNAMES
290
     1
  9
$PSVPSCALE
 40
0.0
  9
$OLESTARTUP
290
     0
  0
ENDSEC
  0
SECTION
  2
CLASSES
  0
CLASS
  1
ACDBDICTIONARYWDFLT
  2
AcDbDictionaryWithDefault
  3
ObjectDBX Classes
 90
        0
280
     0
281
     0
  0
CLASS
  1
ACDBPLACEHOLDER
  2
AcDbPlaceHolder
  3
ObjectDBX Classes
 90
        0
280
     0
281
     0
  0
CLASS
  1
LAYOUT
  2
AcDbLayout
  3
ObjectDBX Classes
 90
        0
280
     0
281
     0
  0
CLASS
  1
DICTIONARYVAR
  2
AcDbDictionaryVar
  3
ObjectDBX Classes
 90
        0
280
     0
281
     0
  0
CLASS
  1
TABLESTYLE
  2
AcDbTableStyle
  3
ObjectDBX Classes
 90
     4095
280
     0
281
     0
  0
CLASS
  1
MATERIAL
  2
AcDbMaterial
  3
ObjectDBX Classes
 90
     1153
280
     0
281
     0
  0
CLASS
  1
VISUALSTYLE
  2
AcDbVisualStyle
  3
ObjectDBX Classes
 90
     4095
280
     0
281
     0
  0
CLASS
  1
SCALE
  2
AcDbScale
  3
ObjectDBX Classes
 90
     1153
280
     0
281
     0
  0
CLASS
  1
MLEADERSTYLE
  2
AcDbMLeaderStyle
  3
ACDB_MLEADERSTYLE_CLASS
 90
     4095
280
     0
281
     0
  0
CLASS
  1
CELLSTYLEMAP
  2
AcDbCellStyleMap
  3
ObjectDBX Classes
 90
     1152
280
     0
281
     0
  0
ENDSEC
  0
SECTION
  2
TABLES
  0
TABLE
  2
VPORT
  5
8
330
0
100
AcDbSymbolTable
 70
     1
  0
VPORT
  5
94
330
8
100
AcDbSymbolTableRecord
100
AcDbViewportTableRecord
  2
*Active
 70
     0
 10
0.0
 20
0.0
 11
1.0
 21
1.0
 12
148.5347451123215
 22
247.2462527506059
 13
0.0
 23
0.0
 14
0.5
 24
0.5
 15
0.5
 25
0.5
 16
0.0
 26
0.0
 36
1.0
 17
0.0
 27
0.0
 37
0.0
 40
462.8105456158183
 41
1.148760330578512
 42
50.0
 43
0.0
 44
0.0
 50
0.0
 51
0.0
 71
     0
 72
  1000
 73
     1
 74
     3
 75
     0
 76
     0
 77
     0
 78
     0
281
     0
 65
     1
110
0.0
120
0.0
130
0.0
111
1.0
121
0.0
131
0.0
112
0.0
122
1.0
132
0.0
 79
     0
146
0.0
  0
ENDTAB
  0
TABLE
  2
LTYPE
  5
5
330
0
100
AcDbSymbolTable
 70
     1
  0
LTYPE
  5
14
330
5
100
AcDbSymbolTableRecord
100
AcDbLinetypeTableRecord
  2
ByBlock
 70
     0
  3

 72
    65
 73
     0
 40
0.0
  0
LTYPE
  5
15
330
5
100
AcDbSymbolTableRecord
100
AcDbLinetypeTableRecord
  2
ByLayer
 70
     0
  3

 72
    65
 73
     0
 40
0.0
  0
LTYPE
  5
16
330
5
100
AcDbSymbolTableRecord
100
AcDbLinetypeTableRecord
  2
Continuous
 70
     0
  3
Solid line
 72
    65
 73
     0
 40
0.0
  0
ENDTAB
  0
TABLE
  2
LAYER
  5
2
330
0
100
AcDbSymbolTable
 70
     3
  0
LAYER
  5
10
102
{ACAD_XDICTIONARY
360
E6
102
}
330
2
100
AcDbSymbolTableRecord
100
AcDbLayerTableRecord
  2
0
 70
     0
 62
     7
  6
Continuous
370
    -3
390
F
  0
LAYER
  5
16B
102
{ACAD_XDICTIONARY
360
4F6
102
}
330
2
100
AcDbSymbolTableRecord
100
AcDbLayerTableRecord
  2
QUOTE
 70
     0
 62
     7
  6
Continuous
370
    -3
390
F
1001
AcAecLayerStandard
1000

1000

  0
LAYER
  5
4C3
330
2
100
AcDbSymbolTableRecord
100
AcDbLayerTableRecord
  2
Defpoints
 70
     0
 62
     7
  6
Continuous
290
     0
370
    -3
390
F
  0
ENDTAB
  0
TABLE
  2
STYLE
  5
3
330
0
100
AcDbSymbolTable
 70
     2
  0
STYLE
  5
11
330
3
100
AcDbSymbolTableRecord
100
AcDbTextStyleTableRecord
  2
Standard
 70
     0
 40
0.0
 41
1.0
 50
0.0
 71
     0
 42
0.2
  3
txt.shx
  4

  0
STYLE
  5
DC
330
3
100
AcDbSymbolTableRecord
100
AcDbTextStyleTableRecord
  2
Annotativa
 70
     0
 40
0.0
 41
1.0
 50
0.0
 71
     0
 42
0.2
  3
txt.shx
  4

1001
AcadAnnotative
1000
AnnotativeData
1002
{
1070
     1
1070
     1
1002
}
  0
ENDTAB
  0
TABLE
  2
VIEW
  5
6
330
0
100
AcDbSymbolTable
 70
     1
  0
ENDTAB
  0
TABLE
  2
UCS
  5
7
330
0
100
AcDbSymbolTable
 70
     0
  0
ENDTAB
  0
TABLE
  2
APPID
  5
9
330
0
100
AcDbSymbolTable
 70
    14
  0
APPID
  5
12
330
9
100
AcDbSymbolTableRecord
100
AcDbRegAppTableRecord
  2
ACAD
 70
     0
  0
APPID
  5
DD
330
9
100
AcDbSymbolTableRecord
100
AcDbRegAppTableRecord
  2
AcadAnnoPO
 70
     0
  0
APPID
  5
DE
330
9
100
AcDbSymbolTableRecord
100
AcDbRegAppTableRecord
  2
AcadAnnotative
 70
     0
  0
APPID
  5
DF
330
9
100
AcDbSymbolTableRecord
100
AcDbRegAppTableRecord
  2
ACAD_DSTYLE_DIMJAG
 70
     0
  0
APPID
  5
E0
330
9
100
AcDbSymbolTableRecord
100
AcDbRegAppTableRecord
  2
ACAD_DSTYLE_DIMTALN
 70
     0
  0
APPID
  5
107
330
9
100
AcDbSymbolTableRecord
100
AcDbRegAppTableRecord
  2
ACAD_MLEADERVER
 70
     0
  0
APPID
  5
16C
330
9
100
AcDbSymbolTableRecord
100
AcDbRegAppTableRecord
  2
VDEXTRAPARAM
 70
     0
  0
APPID
  5
16D
330
9
100
AcDbSymbolTableRecord
100
AcDbRegAppTableRecord
  2
VD_TEMPHATCH
 70
     0
  0
APPID
  5
16E
330
9
100
AcDbSymbolTableRecord
100
AcDbRegAppTableRecord
  2
AcAecLayerStandard
 70
     0
  0
APPID
  5
16F
330
9
100
AcDbSymbolTableRecord
100
AcDbRegAppTableRecord
  2
VD_EX_PRINTER_DWG_STYLE_SHEET
 70
     0
  0
APPID
  5
170
330
9
100
AcDbSymbolTableRecord
100
AcDbRegAppTableRecord
  2
VD_EX_PRINTER_SIZEX
 70
     0
  0
APPID
  5
171
330
9
100
AcDbSymbolTableRecord
100
AcDbRegAppTableRecord
  2
VD_EX_PRINTER_AVSIZEX
 70
     0
  0
APPID
  5
172
330
9
100
AcDbSymbolTableRecord
100
AcDbRegAppTableRecord
  2
VD_EX_PRINTER_SIZEY
 70
     0
  0
APPID
  5
173
330
9
100
AcDbSymbolTableRecord
100
AcDbRegAppTableRecord
  2
VD_EX_PRINTER_AVSIZEY
 70
     0
  0
ENDTAB
  0
TABLE
  2
DIMSTYLE
  5
A
330
0
100
AcDbSymbolTable
 70
     2
100
AcDbDimStyleTable
 71
     2
340
27
340
E1
  0
DIMSTYLE
105
27
102
{ACAD_REACTORS
330
4A3
330
4A4
102
}
330
A
100
AcDbSymbolTableRecord
100
AcDbDimStyleTableRecord
  2
Standard
 70
     0
340
11
  0
DIMSTYLE
105
E1
330
A
100
AcDbSymbolTableRecord
100
AcDbDimStyleTableRecord
  2
Annotativa
 70
     0
 40
0.0
340
11
1001
AcadAnnotative
1000
AnnotativeData
1002
{
1070
     1
1070
     1
1002
}
1001
ACAD_DSTYLE_DIMJAG
1070
   388
1040
1.5
1001
ACAD_DSTYLE_DIMTALN
1070
   392
1070
     0
  0
ENDTAB
  0
TABLE
  2
BLOCK_RECORD
  5
1
330
0
100
AcDbSymbolTable
 70
     7
  0
BLOCK_RECORD
  5
1F
330
1
100
AcDbSymbolTableRecord
100
AcDbBlockTableRecord
  2
*Model_Space
340
22
  0
BLOCK_RECORD
  5
58
330
1
100
AcDbSymbolTableRecord
100
AcDbBlockTableRecord
  2
*Paper_Space
340
59
  0
BLOCK_RECORD
  5
5D
330
1
100
AcDbSymbolTableRecord
100
AcDbBlockTableRecord
  2
*Paper_Space0
340
5E
  0
BLOCK_RECORD
  5
14C
330
1
100
AcDbSymbolTableRecord
100
AcDbBlockTableRecord
  2
VDDIM_DEFAULT
340
0
  0
BLOCK_RECORD
  5
150
330
1
100
AcDbSymbolTableRecord
100
AcDbBlockTableRecord
  2
IBvert
340
0
102
{BLKREFS
331
318
331
319
331
4C1
331
4C2
102
}
  0
BLOCK_RECORD
  5
15F
330
1
100
AcDbSymbolTableRecord
100
AcDbBlockTableRecord
  2
*D3
340
0
  0
BLOCK_RECORD
  5
4C4
330
1
100
AcDbSymbolTableRecord
100
AcDbBlockTableRecord
  2
*D5
340
0
  0
BLOCK_RECORD
  5
4D1
330
1
100
AcDbSymbolTableRecord
100
AcDbBlockTableRecord
  2
*D6
340
0
  0
ENDTAB
  0
ENDSEC
  0
SECTION
  2
BLOCKS
  0
BLOCK
  5
20
330
1F
100
AcDbEntity
  8
0
100
AcDbBlockBegin
  2
*Model_Space
 70
     0
 10
0.0
 20
0.0
 30
0.0
  3
*Model_Space
  1

  0
ENDBLK
  5
21
330
1F
100
AcDbEntity
  8
0
100
AcDbBlockEnd
  0
BLOCK
  5
5A
330
58
100
AcDbEntity
 67
     1
  8
0
100
AcDbBlockBegin
  2
*Paper_Space
 70
     0
 10
0.0
 20
0.0
 30
0.0
  3
*Paper_Space
  1

  0
ENDBLK
  5
5B
330
58
100
AcDbEntity
 67
     1
  8
0
100
AcDbBlockEnd
  0
BLOCK
  5
5F
330
5D
100
AcDbEntity
 67
     1
  8
0
100
AcDbBlockBegin
  2
*Paper_Space0
 70
     0
 10
0.0
 20
0.0
 30
0.0
  3
*Paper_Space0
  1

  0
ENDBLK
  5
60
330
5D
100
AcDbEntity
 67
     1
  8
0
100
AcDbBlockEnd
  0
BLOCK
  5
14D
330
14C
100
AcDbEntity
  8
0
100
AcDbBlockBegin
  2
VDDIM_DEFAULT
 70
     0
 10
0.0
 20
0.0
 30
0.0
  3
VDDIM_DEFAULT
  1

  0
HATCH
  5
14E
330
14C
100
AcDbEntity
  8
0
  6
Continuous
 62
     0
370
    -2
100
AcDbHatch
 10
0.0
 20
0.0
 30
0.0
210
0.0
220
0.0
230
-1.0
  2
SOLID
 70
     1
 71
     0
 91
        1
 92
        2
 72
     0
 73
     1
 93
        3
 10
0.0
 20
0.0
 10
1.0
 20
-0.1665
 10
1.0
 20
0.1665
 97
        0
 75
     0
 76
     1
 98
        1
 10
0.0
 20
0.0
  0
ENDBLK
  5
14F
330
14C
100
AcDbEntity
  8
0
100
AcDbBlockEnd
  0
BLOCK
  5
151
330
150
100
AcDbEntity
  8
0
100
AcDbBlockBegin
  2
IBvert
 70
     0
 10
0.0
 20
0.0
 30
0.0
  3
IBvert
  1

  0
LINE
  5
152
330
150
100
AcDbEntity
  8
0
100
AcDbLine
 10
105.74134107
 20
8.212549389999999
 30
0.0
 11
16.97138987
 21
8.212549389999999
 31
0.0
  0
ARC
  5
153
330
150
100
AcDbEntity
  8
0
100
AcDbCircle
 10
16.97138987
 20
15.33568614
 30
0.0
 40
7.123136749999999
100
AcDbArc
 50
180.0
 51
270.0
  0
CIRCLE
  5
154
330
150
100
AcDbEntity
  8
0
100
AcDbCircle
 10
16.97138987
 20
15.33568614
 30
0.0
 40
2.58835439
  0
ARC
  5
155
330
150
100
AcDbEntity
  8
0
100
AcDbCircle
 10
105.74134107
 20
15.33568614
 30
0.0
 40
7.123136749999999
100
AcDbArc
 50
270.0
 51
0.0
  0
CIRCLE
  5
156
330
150
100
AcDbEntity
  8
0
100
AcDbCircle
 10
105.74134107
 20
15.33568614
 30
0.0
 40
2.58835439
  0
LINE
  5
157
330
150
100
AcDbEntity
  8
0
100
AcDbLine
 10
9.848253129999999
 20
15.33568614
 30
0.0
 11
9.848253129999999
 21
221.0912604
 31
0.0
  0
LINE
  5
158
330
150
100
AcDbEntity
  8
0
100
AcDbLine
 10
112.86447781
 20
15.33568614
 30
0.0
 11
112.86447781
 21
221.0912604
 31
0.0
  0
LINE
  5
159
330
150
100
AcDbEntity
  8
0
100
AcDbLine
 10
16.97138987
 20
228.21439714
 30
0.0
 11
105.74134107
 21
228.21439714
 31
0.0
  0
ARC
  5
15A
330
150
100
AcDbEntity
  8
0
100
AcDbCircle
 10
16.97138987
 20
221.0912604
 30
0.0
 40
7.123136749999999
100
AcDbArc
 50
90.0
 51
180.0
  0
CIRCLE
  5
15B
330
150
100
AcDbEntity
  8
0
100
AcDbCircle
 10
16.97138987
 20
221.0912604
 30
0.0
 40
2.58835439
  0
CIRCLE
  5
15C
330
150
100
AcDbEntity
  8
0
100
AcDbCircle
 10
105.74134107
 20
221.0912604
 30
0.0
 40
2.58835439
  0
ARC
  5
15D
330
150
100
AcDbEntity
  8
0
100
AcDbCircle
 10
105.74134107
 20
221.0912604
 30
0.0
 40
7.123136749999999
100
AcDbArc
 50
0.0
 51
90.0
  0
ENDBLK
  5
15E
330
150
100
AcDbEntity
  8
0
100
AcDbBlockEnd
  0
BLOCK
  5
160
330
15F
100
AcDbEntity
  8
0
100
AcDbBlockBegin
  2
*D3
 70
     0
 10
0.0
 20
0.0
 30
0.0
  3
*D3
  1

  0
LINE
  5
161
330
15F
100
AcDbEntity
  8
QUOTE
 62
     7
100
AcDbLine
 10
253.76690811
 20
19.65508356
 30
0.0
 11
253.76690811
 21
-14.4197367
 31
0.0
  0
LINE
  5
162
330
15F
100
AcDbEntity
  8
QUOTE
 62
     7
100
AcDbLine
 10
33.76690811
 20
19.71995389
 30
0.0
 11
33.76690811
 21
-14.4197367
 31
0.0
  0
LINE
  5
163
330
15F
100
AcDbEntity
  8
QUOTE
 62
     7
100
AcDbLine
 10
238.76690811
 20
-14.2397367
 30
0.0
 11
160.41838973
 21
-14.2397367
 31
0.0
  0
LINE
  5
164
330
15F
100
AcDbEntity
  8
QUOTE
 62
     7
100
AcDbLine
 10
48.76690811
 20
-14.2397367
 30
0.0
 11
135.23838973
 21
-14.2397367
 31
0.0
  0
LWPOLYLINE
  5
165
102
{ACAD_REACTORS
330
166
102
}
330
15F
100
AcDbEntity
  8
QUOTE
 62
     7
100
AcDbPolyline
 90
        3
 70
     1
 43
0.0
 10
238.76690811
 20
-11.7397367
 10
238.76690811
 20
-16.7397367
 10
253.76690811
 20
-14.2397367
  0
HATCH
  5
166
330
15F
100
AcDbEntity
  8
QUOTE
 62
     7
100
AcDbHatch
 10
0.0
 20
0.0
 30
0.0
210
0.0
220
0.0
230
1.0
  2
SOLID
 70
     1
 71
     1
 91
        1
 92
        2
 72
     0
 73
     1
 93
        3
 10
238.76690811
 20
-11.7397367
 10
238.76690811
 20
-16.7397367
 10
253.76690811
 20
-14.2397367
 97
        1
330
165
 75
     0
 76
     1
 98
        1
 10
0.0
 20
0.0
1001
VD_TEMPHATCH
1000
VD_TEMPHATCH
  0
LWPOLYLINE
  5
167
102
{ACAD_REACTORS
330
168
102
}
330
15F
100
AcDbEntity
  8
QUOTE
 62
     7
100
AcDbPolyline
 90
        3
 70
     1
 43
0.0
 10
48.76690811
 20
-11.7397367
 10
48.76690811
 20
-16.7397367
 10
33.76690811
 20
-14.2397367
  0
HATCH
  5
168
330
15F
100
AcDbEntity
  8
QUOTE
 62
     7
100
AcDbHatch
 10
0.0
 20
0.0
 30
0.0
210
0.0
220
0.0
230
1.0
  2
SOLID
 70
     1
 71
     1
 91
        1
 92
        2
 72
     0
 73
     1
 93
        3
 10
48.76690811
 20
-11.7397367
 10
48.76690811
 20
-16.7397367
 10
33.76690811
 20
-14.2397367
 97
        1
330
167
 75
     0
 76
     1
 98
        1
 10
0.0
 20
0.0
1001
VD_TEMPHATCH
1000
VD_TEMPHATCH
  0
MTEXT
  5
169
330
15F
100
AcDbEntity
  8
QUOTE
 62
     7
100
AcDbMText
 10
147.82838973
 20
-14.2397367
 30
0.0
 40
10.0
 41
22.49162198
 71
     5
 72
     1
  1
\A1;220
 73
     1
 44
1.0
1001
ACAD
1000
MTEXTBEGIN
1070
    73
1070
     1
1070
    44
1040
1.0
1070
    74
1070
     0
1000
MTEXTEND
  0
ENDBLK
  5
16A
330
15F
100
AcDbEntity
  8
0
100
AcDbBlockEnd
  0
BLOCK
  5
4C5
330
4C4
100
AcDbEntity
  8
0
100
AcDbBlockBegin
  2
*D5
 70
     1
 10
0.0
 20
0.0
 30
0.0
  3
*D5
  1

  0
LINE
  5
4DE
330
4C4
100
AcDbEntity
  8
QUOTE
 62
     0
370
    -2
100
AcDbLine
 10
74.16659422398817
 20
476.7573487006059
 30
0.0
 11
33.46502690398827
 21
476.7573487006059
 31
0.0
  0
LINE
  5
4DF
330
4C4
100
AcDbEntity
  8
QUOTE
 62
     0
370
    -2
100
AcDbLine
 10
71.69586665398817
 20
41.75734870060593
 30
0.0
 11
33.46502690398817
 21
41.75734870060593
 31
0.0
  0
LINE
  5
4E0
330
4C4
100
AcDbEntity
  8
QUOTE
 62
     0
370
    -2
100
AcDbLine
 10
33.64502690398826
 20
461.7573487006059
 30
0.0
 11
33.64502690398822
 21
256.1250865306059
 31
0.0
  0
LINE
  5
4E1
330
4C4
100
AcDbEntity
  8
QUOTE
 62
     0
370
    -2
100
AcDbLine
 10
33.64502690398817
 20
56.75734870060594
 30
0.0
 11
33.64502690398822
 21
245.9450865306059
 31
0.0
  0
SOLID
  5
4E2
330
4C4
100
AcDbEntity
  8
QUOTE
 62
     0
100
AcDbTrace
 10
31.14502690398826
 20
461.7573487006059
 30
0.0
 11
36.14502690398826
 21
461.7573487006059
 31
0.0
 12
33.64502690398827
 22
476.7573487006059
 32
0.0
 13
33.64502690398827
 23
476.7573487006059
 33
0.0
  0
SOLID
  5
4E3
330
4C4
100
AcDbEntity
  8
QUOTE
 62
     0
100
AcDbTrace
 10
31.14502690398817
 20
56.75734870060594
 30
0.0
 11
36.14502690398817
 21
56.75734870060594
 31
0.0
 12
33.64502690398817
 22
41.75734870060593
 32
0.0
 13
33.64502690398817
 23
41.75734870060593
 33
0.0
  0
MTEXT
  5
4E4
330
4C4
100
AcDbEntity
  8
QUOTE
 62
     0
100
AcDbMText
 10
33.64502690398817
 20
251.0350865306059
 30
0.0
 40
10.0
 41
0.0
 71
     5
 72
     1
  1
\A1;435
 73
     1
 44
1.0
1001
ACAD
1000
MTEXTBEGIN
1070
    73
1070
     1
1070
    44
1040
1.0
1070
    74
1070
     0
1000
MTEXTEND
  0
POINT
  5
4E5
330
4C4
100
AcDbEntity
  8
Defpoints
 62
     0
100
AcDbPoint
 10
74.22909422398817
 20
476.7573487006059
 30
0.0
  0
POINT
  5
4E6
330
4C4
100
AcDbEntity
  8
Defpoints
 62
     0
100
AcDbPoint
 10
71.75836665398818
 20
41.75734870060593
 30
0.0
  0
POINT
  5
4E7
330
4C4
100
AcDbEntity
  8
Defpoints
 62
     0
100
AcDbPoint
 10
33.64502690398817
 20
41.75734870060593
 30
0.0
  0
ENDBLK
  5
4C6
330
4C4
100
AcDbEntity
  8
0
100
AcDbBlockEnd
  0
BLOCK
  5
4D2
330
4D1
100
AcDbEntity
  8
0
100
AcDbBlockBegin
  2
*D6
 70
     1
 10
0.0
 20
0.0
 30
0.0
  3
*D6
  1

  0
LINE
  5
4E8
330
4D1
100
AcDbEntity
  8
QUOTE
 62
     0
370
    -2
100
AcDbLine
 10
276.7577966539882
 20
56.62997706060593
 30
0.0
 11
276.7577966539882
 21
22.55515680060593
 31
0.0
  0
LINE
  5
4E9
330
4D1
100
AcDbEntity
  8
QUOTE
 62
     0
370
    -2
100
AcDbLine
 10
56.75779665398818
 20
56.69484739060592
 30
0.0
 11
56.75779665398818
 21
22.55515680060593
 31
0.0
  0
LINE
  5
4EA
330
4D1
100
AcDbEntity
  8
QUOTE
 62
     0
370
    -2
100
AcDbLine
 10
261.7577966539882
 20
22.73515680060593
 30
0.0
 11
183.4092782739882
 21
22.73515680060593
 31
0.0
  0
LINE
  5
4EB
330
4D1
100
AcDbEntity
  8
QUOTE
 62
     0
370
    -2
100
AcDbLine
 10
71.75779665398818
 20
22.73515680060593
 30
0.0
 11
158.2292782739882
 21
22.73515680060593
 31
0.0
  0
SOLID
  5
4EC
330
4D1
100
AcDbEntity
  8
QUOTE
 62
     0
100
AcDbTrace
 10
261.7577966539882
 20
25.23515680060593
 30
0.0
 11
261.7577966539882
 21
20.23515680060593
 31
0.0
 12
276.7577966539882
 22
22.73515680060593
 32
0.0
 13
276.7577966539882
 23
22.73515680060593
 33
0.0
  0
SOLID
  5
4ED
330
4D1
100
AcDbEntity
  8
QUOTE
 62
     0
100
AcDbTrace
 10
71.75779665398818
 20
25.23515680060593
 30
0.0
 11
71.75779665398818
 21
20.23515680060593
 31
0.0
 12
56.75779665398818
 22
22.73515680060593
 32
0.0
 13
56.75779665398818
 23
22.73515680060593
 33
0.0
  0
MTEXT
  5
4EE
330
4D1
100
AcDbEntity
  8
QUOTE
 62
     0
100
AcDbMText
 10
170.8192782739881
 20
22.73515680060593
 30
0.0
 40
10.0
 41
0.0
 71
     5
 72
     1
  1
\A1;220
 73
     1
 44
1.0
1001
ACAD
1000
MTEXTBEGIN
1070
    73
1070
     1
1070
    44
1040
1.0
1070
    74
1070
     0
1000
MTEXTEND
  0
POINT
  5
4EF
330
4D1
100
AcDbEntity
  8
Defpoints
 62
     0
100
AcDbPoint
 10
276.7577966539882
 20
56.69247706060593
 30
0.0
  0
POINT
  5
4F0
330
4D1
100
AcDbEntity
  8
Defpoints
 62
     0
100
AcDbPoint
 10
56.75779665398818
 20
56.75734739060593
 30
0.0
  0
POINT
  5
4F1
330
4D1
100
AcDbEntity
  8
Defpoints
 62
     0
100
AcDbPoint
 10
56.75779665398818
 20
22.73515680060593
 30
0.0
  0
ENDBLK
  5
4D3
330
4D1
100
AcDbEntity
  8
0
100
AcDbBlockEnd
  0
ENDSEC
  0
SECTION
  2
ENTITIES
  0
CIRCLE
  5
31E
330
1F
100
AcDbEntity
  8
0
 62
     7
370
    35
100
AcDbCircle
 10
71.75779665398818
 20
461.7573487006059
 30
0.0
 40
7.0
  0
CIRCLE
  5
31F
330
1F
100
AcDbEntity
  8
0
 62
     7
370
    35
100
AcDbCircle
 10
261.7577966539882
 20
461.7573487006059
 30
0.0
 40
7.0
  0
CIRCLE
  5
320
330
1F
100
AcDbEntity
  8
0
 62
     7
370
    35
100
AcDbCircle
 10
71.75779665398818
 20
299.7573487006059
 30
0.0
 40
7.0
  0
CIRCLE
  5
321
330
1F
100
AcDbEntity
  8
0
 62
     7
370
    35
100
AcDbCircle
 10
261.7577966539882
 20
299.7573487006059
 30
0.0
 40
7.0
  0
CIRCLE
  5
322
330
1F
100
AcDbEntity
  8
0
 62
     7
370
    35
100
AcDbCircle
 10
261.7577966539882
 20
56.75734870060593
 30
0.0
 40
7.0
  0
CIRCLE
  5
323
330
1F
100
AcDbEntity
  8
0
 62
     7
370
    35
100
AcDbCircle
 10
71.75779665398818
 20
56.75734870060593
 30
0.0
 40
7.0
  0
LINE
  5
324
330
1F
100
AcDbEntity
  8
0
 62
     7
 48
0.036012
370
    35
100
AcDbLine
 10
71.00187665398817
 20
62.75277070060592
 30
0.0
 11
72.44235165398817
 21
62.75277070060592
 31
0.0
  0
LINE
  5
325
330
1F
100
AcDbEntity
  8
0
 62
     7
 48
0.30255
370
    35
100
AcDbLine
 10
72.44235165398817
 20
50.65078170060592
 30
0.0
 11
72.44235165398817
 21
62.75277070060592
 31
0.0
  0
LINE
  5
326
330
1F
100
AcDbEntity
  8
0
 62
     7
 48
0.036012
370
    35
100
AcDbLine
 10
72.44235165398817
 20
50.65078170060592
 30
0.0
 11
71.00187665398817
 21
50.65078170060592
 31
0.0
  0
LINE
  5
327
330
1F
100
AcDbEntity
  8
0
 62
     7
 48
0.30255
370
    35
100
AcDbLine
 10
71.00187665398817
 20
62.75277070060592
 30
0.0
 11
71.00187665398817
 21
50.65078170060592
 31
0.0
  0
LINE
  5
328
330
1F
100
AcDbEntity
  8
0
 62
     7
 48
0.03336
370
    35
100
AcDbLine
 10
261.1392666539882
 20
62.88791770060592
 30
0.0
 11
262.4736476539882
 21
62.88791770060592
 31
0.0
  0
LINE
  5
329
330
1F
100
AcDbEntity
  8
0
 62
     7
 48
0.307871
370
    35
100
AcDbLine
 10
262.4736476539882
 20
50.57308370060592
 30
0.0
 11
262.4736476539882
 21
62.88791770060592
 31
0.0
  0
LINE
  5
32A
330
1F
100
AcDbEntity
  8
0
 62
     7
 48
0.03336
370
    35
100
AcDbLine
 10
262.4736476539882
 20
50.57308370060592
 30
0.0
 11
261.1392666539882
 21
50.57308370060592
 31
0.0
  0
LINE
  5
32B
330
1F
100
AcDbEntity
  8
0
 62
     7
 48
0.307871
370
    35
100
AcDbLine
 10
261.1392666539882
 20
62.88791770060592
 30
0.0
 11
261.1392666539882
 21
50.57308370060592
 31
0.0
  0
LINE
  5
32C
330
1F
100
AcDbEntity
  8
0
 62
     7
 48
0.035134
370
    35
100
AcDbLine
 10
71.09918165398818
 20
305.9140257006059
 30
0.0
 11
72.50453165398818
 21
305.9140257006059
 31
0.0
  0
LINE
  5
32D
330
1F
100
AcDbEntity
  8
0
 62
     7
 48
0.309845
370
    35
100
AcDbLine
 10
72.50453165398818
 20
293.5202267006059
 30
0.0
 11
72.50453165398818
 21
305.9140257006059
 31
0.0
  0
LINE
  5
32E
330
1F
100
AcDbEntity
  8
0
 62
     7
 48
0.035134
370
    35
100
AcDbLine
 10
72.50453165398818
 20
293.5202267006059
 30
0.0
 11
71.09918165398818
 21
293.5202267006059
 31
0.0
  0
LINE
  5
32F
330
1F
100
AcDbEntity
  8
0
 62
     7
 48
0.309845
370
    35
100
AcDbLine
 10
71.09918165398818
 20
305.9140257006059
 30
0.0
 11
71.09918165398818
 21
293.5202267006059
 31
0.0
  0
LINE
  5
330
330
1F
100
AcDbEntity
  8
0
 62
     7
 48
0.035134
370
    35
100
AcDbLine
 10
262.4164276539882
 20
305.9140257006059
 30
0.0
 11
261.0110626539882
 21
305.9140257006059
 31
0.0
  0
LINE
  5
331
330
1F
100
AcDbEntity
  8
0
 62
     7
 48
0.309845
370
    35
100
AcDbLine
 10
261.0110626539882
 20
293.5202267006059
 30
0.0
 11
261.0110626539882
 21
305.9140257006059
 31
0.0
  0
LINE
  5
332
330
1F
100
AcDbEntity
  8
0
 62
     7
 48
0.309845
370
    35
100
AcDbLine
 10
262.4164276539882
 20
305.9140257006059
 30
0.0
 11
262.4164276539882
 21
293.5202267006059
 31
0.0
  0
LINE
  5
333
330
1F
100
AcDbEntity
  8
0
 62
     7
 48
0.035134
370
    35
100
AcDbLine
 10
261.0110626539882
 20
293.5202267006059
 30
0.0
 11
262.4164276539882
 21
293.5202267006059
 31
0.0
  0
LINE
  5
334
330
1F
100
AcDbEntity
  8
0
 62
     7
 48
0.024371
370
    35
100
AcDbLine
 10
71.26315265398819
 20
468.1854487006058
 30
0.0
 11
72.23797565398817
 21
468.1854487006058
 31
0.0
  0
LINE
  5
335
330
1F
100
AcDbEntity
  8
0
 62
     7
 48
0.321996
370
    35
100
AcDbLine
 10
72.23797565398817
 20
455.3056277006058
 30
0.0
 11
72.23797565398817
 21
468.1854487006058
 31
0.0
  0
LINE
  5
336
330
1F
100
AcDbEntity
  8
0
 62
     7
 48
0.024371
370
    35
100
AcDbLine
 10
72.23797565398817
 20
455.3056277006058
 30
0.0
 11
71.26315265398819
 21
455.3056277006058
 31
0.0
  0
LINE
  5
337
330
1F
100
AcDbEntity
  8
0
 62
     7
 48
0.321996
370
    35
100
AcDbLine
 10
71.26315265398819
 20
468.1854487006058
 30
0.0
 11
71.26315265398819
 21
455.3056277006058
 31
0.0
  0
LINE
  5
338
330
1F
100
AcDbEntity
  8
0
 62
     7
 48
0.321996
370
    35
100
AcDbLine
 10
261.2776336539882
 20
455.3056277006058
 30
0.0
 11
261.2776336539882
 21
468.1854487006058
 31
0.0
  0
LINE
  5
339
330
1F
100
AcDbEntity
  8
0
 62
     7
 48
0.02437
370
    35
100
AcDbLine
 10
262.2524256539882
 20
468.1854487006058
 30
0.0
 11
261.2776336539882
 21
468.1854487006058
 31
0.0
  0
LINE
  5
33A
330
1F
100
AcDbEntity
  8
0
 62
     7
 48
0.321996
370
    35
100
AcDbLine
 10
262.2524256539882
 20
468.1854487006058
 30
0.0
 11
262.2524256539882
 21
455.3056277006058
 31
0.0
  0
LINE
  5
33B
330
1F
100
AcDbEntity
  8
0
 62
     7
 48
0.02437
370
    35
100
AcDbLine
 10
261.2776336539882
 20
455.3056277006058
 30
0.0
 11
262.2524256539882
 21
455.3056277006058
 31
0.0
  0
LINE
  5
33C
330
1F
100
AcDbEntity
  8
0
 62
     7
 48
0.129758
370
    35
100
AcDbLine
 10
276.7577966539882
 20
61.94767170060593
 30
0.0
 11
276.7577966539882
 21
56.75734870060593
 31
0.0
  0
LINE
  5
33D
330
1F
100
AcDbEntity
  8
0
 62
     7
 48
0.259515
370
    35
100
AcDbLine
 10
276.7577966539882
 20
304.9476567006059
 30
0.0
 11
276.7577966539882
 21
294.567040700606
 31
0.0
  0
LINE
  5
33E
330
1F
100
AcDbEntity
  8
0
 62
     7
 48
0.129758
370
    35
100
AcDbLine
 10
276.7577966539882
 20
461.7573487006059
 30
0.0
 11
276.7577966539882
 21
456.5670407006059
 31
0.0
  0
ARC
  5
33F
330
1F
100
AcDbEntity
  8
0
 62
     7
370
    35
100
AcDbCircle
 10
261.7577966539882
 20
461.7573487006059
 30
0.0
 40
15.0
100
AcDbArc
 50
0.0
 51
90.0
  0
LINE
  5
340
330
1F
100
AcDbEntity
  8
0
 62
     7
370
    35
100
AcDbLine
 10
261.7577966539882
 20
476.7573487006059
 30
0.0
 11
71.75779665398818
 21
476.7573487006059
 31
0.0
  0
ARC
  5
341
330
1F
100
AcDbEntity
  8
0
 62
     7
370
    35
100
AcDbCircle
 10
71.75779665398818
 20
461.7573487006059
 30
0.0
 40
15.0
100
AcDbArc
 50
90.0
 51
180.0
  0
LINE
  5
342
330
1F
100
AcDbEntity
  8
0
 62
     7
370
    35
100
AcDbLine
 10
56.75779665398818
 20
56.75734870060593
 30
0.0
 11
56.75779665398818
 21
461.7573487006059
 31
0.0
  0
ARC
  5
343
330
1F
100
AcDbEntity
  8
0
 62
     7
370
    35
100
AcDbCircle
 10
71.75779665398818
 20
56.75734870060593
 30
0.0
 40
15.0
100
AcDbArc
 50
180.0
 51
200.2441429999999
  0
ARC
  5
344
330
1F
100
AcDbEntity
  8
0
 62
     7
370
    35
100
AcDbCircle
 10
261.7577966539882
 20
56.75734870060593
 30
0.0
 40
15.0
100
AcDbArc
 50
339.7558549999999
 51
0.0
  0
LINE
  5
345
330
1F
100
AcDbEntity
  8
0
 62
   253
370
    35
100
AcDbLine
 10
267.5228726539882
 20
338.5566957006059
 30
0.0
 11
267.5225676539882
 21
424.530419700606
 31
0.0
  0
ARC
  5
346
330
1F
100
AcDbEntity
  8
0
 62
   253
370
    35
100
AcDbCircle
 10
265.4824676539882
 20
424.5275817006058
 30
0.0
 40
2.040195
100
AcDbArc
 50
0.0802970000000133
 51
6.676644000000043
  0
ARC
  5
347
330
1F
100
AcDbEntity
  8
0
 62
   253
370
    35
100
AcDbCircle
 10
265.5233606539882
 20
424.5309687006059
 30
0.0
 40
1.999050999999999
100
AcDbArc
 50
29.99454000000003
 51
34.33495099999988
  0
ARC
  5
348
330
1F
100
AcDbEntity
  8
0
 62
   253
370
    35
100
AcDbCircle
 10
265.5225676539882
 20
424.5304507006059
 30
0.0
 40
1.999993
100
AcDbArc
 50
60.9950239999999
 51
90.0
  0
LINE
  5
349
330
1F
100
AcDbEntity
  8
0
 62
   253
370
    35
100
AcDbLine
 10
265.5225676539882
 20
426.5304197006059
 30
0.0
 11
67.99301165398818
 21
426.5304197006059
 31
0.0
  0
ARC
  5
34A
330
1F
100
AcDbEntity
  8
0
 62
   253
370
    35
100
AcDbCircle
 10
67.99301165398818
 20
424.5304507006059
 30
0.0
 40
1.999993
100
AcDbArc
 50
90.0
 51
119.0048989999999
  0
ARC
  5
34B
330
1F
100
AcDbEntity
  8
0
 62
   253
370
    35
100
AcDbCircle
 10
67.99232465398818
 20
424.5309077006059
 30
0.0
 40
1.999168
100
AcDbArc
 50
145.6557099999999
 51
149.579654
  0
ARC
  5
34C
330
1F
100
AcDbEntity
  8
0
 62
   253
370
    35
100
AcDbCircle
 10
68.00166265398818
 20
424.5291077006059
 30
0.0
 40
2.00872
100
AcDbArc
 50
165.0202249999999
 51
179.9621109999999
  0
LINE
  5
34D
330
1F
100
AcDbEntity
  8
0
 62
   253
370
    35
100
AcDbLine
 10
65.99270565398817
 20
338.5566957006059
 30
0.0
 11
65.99301165398817
 21
424.530419700606
 31
0.0
  0
ELLIPSE
  5
34E
330
1F
100
AcDbEntity
  8
0
 62
   253
370
    35
100
AcDbEllipse
 10
267.0223536539881
 20
336.5646607006059
 30
0.0
 11
-0.3535461399999999
 21
0.3535461399999999
 31
0.0
210
0.0
220
0.0
230
1.0
 40
0.9996950000000001
 41
2.3560422
 42
3.14159265
  0
ELLIPSE
  5
34F
330
1F
100
AcDbEntity
  8
0
 62
   253
370
    35
100
AcDbEllipse
 10
66.49323965398818
 20
336.5646607006059
 30
0.0
 11
0.3535461399999999
 21
0.3535461399999999
 31
0.0
210
0.0
220
0.0
230
1.0
 40
0.9996950000000001
 41
3.14159265
 42
3.927143109999999
  0
ELLIPSE
  5
350
330
1F
100
AcDbEntity
  8
0
 62
   253
370
    13
100
AcDbEllipse
 10
266.9499966539881
 20
317.0681397006059
 30
0.0
 11
-0.5
 21
0.0012207
 31
0.0
210
0.0
220
0.0
230
1.0
 40
0.139173
 41
2.52496481
 42
3.15921749
  0
LINE
  5
351
330
1F
100
AcDbEntity
  8
0
 62
   253
 48
0.4069840000000001
370
    35
100
AcDbLine
 10
202.4784386539882
 20
336.0913937006059
 30
0.0
 11
218.7577966539882
 21
336.0913937006059
 31
0.0
  0
LINE
  5
352
330
1F
100
AcDbEntity
  8
0
 62
   253
 48
0.1
370
    35
100
AcDbLine
 10
218.7577966539882
 20
336.0913937006059
 30
0.0
 11
222.7577966539882
 21
336.0913937006059
 31
0.0
  0
LINE
  5
353
330
1F
100
AcDbEntity
  8
0
 62
   253
 48
0.2
370
    35
100
AcDbLine
 10
222.7577966539882
 20
336.0913937006059
 30
0.0
 11
230.7577966539882
 21
336.0913937006059
 31
0.0
  0
LINE
  5
354
330
1F
100
AcDbEntity
  8
0
 62
   253
 48
0.1
370
    35
100
AcDbLine
 10
230.7577966539882
 20
336.0913937006059
 30
0.0
 11
234.7577966539882
 21
336.0913937006059
 31
0.0
  0
LINE
  5
355
330
1F
100
AcDbEntity
  8
0
 62
   253
370
    35
100
AcDbLine
 10
234.7577966539882
 20
336.0913937006059
 30
0.0
 11
265.5225676539882
 21
336.0913937006059
 31
0.0
  0
LINE
  5
356
330
1F
100
AcDbEntity
  8
0
 62
   253
370
    35
100
AcDbLine
 10
67.99301165398818
 20
336.0913937006059
 30
0.0
 11
98.75779665398818
 21
336.0913937006059
 31
0.0
  0
LINE
  5
357
330
1F
100
AcDbEntity
  8
0
 62
   253
 48
0.1
370
    35
100
AcDbLine
 10
98.75779665398818
 20
336.0913937006059
 30
0.0
 11
102.7577966539882
 21
336.0913937006059
 31
0.0
  0
LINE
  5
358
330
1F
100
AcDbEntity
  8
0
 62
   253
 48
0.2
370
    35
100
AcDbLine
 10
102.7577966539882
 20
336.0913937006059
 30
0.0
 11
110.7577966539881
 21
336.0913937006059
 31
0.0
  0
LINE
  5
359
330
1F
100
AcDbEntity
  8
0
 62
   253
 48
0.1
370
    35
100
AcDbLine
 10
110.7577966539881
 20
336.0913937006059
 30
0.0
 11
114.7577966539881
 21
336.0913937006059
 31
0.0
  0
LINE
  5
35A
330
1F
100
AcDbEntity
  8
0
 62
   253
 48
0.4069840000000001
370
    35
100
AcDbLine
 10
114.7577966539881
 20
336.0913937006059
 30
0.0
 11
131.0371696539881
 21
336.0913937006059
 31
0.0
  0
LINE
  5
35B
330
1F
100
AcDbEntity
  8
0
 62
   253
 48
0.035079
370
    35
100
AcDbLine
 10
131.5352626539882
 20
336.5913027006059
 30
0.0
 11
131.5352626539882
 21
337.9944697006059
 31
0.0
  0
ARC
  5
35C
330
1F
100
AcDbEntity
  8
0
 62
   253
370
    35
100
AcDbCircle
 10
133.3219906539881
 20
338.0002687006059
 30
0.0
 40
1.786661999999999
100
AcDbArc
 50
125.5955679999999
 51
180.186323
  0
ARC
  5
35D
330
1F
100
AcDbEntity
  8
0
 62
   253
370
    35
100
AcDbCircle
 10
146.7484276539882
 20
319.176415700606
 30
0.0
 40
24.909151
100
AcDbArc
 50
89.97843999999991
 51
125.505955
  0
LINE
  5
35E
330
1F
100
AcDbEntity
  8
0
 62
   253
370
    35
100
AcDbLine
 10
186.7577966539881
 20
344.0860837006058
 30
0.0
 11
146.7577966539882
 21
344.0860837006058
 31
0.0
  0
ARC
  5
35F
330
1F
100
AcDbEntity
  8
0
 62
   253
370
    35
100
AcDbCircle
 10
186.7671356539882
 20
319.1762637006059
 30
0.0
 40
24.909298
100
AcDbArc
 50
54.49417599999996
 51
90.02149700000002
  0
ARC
  5
360
330
1F
100
AcDbEntity
  8
0
 62
   253
370
    35
100
AcDbCircle
 10
200.1936186539882
 20
338.0002687006059
 30
0.0
 40
1.786629999999999
100
AcDbArc
 50
359.8130039999999
 51
54.40470400000002
  0
LINE
  5
361
330
1F
100
AcDbEntity
  8
0
 62
   253
 48
0.035078
370
    35
100
AcDbLine
 10
201.9803316539882
 20
336.5913027006059
 30
0.0
 11
201.9803316539882
 21
337.9944397006059
 31
0.0
  0
LINE
  5
362
330
1F
100
AcDbEntity
  8
0
 62
   253
 48
0.000343
370
    35
100
AcDbLine
 10
66.50294465398818
 20
336.0550477006059
 30
0.0
 11
66.49323965398818
 21
336.0647217006059
 31
0.0
  0
LINE
  5
363
330
1F
100
AcDbEntity
  8
0
 62
   253
 48
0.003719
370
    35
100
AcDbLine
 10
131.0371696539881
 20
336.0913937006059
 30
0.0
 11
131.1830596539881
 21
336.0622807006059
 31
0.0
  0
ARC
  5
364
330
1F
100
AcDbEntity
  8
0
 62
   253
370
    35
100
AcDbCircle
 10
146.1303856539882
 20
1569.179528700606
 30
0.0
 40
1233.227052
100
AcDbArc
 50
269.351
 51
270.029149
  0
LINE
  5
365
330
1F
100
AcDbEntity
  8
0
 62
   253
370
    35
100
AcDbLine
 10
186.7577966539881
 20
335.9518677006059
 30
0.0
 11
146.7577966539882
 21
335.9518677006059
 31
0.0
  0
ARC
  5
366
330
1F
100
AcDbEntity
  8
0
 62
   253
370
    35
100
AcDbCircle
 10
187.3851776539881
 20
1569.181481700606
 30
0.0
 40
1233.229111
100
AcDbArc
 50
269.970853
 51
270.649002
  0
LINE
  5
367
330
1F
100
AcDbEntity
  8
0
 62
   253
 48
0.00372
370
    35
100
AcDbLine
 10
202.4784386539882
 20
336.0913937006059
 30
0.0
 11
202.3325346539882
 21
336.0622807006059
 31
0.0
  0
ELLIPSE
  5
368
330
1F
100
AcDbEntity
  8
0
 62
   253
370
    13
100
AcDbEllipse
 10
66.56561265398818
 20
317.0681397006059
 30
0.0
 11
-0.5
 21
-0.0012207
 31
0.0
210
0.0
220
0.0
230
1.0
 40
0.139173
 41
6.265560469999999
 42
6.899813707179585
  0
ELLIPSE
  5
369
330
1F
100
AcDbEntity
  8
0
 62
   253
370
    35
100
AcDbEllipse
 10
202.4784386539882
 20
336.5913027006059
 30
0.0
 11
-0.09783936
 21
0.4903259300000001
 31
0.0
210
0.0
220
0.0
230
1.0
 40
0.996044
 41
1.374628899999999
 42
2.943904139999999
  0
ELLIPSE
  5
36A
330
1F
100
AcDbEntity
  8
0
 62
   253
370
    35
100
AcDbEllipse
 10
131.0371696539881
 20
336.5913027006059
 30
0.0
 11
0.09783936
 21
0.4903259300000001
 31
0.0
210
0.0
220
0.0
230
1.0
 40
0.996044
 41
3.33928116
 42
4.90855641
  0
LINE
  5
36B
330
1F
100
AcDbEntity
  8
0
 62
   253
 48
0.024136
370
    35
100
AcDbLine
 10
146.7577966539882
 20
344.0860837006058
 30
0.0
 11
146.7577966539882
 21
343.120629700606
 31
0.0
  0
LINE
  5
36C
330
1F
100
AcDbEntity
  8
0
 62
   253
 48
0.024136
370
    35
100
AcDbLine
 10
186.7577966539881
 20
344.0860837006058
 30
0.0
 11
186.7577966539881
 21
343.120629700606
 31
0.0
  0
LINE
  5
36D
330
1F
100
AcDbEntity
  8
0
 62
   253
 48
0.01198
370
    35
100
AcDbLine
 10
146.7577966539882
 20
336.4310847006059
 30
0.0
 11
146.7577966539882
 21
335.9518677006059
 31
0.0
  0
LINE
  5
36E
330
1F
100
AcDbEntity
  8
0
 62
   253
 48
0.01198
370
    35
100
AcDbLine
 10
186.7577966539881
 20
336.4310847006059
 30
0.0
 11
186.7577966539881
 21
335.9518677006059
 31
0.0
  0
LINE
  5
36F
330
1F
100
AcDbEntity
  8
0
 62
   253
 48
0.167238
370
    35
100
AcDbLine
 10
146.7577966539882
 20
343.120629700606
 30
0.0
 11
146.7577966539882
 21
336.4311157006059
 31
0.0
  0
LINE
  5
370
330
1F
100
AcDbEntity
  8
0
 62
   253
 48
0.167239
370
    35
100
AcDbLine
 10
186.7577966539881
 20
343.120629700606
 30
0.0
 11
186.7577966539881
 21
336.4310847006059
 31
0.0
  0
LINE
  5
371
330
1F
100
AcDbEntity
  8
0
 62
   253
 48
0.049789
370
    35
100
AcDbLine
 10
267.5228726539882
 20
338.5566957006059
 30
0.0
 11
267.5225676539882
 21
336.5651187006059
 31
0.0
  0
ARC
  5
372
330
1F
100
AcDbEntity
  8
0
 62
   253
370
    35
100
AcDbCircle
 10
265.5225676539882
 20
424.530419700606
 30
0.0
 40
2.0
100
AcDbArc
 50
6.728933999999926
 51
29.99603900000009
  0
ARC
  5
373
330
1F
100
AcDbEntity
  8
0
 62
   253
370
    35
100
AcDbCircle
 10
265.5225676539882
 20
424.530419700606
 30
0.0
 40
2.0
100
AcDbArc
 50
34.33439100000007
 51
60.99513299999989
  0
ARC
  5
374
330
1F
100
AcDbEntity
  8
0
 62
   253
370
    35
100
AcDbCircle
 10
67.99301165398818
 20
424.530419700606
 30
0.0
 40
2.0
100
AcDbArc
 50
119.0047899999998
 51
145.6561749999999
  0
ARC
  5
375
330
1F
100
AcDbEntity
  8
0
 62
   253
370
    35
100
AcDbCircle
 10
67.99301165398818
 20
424.530419700606
 30
0.0
 40
2.0
100
AcDbArc
 50
149.5785060000001
 51
164.9928639999999
  0
LINE
  5
376
330
1F
100
AcDbEntity
  8
0
 62
   253
 48
0.049789
370
    35
100
AcDbLine
 10
65.99270565398817
 20
338.5566957006059
 30
0.0
 11
65.99301165398817
 21
336.5651187006059
 31
0.0
  0
ARC
  5
377
330
1F
100
AcDbEntity
  8
0
 62
   253
370
    35
100
AcDbCircle
 10
267.0218346539882
 20
336.5652097006059
 30
0.0
 40
0.500732
100
AcDbArc
 50
314.997188
 51
359.990554
  0
ARC
  5
378
330
1F
100
AcDbEntity
  8
0
 62
   253
370
    35
100
AcDbCircle
 10
66.49374365398817
 20
336.5652097006059
 30
0.0
 40
0.500732
100
AcDbArc
 50
180.009448
 51
225.0028140000001
  0
LINE
  5
379
330
1F
100
AcDbEntity
  8
0
 62
   253
 48
0.000306
370
    35
100
AcDbLine
 10
267.3758996539882
 20
336.2111147006059
 30
0.0
 11
267.3672326539882
 21
336.2024477006059
 31
0.0
  0
LINE
  5
37A
330
1F
100
AcDbEntity
  8
0
 62
   253
 48
0.465656
370
    35
100
AcDbLine
 10
267.4956816539882
 20
335.693078700606
 30
0.0
 11
267.4499966539881
 21
317.0668887006059
 31
0.0
  0
ARC
  5
37B
330
1F
100
AcDbEntity
  8
0
 62
   253
370
    35
100
AcDbCircle
 10
295.5830836539882
 20
335.7357417006059
 30
0.0
 40
28.087143
100
AcDbArc
 50
178.5720169999999
 51
180.0870389999999
  0
LINE
  5
37C
330
1F
100
AcDbEntity
  8
0
 62
   253
 48
0.000624
370
    35
100
AcDbLine
 10
267.3759606539881
 20
336.2117857006059
 30
0.0
 11
267.3583216539882
 21
336.1941157006059
 31
0.0
  0
LINE
  5
37D
330
1F
100
AcDbEntity
  8
0
 62
   253
 48
0.000306
370
    35
100
AcDbLine
 10
66.14836065398818
 20
336.2024477006059
 30
0.0
 11
66.13969365398817
 21
336.2111147006059
 31
0.0
  0
LINE
  5
37E
330
1F
100
AcDbEntity
  8
0
 62
   253
 48
0.00062
370
    35
100
AcDbLine
 10
66.13970965398817
 20
336.211724700606
 30
0.0
 11
66.15722665398817
 21
336.1941467006059
 31
0.0
  0
ARC
  5
37F
330
1F
100
AcDbEntity
  8
0
 62
   253
370
    35
100
AcDbCircle
 10
37.55505365398818
 20
335.7313777006059
 30
0.0
 40
28.464622
100
AcDbArc
 50
359.922889
 51
1.408302000000024
  0
LINE
  5
380
330
1F
100
AcDbEntity
  8
0
 62
   253
 48
0.465656
370
    35
100
AcDbLine
 10
66.01991265398817
 20
335.693078700606
 30
0.0
 11
66.06561265398818
 21
317.0668887006059
 31
0.0
  0
ARC
  5
381
330
1F
100
AcDbEntity
  8
0
 62
   253
370
    35
100
AcDbCircle
 10
264.9574126539882
 20
317.073113700606
 30
0.0
 40
2.492569
100
AcDbArc
 50
344.369023
 51
359.8569019999999
  0
ARC
  5
382
330
1F
100
AcDbEntity
  8
0
 62
   253
370
    35
100
AcDbCircle
 10
68.55816665398816
 20
317.073113700606
 30
0.0
 40
2.492559999999999
100
AcDbArc
 50
180.1430600000001
 51
195.631388
  0
ARC
  5
383
330
1F
100
AcDbEntity
  8
0
 62
   253
370
    35
100
AcDbCircle
 10
68.14891065398817
 20
315.8199397006059
 30
0.0
 40
1.991138
100
AcDbArc
 50
179.96692
 51
270.1240749999999
  0
LINE
  5
384
330
1F
100
AcDbEntity
  8
0
 62
   253
370
    35
100
AcDbLine
 10
68.15322865398818
 20
313.8283937006059
 30
0.0
 11
265.3623506539882
 21
313.8283937006059
 31
0.0
  0
ARC
  5
385
330
1F
100
AcDbEntity
  8
0
 62
   253
370
    35
100
AcDbCircle
 10
265.3666836539882
 20
315.8199397006059
 30
0.0
 40
1.991138
100
AcDbArc
 50
269.875927
 51
0.0330860000000776
  0
ELLIPSE
  5
386
330
1F
100
AcDbEntity
  8
0
 62
   253
370
    35
100
AcDbEllipse
 10
163.7473906539882
 20
321.0707027006059
 30
0.0
 11
6.0
 21
0.0
 31
0.0
210
0.0
220
0.0
230
1.0
 40
0.9998479999999998
 41
3.925260709999999
 42
4.71238898
  0
ELLIPSE
  5
387
330
1F
100
AcDbEntity
  8
0
 62
   253
370
    35
100
AcDbEllipse
 10
166.7577966539881
 20
324.0702457006059
 30
0.0
 11
10.25
 21
0.0
 31
0.0
210
0.0
220
0.0
230
1.0
 40
0.9998479999999998
 41
3.14159265
 42
3.925260709999999
  0
LINE
  5
388
330
1F
100
AcDbEntity
  8
0
 62
   253
 48
0.00174
370
    35
100
AcDbLine
 10
156.5077966539881
 20
324.0702457006059
 30
0.0
 11
156.5077966539881
 21
324.1398257006059
 31
0.0
  0
ELLIPSE
  5
389
330
1F
100
AcDbEntity
  8
0
 62
   253
370
    35
100
AcDbEllipse
 10
169.7682036539881
 20
321.0707027006059
 30
0.0
 11
6.0
 21
0.0
 31
0.0
210
0.0
220
0.0
230
1.0
 40
0.9998479999999998
 41
4.71238898
 42
5.49951725
  0
LINE
  5
38A
330
1F
100
AcDbEntity
  8
0
 62
   253
 48
0.15052
370
    35
100
AcDbLine
 10
163.7473906539882
 20
315.0716187006059
 30
0.0
 11
169.7682036539881
 21
315.0716187006059
 31
0.0
  0
ELLIPSE
  5
38B
330
1F
100
AcDbEntity
  8
0
 62
   253
370
    35
100
AcDbEllipse
 10
166.7577966539881
 20
324.0702457006059
 30
0.0
 11
10.25
 21
0.0
 31
0.0
210
0.0
220
0.0
230
1.0
 40
0.9998479999999998
 41
6.28314778
 42
9.424777957179585
  0
ELLIPSE
  5
38C
330
1F
100
AcDbEntity
  8
0
 62
   253
370
    35
100
AcDbEllipse
 10
166.7577966539881
 20
324.0702457006059
 30
0.0
 11
10.25
 21
0.0
 31
0.0
210
0.0
220
0.0
230
1.0
 40
0.9998479999999998
 41
5.49951725
 42
6.28314778
  0
LINE
  5
38D
330
1F
100
AcDbEntity
  8
0
 62
   253
 48
0.016771
370
    35
100
AcDbLine
 10
186.7577966539881
 20
328.2320187006058
 30
0.0
 11
186.7577966539881
 21
327.5611817006059
 31
0.0
  0
ARC
  5
38E
330
1F
100
AcDbEntity
  8
0
 62
   253
370
    35
100
AcDbCircle
 10
163.8500816539881
 20
322.9508907006059
 30
0.0
 40
13.366272
100
AcDbArc
 50
20.17714499999994
 51
23.26567200000006
  0
LINE
  5
38F
330
1F
100
AcDbEntity
  8
0
 62
   253
 48
0.000533
370
    35
100
AcDbLine
 10
176.1295616539882
 20
328.2320187006058
 30
0.0
 11
176.1295616539882
 21
328.253320700606
 31
0.0
  0
LINE
  5
390
330
1F
100
AcDbEntity
  8
0
 62
   253
 48
0.000446
370
    35
100
AcDbLine
 10
186.7577966539881
 20
328.2498717006059
 30
0.0
 11
186.7577966539881
 21
328.2320187006058
 31
0.0
  0
LINE
  5
391
330
1F
100
AcDbEntity
  8
0
 62
   253
 48
0.251478
370
    35
100
AcDbLine
 10
176.6986846539882
 20
328.2498717006059
 30
0.0
 11
186.7577966539881
 21
328.2498717006059
 31
0.0
  0
LINE
  5
392
330
1F
100
AcDbEntity
  8
0
 62
   253
 48
0.014228
370
    35
100
AcDbLine
 10
176.6986846539882
 20
328.2498717006059
 30
0.0
 11
176.1295616539882
 21
328.253320700606
 31
0.0
  0
LINE
  5
393
330
1F
100
AcDbEntity
  8
0
 62
   253
 48
0.014228
370
    35
100
AcDbLine
 10
156.8169096539882
 20
328.2498717006059
 30
0.0
 11
157.3860316539881
 21
328.253320700606
 31
0.0
  0
LINE
  5
394
330
1F
100
AcDbEntity
  8
0
 62
   253
 48
0.000446
370
    35
100
AcDbLine
 10
146.7577966539882
 20
328.2498717006059
 30
0.0
 11
146.7577966539882
 21
328.2320187006058
 31
0.0
  0
LINE
  5
395
330
1F
100
AcDbEntity
  8
0
 62
   253
 48
0.000533
370
    35
100
AcDbLine
 10
157.3860316539881
 20
328.2320187006058
 30
0.0
 11
157.3860316539881
 21
328.253320700606
 31
0.0
  0
LINE
  5
396
330
1F
100
AcDbEntity
  8
0
 62
   253
 48
0.251478
370
    35
100
AcDbLine
 10
146.7577966539882
 20
328.2498717006059
 30
0.0
 11
156.8169096539882
 21
328.2498717006059
 31
0.0
  0
LINE
  5
397
330
1F
100
AcDbEntity
  8
0
 62
   253
 48
0.016769
370
    35
100
AcDbLine
 10
146.7577966539882
 20
328.2320187006058
 30
0.0
 11
146.7577966539882
 21
327.561242700606
 31
0.0
  0
ARC
  5
398
330
1F
100
AcDbEntity
  8
0
 62
   253
370
    35
100
AcDbCircle
 10
169.6655116539881
 20
322.9508907006059
 30
0.0
 40
13.366272
100
AcDbArc
 50
156.7343319999999
 51
159.8228610000001
  0
ARC
  5
399
330
1F
100
AcDbEntity
  8
0
 62
   253
370
    35
100
AcDbCircle
 10
166.8307646539882
 20
324.0712527006059
 30
0.0
 40
10.181821
100
AcDbArc
 50
4.358457000000001
 51
20.04494700000002
  0
ARC
  5
39A
330
1F
100
AcDbEntity
  8
0
 62
   253
370
    35
100
AcDbCircle
 10
166.7537076539882
 20
324.139794700606
 30
0.0
 40
10.254083
100
AcDbArc
 50
0.0001880000000312
 51
3.384006999999933
  0
LINE
  5
39B
330
1F
100
AcDbEntity
  8
0
 62
   253
 48
0.002505
370
    35
100
AcDbLine
 10
176.9899136539882
 20
324.745080700606
 30
0.0
 11
176.9833826539882
 21
324.845055700606
 31
0.0
  0
ARC
  5
39C
330
1F
100
AcDbEntity
  8
0
 62
   253
370
    35
100
AcDbCircle
 10
201.4572296539882
 20
330.1518797006059
 30
0.0
 40
1.065674
100
AcDbArc
 50
95.36345599999995
 51
103.4885609999999
  0
LINE
  5
39D
330
1F
100
AcDbEntity
  8
0
 62
   253
 48
0.067903
370
    35
100
AcDbLine
 10
186.7577966539881
 20
324.845055700606
 30
0.0
 11
186.7577966539881
 21
327.5611817006059
 31
0.0
  0
LINE
  5
39E
330
1F
100
AcDbEntity
  8
0
 62
   253
 48
0.005459
370
    35
100
AcDbLine
 10
200.3133696539882
 20
330.7932067006059
 30
0.0
 11
200.5041346539882
 21
330.8994687006059
 31
0.0
  0
LINE
  5
39F
330
1F
100
AcDbEntity
  8
0
 62
   253
 48
0.002499
370
    35
100
AcDbLine
 10
186.7577966539881
 20
324.745080700606
 30
0.0
 11
186.7577966539881
 21
324.845055700606
 31
0.0
  0
LINE
  5
3A0
330
1F
100
AcDbEntity
  8
0
 62
   253
 48
0.2441969999999999
370
    35
100
AcDbLine
 10
176.9899136539882
 20
324.745080700606
 30
0.0
 11
186.7577966539881
 21
324.745080700606
 31
0.0
  0
ARC
  5
3A1
330
1F
100
AcDbEntity
  8
0
 62
   253
370
    35
100
AcDbCircle
 10
166.7605436539882
 20
324.1398257006059
 30
0.0
 40
10.252735
100
AcDbArc
 50
176.615756
 51
180.0
  0
ARC
  5
3A2
330
1F
100
AcDbEntity
  8
0
 62
   253
370
    35
100
AcDbCircle
 10
166.6848296539882
 20
324.0712527006059
 30
0.0
 40
10.181821
100
AcDbArc
 50
159.955053
 51
175.641538
  0
LINE
  5
3A3
330
1F
100
AcDbEntity
  8
0
 62
   253
 48
0.002505
370
    35
100
AcDbLine
 10
156.5256806539882
 20
324.745080700606
 30
0.0
 11
156.5322106539882
 21
324.845055700606
 31
0.0
  0
LINE
  5
3A4
330
1F
100
AcDbEntity
  8
0
 62
   253
 48
0.067903
370
    35
100
AcDbLine
 10
146.7577966539882
 20
324.845055700606
 30
0.0
 11
146.7577966539882
 21
327.5611817006059
 31
0.0
  0
ARC
  5
3A5
330
1F
100
AcDbEntity
  8
0
 62
   253
370
    35
100
AcDbCircle
 10
132.0583646539882
 20
330.1518797006059
 30
0.0
 40
1.065678
100
AcDbArc
 50
76.51145100000007
 51
84.63654200000002
  0
LINE
  5
3A6
330
1F
100
AcDbEntity
  8
0
 62
   253
 48
0.009276
370
    35
100
AcDbLine
 10
132.1579586539882
 20
331.212792700606
 30
0.0
 11
131.7869256539882
 21
331.2109617006059
 31
0.0
  0
LINE
  5
3A7
330
1F
100
AcDbEntity
  8
0
 62
   253
 48
0.005461
370
    35
100
AcDbLine
 10
133.0114586539882
 20
330.8994687006059
 30
0.0
 11
133.2023156539882
 21
330.7931767006059
 31
0.0
  0
LINE
  5
3A8
330
1F
100
AcDbEntity
  8
0
 62
   253
 48
0.002499
370
    35
100
AcDbLine
 10
146.7577966539882
 20
324.745080700606
 30
0.0
 11
146.7577966539882
 21
324.845055700606
 31
0.0
  0
LINE
  5
3A9
330
1F
100
AcDbEntity
  8
0
 62
   253
 48
0.002478
370
    35
100
AcDbLine
 10
131.8002316539882
 20
330.0298397006059
 30
0.0
 11
131.8621056539882
 21
330.1072627006059
 31
0.0
  0
LINE
  5
3AA
330
1F
100
AcDbEntity
  8
0
 62
   253
 48
0.2441969999999999
370
    35
100
AcDbLine
 10
146.7577966539882
 20
324.745080700606
 30
0.0
 11
156.5256806539882
 21
324.745080700606
 31
0.0
  0
LINE
  5
3AB
330
1F
100
AcDbEntity
  8
0
 62
   253
 48
0.000392
370
    35
100
AcDbLine
 10
200.9944916539882
 20
331.251885700606
 30
0.0
 11
200.9819176539882
 21
331.2424867006059
 31
0.0
  0
LINE
  5
3AC
330
1F
100
AcDbEntity
  8
0
 62
   253
 48
0.00255
370
    35
100
AcDbLine
 10
200.9944916539882
 20
331.251885700606
 30
0.0
 11
201.0738976539882
 21
331.3158817006059
 31
0.0
  0
ARC
  5
3AD
330
1F
100
AcDbEntity
  8
0
 62
   253
370
    35
100
AcDbCircle
 10
199.6115266539881
 20
333.0152527006059
 30
0.0
 40
2.242020999999999
100
AcDbArc
 50
310.7134159999999
 51
319.9234649999999
  0
ARC
  5
3AE
330
1F
100
AcDbEntity
  8
0
 62
   253
370
    35
100
AcDbCircle
 10
199.9235376539882
 20
332.7508177006059
 30
0.0
 40
1.833238
100
AcDbArc
 50
319.9692620000002
 51
355.4004610000001
  0
LINE
  5
3AF
330
1F
100
AcDbEntity
  8
0
 62
   253
 48
0.005738
370
    35
100
AcDbLine
 10
201.7513276539882
 20
332.833306700606
 30
0.0
 11
201.7511136539882
 21
332.6037837006059
 31
0.0
  0
ARC
  5
3B0
330
1F
100
AcDbEntity
  8
0
 62
   253
370
    35
100
AcDbCircle
 10
193.7977136539882
 20
341.0553837006059
 30
0.0
 40
12.161644
100
AcDbArc
 50
303.2826760000001
 51
306.2086639999999
  0
LINE
  5
3B1
330
1F
100
AcDbEntity
  8
0
 62
   253
 48
0.000111
370
    35
100
AcDbLine
 10
201.3576196539882
 20
331.2172487006059
 30
0.0
 11
201.3576196539882
 21
331.212792700606
 31
0.0
  0
LINE
  5
3B2
330
1F
100
AcDbEntity
  8
0
 62
   253
 48
0.000066
370
    35
100
AcDbLine
 10
201.2082366539881
 20
331.1908507006059
 30
0.0
 11
201.2086336539882
 21
331.188256700606
 31
0.0
  0
ARC
  5
3B3
330
1F
100
AcDbEntity
  8
0
 62
   253
370
    35
100
AcDbCircle
 10
201.4814296539882
 20
330.0870607006059
 30
0.0
 40
1.137038999999999
100
AcDbArc
 50
96.25213900000007
 51
103.9021220000001
  0
LINE
  5
3B4
330
1F
100
AcDbEntity
  8
0
 62
   253
 48
0.001282
370
    35
100
AcDbLine
 10
201.6770476539882
 20
331.275750700606
 30
0.0
 11
201.7283166539882
 21
331.2760257006059
 31
0.0
  0
ARC
  5
3B5
330
1F
100
AcDbEntity
  8
0
 62
   253
370
    35
100
AcDbCircle
 10
200.4810026539882
 20
336.913720700606
 30
0.0
 40
5.763486
100
AcDbArc
 50
278.7482749999999
 51
281.977103
  0
ARC
  5
3B6
330
1F
100
AcDbEntity
  8
0
 62
   253
370
    35
100
AcDbCircle
 10
201.9871366539882
 20
328.337212700606
 30
0.0
 40
2.959633
100
AcDbArc
 50
105.71594
 51
119.9263880000001
  0
LINE
  5
3B7
330
1F
100
AcDbEntity
  8
0
 62
   253
 48
0.000579
370
    35
100
AcDbLine
 10
201.2082366539881
 20
331.1908507006059
 30
0.0
 11
201.1857146539882
 21
331.1853877006059
 31
0.0
  0
ARC
  5
3B8
330
1F
100
AcDbEntity
  8
0
 62
   253
370
    35
100
AcDbCircle
 10
200.5095666539882
 20
330.8295527006059
 30
0.0
 40
0.070196
100
AcDbArc
 50
94.5201669999999
 51
122.70357
  0
ARC
  5
3B9
330
1F
100
AcDbEntity
  8
0
 62
   253
370
    35
100
AcDbCircle
 10
133.5921776539882
 20
332.7510007006059
 30
0.0
 40
1.833418999999999
100
AcDbArc
 50
184.604813
 51
220.032512
  0
ARC
  5
3BA
330
1F
100
AcDbEntity
  8
0
 62
   253
370
    35
100
AcDbCircle
 10
133.9040676539882
 20
333.0152527006059
 30
0.0
 40
2.242024999999999
100
AcDbArc
 50
220.0765399999999
 51
229.286572
  0
LINE
  5
3BB
330
1F
100
AcDbEntity
  8
0
 62
   253
 48
0.00255
370
    35
100
AcDbLine
 10
132.4416806539881
 20
331.3158817006059
 30
0.0
 11
132.5211176539881
 21
331.251885700606
 31
0.0
  0
LINE
  5
3BC
330
1F
100
AcDbEntity
  8
0
 62
   253
 48
0.000392
370
    35
100
AcDbLine
 10
132.5336606539882
 20
331.2424867006059
 30
0.0
 11
132.5211176539881
 21
331.251885700606
 31
0.0
  0
LINE
  5
3BD
330
1F
100
AcDbEntity
  8
0
 62
   253
 48
0.005738
370
    35
100
AcDbLine
 10
131.7642666539881
 20
332.833306700606
 30
0.0
 11
131.7644956539882
 21
332.6037837006059
 31
0.0
  0
ARC
  5
3BE
330
1F
100
AcDbEntity
  8
0
 62
   253
370
    35
100
AcDbCircle
 10
139.7178796539882
 20
341.0553527006059
 30
0.0
 40
12.161621
100
AcDbArc
 50
233.7913409999999
 51
236.7173259999999
  0
LINE
  5
3BF
330
1F
100
AcDbEntity
  8
0
 62
   253
 48
0.000111
370
    35
100
AcDbLine
 10
132.1579896539882
 20
331.2172487006059
 30
0.0
 11
132.1579586539882
 21
331.212792700606
 31
0.0
  0
ARC
  5
3C0
330
1F
100
AcDbEntity
  8
0
 62
   253
370
    35
100
AcDbCircle
 10
132.0340116539881
 20
330.0868467006059
 30
0.0
 40
1.137267
100
AcDbArc
 50
76.09325899999989
 51
83.741719
  0
LINE
  5
3C1
330
1F
100
AcDbEntity
  8
0
 62
   253
 48
0.000066
370
    35
100
AcDbLine
 10
132.3073726539881
 20
331.1908507006059
 30
0.0
 11
132.3069456539881
 21
331.188256700606
 31
0.0
  0
LINE
  5
3C2
330
1F
100
AcDbEntity
  8
0
 62
   253
 48
0.000579
370
    35
100
AcDbLine
 10
132.3298946539881
 20
331.1853877006059
 30
0.0
 11
132.3073726539881
 21
331.1908507006059
 31
0.0
  0
ARC
  5
3C3
330
1F
100
AcDbEntity
  8
0
 62
   253
370
    35
100
AcDbCircle
 10
131.5284576539882
 20
328.3372437006059
 30
0.0
 40
2.959624
100
AcDbArc
 50
60.07350800000003
 51
74.28407199999991
  0
ARC
  5
3C4
330
1F
100
AcDbEntity
  8
0
 62
   253
370
    35
100
AcDbCircle
 10
133.0059656539881
 20
330.8294917006059
 30
0.0
 40
0.07028
100
AcDbArc
 50
57.26852999999999
 51
85.42017599999995
  0
LINE
  5
3C5
330
1F
100
AcDbEntity
  8
0
 62
   253
 48
0.4608010000000001
370
    35
100
AcDbLine
 10
66.15779065398817
 20
315.8210997006059
 30
0.0
 11
66.15779065398817
 21
334.253136700606
 31
0.0
  0
LINE
  5
3C6
330
1F
100
AcDbEntity
  8
0
 62
   253
 48
0.4608010000000001
370
    35
100
AcDbLine
 10
267.3578026539882
 20
315.8210997006059
 30
0.0
 11
267.3578026539882
 21
334.253136700606
 31
0.0
  0
LINE
  5
3C7
330
1F
100
AcDbEntity
  8
0
 62
   253
 48
0.14828
370
    35
100
AcDbLine
 10
186.7577966539881
 20
328.2503297006059
 30
0.0
 11
186.7577966539881
 21
334.1815127006059
 31
0.0
  0
LINE
  5
3C8
330
1F
100
AcDbEntity
  8
0
 62
   253
 48
0.14828
370
    35
100
AcDbLine
 10
146.7577966539882
 20
328.2503297006059
 30
0.0
 11
146.7577966539882
 21
334.181542700606
 31
0.0
  0
LINE
  5
3C9
330
1F
100
AcDbEntity
  8
0
 62
   253
370
    35
100
AcDbLine
 10
70.88012665398818
 20
334.751305700606
 30
0.0
 11
131.2821956539882
 21
334.751305700606
 31
0.0
  0
LINE
  5
3CA
330
1F
100
AcDbEntity
  8
0
 62
   253
 48
0.024672
370
    35
100
AcDbLine
 10
70.88012665398818
 20
334.751305700606
 30
0.0
 11
69.89326465398818
 21
334.751305700606
 31
0.0
  0
LINE
  5
3CB
330
1F
100
AcDbEntity
  8
0
 62
   253
 48
0.024671
370
    35
100
AcDbLine
 10
263.6223296539882
 20
334.751305700606
 30
0.0
 11
262.6354826539882
 21
334.751305700606
 31
0.0
  0
LINE
  5
3CC
330
1F
100
AcDbEntity
  8
0
 62
   253
370
    35
100
AcDbLine
 10
202.2412566539882
 20
334.751305700606
 30
0.0
 11
262.6354826539882
 21
334.751305700606
 31
0.0
  0
ARC
  5
3CD
330
1F
100
AcDbEntity
  8
0
 62
   253
370
    35
100
AcDbCircle
 10
266.8610076539882
 20
334.254632700606
 30
0.0
 40
0.4966630000000001
100
AcDbArc
 50
359.826846
 51
90.06199300000005
  0
LINE
  5
3CE
330
1F
100
AcDbEntity
  8
0
 62
   253
 48
0.067465
370
    35
100
AcDbLine
 10
266.8604576539882
 20
334.751305700606
 30
0.0
 11
264.1618496539881
 21
334.751305700606
 31
0.0
  0
LINE
  5
3CF
330
1F
100
AcDbEntity
  8
0
 62
   253
 48
0.007601
370
    35
100
AcDbLine
 10
263.8578026539882
 20
334.751305700606
 30
0.0
 11
264.1618496539881
 21
334.751305700606
 31
0.0
  0
LINE
  5
3D0
330
1F
100
AcDbEntity
  8
0
 62
   253
 48
0.005887
370
    35
100
AcDbLine
 10
263.6223296539882
 20
334.751305700606
 30
0.0
 11
263.8578026539882
 21
334.751305700606
 31
0.0
  0
LINE
  5
3D1
330
1F
100
AcDbEntity
  8
0
 62
   253
 48
0.005887
370
    35
100
AcDbLine
 10
69.65779065398817
 20
334.751305700606
 30
0.0
 11
69.89326465398818
 21
334.751305700606
 31
0.0
  0
LINE
  5
3D2
330
1F
100
AcDbEntity
  8
0
 62
   253
 48
0.007601
370
    35
100
AcDbLine
 10
69.35374465398817
 20
334.751305700606
 30
0.0
 11
69.65779065398817
 21
334.751305700606
 31
0.0
  0
LINE
  5
3D3
330
1F
100
AcDbEntity
  8
0
 62
   253
 48
0.067465
370
    35
100
AcDbLine
 10
66.65513565398817
 20
334.751305700606
 30
0.0
 11
69.35374465398817
 21
334.751305700606
 31
0.0
  0
ARC
  5
3D4
330
1F
100
AcDbEntity
  8
0
 62
   253
370
    35
100
AcDbCircle
 10
66.65458665398817
 20
334.254632700606
 30
0.0
 40
0.4966630000000001
100
AcDbArc
 50
89.93800500000004
 51
180.173154
  0
LINE
  5
3D5
330
1F
100
AcDbEntity
  8
0
 62
   253
 48
0.035384
370
    35
100
AcDbLine
 10
201.7513276539882
 20
332.833306700606
 30
0.0
 11
201.7518766539882
 21
334.2486507006059
 31
0.0
  0
LINE
  5
3D6
330
1F
100
AcDbEntity
  8
0
 62
   253
 48
0.035384
370
    35
100
AcDbLine
 10
131.7642666539881
 20
332.833306700606
 30
0.0
 11
131.7637326539881
 21
334.2486507006059
 31
0.0
  0
LINE
  5
3D7
330
1F
100
AcDbEntity
  8
0
 62
   253
 48
0.000581
370
    35
100
AcDbLine
 10
202.2501066539882
 20
334.735131700606
 30
0.0
 11
202.2334136539882
 21
334.751305700606
 31
0.0
  0
LINE
  5
3D8
330
1F
100
AcDbEntity
  8
0
 62
   253
 48
0.000581
370
    35
100
AcDbLine
 10
131.2821956539882
 20
334.751305700606
 30
0.0
 11
131.2655026539881
 21
334.735131700606
 31
0.0
  0
ARC
  5
3D9
330
1F
100
AcDbEntity
  8
0
 62
   253
370
    35
100
AcDbCircle
 10
131.2611386539882
 20
334.2321107006059
 30
0.0
 40
0.5030130000000001
100
AcDbArc
 50
1.776331999999969
 51
89.50294899999994
  0
LINE
  5
3DA
330
1F
100
AcDbEntity
  8
0
 62
   253
 48
0.011547
370
    35
100
AcDbLine
 10
186.7577966539881
 20
334.1815737006059
 30
0.0
 11
186.7577966539881
 21
334.643456700606
 31
0.0
  0
LINE
  5
3DB
330
1F
100
AcDbEntity
  8
0
 62
   253
 48
0.011548
370
    35
100
AcDbLine
 10
146.7577966539882
 20
334.181542700606
 30
0.0
 11
146.7577966539882
 21
334.643456700606
 31
0.0
  0
ARC
  5
3DC
330
1F
100
AcDbEntity
  8
0
 62
   253
370
    35
100
AcDbCircle
 10
202.2546236539882
 20
334.2319577006059
 30
0.0
 40
0.503188
100
AcDbArc
 50
90.51674700000004
 51
178.0963769999999
  0
ARC
  5
3DD
330
1F
100
AcDbEntity
  8
0
 62
   253
370
    35
100
AcDbCircle
 10
202.2401276539881
 20
334.2591797006059
 30
0.0
 40
0.492117
100
AcDbArc
 50
90.77422499999988
 51
98.43219199999992
  0
ARC
  5
3DE
330
1F
100
AcDbEntity
  8
0
 62
   253
370
    35
100
AcDbCircle
 10
131.2728576539882
 20
334.260430700606
 30
0.0
 40
0.490912
100
AcDbArc
 50
81.17166899999997
 51
88.91889300000007
  0
LINE
  5
3DF
330
1F
100
AcDbEntity
  8
0
 62
   253
 48
0.014227
370
    35
100
AcDbLine
 10
176.1296236539882
 20
328.2534427006059
 30
0.0
 11
176.6986846539882
 21
328.2499637006059
 31
0.0
  0
LINE
  5
3E0
330
1F
100
AcDbEntity
  8
0
 62
   253
 48
0.014227
370
    35
100
AcDbLine
 10
157.3859706539882
 20
328.2534427006059
 30
0.0
 11
156.8169096539882
 21
328.2499637006059
 31
0.0
  0
LINE
  5
3E1
330
1F
100
AcDbEntity
  8
0
 62
   253
 48
0.251478
370
    35
100
AcDbLine
 10
176.6986846539882
 20
328.2499637006059
 30
0.0
 11
186.7577966539881
 21
328.2499637006059
 31
0.0
  0
LINE
  5
3E2
330
1F
100
AcDbEntity
  8
0
 62
   253
 48
0.251478
370
    35
100
AcDbLine
 10
146.7577966539882
 20
328.2499637006059
 30
0.0
 11
156.8169096539882
 21
328.2499637006059
 31
0.0
  0
LINE
  5
3E3
330
1F
100
AcDbEntity
  8
0
 62
   253
 48
0.001749
370
    35
100
AcDbLine
 10
177.0077966539882
 20
324.0698487006059
 30
0.0
 11
177.0077966539882
 21
324.1398257006059
 31
0.0
  0
ARC
  5
3E4
330
1F
100
AcDbEntity
  8
0
 62
   253
370
    35
100
AcDbCircle
 10
198.9959866539882
 20
333.1612187006059
 30
0.0
 40
2.709747999999999
100
AcDbArc
 50
299.0873009999999
 51
302.9996939999999
  0
ARC
  5
3E5
330
1F
100
AcDbEntity
  8
0
 62
   253
370
    35
100
AcDbCircle
 10
134.5282896539881
 20
333.1756227006059
 30
0.0
 40
2.726554
100
AcDbArc
 50
237.011857
 51
240.9021419999999
  0
ARC
  5
3E6
330
1F
100
AcDbEntity
  8
0
 62
   253
370
    35
100
AcDbCircle
 10
187.3741606539882
 20
1570.850427700605
 30
0.0
 40
1236.206481
100
AcDbArc
 50
269.971434
 51
270.6436130000001
  0
LINE
  5
3E7
330
1F
100
AcDbEntity
  8
0
 62
   253
 48
0.398131
370
    35
100
AcDbLine
 10
170.8325646539882
 20
334.643456700606
 30
0.0
 11
186.7577966539881
 21
334.643456700606
 31
0.0
  0
LINE
  5
3E8
330
1F
100
AcDbEntity
  8
0
 62
   253
 48
0.398131
370
    35
100
AcDbLine
 10
146.7577966539882
 20
334.643456700606
 30
0.0
 11
162.6830286539882
 21
334.643456700606
 31
0.0
  0
ARC
  5
3E9
330
1F
100
AcDbEntity
  8
0
 62
   253
370
    35
100
AcDbCircle
 10
146.1414486539881
 20
1570.852135700606
 30
0.0
 40
1236.208134
100
AcDbArc
 50
269.3563889999999
 51
270.028568
  0
LINE
  5
3EA
330
1F
100
AcDbEntity
  8
0
 62
   253
 48
0.022843
370
    35
100
AcDbLine
 10
202.1737206539881
 20
334.7467587006059
 30
0.0
 11
201.2603296539882
 21
334.7227417006059
 31
0.0
  0
LINE
  5
3EB
330
1F
100
AcDbEntity
  8
0
 62
     7
 48
0.000664
370
    35
100
AcDbLine
 10
273.2076566539882
 20
456.6363767006058
 30
0.0
 11
273.2304226539882
 21
456.6227047006059
 31
0.0
  0
ARC
  5
3EC
330
1F
100
AcDbEntity
  8
0
 62
     7
370
    35
100
AcDbCircle
 10
274.0322716539882
 20
498.864343700606
 30
0.0
 40
42.25009199999999
100
AcDbArc
 50
268.912543
 51
270.2686360000001
  0
LINE
  5
3ED
330
1F
100
AcDbEntity
  8
0
 62
     7
 48
0.036801
370
    35
100
AcDbLine
 10
274.2303616539882
 20
456.6137327006059
 30
0.0
 11
275.7024076539882
 21
456.6092777006059
 31
0.0
  0
LINE
  5
3EE
330
1F
100
AcDbEntity
  8
0
 62
     7
 48
0.011649
370
    35
100
AcDbLine
 10
275.7024076539882
 20
456.6092777006059
 30
0.0
 11
276.1683496539882
 21
456.6073547006059
 31
0.0
  0
ARC
  5
3EF
330
1F
100
AcDbEntity
  8
0
 62
     7
370
    35
100
AcDbCircle
 10
276.2500456539882
 20
439.6711977006059
 30
0.0
 40
16.935699
100
AcDbArc
 50
88.46960999999994
 51
90.276311
  0
LINE
  5
3F0
330
1F
100
AcDbEntity
  8
0
 62
     7
 48
0.001617
370
    35
100
AcDbLine
 10
276.7577966539882
 20
456.5670407006059
 30
0.0
 11
276.7023156539882
 21
456.6003047006058
 31
0.0
  0
LINE
  5
3F1
330
1F
100
AcDbEntity
  8
0
 62
     7
 48
0.001436
370
    35
100
AcDbLine
 10
275.8311916539882
 20
466.947656700606
 30
0.0
 11
275.7843476539882
 21
466.9143917006059
 31
0.0
  0
ARC
  5
3F2
330
1F
100
AcDbEntity
  8
0
 62
     7
370
    35
100
AcDbCircle
 10
275.3069916539882
 20
486.0587397006059
 30
0.0
 40
19.150881
100
AcDbArc
 50
269.7297820000001
 51
271.428279
  0
LINE
  5
3F3
330
1F
100
AcDbEntity
  8
0
 62
     7
 48
0.012484
370
    35
100
AcDbLine
 10
275.2166896539882
 20
466.9073427006058
 30
0.0
 11
274.7173306539882
 21
466.905419700606
 31
0.0
  0
LINE
  5
3F4
330
1F
100
AcDbEntity
  8
0
 62
     7
 48
0.049251
370
    35
100
AcDbLine
 10
274.7173306539882
 20
466.905419700606
 30
0.0
 11
272.7472986539882
 21
466.8999267006058
 31
0.0
  0
ARC
  5
3F5
330
1F
100
AcDbEntity
  8
0
 62
     7
370
    35
100
AcDbCircle
 10
272.5579986539882
 20
408.5193727006059
 30
0.0
 40
58.38
100
AcDbArc
 50
89.81420099999992
 51
90.92452300000001
  0
LINE
  5
3F6
330
1F
100
AcDbEntity
  8
0
 62
     7
 48
0.000528
370
    35
100
AcDbLine
 10
271.6160126539882
 20
466.8908937006059
 30
0.0
 11
271.5990446539882
 21
466.8783207006059
 31
0.0
  0
LINE
  5
3F7
330
1F
100
AcDbEntity
  8
0
 62
     7
370
    35
100
AcDbLine
 10
276.7577966539882
 20
456.5670407006059
 30
0.0
 11
276.7577966539882
 21
304.9476567006059
 31
0.0
  0
LINE
  5
3F8
330
1F
100
AcDbEntity
  8
0
 62
     7
 48
0.001617
370
    35
100
AcDbLine
 10
276.7577966539882
 20
304.9476567006059
 30
0.0
 11
276.7023156539882
 21
304.9143917006059
 31
0.0
  0
LINE
  5
3F9
330
1F
100
AcDbEntity
  8
0
 62
     7
 48
0.011649
370
    35
100
AcDbLine
 10
276.1683496539882
 20
304.9073427006059
 30
0.0
 11
275.7024076539882
 21
304.905419700606
 31
0.0
  0
ARC
  5
3FA
330
1F
100
AcDbEntity
  8
0
 62
     7
370
    35
100
AcDbCircle
 10
276.2500456539882
 20
321.8435917006059
 30
0.0
 40
16.93578299999999
100
AcDbArc
 50
269.723696
 51
271.53039
  0
LINE
  5
3FB
330
1F
100
AcDbEntity
  8
0
 62
     7
 48
0.036801
370
    35
100
AcDbLine
 10
274.2303616539882
 20
304.9009647006059
 30
0.0
 11
275.7024076539882
 21
304.905419700606
 31
0.0
  0
LINE
  5
3FC
330
1F
100
AcDbEntity
  8
0
 62
     7
370
    35
100
AcDbLine
 10
273.2304226539882
 20
304.8919917006059
 30
0.0
 11
273.2304226539882
 21
456.6227047006059
 31
0.0
  0
ARC
  5
3FD
330
1F
100
AcDbEntity
  8
0
 62
     7
370
    35
100
AcDbCircle
 10
274.0322716539882
 20
262.650292700606
 30
0.0
 40
42.250146
100
AcDbArc
 50
89.73137099999997
 51
91.087457
  0
LINE
  5
3FE
330
1F
100
AcDbEntity
  8
0
 62
     7
 48
0.000664
370
    35
100
AcDbLine
 10
273.2076566539882
 20
304.878320700606
 30
0.0
 11
273.2304226539882
 21
304.8919917006059
 31
0.0
  0
LINE
  5
3FF
330
1F
100
AcDbEntity
  8
0
 62
     7
 48
0.000664
370
    35
100
AcDbLine
 10
273.2076566539882
 20
294.636376700606
 30
0.0
 11
273.2304226539882
 21
294.6227047006059
 31
0.0
  0
LINE
  5
400
330
1F
100
AcDbEntity
  8
0
 62
     7
370
    35
100
AcDbLine
 10
273.2304226539882
 20
61.89197670060593
 30
0.0
 11
273.2304226539882
 21
294.6227047006059
 31
0.0
  0
LINE
  5
401
330
1F
100
AcDbEntity
  8
0
 62
     7
 48
0.000664
370
    35
100
AcDbLine
 10
273.2076566539882
 20
61.87830470060593
 30
0.0
 11
273.2304226539882
 21
61.89197670060593
 31
0.0
  0
LINE
  5
402
330
1F
100
AcDbEntity
  8
0
 62
     7
370
    35
100
AcDbLine
 10
261.7577966539882
 20
476.7573487006059
 30
0.0
 11
71.75779587398818
 21
476.7573487006059
 31
0.0
  0
ARC
  5
403
330
1F
100
AcDbEntity
  8
0
 62
     7
370
    35
100
AcDbCircle
 10
260.7522426539882
 20
460.7518247006058
 30
0.0
 40
12.478362
100
AcDbArc
 50
29.4706239999999
 51
86.01425900000009
  0
ARC
  5
404
330
1F
100
AcDbEntity
  8
0
 62
     7
370
    35
100
AcDbCircle
 10
260.7577966539882
 20
460.8302247006058
 30
0.0
 40
12.399775
100
AcDbArc
 50
86.01460800000005
 51
90.0
  0
LINE
  5
405
330
1F
100
AcDbEntity
  8
0
 62
     7
 48
0.000528
370
    35
100
AcDbLine
 10
271.5990446539882
 20
51.63639170060593
 30
0.0
 11
271.6160126539882
 21
51.62380370060592
 31
0.0
  0
ARC
  5
406
330
1F
100
AcDbEntity
  8
0
 62
     7
370
    35
100
AcDbCircle
 10
260.7522426539882
 20
57.76287270060592
 30
0.0
 40
12.478362
100
AcDbArc
 50
273.9857410000001
 51
330.529373
  0
ARC
  5
407
330
1F
100
AcDbEntity
  8
0
 62
     7
370
    35
100
AcDbCircle
 10
260.7577966539882
 20
57.68448770060593
 30
0.0
 40
12.399771
100
AcDbArc
 50
270.0
 51
273.9854129999999
  0
LINE
  5
408
330
1F
100
AcDbEntity
  8
0
 62
     7
 48
0.001618
370
    35
100
AcDbLine
 10
276.7577966539882
 20
61.94767170060593
 30
0.0
 11
276.7023156539882
 21
61.91437670060593
 31
0.0
  0
ARC
  5
409
330
1F
100
AcDbEntity
  8
0
 62
     7
370
    35
100
AcDbCircle
 10
276.2500456539882
 20
78.84357570060593
 30
0.0
 40
16.93578299999999
100
AcDbArc
 50
269.723696
 51
271.53039
  0
LINE
  5
40A
330
1F
100
AcDbEntity
  8
0
 62
     7
 48
0.011649
370
    35
100
AcDbLine
 10
276.1683496539882
 20
61.90734270060593
 30
0.0
 11
275.7024076539882
 21
61.90540470060593
 31
0.0
  0
LINE
  5
40B
330
1F
100
AcDbEntity
  8
0
 62
     7
 48
0.036801
370
    35
100
AcDbLine
 10
274.2303616539882
 20
61.90094870060593
 30
0.0
 11
275.7024076539882
 21
61.90540470060593
 31
0.0
  0
ARC
  5
40C
330
1F
100
AcDbEntity
  8
0
 62
     7
370
    35
100
AcDbCircle
 10
274.0322716539882
 20
19.65029270060593
 30
0.0
 40
42.250146
100
AcDbArc
 50
89.73137099999997
 51
91.087457
  0
ARC
  5
40D
330
1F
100
AcDbEntity
  8
0
 62
     7
370
    35
100
AcDbCircle
 10
274.0322716539882
 20
336.8643437006059
 30
0.0
 40
42.250091
100
AcDbArc
 50
268.912543
 51
270.2686360000001
  0
LINE
  5
40E
330
1F
100
AcDbEntity
  8
0
 62
     7
 48
0.036801
370
    35
100
AcDbLine
 10
274.2303616539882
 20
294.613732700606
 30
0.0
 11
275.7024076539882
 21
294.609277700606
 31
0.0
  0
LINE
  5
40F
330
1F
100
AcDbEntity
  8
0
 62
     7
 48
0.011649
370
    35
100
AcDbLine
 10
275.7024076539882
 20
294.609277700606
 30
0.0
 11
276.1683496539882
 21
294.6073547006059
 31
0.0
  0
ARC
  5
410
330
1F
100
AcDbEntity
  8
0
 62
     7
370
    35
100
AcDbCircle
 10
276.2500456539882
 20
277.6711977006059
 30
0.0
 40
16.935699
100
AcDbArc
 50
88.46960999999994
 51
90.276311
  0
LINE
  5
411
330
1F
100
AcDbEntity
  8
0
 62
     7
 48
0.001617
370
    35
100
AcDbLine
 10
276.7577966539882
 20
294.567040700606
 30
0.0
 11
276.7023156539882
 21
294.6003047006059
 31
0.0
  0
LINE
  5
412
330
1F
100
AcDbEntity
  8
0
 62
     7
 48
0.021027
370
    35
100
AcDbLine
 10
270.9497826539882
 20
460.0456787006058
 30
0.0
 11
270.9495696539882
 21
460.8867427006059
 31
0.0
  0
LINE
  5
413
330
1F
100
AcDbEntity
  8
0
 62
     7
 48
0.174508
370
    35
100
AcDbLine
 10
270.9505456539882
 20
460.0456787006058
 30
0.0
 11
270.9505456539882
 21
453.0653627006058
 31
0.0
  0
LINE
  5
414
330
1F
100
AcDbEntity
  8
0
 62
     7
 48
0.049998
370
    13
100
AcDbLine
 10
273.2304226539882
 20
308.0033817006059
 30
0.0
 11
271.0552516539882
 21
308.0033817006059
 31
0.0
  0
LINE
  5
415
330
1F
100
AcDbEntity
  8
0
 62
     7
 48
0.049998
370
    13
100
AcDbLine
 10
273.0551906539882
 20
58.36431270060593
 30
0.0
 11
271.0552516539882
 21
58.36431270060593
 31
0.0
  0
LINE
  5
416
330
1F
100
AcDbEntity
  8
0
 62
     7
 48
0.001436
370
    35
100
AcDbLine
 10
57.73124665398817
 20
466.9143917006059
 30
0.0
 11
57.68440265398818
 21
466.947656700606
 31
0.0
  0
LINE
  5
417
330
1F
100
AcDbEntity
  8
0
 62
     7
 48
0.000528
370
    35
100
AcDbLine
 10
61.91654965398818
 20
466.8783207006059
 30
0.0
 11
61.89956665398817
 21
466.8908937006059
 31
0.0
  0
ARC
  5
418
330
1F
100
AcDbEntity
  8
0
 62
     7
370
    35
100
AcDbCircle
 10
60.95761065398818
 20
408.5188537006059
 30
0.0
 40
58.380538
100
AcDbArc
 50
89.07548900000001
 51
90.18581100000002
  0
LINE
  5
419
330
1F
100
AcDbEntity
  8
0
 62
     7
 48
0.049251
370
    35
100
AcDbLine
 10
60.76827965398818
 20
466.8999267006058
 30
0.0
 11
58.79826365398818
 21
466.905419700606
 31
0.0
  0
LINE
  5
41A
330
1F
100
AcDbEntity
  8
0
 62
     7
 48
0.012484
370
    35
100
AcDbLine
 10
58.79826365398818
 20
466.905419700606
 30
0.0
 11
58.29890465398817
 21
466.9073427006058
 31
0.0
  0
ARC
  5
41B
330
1F
100
AcDbEntity
  8
0
 62
     7
370
    35
100
AcDbCircle
 10
58.20744265398817
 20
486.1315547006058
 30
0.0
 40
19.223707
100
AcDbArc
 50
268.5805269999999
 51
270.27259
  0
LINE
  5
41C
330
1F
100
AcDbEntity
  8
0
 62
     7
370
    35
100
AcDbLine
 10
260.7577966539882
 20
473.229943700606
 30
0.0
 11
72.75779665398818
 21
473.229943700606
 31
0.0
  0
ARC
  5
41D
330
1F
100
AcDbEntity
  8
0
 62
     7
370
    35
100
AcDbCircle
 10
261.7925866539882
 20
461.7410527006058
 30
0.0
 40
9.156788999999999
100
AcDbArc
 50
0.1018679999999961
 51
21.19673900000005
  0
LINE
  5
41E
330
1F
100
AcDbEntity
  8
0
 62
     7
 48
0.021765
370
    35
100
AcDbLine
 10
270.9495696539882
 20
460.8867427006059
 30
0.0
 11
270.9488066539882
 21
461.7573487006059
 31
0.0
  0
ARC
  5
41F
330
1F
100
AcDbEntity
  8
0
 62
     7
370
    35
100
AcDbCircle
 10
272.5579676539882
 20
109.9958437006059
 30
0.0
 40
58.380538
100
AcDbArc
 50
269.0754899999999
 51
270.1858129999999
  0
LINE
  5
420
330
1F
100
AcDbEntity
  8
0
 62
     7
 48
0.049251
370
    35
100
AcDbLine
 10
272.7472986539882
 20
51.61477070060593
 30
0.0
 11
274.7173306539882
 21
51.60929270060593
 31
0.0
  0
LINE
  5
421
330
1F
100
AcDbEntity
  8
0
 62
     7
 48
0.012484
370
    35
100
AcDbLine
 10
274.7173306539882
 20
51.60929270060593
 30
0.0
 11
275.2166896539882
 21
51.60735470060593
 31
0.0
  0
ARC
  5
422
330
1F
100
AcDbEntity
  8
0
 62
     7
370
    35
100
AcDbCircle
 10
275.3081506539881
 20
32.38312670060593
 30
0.0
 40
19.223707
100
AcDbArc
 50
88.58052499999988
 51
90.2725889999999
  0
LINE
  5
423
330
1F
100
AcDbEntity
  8
0
 62
     7
 48
0.001437
370
    35
100
AcDbLine
 10
275.7843476539882
 20
51.60032070060593
 30
0.0
 11
275.8311916539882
 21
51.56702570060592
 31
0.0
  0
LINE
  5
424
330
1F
100
AcDbEntity
  8
0
 62
     7
370
    35
100
AcDbLine
 10
260.7577966539882
 20
45.28472270060592
 30
0.0
 11
72.75779665398818
 21
45.28472270060592
 31
0.0
  0
LINE
  5
425
330
1F
100
AcDbEntity
  8
0
 62
     7
370
    35
100
AcDbLine
 10
276.7577966539882
 20
294.567040700606
 30
0.0
 11
276.7577966539882
 21
61.94767170060593
 31
0.0
  0
ARC
  5
426
330
1F
100
AcDbEntity
  8
0
 62
     7
370
    35
100
AcDbCircle
 10
63.06581065398818
 20
453.0653627006058
 30
0.0
 40
0.5
100
AcDbArc
 50
180.0
 51
270.0
  0
ARC
  5
427
330
1F
100
AcDbEntity
  8
0
 62
     7
370
    35
100
AcDbCircle
 10
270.4497826539882
 20
453.0653627006058
 30
0.0
 40
0.5
100
AcDbArc
 50
270.0
 51
0.0
  0
LINE
  5
428
330
1F
100
AcDbEntity
  8
0
 62
     7
 48
0.2173
370
    35
100
AcDbLine
 10
261.7577966539882
 20
452.5653627006058
 30
0.0
 11
270.4497826539882
 21
452.5653627006058
 31
0.0
  0
ARC
  5
429
330
1F
100
AcDbEntity
  8
0
 62
     7
370
    35
100
AcDbCircle
 10
261.7577966539882
 20
461.7573487006059
 30
0.0
 40
9.191990999999999
100
AcDbArc
 50
180.0
 51
270.0
  0
LINE
  5
42A
330
1F
100
AcDbEntity
  8
0
 62
     7
370
    13
100
AcDbLine
 10
252.7265776539882
 20
460.0456787006058
 30
0.0
 11
176.3315276539882
 21
460.0456787006058
 31
0.0
  0
ARC
  5
42B
330
1F
100
AcDbEntity
  8
0
 62
     7
370
    13
100
AcDbCircle
 10
166.7577966539881
 20
450.1018917006059
 30
0.0
 40
13.803461
100
AcDbArc
 50
46.08618899999994
 51
133.9138090000001
  0
LINE
  5
42C
330
1F
100
AcDbEntity
  8
0
 62
     7
370
    13
100
AcDbLine
 10
157.1840666539881
 20
460.0456787006058
 30
0.0
 11
80.78901665398817
 21
460.0456787006058
 31
0.0
  0
ARC
  5
42D
330
1F
100
AcDbEntity
  8
0
 62
     7
370
    35
100
AcDbCircle
 10
71.75779665398818
 20
461.7573487006059
 30
0.0
 40
9.191990999999999
100
AcDbArc
 50
270.0
 51
0.0
  0
LINE
  5
42E
330
1F
100
AcDbEntity
  8
0
 62
     7
 48
0.2173
370
    35
100
AcDbLine
 10
71.75779665398818
 20
452.5653627006058
 30
0.0
 11
63.06581065398818
 21
452.5653627006058
 31
0.0
  0
LINE
  5
42F
330
1F
100
AcDbEntity
  8
0
 62
     7
 48
0.35
370
    35
100
AcDbLine
 10
224.7577966539882
 20
436.7573487006059
 30
0.0
 11
224.7577966539882
 21
450.7573487006059
 31
0.0
  0
ARC
  5
430
330
1F
100
AcDbEntity
  8
0
 62
     7
370
    35
100
AcDbCircle
 10
226.7577966539882
 20
450.7573487006059
 30
0.0
 40
2.0
100
AcDbArc
 50
90.0
 51
180.0
  0
LINE
  5
431
330
1F
100
AcDbEntity
  8
0
 62
     7
370
    35
100
AcDbLine
 10
249.7577966539882
 20
452.7573487006058
 30
0.0
 11
226.7577966539882
 21
452.7573487006058
 31
0.0
  0
ARC
  5
432
330
1F
100
AcDbEntity
  8
0
 62
     7
370
    35
100
AcDbCircle
 10
249.7577966539882
 20
450.7573487006059
 30
0.0
 40
2.0
100
AcDbArc
 50
0.0
 51
90.0
  0
LINE
  5
433
330
1F
100
AcDbEntity
  8
0
 62
     7
 48
0.35
370
    35
100
AcDbLine
 10
251.7577966539882
 20
450.7573487006059
 30
0.0
 11
251.7577966539882
 21
436.7573487006059
 31
0.0
  0
ARC
  5
434
330
1F
100
AcDbEntity
  8
0
 62
     7
370
    35
100
AcDbCircle
 10
249.7577966539882
 20
436.7573487006059
 30
0.0
 40
2.0
100
AcDbArc
 50
270.0
 51
0.0
  0
LINE
  5
435
330
1F
100
AcDbEntity
  8
0
 62
     7
370
    35
100
AcDbLine
 10
226.7577966539882
 20
434.7573487006059
 30
0.0
 11
249.7577966539882
 21
434.7573487006059
 31
0.0
  0
ARC
  5
436
330
1F
100
AcDbEntity
  8
0
 62
     7
370
    35
100
AcDbCircle
 10
226.7577966539882
 20
436.7573487006059
 30
0.0
 40
2.0
100
AcDbArc
 50
180.0
 51
270.0
  0
LINE
  5
437
330
1F
100
AcDbEntity
  8
0
 62
     7
370
    35
100
AcDbLine
 10
60.28517165398818
 20
309.0020077006059
 30
0.0
 11
273.2304226539882
 21
309.0020077006059
 31
0.0
  0
LINE
  5
438
330
1F
100
AcDbEntity
  8
0
 62
     7
370
    35
100
AcDbLine
 10
62.46034165398818
 20
308.0033817006059
 30
0.0
 11
271.0552516539882
 21
308.0033817006059
 31
0.0
  0
ARC
  5
439
330
1F
100
AcDbEntity
  8
0
 62
     7
370
    35
100
AcDbCircle
 10
72.76333565398818
 20
460.7518247006058
 30
0.0
 40
12.478362
100
AcDbArc
 50
93.985739
 51
150.529378
  0
ARC
  5
43A
330
1F
100
AcDbEntity
  8
0
 62
     7
370
    35
100
AcDbCircle
 10
72.75779665398818
 20
460.8302247006058
 30
0.0
 40
12.399771
100
AcDbArc
 50
90.0
 51
93.98541099999997
  0
LINE
  5
43B
330
1F
100
AcDbEntity
  8
0
 62
     7
 48
0.2173
370
    35
100
AcDbLine
 10
80.44978265398817
 20
470.8983397006059
 30
0.0
 11
71.75779665398818
 21
470.8983397006059
 31
0.0
  0
ARC
  5
43C
330
1F
100
AcDbEntity
  8
0
 62
     7
370
    35
100
AcDbCircle
 10
80.44999665398817
 20
470.4438717006058
 30
0.0
 40
0.4544350000000001
100
AcDbArc
 50
0.6877950000000643
 51
90.02486399999995
  0
ARC
  5
43D
330
1F
100
AcDbEntity
  8
0
 62
     7
370
    35
100
AcDbCircle
 10
-836.0981603460118
 20
461.5906307006058
 30
0.0
 40
917.046174
100
AcDbArc
 50
0.0104160000000369
 51
0.5534889999999971
  0
ARC
  5
43E
330
1F
100
AcDbEntity
  8
0
 62
     7
370
    35
100
AcDbCircle
 10
1169.610824653988
 20
461.5906307006058
 30
0.0
 40
917.0433220000001
100
AcDbArc
 50
179.446514
 51
179.989582
  0
ARC
  5
43F
330
1F
100
AcDbEntity
  8
0
 62
     7
370
    35
100
AcDbCircle
 10
253.0655976539882
 20
470.4438717006058
 30
0.0
 40
0.454434
100
AcDbArc
 50
89.97510000000007
 51
179.312287
  0
LINE
  5
440
330
1F
100
AcDbEntity
  8
0
 62
     7
 48
0.2173
370
    35
100
AcDbLine
 10
261.7577966539882
 20
470.8983397006059
 30
0.0
 11
253.0658106539882
 21
470.8983397006059
 31
0.0
  0
ARC
  5
441
330
1F
100
AcDbEntity
  8
0
 62
     7
370
    35
100
AcDbCircle
 10
261.7577966539882
 20
56.75734870060593
 30
0.0
 40
15.0
100
AcDbArc
 50
270.0
 51
339.7558549999999
  0
LINE
  5
442
330
1F
100
AcDbEntity
  8
0
 62
     7
370
    35
100
AcDbLine
 10
71.75779665398818
 20
41.75734870060593
 30
0.0
 11
261.7577966539882
 21
41.75734870060593
 31
0.0
  0
ARC
  5
443
330
1F
100
AcDbEntity
  8
0
 62
     7
370
    35
100
AcDbCircle
 10
71.75779665398818
 20
56.75734870060593
 30
0.0
 40
15.0
100
AcDbArc
 50
200.2441429999999
 51
270.0
  0
ARC
  5
444
330
1F
100
AcDbEntity
  8
0
 62
     7
370
    35
100
AcDbCircle
 10
72.75779665398818
 20
57.68448770060593
 30
0.0
 40
12.399775
100
AcDbArc
 50
266.014609
 51
270.0
  0
ARC
  5
445
330
1F
100
AcDbEntity
  8
0
 62
     7
370
    35
100
AcDbCircle
 10
72.76333565398818
 20
57.76287270060592
 30
0.0
 40
12.478362
100
AcDbArc
 50
209.470622
 51
266.014261
  0
LINE
  5
446
330
1F
100
AcDbEntity
  8
0
 62
     7
 48
0.000528
370
    35
100
AcDbLine
 10
61.89956665398817
 20
51.62380370060592
 30
0.0
 11
61.91654965398818
 21
51.63639170060593
 31
0.0
  0
ARC
  5
447
330
1F
100
AcDbEntity
  8
0
 62
     7
370
    35
100
AcDbCircle
 10
261.7577966539882
 20
299.7573487006059
 30
0.0
 40
8.174841999999999
100
AcDbArc
 50
90.0
 51
270.0
  0
LINE
  5
448
330
1F
100
AcDbEntity
  8
0
 62
     7
 48
0.174508
370
    35
100
AcDbLine
 10
62.56504765398817
 20
460.0456787006058
 30
0.0
 11
62.56504765398817
 21
453.0653627006058
 31
0.0
  0
ARC
  5
449
330
1F
100
AcDbEntity
  8
0
 62
   253
370
    35
100
AcDbCircle
 10
66.46626265398817
 20
313.9237917006059
 30
0.0
 40
1.999806
100
AcDbArc
 50
179.996194
 51
234.5820450000001
  0
LINE
  5
44A
330
1F
100
AcDbEntity
  8
0
 62
   253
370
    35
100
AcDbLine
 10
64.46644565398817
 20
427.5567867006059
 30
0.0
 11
64.46644565398817
 21
313.9239137006059
 31
0.0
  0
ARC
  5
44B
330
1F
100
AcDbEntity
  8
0
 62
   253
370
    35
100
AcDbCircle
 10
66.46623165398818
 20
427.556908700606
 30
0.0
 40
1.999774
100
AcDbArc
 50
89.995843
 51
180.0041609999999
  0
LINE
  5
44C
330
1F
100
AcDbEntity
  8
0
 62
   253
370
    35
100
AcDbLine
 10
66.46636965398818
 20
429.5566957006059
 30
0.0
 11
267.0492396539881
 21
429.5566957006059
 31
0.0
  0
ARC
  5
44D
330
1F
100
AcDbEntity
  8
0
 62
   253
370
    35
100
AcDbCircle
 10
267.0493616539882
 20
427.556908700606
 30
0.0
 40
1.999774
100
AcDbArc
 50
359.995843
 51
90.00415500000004
  0
LINE
  5
44E
330
1F
100
AcDbEntity
  8
0
 62
   253
370
    35
100
AcDbLine
 10
269.0491486539881
 20
427.5567867006059
 30
0.0
 11
269.0491486539881
 21
313.9239137006059
 31
0.0
  0
ARC
  5
44F
330
1F
100
AcDbEntity
  8
0
 62
   253
370
    35
100
AcDbCircle
 10
267.0493316539882
 20
313.9237917006059
 30
0.0
 40
1.999806
100
AcDbArc
 50
305.4179429999999
 51
0.0038010000000824
  0
LINE
  5
450
330
1F
100
AcDbEntity
  8
0
 62
     7
 48
0.049998
370
    35
100
AcDbLine
 10
62.46034165398818
 20
308.0033817006059
 30
0.0
 11
60.28517165398818
 21
308.0033817006059
 31
0.0
  0
ARC
  5
451
330
1F
100
AcDbEntity
  8
0
 62
     7
370
    35
100
AcDbCircle
 10
269.4326326539882
 20
307.4321837006059
 30
0.0
 40
0.5
100
AcDbArc
 50
0.0
 51
90.0
  0
LINE
  5
452
330
1F
100
AcDbEntity
  8
0
 62
     7
 48
0.383742
370
    35
100
AcDbLine
 10
269.9326326539882
 20
307.4321837006059
 30
0.0
 11
269.9326326539882
 21
292.082513700606
 31
0.0
  0
ARC
  5
453
330
1F
100
AcDbEntity
  8
0
 62
     7
370
    35
100
AcDbCircle
 10
269.4326326539882
 20
292.082513700606
 30
0.0
 40
0.5
100
AcDbArc
 50
270.0
 51
0.0
  0
LINE
  5
454
330
1F
100
AcDbEntity
  8
0
 62
     7
 48
0.191871
370
    35
100
AcDbLine
 10
261.7577966539882
 20
291.582513700606
 30
0.0
 11
269.4326326539882
 21
291.582513700606
 31
0.0
  0
LINE
  5
455
330
1F
100
AcDbEntity
  8
0
 62
     7
 48
0.191871
370
    35
100
AcDbLine
 10
261.7577966539882
 20
307.9321837006059
 30
0.0
 11
269.4326326539882
 21
307.9321837006059
 31
0.0
  0
ARC
  5
456
330
1F
100
AcDbEntity
  8
0
 62
     7
370
    35
100
AcDbCircle
 10
64.08296165398818
 20
292.082513700606
 30
0.0
 40
0.5
100
AcDbArc
 50
180.0
 51
270.0
  0
LINE
  5
457
330
1F
100
AcDbEntity
  8
0
 62
     7
 48
0.383742
370
    35
100
AcDbLine
 10
63.58296165398818
 20
307.4321837006059
 30
0.0
 11
63.58296165398818
 21
292.082513700606
 31
0.0
  0
ARC
  5
458
330
1F
100
AcDbEntity
  8
0
 62
     7
370
    35
100
AcDbCircle
 10
64.08296165398818
 20
307.4321837006059
 30
0.0
 40
0.5
100
AcDbArc
 50
90.0
 51
180.0
  0
LINE
  5
459
330
1F
100
AcDbEntity
  8
0
 62
     7
 48
0.191871
370
    35
100
AcDbLine
 10
71.75779665398818
 20
307.9321837006059
 30
0.0
 11
64.08296165398818
 21
307.9321837006059
 31
0.0
  0
ARC
  5
45A
330
1F
100
AcDbEntity
  8
0
 62
     7
370
    35
100
AcDbCircle
 10
71.75779665398818
 20
299.7573487006059
 30
0.0
 40
8.174841999999999
100
AcDbArc
 50
270.0
 51
90.0
  0
LINE
  5
45B
330
1F
100
AcDbEntity
  8
0
 62
     7
 48
0.191871
370
    35
100
AcDbLine
 10
71.75779665398818
 20
291.582513700606
 30
0.0
 11
64.08296165398818
 21
291.582513700606
 31
0.0
  0
LINE
  5
45C
330
1F
100
AcDbEntity
  8
0
 62
     7
 48
0.001617
370
    35
100
AcDbLine
 10
56.75779665398818
 20
456.5670407006059
 30
0.0
 11
56.81327765398818
 21
456.6003047006058
 31
0.0
  0
ARC
  5
45D
330
1F
100
AcDbEntity
  8
0
 62
     7
370
    35
100
AcDbCircle
 10
57.26556365398817
 20
439.6711057006059
 30
0.0
 40
16.93578299999999
100
AcDbArc
 50
89.72369400000003
 51
91.53038799999995
  0
LINE
  5
45E
330
1F
100
AcDbEntity
  8
0
 62
     7
 48
0.011649
370
    35
100
AcDbLine
 10
57.34724365398818
 20
456.6073547006059
 30
0.0
 11
57.81318665398817
 21
456.6092777006059
 31
0.0
  0
LINE
  5
45F
330
1F
100
AcDbEntity
  8
0
 62
     7
 48
0.036801
370
    35
100
AcDbLine
 10
59.28523265398817
 20
456.6137327006059
 30
0.0
 11
57.81318665398817
 21
456.6092777006059
 31
0.0
  0
ARC
  5
460
330
1F
100
AcDbEntity
  8
0
 62
     7
370
    35
100
AcDbCircle
 10
59.48333665398817
 20
498.8644047006058
 30
0.0
 40
42.250146
100
AcDbArc
 50
269.7313660000001
 51
271.0874519999999
  0
LINE
  5
461
330
1F
100
AcDbEntity
  8
0
 62
     7
 48
0.000664
370
    35
100
AcDbLine
 10
60.30793765398818
 20
456.6363767006058
 30
0.0
 11
60.28517165398818
 21
456.6227047006059
 31
0.0
  0
LINE
  5
462
330
1F
100
AcDbEntity
  8
0
 62
     7
 48
0.000664
370
    35
100
AcDbLine
 10
60.30793765398818
 20
61.87830470060593
 30
0.0
 11
60.28517165398818
 21
61.89197670060593
 31
0.0
  0
LINE
  5
463
330
1F
100
AcDbEntity
  8
0
 62
     7
370
    35
100
AcDbLine
 10
60.28517165398818
 20
61.89197670060593
 30
0.0
 11
60.28517165398818
 21
294.6227047006059
 31
0.0
  0
LINE
  5
464
330
1F
100
AcDbEntity
  8
0
 62
     7
 48
0.000664
370
    35
100
AcDbLine
 10
60.30793765398818
 20
294.636376700606
 30
0.0
 11
60.28517165398818
 21
294.6227047006059
 31
0.0
  0
LINE
  5
465
330
1F
100
AcDbEntity
  8
0
 62
     7
 48
0.000664
370
    35
100
AcDbLine
 10
60.30793765398818
 20
304.878320700606
 30
0.0
 11
60.28517165398818
 21
304.891961700606
 31
0.0
  0
LINE
  5
466
330
1F
100
AcDbEntity
  8
0
 62
     7
370
    35
100
AcDbLine
 10
60.28517165398818
 20
304.891961700606
 30
0.0
 11
60.28517165398818
 21
456.6227047006059
 31
0.0
  0
LINE
  5
467
330
1F
100
AcDbEntity
  8
0
 62
     7
 48
0.0043
370
    35
100
AcDbLine
 10
62.56603965398817
 20
460.8867427006059
 30
0.0
 11
62.56614665398817
 21
461.0587397006059
 31
0.0
  0
LINE
  5
468
330
1F
100
AcDbEntity
  8
0
 62
     7
 48
0.017465
370
    35
100
AcDbLine
 10
62.56678765398818
 20
461.7573487006059
 30
0.0
 11
62.56614665398817
 21
461.0587397006059
 31
0.0
  0
ARC
  5
469
330
1F
100
AcDbEntity
  8
0
 62
     7
370
    35
100
AcDbCircle
 10
71.69938665398817
 20
461.7466677006059
 30
0.0
 40
9.132603999999998
100
AcDbArc
 50
158.782664
 51
179.933069
  0
LINE
  5
46A
330
1F
100
AcDbEntity
  8
0
 62
     7
 48
0.001437
370
    35
100
AcDbLine
 10
57.68440265398818
 20
51.56702570060592
 30
0.0
 11
57.73124665398817
 21
51.60032070060593
 31
0.0
  0
ARC
  5
46B
330
1F
100
AcDbEntity
  8
0
 62
     7
370
    35
100
AcDbCircle
 10
58.20858765398817
 20
32.45597270060593
 30
0.0
 40
19.150881
100
AcDbArc
 50
89.72978699999998
 51
91.42828400000006
  0
LINE
  5
46C
330
1F
100
AcDbEntity
  8
0
 62
     7
 48
0.012484
370
    35
100
AcDbLine
 10
58.29890465398817
 20
51.60735470060593
 30
0.0
 11
58.79826365398818
 21
51.60929270060593
 31
0.0
  0
LINE
  5
46D
330
1F
100
AcDbEntity
  8
0
 62
     7
 48
0.049251
370
    35
100
AcDbLine
 10
58.79826365398818
 20
51.60929270060593
 30
0.0
 11
60.76829465398818
 21
51.61477070060593
 31
0.0
  0
ARC
  5
46E
330
1F
100
AcDbEntity
  8
0
 62
     7
370
    35
100
AcDbCircle
 10
60.95759565398818
 20
109.9953097006059
 30
0.0
 40
58.38
100
AcDbArc
 50
269.814196
 51
270.924525
  0
LINE
  5
46F
330
1F
100
AcDbEntity
  8
0
 62
     7
 48
0.021027
370
    35
100
AcDbLine
 10
62.56581065398818
 20
460.0456787006058
 30
0.0
 11
62.56603965398817
 21
460.8867427006059
 31
0.0
  0
ARC
  5
470
330
1F
100
AcDbEntity
  8
0
 62
   253
370
    35
100
AcDbCircle
 10
267.0505516539882
 20
313.9296507006059
 30
0.0
 40
2.004049999999999
100
AcDbArc
 50
269.920221
 51
305.292528
  0
LINE
  5
471
330
1F
100
AcDbEntity
  8
0
 62
   253
370
    35
100
AcDbLine
 10
66.46783465398818
 20
311.925469700606
 30
0.0
 11
267.0477746539882
 21
311.925469700606
 31
0.0
  0
ARC
  5
472
330
1F
100
AcDbEntity
  8
0
 62
   253
370
    35
100
AcDbCircle
 10
66.46504165398818
 20
313.9296507006059
 30
0.0
 40
2.004049999999999
100
AcDbArc
 50
234.707488
 51
270.079781
  0
LINE
  5
473
330
1F
100
AcDbEntity
  8
0
 62
     7
370
    35
100
AcDbLine
 10
56.75779665398818
 20
304.9476567006059
 30
0.0
 11
56.75779665398818
 21
456.5670407006059
 31
0.0
  0
ARC
  5
474
330
1F
100
AcDbEntity
  8
0
 62
     7
370
    35
100
AcDbCircle
 10
59.48333665398817
 20
262.6503537006059
 30
0.0
 40
42.250071
100
AcDbArc
 50
88.91254100000011
 51
90.2686339999999
  0
LINE
  5
475
330
1F
100
AcDbEntity
  8
0
 62
     7
 48
0.036801
370
    35
100
AcDbLine
 10
59.28523265398817
 20
304.9009647006059
 30
0.0
 11
57.81318665398817
 21
304.905419700606
 31
0.0
  0
ARC
  5
476
330
1F
100
AcDbEntity
  8
0
 62
     7
370
    35
100
AcDbCircle
 10
57.26556365398817
 20
321.8434997006059
 30
0.0
 40
16.935699
100
AcDbArc
 50
268.4696049999999
 51
270.276313
  0
LINE
  5
477
330
1F
100
AcDbEntity
  8
0
 62
     7
 48
0.011649
370
    35
100
AcDbLine
 10
57.81318665398817
 20
304.905419700606
 30
0.0
 11
57.34724365398818
 21
304.9073427006059
 31
0.0
  0
LINE
  5
478
330
1F
100
AcDbEntity
  8
0
 62
     7
 48
0.001617
370
    35
100
AcDbLine
 10
56.75779665398818
 20
304.9476567006059
 30
0.0
 11
56.81327765398818
 21
304.9143917006059
 31
0.0
  0
ARC
  5
479
330
1F
100
AcDbEntity
  8
0
 62
     7
370
    35
100
AcDbCircle
 10
59.48333665398817
 20
19.65033870060593
 30
0.0
 40
42.25009199999999
100
AcDbArc
 50
88.91254100000011
 51
90.2686339999999
  0
LINE
  5
47A
330
1F
100
AcDbEntity
  8
0
 62
     7
 48
0.036801
370
    35
100
AcDbLine
 10
59.28523265398817
 20
61.90094870060593
 30
0.0
 11
57.81318665398817
 21
61.90540470060593
 31
0.0
  0
LINE
  5
47B
330
1F
100
AcDbEntity
  8
0
 62
     7
 48
0.011649
370
    35
100
AcDbLine
 10
57.81318665398817
 20
61.90540470060593
 30
0.0
 11
57.34724365398818
 21
61.90734270060593
 31
0.0
  0
ARC
  5
47C
330
1F
100
AcDbEntity
  8
0
 62
     7
370
    35
100
AcDbCircle
 10
57.26556365398817
 20
78.84349970060593
 30
0.0
 40
16.935699
100
AcDbArc
 50
268.4696049999999
 51
270.276313
  0
LINE
  5
47D
330
1F
100
AcDbEntity
  8
0
 62
     7
 48
0.001618
370
    35
100
AcDbLine
 10
56.75779665398818
 20
61.94767170060593
 30
0.0
 11
56.81327765398818
 21
61.91437670060593
 31
0.0
  0
ARC
  5
47E
330
1F
100
AcDbEntity
  8
0
 62
     7
370
    35
100
AcDbCircle
 10
59.48333665398817
 20
336.8644047006059
 30
0.0
 40
42.250146
100
AcDbArc
 50
269.7313660000001
 51
271.0874519999999
  0
LINE
  5
47F
330
1F
100
AcDbEntity
  8
0
 62
     7
 48
0.001617
370
    35
100
AcDbLine
 10
56.75779665398818
 20
294.567040700606
 30
0.0
 11
56.81327765398818
 21
294.6003047006059
 31
0.0
  0
ARC
  5
480
330
1F
100
AcDbEntity
  8
0
 62
     7
370
    35
100
AcDbCircle
 10
57.26556365398817
 20
277.671105700606
 30
0.0
 40
16.93578299999999
100
AcDbArc
 50
89.72369400000003
 51
91.53038799999995
  0
LINE
  5
481
330
1F
100
AcDbEntity
  8
0
 62
     7
 48
0.011649
370
    35
100
AcDbLine
 10
57.34724365398818
 20
294.6073547006059
 30
0.0
 11
57.81318665398817
 21
294.609277700606
 31
0.0
  0
LINE
  5
482
330
1F
100
AcDbEntity
  8
0
 62
     7
 48
0.036801
370
    35
100
AcDbLine
 10
59.28523265398817
 20
294.613732700606
 30
0.0
 11
57.81318665398817
 21
294.609277700606
 31
0.0
  0
LINE
  5
483
330
1F
100
AcDbEntity
  8
0
 62
     7
370
    35
100
AcDbLine
 10
56.75779665398818
 20
61.94767170060593
 30
0.0
 11
56.75779665398818
 21
294.567040700606
 31
0.0
  0
ARC
  5
484
330
1F
100
AcDbEntity
  8
0
 62
     7
370
    35
100
AcDbCircle
 10
261.7135466539882
 20
56.76613770060592
 30
0.0
 40
8.129723
100
AcDbArc
 50
169.293875
 51
180.061904
  0
LINE
  5
485
330
1F
100
AcDbEntity
  8
0
 62
     7
 48
0.002239
370
    35
100
AcDbLine
 10
253.7424466539881
 20
58.36431270060593
 30
0.0
 11
253.7253266539882
 21
58.27640670060593
 31
0.0
  0
ARC
  5
486
330
1F
100
AcDbEntity
  8
0
 62
     7
370
    35
100
AcDbCircle
 10
261.7577966539882
 20
56.75734870060593
 30
0.0
 40
8.174841999999999
100
AcDbArc
 50
90.0
 51
168.663298
  0
ARC
  5
487
330
1F
100
AcDbEntity
  8
0
 62
     7
370
    35
100
AcDbCircle
 10
269.4326326539882
 20
64.43218370060593
 30
0.0
 40
0.5
100
AcDbArc
 50
0.0
 51
90.0
  0
LINE
  5
488
330
1F
100
AcDbEntity
  8
0
 62
     7
 48
0.191871
370
    35
100
AcDbLine
 10
261.7577966539882
 20
64.93218370060593
 30
0.0
 11
269.4326326539882
 21
64.93218370060593
 31
0.0
  0
ARC
  5
489
330
1F
100
AcDbEntity
  8
0
 62
     7
370
    35
100
AcDbCircle
 10
71.80204765398818
 20
56.76613770060592
 30
0.0
 40
8.129723
100
AcDbArc
 50
359.9381
 51
10.70612599999998
  0
ARC
  5
48A
330
1F
100
AcDbEntity
  8
0
 62
     7
370
    35
100
AcDbCircle
 10
71.75779665398818
 20
56.75734870060593
 30
0.0
 40
8.174841999999999
100
AcDbArc
 50
11.33669700000002
 51
90.0
  0
LINE
  5
48B
330
1F
100
AcDbEntity
  8
0
 62
     7
 48
0.002239
370
    35
100
AcDbLine
 10
79.79026765398817
 20
58.27640670060593
 30
0.0
 11
79.77314765398817
 21
58.36431270060593
 31
0.0
  0
LINE
  5
48C
330
1F
100
AcDbEntity
  8
0
 62
     7
 48
0.191871
370
    35
100
AcDbLine
 10
71.75779665398818
 20
64.93218370060593
 30
0.0
 11
64.08296165398818
 21
64.93218370060593
 31
0.0
  0
ARC
  5
48D
330
1F
100
AcDbEntity
  8
0
 62
     7
370
    35
100
AcDbCircle
 10
64.08296165398818
 20
64.43218370060593
 30
0.0
 40
0.5
100
AcDbArc
 50
90.0
 51
180.0
  0
LINE
  5
48E
330
1F
100
AcDbEntity
  8
0
 62
     7
 48
0.038903
370
    35
100
AcDbLine
 10
63.58296165398818
 20
58.36431270060593
 30
0.0
 11
63.58377065398817
 21
56.80817570060593
 31
0.0
  0
LINE
  5
48F
330
1F
100
AcDbEntity
  8
0
 62
     7
 48
0.151697
370
    35
100
AcDbLine
 10
63.58296165398818
 20
64.43218370060593
 30
0.0
 11
63.58296165398818
 21
58.36431270060593
 31
0.0
  0
LWPOLYLINE
  5
490
330
1F
100
AcDbEntity
  8
0
 62
     7
370
    35
100
AcDbPolyline
 90
       20
 70
     0
 43
0.0
 10
71.75779665398818
 20
48.62084370060593
 10
71.07949765398817
 20
48.64888870060593
 10
70.40965265398817
 20
48.73221770060593
 10
69.75521865398818
 20
48.86869170060593
 10
69.12158165398818
 20
49.05542870060592
 10
68.52337665398818
 20
49.28470770060592
 10
67.95127865398817
 20
49.55672570060593
 10
67.40695165398818
 20
49.86908870060593
 10
66.89158565398819
 20
50.21979670060593
 10
66.31861865398818
 20
50.68399970060593
 10
65.79005365398817
 20
51.19791570060592
 10
65.30870065398818
 20
51.75933270060593
 10
64.87782265398817
 20
52.36586870060593
 10
64.50129665398818
 20
53.01473370060593
 10
64.22894265398818
 20
53.59270670060593
 10
64.00099165398818
 20
54.19568770060593
 10
63.82014465398818
 20
54.82047370060593
 10
63.68894965398817
 20
55.46315870060593
 10
63.61067165398818
 20
56.10616470060593
 10
63.58377065398817
 20
56.80817570060593
  0
ARC
  5
491
330
1F
100
AcDbEntity
  8
0
 62
     7
370
    35
100
AcDbCircle
 10
-961.6998443460119
 20
57.30872470060592
 30
0.0
 40
1041.631415
100
AcDbArc
 50
359.5474969999999
 51
359.9696709999999
  0
LINE
  5
492
330
1F
100
AcDbEntity
  8
0
 62
     7
 48
0.192178
370
    35
100
AcDbLine
 10
79.44493065398818
 20
48.62084370060593
 30
0.0
 11
71.75779665398818
 21
48.62084370060593
 31
0.0
  0
ARC
  5
493
330
1F
100
AcDbEntity
  8
0
 62
     7
370
    35
100
AcDbCircle
 10
79.43284565398818
 20
49.08651070060592
 30
0.0
 40
0.465804
100
AcDbArc
 50
271.4849349999999
 51
359.488819
  0
LINE
  5
494
330
1F
100
AcDbEntity
  8
0
 62
     7
 48
0.151697
370
    35
100
AcDbLine
 10
269.9326326539882
 20
64.43218370060593
 30
0.0
 11
269.9326326539882
 21
58.36431270060593
 31
0.0
  0
LINE
  5
495
330
1F
100
AcDbEntity
  8
0
 62
     7
 48
0.038903
370
    35
100
AcDbLine
 10
269.9326326539882
 20
58.36431270060593
 30
0.0
 11
269.9318086539882
 21
56.80817570060593
 31
0.0
  0
ARC
  5
496
330
1F
100
AcDbEntity
  8
0
 62
     7
370
    35
100
AcDbCircle
 10
1295.215438653988
 20
57.30872470060592
 30
0.0
 40
1041.631415
100
AcDbArc
 50
180.0303349999999
 51
180.4525089999999
  0
ARC
  5
497
330
1F
100
AcDbEntity
  8
0
 62
     7
370
    35
100
AcDbCircle
 10
254.0827486539882
 20
49.08651070060592
 30
0.0
 40
0.465804
100
AcDbArc
 50
180.5111799999999
 51
268.51506
  0
LINE
  5
498
330
1F
100
AcDbEntity
  8
0
 62
     7
 48
0.192178
370
    35
100
AcDbLine
 10
261.7577966539882
 20
48.62084370060593
 30
0.0
 11
254.0706636539882
 21
48.62084370060593
 31
0.0
  0
LINE
  5
499
330
1F
100
AcDbEntity
  8
0
 62
     7
 48
0.028065
370
    13
100
AcDbLine
 10
271.0552516539882
 20
58.36431270060593
 30
0.0
 11
269.9326326539882
 21
58.36431270060593
 31
0.0
  0
LINE
  5
49A
330
1F
100
AcDbEntity
  8
0
 62
     7
370
    13
100
AcDbLine
 10
253.7424466539881
 20
58.36431270060593
 30
0.0
 11
79.78879347398818
 21
58.28397616060593
 31
0.0
  0
LINE
  5
49B
330
1F
100
AcDbEntity
  8
0
 62
     7
370
    13
100
AcDbLine
 10
63.58300731398817
 20
58.27649189060593
 30
0.0
 11
60.34489490398818
 21
58.27499644060593
 31
0.0
  0
LINE
  5
49C
330
1F
100
AcDbEntity
  8
0
100
AcDbLine
 10
72.05572543398819
 20
41.75734870060593
 30
0.0
 11
261.4598678739882
 21
41.75734870060593
 31
0.0
  0
LINE
  5
49D
330
1F
100
AcDbEntity
  8
0
100
AcDbLine
 10
76.84747809398817
 20
404.2573487006059
 30
0.0
 11
256.8474780939882
 21
404.2573487006059
 31
0.0
  0
LINE
  5
49E
330
1F
100
AcDbEntity
  8
0
100
AcDbLine
 10
256.8474780939882
 20
404.2573487006059
 30
0.0
 11
256.8474780939882
 21
359.2573487006059
 31
0.0
  0
LINE
  5
49F
330
1F
100
AcDbEntity
  8
0
100
AcDbLine
 10
256.8474780939882
 20
359.2573487006059
 30
0.0
 11
76.84747809398817
 21
359.2573487006059
 31
0.0
  0
LINE
  5
4A0
330
1F
100
AcDbEntity
  8
0
100
AcDbLine
 10
76.84747809398817
 20
359.2573487006059
 30
0.0
 11
76.84747809398817
 21
404.2573487006059
 31
0.0
  0
LINE
  5
4A1
330
1F
100
AcDbEntity
  8
0
 62
     7
100
AcDbLine
 10
230.2872098939882
 20
476.7573487006059
 30
0.0
 11
230.2872098939882
 21
476.7573487006059
 31
0.0
  0
LINE
  5
4A2
330
1F
100
AcDbEntity
  8
0
 62
     7
100
AcDbLine
 10
103.2283826339881
 20
476.7573487006059
 30
0.0
 11
230.2872098939882
 21
476.7573487006059
 31
0.0
  0
DIMENSION
  5
4A3
330
1F
100
AcDbEntity
  8
QUOTE
 62
     7
100
AcDbDimension
  2
*D5
 10
33.64502690398817
 20
41.75734870060593
 30
0.0
 11
33.64502690398817
 21
251.0350865306059
 31
0.0
 70
   160
 71
     0
 42
435.0
  3
Standard
100
AcDbAlignedDimension
 13
74.22909422398817
 23
476.7573487006059
 33
0.0
 14
71.75836665398818
 24
41.75734870060593
 34
0.0
 50
90.0
100
AcDbRotatedDimension
1001
ACAD
1000
DSTYLE
1002
{
1070
    41
1040
15.0
1070
   140
1040
10.0
1070
    78
1070
     8
1070
   284
1070
     8
1002
}
  0
DIMENSION
  5
4A4
330
1F
100
AcDbEntity
  8
QUOTE
 62
     7
100
AcDbDimension
  2
*D6
 10
56.75779665398818
 20
22.73515680060593
 30
0.0
 11
170.8192782739881
 21
22.73515680060593
 31
0.0
 70
   160
 71
     0
 42
220.0
  3
Standard
100
AcDbAlignedDimension
 13
276.7577966539882
 23
56.69247706060593
 33
0.0
 14
56.75779665398818
 24
56.75734739060593
 34
0.0
100
AcDbRotatedDimension
1001
ACAD
1000
DSTYLE
1002
{
1070
    41
1040
15.0
1070
   140
1040
10.0
1070
    78
1070
     8
1070
   284
1070
     8
1002
}
  0
TEXT
  5
4A5
330
1F
100
AcDbEntity
  8
0
 62
     7
100
AcDbText
 10
84.44088182541674
 20
464.3001502406059
 30
0.0
 40
5.0
  1
GW68025N
 72
     1
 11
103.3694532539882
 21
464.3001502406059
 31
0.0
100
AcDbText
  0
LWPOLYLINE
  5
4A6
330
1F
100
AcDbEntity
  8
0
 62
   253
370
    35
100
AcDbPolyline
 90
        7
 70
     0
 43
0.0
 10
267.0223536539881
 20
336.0647217006059
 10
267.0220796539882
 20
336.0658817006059
 10
267.0203706539882
 20
336.0666137006059
 10
267.0132286539882
 20
336.0681087006059
 10
266.9625696539882
 20
336.0725337006059
 10
266.5672456539882
 20
336.0839787006059
 10
265.5225676539882
 20
336.0913937006059
  0
LWPOLYLINE
  5
4A7
330
1F
100
AcDbEntity
  8
0
 62
   253
370
    35
100
AcDbPolyline
 90
        6
 70
     0
 43
0.0
 10
67.99301165398818
 20
336.0913937006059
 10
67.06025665398818
 20
336.085717700606
 10
66.53169265398819
 20
336.071099700606
 10
66.49610865398819
 20
336.0668887006059
 10
66.49360665398818
 20
336.0659427006059
 10
66.49323965398818
 20
336.0647217006059
  0
LWPOLYLINE
  5
4A8
330
1F
100
AcDbEntity
  8
0
 62
   253
370
    35
100
AcDbPolyline
 90
        3
 70
     0
 43
0.0
 10
131.1830596539881
 20
336.0622807006059
 10
131.3203426539881
 20
336.0514767006059
 10
132.1616356539882
 20
336.032281700606
  0
LWPOLYLINE
  5
4A9
330
1F
100
AcDbEntity
  8
0
 62
   253
370
    35
100
AcDbPolyline
 90
        3
 70
     0
 43
0.0
 10
201.3539576539882
 20
336.032281700606
 10
202.2602686539882
 20
336.0550777006059
 10
202.3325346539882
 20
336.0622807006059
  0
LWPOLYLINE
  5
4AA
330
1F
100
AcDbEntity
  8
0
 62
   253
370
    35
100
AcDbPolyline
 90
        4
 70
     0
 43
0.0
 10
201.2086336539882
 20
331.188256700606
 10
200.9658046539882
 20
331.1144047006059
 10
200.7363426539882
 20
331.018090700606
 10
200.5102996539882
 20
330.9028867006059
  0
LWPOLYLINE
  5
4AB
330
1F
100
AcDbEntity
  8
0
 62
   253
370
    35
100
AcDbPolyline
 90
       11
 70
     0
 43
0.0
 10
201.7283166539882
 20
331.2760257006059
 10
201.8636316539882
 20
331.259545700606
 10
201.9577486539882
 20
331.2193237006058
 10
202.0708466539882
 20
331.0980467006059
 10
202.0961456539882
 20
331.0388737006059
 10
202.1204676539882
 20
330.9045957006059
 10
202.1020356539882
 20
330.6907597006059
 10
202.0132896539882
 20
330.4243717006059
 10
201.9006806539882
 20
330.2280827006059
 10
201.7826686539882
 20
330.0889827006059
 10
201.7153466539882
 20
330.0298397006059
  0
LWPOLYLINE
  5
4AC
330
1F
100
AcDbEntity
  8
0
 62
   253
370
    35
100
AcDbPolyline
 90
       16
 70
     0
 43
0.0
 10
201.7153466539882
 20
330.0298397006059
 10
201.1496426539882
 20
329.5916987006059
 10
200.5662996539882
 20
329.1671997006059
 10
199.7124176539882
 20
328.591576700606
 10
198.8315886539881
 20
328.0503477006059
 10
197.8351896539882
 20
327.4975527006059
 10
196.8162996539882
 20
326.9929747006059
 10
195.7823936539881
 20
326.539788700606
 10
194.7283476539882
 20
326.1353397006059
 10
193.6548916539882
 20
325.7801757006059
 10
192.5633386539882
 20
325.475182700606
 10
191.4497216539882
 20
325.220361700606
 10
190.3231656539882
 20
325.0188847006059
 10
189.1833646539881
 20
324.8716367006059
 10
188.0388336539882
 20
324.7803587006059
 10
186.7577966539881
 20
324.745080700606
  0
LWPOLYLINE
  5
4AD
330
1F
100
AcDbEntity
  8
0
 62
   253
370
    35
100
AcDbPolyline
 90
       13
 70
     0
 43
0.0
 10
131.8621056539882
 20
330.1072627006059
 10
131.7716676539882
 20
330.1899967006059
 10
131.6766656539882
 20
330.3081607006059
 10
131.5974266539882
 20
330.4391727006059
 10
131.5149686539881
 20
330.6288387006059
 10
131.4692376539881
 20
330.8062987006059
 10
131.4605256539881
 20
330.9218077006059
 10
131.4691616539882
 20
331.003136700606
 10
131.4824826539881
 20
331.050072700606
 10
131.5084226539882
 20
331.102288700606
 10
131.6191856539882
 20
331.1911557006059
 10
131.7003936539881
 20
331.2102297006059
 10
131.7869256539882
 20
331.2109317006059
  0
LWPOLYLINE
  5
4AE
330
1F
100
AcDbEntity
  8
0
 62
   253
370
    35
100
AcDbPolyline
 90
        4
 70
     0
 43
0.0
 10
132.3069456539881
 20
331.188256700606
 10
132.5498046539882
 20
331.1144047006059
 10
132.7792656539882
 20
331.018090700606
 10
133.0052946539882
 20
330.9028867006059
  0
LWPOLYLINE
  5
4AF
330
1F
100
AcDbEntity
  8
0
 62
   253
370
    35
100
AcDbPolyline
 90
       16
 70
     0
 43
0.0
 10
131.8002316539882
 20
330.0298397006059
 10
132.3659666539882
 20
329.5916987006059
 10
132.9492946539881
 20
329.1671997006059
 10
133.8031766539881
 20
328.591576700606
 10
134.6840206539881
 20
328.0503477006059
 10
135.6804196539881
 20
327.4975527006059
 10
136.6992946539882
 20
326.9929747006059
 10
137.7332146539882
 20
326.5397587006059
 10
138.7872466539882
 20
326.1353397006059
 10
139.8607026539882
 20
325.7801757006059
 10
140.9522706539882
 20
325.475182700606
 10
142.0658716539882
 20
325.220361700606
 10
143.1924436539881
 20
325.0188847006059
 10
144.3322446539882
 20
324.8716367006059
 10
145.4767606539881
 20
324.7803587006059
 10
146.7577966539882
 20
324.745080700606
  0
LWPOLYLINE
  5
4B0
330
1F
100
AcDbEntity
  8
0
 62
   253
370
    35
100
AcDbPolyline
 90
       12
 70
     0
 43
0.0
 10
186.7577966539881
 20
328.2499637006059
 10
188.3932646539881
 20
328.2851197006059
 10
190.0113676539882
 20
328.3894287006059
 10
191.5987086539882
 20
328.5589537006059
 10
193.1521446539882
 20
328.7891787006059
 10
194.8971096539881
 20
329.1233457006059
 10
196.4203636539881
 20
329.4804927006059
 10
197.8275296539882
 20
329.8674257006059
 10
198.8644556539881
 20
330.1960697006059
 10
199.6240076539882
 20
330.475182700606
 10
200.1750336539882
 20
330.7201167006059
 10
200.3202056539882
 20
330.7970517006059
  0
LWPOLYLINE
  5
4B1
330
1F
100
AcDbEntity
  8
0
 62
   253
370
    35
100
AcDbPolyline
 90
       12
 70
     0
 43
0.0
 10
133.1953886539881
 20
330.7970517006059
 10
133.5063476539881
 20
330.6402527006059
 10
134.1018526539881
 20
330.3931517006059
 10
134.9908906539881
 20
330.083245700606
 10
136.2222596539881
 20
329.7135867006059
 10
137.7494656539882
 20
329.3195737006059
 10
139.4883876539882
 20
328.946770700606
 10
141.0254356539882
 20
328.683312700606
 10
142.5931236539882
 20
328.4786007006058
 10
144.1947166539882
 20
328.336449700606
 10
145.8224336539882
 20
328.2614377006059
 10
146.7577966539882
 20
328.2499637006059
  0
LWPOLYLINE
  5
4B2
330
1F
100
AcDbEntity
  8
0
 62
   253
370
    35
100
AcDbPolyline
 90
        3
 70
     0
 43
0.0
 10
170.8325646539882
 20
334.643456700606
 10
165.5255886539881
 20
334.6499267006059
 10
162.6830286539882
 20
334.643456700606
  0
LWPOLYLINE
  5
4B3
330
1F
100
AcDbEntity
  8
0
 62
   253
370
    35
100
AcDbPolyline
 90
        3
 70
     0
 43
0.0
 10
132.2552636539882
 20
334.7227417006059
 10
131.4795986539881
 20
334.7391297006059
 10
131.3413536539881
 20
334.7468197006059
  0
LWPOLYLINE
  5
4B4
330
1F
100
AcDbEntity
  8
0
 62
     7
370
    35
100
AcDbPolyline
 90
        4
 70
     0
 43
0.0
 10
273.1683196539882
 20
460.7573487006058
 10
273.1802826539882
 20
458.1584107006059
 10
273.2026826539882
 20
456.7296997006059
 10
273.2076566539882
 20
456.6363767006058
  0
LWPOLYLINE
  5
4B5
330
1F
100
AcDbEntity
  8
0
 62
     7
370
    35
100
AcDbPolyline
 90
        8
 70
     0
 43
0.0
 10
273.2076566539882
 20
304.878320700606
 10
273.2006986539882
 20
304.7294247006059
 10
273.1878506539882
 20
304.0697567006059
 10
273.1712486539882
 20
301.8281497006059
 10
273.1680756539882
 20
298.9123477006059
 10
273.1793366539882
 20
296.271691700606
 10
273.2013396539882
 20
294.765832700606
 10
273.2076566539882
 20
294.636376700606
  0
LWPOLYLINE
  5
4B6
330
1F
100
AcDbEntity
  8
0
 62
     7
370
    35
100
AcDbPolyline
 90
        4
 70
     0
 43
0.0
 10
273.1683196539882
 20
57.75734870060593
 10
273.1802826539882
 20
60.35630170060592
 10
273.2026826539882
 20
61.78499770060593
 10
273.2076566539882
 20
61.87830470060593
  0
LWPOLYLINE
  5
4B7
330
1F
100
AcDbEntity
  8
0
 62
     7
370
    35
100
AcDbPolyline
 90
       10
 70
     0
 43
0.0
 10
271.5990446539882
 20
466.8783207006059
 10
271.7527616539882
 20
466.5738157006058
 10
272.0273896539882
 20
465.9994137006059
 10
272.3395836539881
 20
465.2472167006059
 10
272.6392666539882
 20
464.3608647006059
 10
272.7725676539882
 20
463.8790217006059
 10
272.8901826539882
 20
463.3769167006058
 10
273.0387116539882
 20
462.5440307006058
 10
273.1324616539882
 20
461.6889587006059
 10
273.1683196539882
 20
460.7573487006058
  0
LWPOLYLINE
  5
4B8
330
1F
100
AcDbEntity
  8
0
 62
     7
370
    35
100
AcDbPolyline
 90
       10
 70
     0
 43
0.0
 10
271.5990446539882
 20
51.63639170060593
 10
271.7527616539882
 20
51.94089670060593
 10
272.0273896539882
 20
52.51528270060592
 10
272.3395836539881
 20
53.26748070060593
 10
272.6392666539882
 20
54.15381770060593
 10
272.7725676539882
 20
54.63567470060593
 10
272.8901826539882
 20
55.13779570060593
 10
273.0387116539882
 20
55.97065070060593
 10
273.1324616539882
 20
56.82573870060593
 10
273.1683196539882
 20
57.75734870060593
  0
LWPOLYLINE
  5
4B9
330
1F
100
AcDbEntity
  8
0
 62
     7
370
    35
100
AcDbPolyline
 90
        4
 70
     0
 43
0.0
 10
60.34727465398818
 20
460.7573487006058
 10
60.33532665398817
 20
458.1584107006059
 10
60.31291165398818
 20
456.7296997006059
 10
60.30793765398818
 20
456.6363767006058
  0
LWPOLYLINE
  5
4BA
330
1F
100
AcDbEntity
  8
0
 62
     7
370
    35
100
AcDbPolyline
 90
       10
 70
     0
 43
0.0
 10
61.91654965398818
 20
466.8783207006059
 10
61.76283265398818
 20
466.5738157006058
 10
61.48818965398818
 20
465.9994137006059
 10
61.17600965398818
 20
465.2472167006059
 10
60.87632765398818
 20
464.3608647006059
 10
60.74302665398818
 20
463.8790217006059
 10
60.62541165398818
 20
463.3769167006058
 10
60.47688265398818
 20
462.5440307006058
 10
60.38313265398818
 20
461.6889587006059
 10
60.34727465398818
 20
460.7573487006058
  0
LWPOLYLINE
  5
4BB
330
1F
100
AcDbEntity
  8
0
 62
     7
370
    35
100
AcDbPolyline
 90
       15
 70
     0
 43
0.0
 10
71.75779665398818
 20
470.8983397006059
 10
70.95289565398818
 20
470.8633057006059
 10
70.16244465398817
 20
470.7598507006058
 10
69.39707965398818
 20
470.5922487006059
 10
68.59446665398817
 20
470.3408137006058
 10
67.83239765398818
 20
470.0239497006059
 10
67.11274665398818
 20
469.6464477006059
 10
66.43629465398817
 20
469.2118167006059
 10
65.84080465398819
 20
468.7534727006059
 10
65.28443865398817
 20
468.2474607006059
 10
64.76924065398818
 20
467.6948177006059
 10
64.29801865398818
 20
467.0969477006058
 10
63.87431265398817
 20
466.4554997006059
 10
63.50215165398818
 20
465.7727907006059
 10
63.18585165398818
 20
465.051843700606
  0
LWPOLYLINE
  5
4BC
330
1F
100
AcDbEntity
  8
0
 62
     7
370
    35
100
AcDbPolyline
 90
       15
 70
     0
 43
0.0
 10
270.3297266539882
 20
465.051843700606
 10
269.9905236539882
 20
465.8191157006059
 10
269.5882416539882
 20
466.5425047006059
 10
269.1282196539881
 20
467.2184687006059
 10
268.6150966539882
 20
467.8445067006059
 10
268.0604706539882
 20
468.4117067006059
 10
267.4609216539882
 20
468.9271177006059
 10
266.8184046539882
 20
469.3894287006059
 10
266.1341396539882
 20
469.7969607006059
 10
265.4861906539882
 20
470.1136107006059
 10
264.8049776539882
 20
470.3822267006058
 10
264.0919946539882
 20
470.5992067006059
 10
263.3347016539882
 20
470.7630857006059
 10
262.5532686539882
 20
470.8641297006058
 10
261.7577966539882
 20
470.8983397006059
  0
LWPOLYLINE
  5
4BD
330
1F
100
AcDbEntity
  8
0
 62
     7
370
    35
100
AcDbPolyline
 90
       10
 70
     0
 43
0.0
 10
61.91654965398818
 20
51.63639170060593
 10
61.76283265398818
 20
51.94089670060593
 10
61.48818965398818
 20
52.51528270060592
 10
61.17600965398818
 20
53.26749570060593
 10
60.87632765398818
 20
54.15381770060593
 10
60.74302665398818
 20
54.63567470060593
 10
60.62541165398818
 20
55.13779570060593
 10
60.47688265398818
 20
55.97065070060593
 10
60.38313265398818
 20
56.82573870060593
 10
60.34727465398818
 20
57.75734870060593
  0
LWPOLYLINE
  5
4BE
330
1F
100
AcDbEntity
  8
0
 62
     7
370
    35
100
AcDbPolyline
 90
        4
 70
     0
 43
0.0
 10
60.34727465398818
 20
57.75734870060593
 10
60.33532665398817
 20
60.35630170060592
 10
60.31291165398818
 20
61.78499770060593
 10
60.30793765398818
 20
61.87830470060593
  0
LWPOLYLINE
  5
4BF
330
1F
100
AcDbEntity
  8
0
 62
     7
370
    35
100
AcDbPolyline
 90
        8
 70
     0
 43
0.0
 10
60.30793765398818
 20
304.878320700606
 10
60.31489565398818
 20
304.7294247006059
 10
60.32774365398818
 20
304.0697567006059
 10
60.34432965398817
 20
301.8281497006059
 10
60.34751865398817
 20
298.9123477006059
 10
60.33625765398817
 20
296.271691700606
 10
60.31423965398817
 20
294.765832700606
 10
60.30793765398818
 20
294.636376700606
  0
LWPOLYLINE
  5
4C0
330
1F
100
AcDbEntity
  8
0
 62
     7
370
    35
100
AcDbPolyline
 90
       20
 70
     0
 43
0.0
 10
261.7577966539882
 20
48.62084370060593
 10
262.4360806539881
 20
48.64888870060593
 10
263.1059416539882
 20
48.73221770060593
 10
263.7603606539882
 20
48.86869170060593
 10
264.3940276539882
 20
49.05542870060592
 10
264.9922326539881
 20
49.28470770060592
 10
265.5643156539881
 20
49.55672570060593
 10
266.1086266539882
 20
49.86908870060593
 10
266.6240076539882
 20
50.21979670060593
 10
267.1969756539882
 20
50.68399970060593
 10
267.7255396539881
 20
51.19791570060592
 10
268.2068936539882
 20
51.75933270060593
 10
268.6377716539882
 20
52.36586870060593
 10
269.0142976539881
 20
53.01473370060593
 10
269.2866666539881
 20
53.59270670060593
 10
269.5146026539882
 20
54.19568770060593
 10
269.6954496539881
 20
54.82047370060593
 10
269.8266446539882
 20
55.46315870060593
 10
269.9049226539881
 20
56.10616470060593
 10
269.9318086539882
 20
56.80817570060593
  0
INSERT
  5
4C1
330
1F
100
AcDbEntity
  8
0
 62
    56
100
AcDbBlockReference
  2
IBvert
 10
52.52382307398818
 20
59.80957023060593
 30
0.0
  0
INSERT
  5
4C2
330
1F
100
AcDbEntity
  8
0
 62
    56
100
AcDbBlockReference
  2
IBvert
 10
158.2795045539882
 20
59.80957023060593
 30
0.0
 41
1.000124979999998
  0
ENDSEC
  0
SECTION
  2
OBJECTS
  0
DICTIONARY
  5
C
330
0
100
AcDbDictionary
281
     1
  3
ACAD_COLOR
350
73
  3
ACAD_GROUP
350
D
  3
ACAD_LAYOUT
350
1A
  3
ACAD_MATERIAL
350
72
  3
ACAD_MLEADERSTYLE
350
D7
  3
ACAD_MLINESTYLE
350
17
  3
ACAD_PLOTSETTINGS
350
19
  3
ACAD_PLOTSTYLENAME
350
E
  3
ACAD_SCALELIST
350
B6
  3
ACAD_TABLESTYLE
350
86
  3
ACAD_VISUALSTYLE
350
99
  3
ACDB_RECOMPOSE_DATA
350
FF
  3
AcDbVariableDictionary
350
66
  3
DWGPROPS
350
4FD
  0
DICTIONARY
  5
E6
330
10
100
AcDbDictionary
280
     1
281
     1
  3
ADSK_XREC_LAYER_RECONCILED
360
4F5
  0
DICTIONARY
  5
4F6
330
16B
100
AcDbDictionary
280
     1
281
     1
  3
ADSK_XREC_LAYER_RECONCILED
360
4F7
  0
DICTIONARY
  5
73
102
{ACAD_REACTORS
330
C
102
}
330
C
100
AcDbDictionary
281
     1
  0
DICTIONARY
  5
D
102
{ACAD_REACTORS
330
C
102
}
330
C
100
AcDbDictionary
281
     1
  0
DICTIONARY
  5
1A
102
{ACAD_REACTORS
330
C
102
}
330
C
100
AcDbDictionary
281
     1
  3
Layout1
350
59
  3
Layout2
350
5E
  3
Model
350
22
  0
DICTIONARY
  5
72
102
{ACAD_REACTORS
330
C
102
}
330
C
100
AcDbDictionary
281
     1
  3
ByBlock
350
97
  3
ByLayer
350
96
  3
Global
350
98
  0
DICTIONARY
  5
D7
102
{ACAD_REACTORS
330
C
102
}
330
C
100
AcDbDictionary
281
     1
  3
Annotativa
350
E5
  3
Standard
350
D8
  0
DICTIONARY
  5
17
102
{ACAD_REACTORS
330
C
102
}
330
C
100
AcDbDictionary
281
     1
  3
Standard
350
18
  0
DICTIONARY
  5
19
102
{ACAD_REACTORS
330
C
102
}
330
C
100
AcDbDictionary
281
     1
  0
ACDBDICTIONARYWDFLT
  5
E
102
{ACAD_REACTORS
330
C
102
}
330
C
100
AcDbDictionary
281
     1
  3
Normal
350
F
100
AcDbDictionaryWithDefault
340
F
  0
DICTIONARY
  5
B6
102
{ACAD_REACTORS
330
C
102
}
330
C
100
AcDbDictionary
281
     1
  3
A0
350
B7
  3
A1
350
124
  3
A2
350
125
  3
A3
350
126
  3
A4
350
127
  3
A5
350
128
  3
A6
350
129
  3
A7
350
12A
  3
A8
350
12B
  3
A9
350
12C
  3
B0
350
12D
  3
B1
350
12E
  3
B2
350
12F
  3
B3
350
130
  3
B4
350
131
  3
B5
350
132
  3
B6
350
133
  3
B7
350
134
  3
B8
350
135
  3
B9
350
136
  3
C0
350
137
  3
C1
350
138
  3
C2
350
139
  3
C3
350
13A
  3
C4
350
13B
  3
C5
350
13C
  3
C6
350
13D
  3
C7
350
13E
  3
C8
350
13F
  3
C9
350
140
  3
D0
350
141
  3
D1
350
142
  3
D2
350
143
  0
DICTIONARY
  5
86
102
{ACAD_REACTORS
330
C
102
}
330
C
100
AcDbDictionary
281
     1
  3
Standard
350
87
  0
DICTIONARY
  5
99
102
{ACAD_REACTORS
330
C
102
}
330
C
100
AcDbDictionary
281
     1
  3
2dWireframe
350
9F
  3
3D Hidden
350
A1
  3
3dWireframe
350
A0
  3
Basic
350
9E
  3
Brighten
350
A5
  3
ColorChange
350
A9
  3
Conceptual
350
A2
  3
Dim
350
A4
  3
Facepattern
350
A8
  3
Flat
350
9A
  3
FlatWithEdges
350
9B
  3
Gouraud
350
9C
  3
GouraudWithEdges
350
9D
  3
Linepattern
350
A7
  3
Realistic
350
A3
  3
Thicken
350
A6
  0
XRECORD
  5
FF
102
{ACAD_REACTORS
330
C
102
}
330
C
100
AcDbXrecord
280
     1
 90
        1
330
87
  0
DICTIONARY
  5
66
102
{ACAD_REACTORS
330
C
102
}
330
C
100
AcDbDictionary
281
     1
  3
CANNOSCALE
350
F0
  3
CMLEADERSTYLE
350
EF
  3
CTABLESTYLE
350
89
  3
DIMASSOC
350
67
  3
HIDETEXT
350
6B
  3
INDEXCTL
350
4FB
  3
LIGHTINGUNITS
350
4F9
  3
MSLTSCALE
350
4F8
  3
SORTENTS
350
4FA
  0
XRECORD
  5
4FD
102
{ACAD_REACTORS
330
C
102
}
330
C
100
AcDbXrecord
280
     1
  1
DWGPROPS COOKIE
  2

  3

  4

  6

  7

  8
fontanaNZ
  9

300
=
301
=
302
=
303
=
304
=
305
=
306
=
307
=
308
=
309
=
 40
0.0001722569444444
 41
2455511.356971829
 42
2455511.357144086
  1

 90
        0
  0
XRECORD
  5
4F5
102
{ACAD_REACTORS
330
E6
102
}
330
E6
100
AcDbXrecord
280
     1
290
     1
  0
XRECORD
  5
4F7
102
{ACAD_REACTORS
330
4F6
102
}
330
4F6
100
AcDbXrecord
280
     1
290
     1
  0
LAYOUT
  5
59
102
{ACAD_XDICTIONARY
360
500
102
}
102
{ACAD_REACTORS
330
1A
102
}
330
1A
100
AcDbPlotSettings
  1

  2
None
  4

  6

 40
0.0
 41
0.0
 42
0.0
 43
0.0
 44
0.0
 45
0.0
 46
0.0
 47
0.0
 48
0.0
 49
0.0
140
0.0
141
0.0
142
1.0
143
1.0
 70
   688
 72
     0
 73
     0
 74
     5
  7

 75
    16
147
1.0
148
0.0
149
0.0
100
AcDbLayout
  1
Layout1
 70
     1
 71
     1
 10
0.0
 20
0.0
 11
12.0
 21
9.0
 12
0.0
 22
0.0
 32
0.0
 14
0.0
 24
0.0
 34
0.0
 15
0.0
 25
0.0
 35
0.0
146
0.0
 13
0.0
 23
0.0
 33
0.0
 16
1.0
 26
0.0
 36
0.0
 17
0.0
 27
1.0
 37
0.0
 76
     0
330
58
  0
LAYOUT
  5
5E
102
{ACAD_XDICTIONARY
360
502
102
}
102
{ACAD_REACTORS
330
1A
102
}
330
1A
100
AcDbPlotSettings
  1

  2
None
  4

  6

 40
0.0
 41
0.0
 42
0.0
 43
0.0
 44
0.0
 45
0.0
 46
0.0
 47
0.0
 48
0.0
 49
0.0
140
0.0
141
0.0
142
1.0
143
1.0
 70
   688
 72
     0
 73
     0
 74
     5
  7

 75
    16
147
1.0
148
0.0
149
0.0
100
AcDbLayout
  1
Layout2
 70
     1
 71
     2
 10
0.0
 20
0.0
 11
12.0
 21
9.0
 12
0.0
 22
0.0
 32
0.0
 14
0.0
 24
0.0
 34
0.0
 15
0.0
 25
0.0
 35
0.0
146
0.0
 13
0.0
 23
0.0
 33
0.0
 16
1.0
 26
0.0
 36
0.0
 17
0.0
 27
1.0
 37
0.0
 76
     0
330
5D
  0
LAYOUT
  5
22
102
{ACAD_XDICTIONARY
360
4FE
102
}
102
{ACAD_REACTORS
330
1A
102
}
330
1A
100
AcDbPlotSettings
  1

  2
none_device
  4
ANSI_A_(8.50_x_11.00_Inches)
  6

 40
6.349999904632568
 41
19.04999923706055
 42
6.350006103515625
 43
19.04998779296875
 44
215.8999938964844
 45
279.3999938964844
 46
0.0
 47
0.0
 48
0.0
 49
0.0
140
0.0
141
0.0
142
1.0
143
2.584895464708373
 70
 11952
 72
     0
 73
     1
 74
     0
  7

 75
     0
147
0.3868628397755418
148
0.0
149
0.0
100
AcDbLayout
  1
Model
 70
     1
 71
     0
 10
0.0
 20
0.0
 11
12.0
 21
9.0
 12
0.0
 22
0.0
 32
0.0
 14
0.0
 24
0.0
 34
0.0
 15
0.0
 25
0.0
 35
0.0
146
0.0
 13
0.0
 23
0.0
 33
0.0
 16
1.0
 26
0.0
 36
0.0
 17
0.0
 27
1.0
 37
0.0
 76
     0
330
1F
331
94
  0
MATERIAL
  5
97
102
{ACAD_XDICTIONARY
360
507
102
}
102
{ACAD_REACTORS
330
72
102
}
330
72
100
AcDbMaterial
  1
ByBlock
  0
MATERIAL
  5
96
102
{ACAD_XDICTIONARY
360
505
102
}
102
{ACAD_REACTORS
330
72
102
}
330
72
100
AcDbMaterial
  1
ByLayer
  0
MATERIAL
  5
98
102
{ACAD_XDICTIONARY
360
110
102
}
102
{ACAD_REACTORS
330
72
102
}
330
72
100
AcDbMaterial
  1
Global
 43
0.0208000000566244
 43
0.0
 43
0.0
 43
0.0
 43
0.0
 43
0.0208000000566244
 43
0.0
 43
0.0
 43
0.0
 43
0.0
 43
1.0
 43
0.0
 43
0.0
 43
0.0
 43
0.0
 43
1.0
 49
0.0208000000566244
 49
0.0
 49
0.0
 49
0.0
 49
0.0
 49
0.0208000000566244
 49
0.0
 49
0.0
 49
0.0
 49
0.0
 49
1.0
 49
0.0
 49
0.0
 49
0.0
 49
0.0
 49
1.0
142
0.0208000000566244
142
0.0
142
0.0
142
0.0
142
0.0
142
0.0208000000566244
142
0.0
142
0.0
142
0.0
142
0.0
142
1.0
142
0.0
142
0.0
142
0.0
142
0.0
142
1.0
144
0.0208000000566244
144
0.0
144
0.0
144
0.0
144
0.0
144
0.0208000000566244
144
0.0
144
0.0
144
0.0
144
0.0
144
1.0
144
0.0
144
0.0
144
0.0
144
0.0
144
1.0
1001
ACAD
1070
    -1
1070
     3
1070
     0
1000

1071
        0
1070
     0
  0
MLEADERSTYLE
  5
E5
102
{ACAD_REACTORS
330
D7
102
}
330
D7
100
AcDbMLeaderStyle
170
     2
171
     1
172
     0
 90
        2
 40
0.0
 41
0.0
173
     1
 91
-1056964608
340
14
 92
       -2
290
     1
 42
0.09
291
     1
 43
0.36
  3
Standard
 44
0.18
300

342
11
174
     1
178
     1
175
     1
176
     0
 93
-1056964608
 45
0.18
292
     0
297
     0
 46
0.18
 94
-1056964608
 47
1.0
 49
1.0
140
1.0
293
     1
141
0.0
294
     1
177
     0
142
1.0
295
     0
296
     1
143
0.125
1001
ACAD_MLEADERVER
1070
     2
  0
MLEADERSTYLE
  5
D8
102
{ACAD_REACTORS
330
D7
102
}
330
D7
100
AcDbMLeaderStyle
170
     2
171
     1
172
     0
 90
        2
 40
0.0
 41
0.0
173
     1
 91
-1056964608
340
14
 92
       -2
290
     1
 42
0.09
291
     1
 43
0.36
  3
Standard
 44
0.18
300

342
11
174
     1
178
     1
175
     1
176
     0
 93
-1056964608
 45
0.18
292
     0
297
     0
 46
0.18
 94
-1056964608
 47
1.0
 49
1.0
140
1.0
293
     1
141
0.0
294
     1
177
     0
142
1.0
295
     0
296
     0
143
0.125
1001
ACAD_MLEADERVER
1070
     2
  0
MLINESTYLE
  5
18
102
{ACAD_REACTORS
330
17
102
}
330
17
100
AcDbMlineStyle
  2
STANDARD
 70
     0
  3

 62
   256
 51
90.0
 52
90.0
 71
     2
 49
0.5
 62
   256
  6
BYLAYER
 49
-0.5
 62
   256
  6
BYLAYER
  0
ACDBPLACEHOLDER
  5
F
102
{ACAD_REACTORS
330
E
102
}
330
E
  0
SCALE
  5
B7
102
{ACAD_REACTORS
330
B6
102
}
330
B6
100
AcDbScale
 70
     0
300
1:1
140
1.0
141
1.0
290
     1
  0
SCALE
  5
124
102
{ACAD_REACTORS
330
B6
102
}
330
B6
100
AcDbScale
 70
     0
300
1:2
140
1.0
141
2.0
290
     0
  0
SCALE
  5
125
102
{ACAD_REACTORS
330
B6
102
}
330
B6
100
AcDbScale
 70
     0
300
1:4
140
1.0
141
4.0
290
     0
  0
SCALE
  5
126
102
{ACAD_REACTORS
330
B6
102
}
330
B6
100
AcDbScale
 70
     0
300
1:5
140
1.0
141
5.0
290
     0
  0
SCALE
  5
127
102
{ACAD_REACTORS
330
B6
102
}
330
B6
100
AcDbScale
 70
     0
300
1:8
140
1.0
141
8.0
290
     0
  0
SCALE
  5
128
102
{ACAD_REACTORS
330
B6
102
}
330
B6
100
AcDbScale
 70
     0
300
1:10
140
1.0
141
10.0
290
     0
  0
SCALE
  5
129
102
{ACAD_REACTORS
330
B6
102
}
330
B6
100
AcDbScale
 70
     0
300
1:16
140
1.0
141
16.0
290
     0
  0
SCALE
  5
12A
102
{ACAD_REACTORS
330
B6
102
}
330
B6
100
AcDbScale
 70
     0
300
1:20
140
1.0
141
20.0
290
     0
  0
SCALE
  5
12B
102
{ACAD_REACTORS
330
B6
102
}
330
B6
100
AcDbScale
 70
     0
300
1:30
140
1.0
141
30.0
290
     0
  0
SCALE
  5
12C
102
{ACAD_REACTORS
330
B6
102
}
330
B6
100
AcDbScale
 70
     0
300
1:40
140
1.0
141
40.0
290
     0
  0
SCALE
  5
12D
102
{ACAD_REACTORS
330
B6
102
}
330
B6
100
AcDbScale
 70
     0
300
1:50
140
1.0
141
50.0
290
     0
  0
SCALE
  5
12E
102
{ACAD_REACTORS
330
B6
102
}
330
B6
100
AcDbScale
 70
     0
300
1:100
140
1.0
141
100.0
290
     0
  0
SCALE
  5
12F
102
{ACAD_REACTORS
330
B6
102
}
330
B6
100
AcDbScale
 70
     0
300
2:1
140
2.0
141
1.0
290
     0
  0
SCALE
  5
130
102
{ACAD_REACTORS
330
B6
102
}
330
B6
100
AcDbScale
 70
     0
300
4:1
140
4.0
141
1.0
290
     0
  0
SCALE
  5
131
102
{ACAD_REACTORS
330
B6
102
}
330
B6
100
AcDbScale
 70
     0
300
8:1
140
8.0
141
1.0
290
     0
  0
SCALE
  5
132
102
{ACAD_REACTORS
330
B6
102
}
330
B6
100
AcDbScale
 70
     0
300
10:1
140
10.0
141
1.0
290
     0
  0
SCALE
  5
133
102
{ACAD_REACTORS
330
B6
102
}
330
B6
100
AcDbScale
 70
     0
300
100:1
140
100.0
141
1.0
290
     0
  0
SCALE
  5
134
102
{ACAD_REACTORS
330
B6
102
}
330
B6
100
AcDbScale
 70
     0
300
1/128" = 1'-0"
140
0.0078125
141
12.0
290
     0
  0
SCALE
  5
135
102
{ACAD_REACTORS
330
B6
102
}
330
B6
100
AcDbScale
 70
     0
300
1/64" = 1'-0"
140
0.015625
141
12.0
290
     0
  0
SCALE
  5
136
102
{ACAD_REACTORS
330
B6
102
}
330
B6
100
AcDbScale
 70
     0
300
1/32" = 1'-0"
140
0.03125
141
12.0
290
     0
  0
SCALE
  5
137
102
{ACAD_REACTORS
330
B6
102
}
330
B6
100
AcDbScale
 70
     0
300
1/16" = 1'-0"
140
0.0625
141
12.0
290
     0
  0
SCALE
  5
138
102
{ACAD_REACTORS
330
B6
102
}
330
B6
100
AcDbScale
 70
     0
300
3/32" = 1'-0"
140
0.09375
141
12.0
290
     0
  0
SCALE
  5
139
102
{ACAD_REACTORS
330
B6
102
}
330
B6
100
AcDbScale
 70
     0
300
1/8" = 1'-0"
140
0.125
141
12.0
290
     0
  0
SCALE
  5
13A
102
{ACAD_REACTORS
330
B6
102
}
330
B6
100
AcDbScale
 70
     0
300
3/16" = 1'-0"
140
0.1875
141
12.0
290
     0
  0
SCALE
  5
13B
102
{ACAD_REACTORS
330
B6
102
}
330
B6
100
AcDbScale
 70
     0
300
1/4" = 1'-0"
140
0.25
141
12.0
290
     0
  0
SCALE
  5
13C
102
{ACAD_REACTORS
330
B6
102
}
330
B6
100
AcDbScale
 70
     0
300
3/8" = 1'-0"
140
0.375
141
12.0
290
     0
  0
SCALE
  5
13D
102
{ACAD_REACTORS
330
B6
102
}
330
B6
100
AcDbScale
 70
     0
300
1/2" = 1'-0"
140
0.5
141
12.0
290
     0
  0
SCALE
  5
13E
102
{ACAD_REACTORS
330
B6
102
}
330
B6
100
AcDbScale
 70
     0
300
3/4" = 1'-0"
140
0.75
141
12.0
290
     0
  0
SCALE
  5
13F
102
{ACAD_REACTORS
330
B6
102
}
330
B6
100
AcDbScale
 70
     0
300
1" = 1'-0"
140
1.0
141
12.0
290
     0
  0
SCALE
  5
140
102
{ACAD_REACTORS
330
B6
102
}
330
B6
100
AcDbScale
 70
     0
300
1-1/2" = 1'-0"
140
1.5
141
12.0
290
     0
  0
SCALE
  5
141
102
{ACAD_REACTORS
330
B6
102
}
330
B6
100
AcDbScale
 70
     0
300
3" = 1'-0"
140
3.0
141
12.0
290
     0
  0
SCALE
  5
142
102
{ACAD_REACTORS
330
B6
102
}
330
B6
100
AcDbScale
 70
     0
300
6" = 1'-0"
140
6.0
141
12.0
290
     0
  0
SCALE
  5
143
102
{ACAD_REACTORS
330
B6
102
}
330
B6
100
AcDbScale
 70
     0
300
1'-0" = 1'-0"
140
12.0
141
12.0
290
     0
  0
TABLESTYLE
  5
87
102
{ACAD_XDICTIONARY
360
104
102
}
102
{ACAD_REACTORS
330
86
102
}
330
86
100
AcDbTableStyle
  3
Standard
 70
     0
 71
     0
 40
0.06
 41
0.06
280
     0
281
     0
  7
Standard
140
0.18
170
     2
 62
     0
 63
     7
283
     0
274
    -2
284
     1
 64
     0
275
    -2
285
     1
 65
     0
276
    -2
286
     1
 66
     0
277
    -2
287
     1
 67
     0
278
    -2
288
     1
 68
     0
279
    -2
289
     1
 69
     0
  7
Standard
140
0.25
170
     5
 62
     0
 63
     7
283
     0
274
    -2
284
     1
 64
     0
275
    -2
285
     1
 65
     0
276
    -2
286
     1
 66
     0
277
    -2
287
     1
 67
     0
278
    -2
288
     1
 68
     0
279
    -2
289
     1
 69
     0
  7
Standard
140
0.18
170
     5
 62
     0
 63
     7
283
     0
274
    -2
284
     1
 64
     0
275
    -2
285
     1
 65
     0
276
    -2
286
     1
 66
     0
277
    -2
287
     1
 67
     0
278
    -2
288
     1
 68
     0
279
    -2
289
     1
 69
     0
  0
VISUALSTYLE
  5
9F
102
{ACAD_REACTORS
330
99
102
}
330
99
100
AcDbVisualStyle
  2
2dWireframe
 70
     4
 71
     0
 72
     2
 73
     1
 90
        0
 40
-0.6
 41
-30.0
 62
     5
 63
     7
 74
     1
 91
        4
 64
     7
 65
   257
 75
     1
175
     1
 42
1.0
 92
        0
 66
   257
 43
1.0
 76
     1
 77
     6
 78
     2
 67
     7
 79
     5
170
     0
171
     0
290
     0
174
     0
 93
        1
 44
0.0
173
     0
291
     0
 45
0.0
1001
ACAD
1000
AcDbSavedByObjectVersion
1070
     0
  0
VISUALSTYLE
  5
A1
102
{ACAD_REACTORS
330
99
102
}
330
99
100
AcDbVisualStyle
  2
3D Hidden
 70
     6
 71
     1
 72
     2
 73
     2
 90
        0
 40
-0.6
 41
-30.0
 62
     5
 63
     7
 74
     2
 91
        2
 64
     7
 65
   257
 75
     2
175
     1
 42
40.0
 92
        0
 66
   257
 43
1.0
 76
     1
 77
     6
 78
     2
 67
     7
 79
     3
170
     0
171
     0
290
     0
174
     0
 93
        1
 44
0.0
173
     0
291
     0
 45
0.0
1001
ACAD
1000
AcDbSavedByObjectVersion
1070
     0
  0
VISUALSTYLE
  5
A0
102
{ACAD_REACTORS
330
99
102
}
330
99
100
AcDbVisualStyle
  2
3dWireframe
 70
     5
 71
     0
 72
     2
 73
     1
 90
        0
 40
-0.6
 41
-30.0
 62
     5
 63
     7
 74
     1
 91
        4
 64
     7
 65
   257
 75
     1
175
     1
 42
1.0
 92
        0
 66
   257
 43
1.0
 76
     1
 77
     6
 78
     2
 67
     7
 79
     5
170
     0
171
     0
290
     0
174
     0
 93
        1
 44
0.0
173
     0
291
     0
 45
0.0
1001
ACAD
1000
AcDbSavedByObjectVersion
1070
     0
  0
VISUALSTYLE
  5
9E
102
{ACAD_REACTORS
330
99
102
}
330
99
100
AcDbVisualStyle
  2
Basic
 70
     7
 71
     1
 72
     0
 73
     1
 90
        0
 40
-0.6
 41
-30.0
 62
     5
 63
     7
 74
     0
 91
        4
 64
     7
 65
   257
 75
     1
175
     1
 42
1.0
 92
        8
 66
     7
 43
1.0
 76
     1
 77
     6
 78
     2
 67
     7
 79
     5
170
     0
171
     0
290
     0
174
     0
 93
        1
 44
0.0
173
     0
291
     1
 45
0.0
1001
ACAD
1000
AcDbSavedByObjectVersion
1070
     0
  0
VISUALSTYLE
  5
A5
102
{ACAD_REACTORS
330
99
102
}
330
99
100
AcDbVisualStyle
  2
Brighten
 70
    12
 71
     2
 72
     2
 73
     1
 90
        0
 40
-0.6
 41
-30.0
 62
     5
 63
     7
 74
     1
 91
        4
 64
     7
 65
   257
 75
     1
175
     1
 42
1.0
 92
        8
 66
     7
 43
1.0
 76
     1
 77
     6
 78
     2
 67
     7
 79
     5
170
     0
171
     0
290
     0
174
     0
 93
        1
 44
50.0
173
     0
291
     1
 45
0.0
1001
ACAD
1000
AcDbSavedByObjectVersion
1070
     0
  0
VISUALSTYLE
  5
A9
102
{ACAD_REACTORS
330
99
102
}
330
99
100
AcDbVisualStyle
  2
ColorChange
 70
    16
 71
     2
 72
     2
 73
     3
 90
        0
 40
-0.6
 41
-30.0
 62
     5
 63
     8
 74
     1
 91
        4
 64
     7
 65
   257
 75
     1
175
     1
 42
1.0
 92
        8
 66
     8
 43
1.0
 76
     1
 77
     6
 78
     2
 67
     7
 79
     5
170
     0
171
     0
290
     0
174
     0
 93
        1
 44
0.0
173
     0
291
     1
 45
0.0
1001
ACAD
1000
AcDbSavedByObjectVersion
1070
     0
  0
VISUALSTYLE
  5
A2
102
{ACAD_REACTORS
330
99
102
}
330
99
100
AcDbVisualStyle
  2
Conceptual
 70
     9
 71
     3
 72
     2
 73
     1
 90
        0
 40
-0.6
 41
-30.0
 62
     5
 63
     7
 74
     2
 91
        2
 64
     7
 65
   257
 75
     1
175
     1
 42
40.0
 92
        8
 66
     7
 43
1.0
 76
     1
 77
     6
 78
     2
 67
     7
 79
     3
170
     0
171
     0
290
     0
174
     0
 93
        1
 44
0.0
173
     0
291
     0
 45
0.0
1001
ACAD
1000
AcDbSavedByObjectVersion
1070
     0
  0
VISUALSTYLE
  5
A4
102
{ACAD_REACTORS
330
99
102
}
330
99
100
AcDbVisualStyle
  2
Dim
 70
    11
 71
     2
 72
     2
 73
     1
 90
        0
 40
-0.6
 41
-30.0
 62
     5
 63
     7
 74
     1
 91
        4
 64
     7
 65
   257
 75
     1
175
     1
 42
1.0
 92
        8
 66
     7
 43
1.0
 76
     1
 77
     6
 78
     2
 67
     7
 79
     5
170
     0
171
     0
290
     0
174
     0
 93
        1
 44
-50.0
173
     0
291
     1
 45
0.0
1001
ACAD
1000
AcDbSavedByObjectVersion
1070
     0
  0
VISUALSTYLE
  5
A8
102
{ACAD_REACTORS
330
99
102
}
330
99
100
AcDbVisualStyle
  2
Facepattern
 70
    15
 71
     2
 72
     2
 73
     1
 90
        0
 40
-0.6
 41
-30.0
 62
     5
 63
     7
 74
     1
 91
        4
 64
     7
 65
   257
 75
     1
175
     1
 42
1.0
 92
        8
 66
     7
 43
1.0
 76
     1
 77
     6
 78
     2
 67
     7
 79
     5
170
     0
171
     0
290
     0
174
     0
 93
        1
 44
0.0
173
     0
291
     1
 45
0.0
1001
ACAD
1000
AcDbSavedByObjectVersion
1070
     0
  0
VISUALSTYLE
  5
9A
102
{ACAD_REACTORS
330
99
102
}
330
99
100
AcDbVisualStyle
  2
Flat
 70
     0
 71
     2
 72
     1
 73
     1
 90
        2
 40
-0.6
 41
30.0
 62
     5
 63
     7
 74
     0
 91
        4
 64
     7
 65
   257
 75
     1
175
     1
 42
1.0
 92
        8
 66
     7
 43
1.0
 76
     1
 77
     6
 78
     2
 67
     7
 79
     5
170
     0
171
     0
290
     0
174
     0
 93
        1
 44
0.0
173
     0
291
     1
 45
0.0
1001
ACAD
1000
AcDbSavedByObjectVersion
1070
     0
  0
VISUALSTYLE
  5
9B
102
{ACAD_REACTORS
330
99
102
}
330
99
100
AcDbVisualStyle
  2
FlatWithEdges
 70
     1
 71
     2
 72
     1
 73
     1
 90
        2
 40
-0.6
 41
30.0
 62
     5
 63
     7
 74
     1
 91
        4
 64
     7
 65
   257
 75
     1
175
     1
 42
1.0
 92
        0
 66
   257
 43
1.0
 76
     1
 77
     6
 78
     2
 67
     7
 79
     5
170
     0
171
     0
290
     0
174
     0
 93
        1
 44
0.0
173
     0
291
     1
 45
0.0
1001
ACAD
1000
AcDbSavedByObjectVersion
1070
     0
  0
VISUALSTYLE
  5
9C
102
{ACAD_REACTORS
330
99
102
}
330
99
100
AcDbVisualStyle
  2
Gouraud
 70
     2
 71
     2
 72
     2
 73
     1
 90
        2
 40
-0.6
 41
30.0
 62
     5
 63
     7
 74
     0
 91
        4
 64
     7
 65
   257
 75
     1
175
     1
 42
1.0
 92
        0
 66
     7
 43
1.0
 76
     1
 77
     6
 78
     2
 67
     7
 79
     5
170
     0
171
     0
290
     0
174
     0
 93
        1
 44
0.0
173
     0
291
     1
 45
0.0
1001
ACAD
1000
AcDbSavedByObjectVersion
1070
     0
  0
VISUALSTYLE
  5
9D
102
{ACAD_REACTORS
330
99
102
}
330
99
100
AcDbVisualStyle
  2
GouraudWithEdges
 70
     3
 71
     2
 72
     2
 73
     1
 90
        2
 40
-0.6
 41
30.0
 62
     5
 63
     7
 74
     1
 91
        4
 64
     7
 65
   257
 75
     1
175
     1
 42
1.0
 92
        0
 66
   257
 43
1.0
 76
     1
 77
     6
 78
     2
 67
     7
 79
     5
170
     0
171
     0
290
     0
174
     0
 93
        1
 44
0.0
173
     0
291
     1
 45
0.0
1001
ACAD
1000
AcDbSavedByObjectVersion
1070
     0
  0
VISUALSTYLE
  5
A7
102
{ACAD_REACTORS
330
99
102
}
330
99
100
AcDbVisualStyle
  2
Linepattern
 70
    14
 71
     2
 72
     2
 73
     1
 90
        0
 40
-0.6
 41
-30.0
 62
     5
 63
     7
 74
     1
 91
        4
 64
     7
 65
   257
 75
     7
175
     7
 42
1.0
 92
        8
 66
     7
 43
1.0
 76
     1
 77
     6
 78
     2
 67
     7
 79
     5
170
     0
171
     0
290
     0
174
     0
 93
        1
 44
0.0
173
     0
291
     1
 45
0.0
1001
ACAD
1000
AcDbSavedByObjectVersion
1070
     0
  0
VISUALSTYLE
  5
A3
102
{ACAD_REACTORS
330
99
102
}
330
99
100
AcDbVisualStyle
  2
Realistic
 70
     8
 71
     2
 72
     2
 73
     1
 90
        0
 40
-0.6
 41
-30.0
 62
     5
 63
     7
 74
     1
 91
        0
 64
     7
 65
   257
 75
     1
175
     1
 42
1.0
 92
        8
 66
     8
 43
1.0
 76
     1
 77
     6
 78
     2
 67
     7
 79
     5
170
     0
171
     0
290
     0
174
     0
 93
       13
 44
0.0
173
     0
291
     0
 45
0.0
1001
ACAD
1000
AcDbSavedByObjectVersion
1070
     0
  0
VISUALSTYLE
  5
A6
102
{ACAD_REACTORS
330
99
102
}
330
99
100
AcDbVisualStyle
  2
Thicken
 70
    13
 71
     2
 72
     2
 73
     1
 90
        0
 40
-0.6
 41
-30.0
 62
     5
 63
     7
 74
     1
 91
        4
 64
     7
 65
   257
 75
     1
175
     1
 42
1.0
 92
       12
 66
     7
 43
1.0
 76
     1
 77
     6
 78
     2
 67
     7
 79
     5
170
     0
171
     0
290
     0
174
     0
 93
        1
 44
0.0
173
     0
291
     1
 45
0.0
1001
ACAD
1000
AcDbSavedByObjectVersion
1070
     0
  0
DICTIONARYVAR
  5
F0
102
{ACAD_REACTORS
330
66
102
}
330
66
100
DictionaryVariables
280
     0
  1
1:1
  0
DICTIONARYVAR
  5
EF
102
{ACAD_REACTORS
330
66
102
}
330
66
100
DictionaryVariables
280
     0
  1
STANDARD
  0
DICTIONARYVAR
  5
89
102
{ACAD_REACTORS
330
66
102
}
330
66
100
DictionaryVariables
280
     0
  1
STANDARD
  0
DICTIONARYVAR
  5
67
102
{ACAD_REACTORS
330
66
102
}
330
66
100
DictionaryVariables
280
     0
  1
2
  0
DICTIONARYVAR
  5
6B
102
{ACAD_REACTORS
330
66
102
}
330
66
100
DictionaryVariables
280
     0
  1
1
  0
DICTIONARYVAR
  5
4FB
102
{ACAD_REACTORS
330
66
102
}
330
66
100
DictionaryVariables
280
     0
  1
0
  0
DICTIONARYVAR
  5
4F9
102
{ACAD_REACTORS
330
66
102
}
330
66
100
DictionaryVariables
280
     0
  1
2
  0
DICTIONARYVAR
  5
4F8
102
{ACAD_REACTORS
330
66
102
}
330
66
100
DictionaryVariables
280
     0
  1
1
  0
DICTIONARYVAR
  5
4FA
102
{ACAD_REACTORS
330
66
102
}
330
66
100
DictionaryVariables
280
     0
  1
127
  0
DICTIONARY
  5
500
330
59
100
AcDbDictionary
280
     1
281
     1
  3
ACAD_XREC_ROUNDTRIP
360
501
  0
DICTIONARY
  5
502
330
5E
100
AcDbDictionary
280
     1
281
     1
  3
ACAD_XREC_ROUNDTRIP
360
503
  0
DICTIONARY
  5
4FE
330
22
100
AcDbDictionary
280
     1
281
     1
  3
ACAD_XREC_ROUNDTRIP
360
4FF
  0
DICTIONARY
  5
507
330
97
100
AcDbDictionary
280
     1
281
     1
  3
ACAD_XREC_ROUNDTRIP
360
508
  0
DICTIONARY
  5
505
330
96
100
AcDbDictionary
280
     1
281
     1
  3
ACAD_XREC_ROUNDTRIP
360
506
  0
DICTIONARY
  5
110
330
98
100
AcDbDictionary
280
     1
281
     1
  3
ACAD_XREC_ROUNDTRIP
360
509
  3
BUMPTILE
360
112
  3
DIFFUSETILE
360
111
  3
OPACITYTILE
360
113
  3
REFLECTIONTILE
360
114
  0
DICTIONARY
  5
104
330
87
100
AcDbDictionary
280
     1
281
     1
  3
ACAD_ROUNDTRIP_2008_TABLESTYLE_CELLSTYLEMAP
360
4FC
  3
ACAD_XREC_ROUNDTRIP
360
504
  0
XRECORD
  5
501
102
{ACAD_REACTORS
330
500
102
}
330
500
100
AcDbXrecord
280
     1
102
SHADEPLOT
 70
     0
102
SHADEPLOTRESLEVEL
 70
     2
102
SHADEPLOTCUSTOMDPI
 70
   300
  0
XRECORD
  5
503
102
{ACAD_REACTORS
330
502
102
}
330
502
100
AcDbXrecord
280
     1
102
SHADEPLOT
 70
     0
102
SHADEPLOTRESLEVEL
 70
     2
102
SHADEPLOTCUSTOMDPI
 70
   300
  0
XRECORD
  5
4FF
102
{ACAD_REACTORS
330
4FE
102
}
330
4FE
100
AcDbXrecord
280
     1
102
SHADEPLOT
 70
     0
102
SHADEPLOTRESLEVEL
 70
     2
102
SHADEPLOTCUSTOMDPI
 70
   300
  0
XRECORD
  5
508
102
{ACAD_REACTORS
330
507
102
}
330
507
100
AcDbXrecord
280
     1
102
MATERIAL
148
0.0
149
0.0
149
0.0
 93
        0
 94
       63
282
     0
 72
     1
 77
     1
171
     1
175
     1
179
     1
273
     0
  0
XRECORD
  5
506
102
{ACAD_REACTORS
330
505
102
}
330
505
100
AcDbXrecord
280
     1
102
MATERIAL
148
0.0
149
0.0
149
0.0
 93
        0
 94
       63
282
     0
 72
     1
 77
     1
171
     1
175
     1
179
     1
273
     0
  0
XRECORD
  5
509
102
{ACAD_REACTORS
330
110
102
}
330
110
100
AcDbXrecord
280
     1
102
MATERIAL
148
0.0
149
0.0
149
0.0
 93
        0
 94
       63
282
     0
 72
     1
 77
     1
171
     1
175
     1
179
     1
273
     0
  0
XRECORD
  5
112
102
{ACAD_REACTORS
330
110
102
}
330
110
100
AcDbXrecord
280
     1
270
     1
271
     1
  0
XRECORD
  5
111
102
{ACAD_REACTORS
330
110
102
}
330
110
100
AcDbXrecord
280
     1
270
     1
271
     1
  0
XRECORD
  5
113
102
{ACAD_REACTORS
330
110
102
}
330
110
100
AcDbXrecord
280
     1
270
     1
271
     1
  0
XRECORD
  5
114
102
{ACAD_REACTORS
330
110
102
}
330
110
100
AcDbXrecord
280
     1
270
     1
271
     1
  0
CELLSTYLEMAP
  5
4FC
102
{ACAD_REACTORS
330
104
102
}
330
104
100
AcDbCellStyleMap
 90
        3
300
CELLSTYLE
  1
TABLEFORMAT_BEGIN
 90
        5
170
     1
 91
        0
 92
    32768
 62
   257
 93
        1
300
CONTENTFORMAT
  1
CONTENTFORMAT_BEGIN
 90
        0
 91
        0
 92
      512
 93
        0
300

 40
0.0
140
1.0
 94
        5
 62
     0
340
11
144
0.25
309
CONTENTFORMAT_END
171
     1
301
MARGIN
  1
CELLMARGIN_BEGIN
 40
0.06
 40
0.06
 40
0.06
 40
0.06
 40
0.18
 40
0.18
309
CELLMARGIN_END
 94
        6
 95
        1
302
GRIDFORMAT
  1
GRIDFORMAT_BEGIN
 90
        0
 91
        1
 62
     0
 92
       -2
340
0
 93
        0
 40
0.045
309
GRIDFORMAT_END
 95
        2
302
GRIDFORMAT
  1
GRIDFORMAT_BEGIN
 90
        0
 91
        1
 62
     0
 92
       -2
340
0
 93
        0
 40
0.045
309
GRIDFORMAT_END
 95
        4
302
GRIDFORMAT
  1
GRIDFORMAT_BEGIN
 90
        0
 91
        1
 62
     0
 92
       -2
340
0
 93
        0
 40
0.045
309
GRIDFORMAT_END
 95
        8
302
GRIDFORMAT
  1
GRIDFORMAT_BEGIN
 90
        0
 91
        1
 62
     0
 92
       -2
340
0
 93
        0
 40
0.045
309
GRIDFORMAT_END
 95
       16
302
GRIDFORMAT
  1
GRIDFORMAT_BEGIN
 90
        0
 91
        1
 62
     0
 92
       -2
340
0
 93
        0
 40
0.045
309
GRIDFORMAT_END
 95
       32
302
GRIDFORMAT
  1
GRIDFORMAT_BEGIN
 90
        0
 91
        1
 62
     0
 92
       -2
340
0
 93
        0
 40
0.045
309
GRIDFORMAT_END
309
TABLEFORMAT_END
  1
CELLSTYLE_BEGIN
 90
        1
 91
        1
300
_TITLE
309
CELLSTYLE_END
300
CELLSTYLE
  1
TABLEFORMAT_BEGIN
 90
        5
170
     1
 91
        0
 92
        0
 62
   257
 93
        1
300
CONTENTFORMAT
  1
CONTENTFORMAT_BEGIN
 90
        0
 91
        0
 92
      512
 93
        0
300

 40
0.0
140
1.0
 94
        5
 62
     0
340
11
144
0.18
309
CONTENTFORMAT_END
171
     1
301
MARGIN
  1
CELLMARGIN_BEGIN
 40
0.06
 40
0.06
 40
0.06
 40
0.06
 40
0.18
 40
0.18
309
CELLMARGIN_END
 94
        6
 95
        1
302
GRIDFORMAT
  1
GRIDFORMAT_BEGIN
 90
        0
 91
        1
 62
     0
 92
       -2
340
0
 93
        0
 40
0.045
309
GRIDFORMAT_END
 95
        2
302
GRIDFORMAT
  1
GRIDFORMAT_BEGIN
 90
        0
 91
        1
 62
     0
 92
       -2
340
0
 93
        0
 40
0.045
309
GRIDFORMAT_END
 95
        4
302
GRIDFORMAT
  1
GRIDFORMAT_BEGIN
 90
        0
 91
        1
 62
     0
 92
       -2
340
0
 93
        0
 40
0.045
309
GRIDFORMAT_END
 95
        8
302
GRIDFORMAT
  1
GRIDFORMAT_BEGIN
 90
        0
 91
        1
 62
     0
 92
       -2
340
0
 93
        0
 40
0.045
309
GRIDFORMAT_END
 95
       16
302
GRIDFORMAT
  1
GRIDFORMAT_BEGIN
 90
        0
 91
        1
 62
     0
 92
       -2
340
0
 93
        0
 40
0.045
309
GRIDFORMAT_END
 95
       32
302
GRIDFORMAT
  1
GRIDFORMAT_BEGIN
 90
        0
 91
        1
 62
     0
 92
       -2
340
0
 93
        0
 40
0.045
309
GRIDFORMAT_END
309
TABLEFORMAT_END
  1
CELLSTYLE_BEGIN
 90
        2
 91
        1
300
_HEADER
309
CELLSTYLE_END
300
CELLSTYLE
  1
TABLEFORMAT_BEGIN
 90
        5
170
     1
 91
        0
 92
        0
 62
   257
 93
        1
300
CONTENTFORMAT
  1
CONTENTFORMAT_BEGIN
 90
        0
 91
        0
 92
      512
 93
        0
300

 40
0.0
140
1.0
 94
        2
 62
     0
340
11
144
0.18
309
CONTENTFORMAT_END
171
     1
301
MARGIN
  1
CELLMARGIN_BEGIN
 40
0.06
 40
0.06
 40
0.06
 40
0.06
 40
0.18
 40
0.18
309
CELLMARGIN_END
 94
        6
 95
        1
302
GRIDFORMAT
  1
GRIDFORMAT_BEGIN
 90
        0
 91
        1
 62
     0
 92
       -2
340
0
 93
        0
 40
0.045
309
GRIDFORMAT_END
 95
        2
302
GRIDFORMAT
  1
GRIDFORMAT_BEGIN
 90
        0
 91
        1
 62
     0
 92
       -2
340
0
 93
        0
 40
0.045
309
GRIDFORMAT_END
 95
        4
302
GRIDFORMAT
  1
GRIDFORMAT_BEGIN
 90
        0
 91
        1
 62
     0
 92
       -2
340
0
 93
        0
 40
0.045
309
GRIDFORMAT_END
 95
        8
302
GRIDFORMAT
  1
GRIDFORMAT_BEGIN
 90
        0
 91
        1
 62
     0
 92
       -2
340
0
 93
        0
 40
0.045
309
GRIDFORMAT_END
 95
       16
302
GRIDFORMAT
  1
GRIDFORMAT_BEGIN
 90
        0
 91
        1
 62
     0
 92
       -2
340
0
 93
        0
 40
0.045
309
GRIDFORMAT_END
 95
       32
302
GRIDFORMAT
  1
GRIDFORMAT_BEGIN
 90
        0
 91
        1
 62
     0
 92
       -2
340
0
 93
        0
 40
0.045
309
GRIDFORMAT_END
309
TABLEFORMAT_END
  1
CELLSTYLE_BEGIN
 90
        3
 91
        2
300
_DATA
309
CELLSTYLE_END
  0
XRECORD
  5
504
102
{ACAD_REACTORS
330
104
102
}
330
104
100
AcDbXrecord
280
     1
102
ACAD_ROUNDTRIP_PRE2007_TABLESTYLE
 90
      512
 91
        0
  1

 92
      512
 93
        0
  2

 94
      512
 95
        0
  3

  0
ENDSEC
  0
EOF
