  0
SECTION
  2
HEADER
  9
$ACADVER
  1
AC1015
  9
$ACADMAINTVER
 70
    20
  9
$DWGCODEPAGE
  3
ANSI_1252
  9
$INSBASE
 10
0.0
 20
0.0
 30
0.0
  9
$EXTMIN
 10
-2.795500713090115
 20
18.95476671609265
 30
0.0
  9
$EXTMAX
 10
373.4845057035766
 20
551.9144883160927
 30
0.0
  9
$LIMMIN
 10
0.0
 20
0.0
  9
$LIMMAX
 10
12.0
 20
9.0
  9
$ORTHOMODE
 70
     0
  9
$REGENMODE
 70
     1
  9
$FILLMODE
 70
     1
  9
$QTEXTMODE
 70
     0
  9
$MIRRTEXT
 70
     0
  9
$LTSCALE
 40
1.0
  9
$ATTMODE
 70
     1
  9
$TEXTSIZE
 40
0.2
  9
$TRACEWID
 40
0.05
  9
$TEXTSTYLE
  7
Standard
  9
$CLAYER
  8
0
  9
$CELTYPE
  6
ByLayer
  9
$CECOLOR
 62
   256
  9
$CELTSCALE
 40
1.0
  9
$DISPSILH
 70
     0
  9
$DIMSCALE
 40
1.0
  9
$DIMASZ
 40
0.18
  9
$DIMEXO
 40
0.0625
  9
$DIMDLI
 40
0.38
  9
$DIMRND
 40
0.0
  9
$DIMDLE
 40
0.0
  9
$DIMEXE
 40
0.18
  9
$DIMTP
 40
0.0
  9
$DIMTM
 40
0.0
  9
$DIMTXT
 40
0.18
  9
$DIMCEN
 40
0.09
  9
$DIMTSZ
 40
0.0
  9
$DIMTOL
 70
     0
  9
$DIMLIM
 70
     0
  9
$DIMTIH
 70
     1
  9
$DIMTOH
 70
     1
  9
$DIMSE1
 70
     0
  9
$DIMSE2
 70
     0
  9
$DIMTAD
 70
     0
  9
$DIMZIN
 70
     0
  9
$DIMBLK
  1

  9
$DIMASO
 70
     1
  9
$DIMSHO
 70
     1
  9
$DIMPOST
  1

  9
$DIMAPOST
  1

  9
$DIMALT
 70
     0
  9
$DIMALTD
 70
     2
  9
$DIMALTF
 40
25.4
  9
$DIMLFAC
 40
1.0
  9
$DIMTOFL
 70
     0
  9
$DIMTVP
 40
0.0
  9
$DIMTIX
 70
     0
  9
$DIMSOXD
 70
     0
  9
$DIMSAH
 70
     0
  9
$DIMBLK1
  1

  9
$DIMBLK2
  1

  9
$DIMSTYLE
  2
Standard
  9
$DIMCLRD
 70
     0
  9
$DIMCLRE
 70
     0
  9
$DIMCLRT
 70
     0
  9
$DIMTFAC
 40
1.0
  9
$DIMGAP
 40
0.09
  9
$DIMJUST
 70
     0
  9
$DIMSD1
 70
     0
  9
$DIMSD2
 70
     0
  9
$DIMTOLJ
 70
     1
  9
$DIMTZIN
 70
     0
  9
$DIMALTZ
 70
     0
  9
$DIMALTTZ
 70
     0
  9
$DIMUPT
 70
     0
  9
$DIMDEC
 70
     4
  9
$DIMTDEC
 70
     4
  9
$DIMALTU
 70
     2
  9
$DIMALTTD
 70
     2
  9
$DIMTXSTY
  7
Standard
  9
$DIMAUNIT
 70
     0
  9
$DIMADEC
 70
     0
  9
$DIMALTRND
 40
0.0
  9
$DIMAZIN
 70
     0
  9
$DIMDSEP
 70
    46
  9
$DIMATFIT
 70
     3
  9
$DIMFRAC
 70
     0
  9
$DIMLDRBLK
  1

  9
$DIMLUNIT
 70
     2
  9
$DIMLWD
 70
    -2
  9
$DIMLWE
 70
    -2
  9
$DIMTMOVE
 70
     0
  9
$LUNITS
 70
     2
  9
$LUPREC
 70
     4
  9
$SKETCHINC
 40
0.1
  9
$FILLETRAD
 40
0.0
  9
$AUNITS
 70
     0
  9
$AUPREC
 70
     0
  9
$MENU
  1
.
  9
$ELEVATION
 40
0.0
  9
$PELEVATION
 40
0.0
  9
$THICKNESS
 40
0.0
  9
$LIMCHECK
 70
     0
  9
$CHAMFERA
 40
0.0
  9
$CHAMFERB
 40
0.0
  9
$CHAMFERC
 40
0.0
  9
$CHAMFERD
 40
0.0
  9
$SKPOLY
 70
     0
  9
$TDCREATE
 40
2455511.360526644
  9
$TDUCREATE
 40
2455511.318859977
  9
$TDUPDATE
 40
2455511.360771840
  9
$TDUUPDATE
 40
2455511.319105174
  9
$TDINDWG
 40
0.0002453819
  9
$TDUSRTIMER
 40
0.0002453819
  9
$USRTIMER
 70
     1
  9
$ANGBASE
 50
0.0
  9
$ANGDIR
 70
     0
  9
$PDMODE
 70
     0
  9
$PDSIZE
 40
0.0
  9
$PLINEWID
 40
0.0
  9
$SPLFRAME
 70
     0
  9
$SPLINETYPE
 70
     6
  9
$SPLINESEGS
 70
     8
  9
$HANDSEED
  5
462
  9
$SURFTAB1
 70
     6
  9
$SURFTAB2
 70
     6
  9
$SURFTYPE
 70
     6
  9
$SURFU
 70
     6
  9
$SURFV
 70
     6
  9
$UCSBASE
  2

  9
$UCSNAME
  2

  9
$UCSORG
 10
0.0
 20
0.0
 30
0.0
  9
$UCSXDIR
 10
1.0
 20
0.0
 30
0.0
  9
$UCSYDIR
 10
0.0
 20
1.0
 30
0.0
  9
$UCSORTHOREF
  2

  9
$UCSORTHOVIEW
 70
     0
  9
$UCSORGTOP
 10
0.0
 20
0.0
 30
0.0
  9
$UCSORGBOTTOM
 10
0.0
 20
0.0
 30
0.0
  9
$UCSORGLEFT
 10
0.0
 20
0.0
 30
0.0
  9
$UCSORGRIGHT
 10
0.0
 20
0.0
 30
0.0
  9
$UCSORGFRONT
 10
0.0
 20
0.0
 30
0.0
  9
$UCSORGBACK
 10
0.0
 20
0.0
 30
0.0
  9
$PUCSBASE
  2

  9
$PUCSNAME
  2

  9
$PUCSORG
 10
0.0
 20
0.0
 30
0.0
  9
$PUCSXDIR
 10
1.0
 20
0.0
 30
0.0
  9
$PUCSYDIR
 10
0.0
 20
1.0
 30
0.0
  9
$PUCSORTHOREF
  2

  9
$PUCSORTHOVIEW
 70
     0
  9
$PUCSORGTOP
 10
0.0
 20
0.0
 30
0.0
  9
$PUCSORGBOTTOM
 10
0.0
 20
0.0
 30
0.0
  9
$PUCSORGLEFT
 10
0.0
 20
0.0
 30
0.0
  9
$PUCSORGRIGHT
 10
0.0
 20
0.0
 30
0.0
  9
$PUCSORGFRONT
 10
0.0
 20
0.0
 30
0.0
  9
$PUCSORGBACK
 10
0.0
 20
0.0
 30
0.0
  9
$USERI1
 70
     0
  9
$USERI2
 70
     0
  9
$USERI3
 70
     0
  9
$USERI4
 70
     0
  9
$USERI5
 70
     0
  9
$USERR1
 40
0.0
  9
$USERR2
 40
0.0
  9
$USERR3
 40
0.0
  9
$USERR4
 40
0.0
  9
$USERR5
 40
0.0
  9
$WORLDVIEW
 70
     1
  9
$SHADEDGE
 70
     3
  9
$SHADEDIF
 70
    70
  9
$TILEMODE
 70
     1
  9
$MAXACTVP
 70
    64
  9
$PINSBASE
 10
0.0
 20
0.0
 30
0.0
  9
$PLIMCHECK
 70
     0
  9
$PEXTMIN
 10
0.0
 20
0.0
 30
0.0
  9
$PEXTMAX
 10
0.0
 20
0.0
 30
0.0
  9
$PLIMMIN
 10
0.0
 20
0.0
  9
$PLIMMAX
 10
12.0
 20
9.0
  9
$UNITMODE
 70
     0
  9
$VISRETAIN
 70
     1
  9
$PLINEGEN
 70
     0
  9
$PSLTSCALE
 70
     1
  9
$TREEDEPTH
 70
  3020
  9
$CMLSTYLE
  2
Standard
  9
$CMLJUST
 70
     0
  9
$CMLSCALE
 40
1.0
  9
$PROXYGRAPHICS
 70
     1
  9
$MEASUREMENT
 70
     0
  9
$CELWEIGHT
370
    -1
  9
$ENDCAPS
280
     0
  9
$JOINSTYLE
280
     0
  9
$LWDISPLAY
290
     0
  9
$INSUNITS
 70
     1
  9
$HYPERLINKBASE
  1

  9
$STYLESHEET
  1

  9
$XEDIT
290
     1
  9
$CEPSNTYPE
380
     0
  9
$PSTYLEMODE
290
     1
  9
$FINGERPRINTGUID
  2
{E36A7BA5-85EF-4DEB-A590-27EAD9BA9E33}
  9
$VERSIONGUID
  2
{A61A5BEE-7950-4323-826D-EC77571A7A30}
  9
$EXTNAMES
290
     1
  9
$PSVPSCALE
 40
0.0
  9
$OLESTARTUP
290
     0
  0
ENDSEC
  0
SECTION
  2
CLASSES
  0
CLASS
  1
ACDBDICTIONARYWDFLT
  2
AcDbDictionaryWithDefault
  3
ObjectDBX Classes
 90
        0
280
     0
281
     0
  0
CLASS
  1
ACDBPLACEHOLDER
  2
AcDbPlaceHolder
  3
ObjectDBX Classes
 90
        0
280
     0
281
     0
  0
CLASS
  1
LAYOUT
  2
AcDbLayout
  3
ObjectDBX Classes
 90
        0
280
     0
281
     0
  0
CLASS
  1
DICTIONARYVAR
  2
AcDbDictionaryVar
  3
ObjectDBX Classes
 90
        0
280
     0
281
     0
  0
CLASS
  1
TABLESTYLE
  2
AcDbTableStyle
  3
ObjectDBX Classes
 90
     4095
280
     0
281
     0
  0
CLASS
  1
MATERIAL
  2
AcDbMaterial
  3
ObjectDBX Classes
 90
     1153
280
     0
281
     0
  0
CLASS
  1
VISUALSTYLE
  2
AcDbVisualStyle
  3
ObjectDBX Classes
 90
     4095
280
     0
281
     0
  0
CLASS
  1
SCALE
  2
AcDbScale
  3
ObjectDBX Classes
 90
     1153
280
     0
281
     0
  0
CLASS
  1
MLEADERSTYLE
  2
AcDbMLeaderStyle
  3
ACDB_MLEADERSTYLE_CLASS
 90
     4095
280
     0
281
     0
  0
CLASS
  1
CELLSTYLEMAP
  2
AcDbCellStyleMap
  3
ObjectDBX Classes
 90
     1152
280
     0
281
     0
  0
ENDSEC
  0
SECTION
  2
TABLES
  0
TABLE
  2
VPORT
  5
8
330
0
100
AcDbSymbolTable
 70
     1
  0
VPORT
  5
94
330
8
100
AcDbSymbolTableRecord
100
AcDbViewportTableRecord
  2
*Active
 70
     0
 10
0.0
 20
0.0
 11
1.0
 21
1.0
 12
185.3445024952432
 22
285.4346275160927
 13
0.0
 23
0.0
 14
0.5
 24
0.5
 15
0.5
 25
0.5
 16
0.0
 26
0.0
 36
1.0
 17
0.0
 27
0.0
 37
0.0
 40
537.3582887658873
 41
1.148760330578512
 42
50.0
 43
0.0
 44
0.0
 50
0.0
 51
0.0
 71
     0
 72
  1000
 73
     1
 74
     3
 75
     0
 76
     0
 77
     0
 78
     0
281
     0
 65
     1
110
0.0
120
0.0
130
0.0
111
1.0
121
0.0
131
0.0
112
0.0
122
1.0
132
0.0
 79
     0
146
0.0
  0
ENDTAB
  0
TABLE
  2
LTYPE
  5
5
330
0
100
AcDbSymbolTable
 70
     1
  0
LTYPE
  5
14
330
5
100
AcDbSymbolTableRecord
100
AcDbLinetypeTableRecord
  2
ByBlock
 70
     0
  3

 72
    65
 73
     0
 40
0.0
  0
LTYPE
  5
15
330
5
100
AcDbSymbolTableRecord
100
AcDbLinetypeTableRecord
  2
ByLayer
 70
     0
  3

 72
    65
 73
     0
 40
0.0
  0
LTYPE
  5
16
330
5
100
AcDbSymbolTableRecord
100
AcDbLinetypeTableRecord
  2
Continuous
 70
     0
  3
Solid line
 72
    65
 73
     0
 40
0.0
  0
ENDTAB
  0
TABLE
  2
LAYER
  5
2
330
0
100
AcDbSymbolTable
 70
     3
  0
LAYER
  5
10
102
{ACAD_XDICTIONARY
360
E6
102
}
330
2
100
AcDbSymbolTableRecord
100
AcDbLayerTableRecord
  2
0
 70
     0
 62
     7
  6
Continuous
370
    -3
390
F
  0
LAYER
  5
16B
102
{ACAD_XDICTIONARY
360
44E
102
}
330
2
100
AcDbSymbolTableRecord
100
AcDbLayerTableRecord
  2
QUOTE
 70
     0
 62
     7
  6
Continuous
370
    -3
390
F
1001
AcAecLayerStandard
1000

1000

  0
LAYER
  5
411
330
2
100
AcDbSymbolTableRecord
100
AcDbLayerTableRecord
  2
Defpoints
 70
     0
 62
     7
  6
Continuous
290
     0
370
    -3
390
F
  0
ENDTAB
  0
TABLE
  2
STYLE
  5
3
330
0
100
AcDbSymbolTable
 70
     2
  0
STYLE
  5
11
330
3
100
AcDbSymbolTableRecord
100
AcDbTextStyleTableRecord
  2
Standard
 70
     0
 40
0.0
 41
1.0
 50
0.0
 71
     0
 42
0.2
  3
txt.shx
  4

  0
STYLE
  5
DC
330
3
100
AcDbSymbolTableRecord
100
AcDbTextStyleTableRecord
  2
Annotativa
 70
     0
 40
0.0
 41
1.0
 50
0.0
 71
     0
 42
0.2
  3
txt.shx
  4

1001
AcadAnnotative
1000
AnnotativeData
1002
{
1070
     1
1070
     1
1002
}
  0
ENDTAB
  0
TABLE
  2
VIEW
  5
6
330
0
100
AcDbSymbolTable
 70
     1
  0
ENDTAB
  0
TABLE
  2
UCS
  5
7
330
0
100
AcDbSymbolTable
 70
     0
  0
ENDTAB
  0
TABLE
  2
APPID
  5
9
330
0
100
AcDbSymbolTable
 70
    14
  0
APPID
  5
12
330
9
100
AcDbSymbolTableRecord
100
AcDbRegAppTableRecord
  2
ACAD
 70
     0
  0
APPID
  5
DD
330
9
100
AcDbSymbolTableRecord
100
AcDbRegAppTableRecord
  2
AcadAnnoPO
 70
     0
  0
APPID
  5
DE
330
9
100
AcDbSymbolTableRecord
100
AcDbRegAppTableRecord
  2
AcadAnnotative
 70
     0
  0
APPID
  5
DF
330
9
100
AcDbSymbolTableRecord
100
AcDbRegAppTableRecord
  2
ACAD_DSTYLE_DIMJAG
 70
     0
  0
APPID
  5
E0
330
9
100
AcDbSymbolTableRecord
100
AcDbRegAppTableRecord
  2
ACAD_DSTYLE_DIMTALN
 70
     0
  0
APPID
  5
107
330
9
100
AcDbSymbolTableRecord
100
AcDbRegAppTableRecord
  2
ACAD_MLEADERVER
 70
     0
  0
APPID
  5
16C
330
9
100
AcDbSymbolTableRecord
100
AcDbRegAppTableRecord
  2
VDEXTRAPARAM
 70
     0
  0
APPID
  5
16D
330
9
100
AcDbSymbolTableRecord
100
AcDbRegAppTableRecord
  2
VD_TEMPHATCH
 70
     0
  0
APPID
  5
16E
330
9
100
AcDbSymbolTableRecord
100
AcDbRegAppTableRecord
  2
AcAecLayerStandard
 70
     0
  0
APPID
  5
16F
330
9
100
AcDbSymbolTableRecord
100
AcDbRegAppTableRecord
  2
VD_EX_PRINTER_DWG_STYLE_SHEET
 70
     0
  0
APPID
  5
170
330
9
100
AcDbSymbolTableRecord
100
AcDbRegAppTableRecord
  2
VD_EX_PRINTER_SIZEX
 70
     0
  0
APPID
  5
171
330
9
100
AcDbSymbolTableRecord
100
AcDbRegAppTableRecord
  2
VD_EX_PRINTER_AVSIZEX
 70
     0
  0
APPID
  5
172
330
9
100
AcDbSymbolTableRecord
100
AcDbRegAppTableRecord
  2
VD_EX_PRINTER_SIZEY
 70
     0
  0
APPID
  5
173
330
9
100
AcDbSymbolTableRecord
100
AcDbRegAppTableRecord
  2
VD_EX_PRINTER_AVSIZEY
 70
     0
  0
ENDTAB
  0
TABLE
  2
DIMSTYLE
  5
A
330
0
100
AcDbSymbolTable
 70
     2
100
AcDbDimStyleTable
 71
     2
340
27
340
E1
  0
DIMSTYLE
105
27
102
{ACAD_REACTORS
330
3D2
330
3D3
102
}
330
A
100
AcDbSymbolTableRecord
100
AcDbDimStyleTableRecord
  2
Standard
 70
     0
340
11
  0
DIMSTYLE
105
E1
330
A
100
AcDbSymbolTableRecord
100
AcDbDimStyleTableRecord
  2
Annotativa
 70
     0
 40
0.0
340
11
1001
AcadAnnotative
1000
AnnotativeData
1002
{
1070
     1
1070
     1
1002
}
1001
ACAD_DSTYLE_DIMJAG
1070
   388
1040
1.5
1001
ACAD_DSTYLE_DIMTALN
1070
   392
1070
     0
  0
ENDTAB
  0
TABLE
  2
BLOCK_RECORD
  5
1
330
0
100
AcDbSymbolTable
 70
     7
  0
BLOCK_RECORD
  5
1F
330
1
100
AcDbSymbolTableRecord
100
AcDbBlockTableRecord
  2
*Model_Space
340
22
  0
BLOCK_RECORD
  5
58
330
1
100
AcDbSymbolTableRecord
100
AcDbBlockTableRecord
  2
*Paper_Space
340
59
  0
BLOCK_RECORD
  5
5D
330
1
100
AcDbSymbolTableRecord
100
AcDbBlockTableRecord
  2
*Paper_Space0
340
5E
  0
BLOCK_RECORD
  5
14C
330
1
100
AcDbSymbolTableRecord
100
AcDbBlockTableRecord
  2
VDDIM_DEFAULT
340
0
  0
BLOCK_RECORD
  5
150
330
1
100
AcDbSymbolTableRecord
100
AcDbBlockTableRecord
  2
IBvert
340
0
102
{BLKREFS
331
2BE
331
2BF
331
2C0
331
40E
331
40F
331
410
102
}
  0
BLOCK_RECORD
  5
15F
330
1
100
AcDbSymbolTableRecord
100
AcDbBlockTableRecord
  2
*D3
340
0
  0
BLOCK_RECORD
  5
412
330
1
100
AcDbSymbolTableRecord
100
AcDbBlockTableRecord
  2
*D5
340
0
  0
BLOCK_RECORD
  5
41F
330
1
100
AcDbSymbolTableRecord
100
AcDbBlockTableRecord
  2
*D6
340
0
  0
ENDTAB
  0
ENDSEC
  0
SECTION
  2
BLOCKS
  0
BLOCK
  5
20
330
1F
100
AcDbEntity
  8
0
100
AcDbBlockBegin
  2
*Model_Space
 70
     0
 10
0.0
 20
0.0
 30
0.0
  3
*Model_Space
  1

  0
ENDBLK
  5
21
330
1F
100
AcDbEntity
  8
0
100
AcDbBlockEnd
  0
BLOCK
  5
5A
330
58
100
AcDbEntity
 67
     1
  8
0
100
AcDbBlockBegin
  2
*Paper_Space
 70
     0
 10
0.0
 20
0.0
 30
0.0
  3
*Paper_Space
  1

  0
ENDBLK
  5
5B
330
58
100
AcDbEntity
 67
     1
  8
0
100
AcDbBlockEnd
  0
BLOCK
  5
5F
330
5D
100
AcDbEntity
 67
     1
  8
0
100
AcDbBlockBegin
  2
*Paper_Space0
 70
     0
 10
0.0
 20
0.0
 30
0.0
  3
*Paper_Space0
  1

  0
ENDBLK
  5
60
330
5D
100
AcDbEntity
 67
     1
  8
0
100
AcDbBlockEnd
  0
BLOCK
  5
14D
330
14C
100
AcDbEntity
  8
0
100
AcDbBlockBegin
  2
VDDIM_DEFAULT
 70
     0
 10
0.0
 20
0.0
 30
0.0
  3
VDDIM_DEFAULT
  1

  0
HATCH
  5
14E
330
14C
100
AcDbEntity
  8
0
  6
Continuous
 62
     0
370
    -2
100
AcDbHatch
 10
0.0
 20
0.0
 30
0.0
210
0.0
220
0.0
230
-1.0
  2
SOLID
 70
     1
 71
     0
 91
        1
 92
        2
 72
     0
 73
     1
 93
        3
 10
0.0
 20
0.0
 10
1.0
 20
-0.1665
 10
1.0
 20
0.1665
 97
        0
 75
     0
 76
     1
 98
        1
 10
0.0
 20
0.0
  0
ENDBLK
  5
14F
330
14C
100
AcDbEntity
  8
0
100
AcDbBlockEnd
  0
BLOCK
  5
151
330
150
100
AcDbEntity
  8
0
100
AcDbBlockBegin
  2
IBvert
 70
     0
 10
0.0
 20
0.0
 30
0.0
  3
IBvert
  1

  0
LINE
  5
152
330
150
100
AcDbEntity
  8
0
100
AcDbLine
 10
105.74134107
 20
8.212549389999999
 30
0.0
 11
16.97138987
 21
8.212549389999999
 31
0.0
  0
ARC
  5
153
330
150
100
AcDbEntity
  8
0
100
AcDbCircle
 10
16.97138987
 20
15.33568614
 30
0.0
 40
7.123136749999999
100
AcDbArc
 50
180.0
 51
270.0
  0
CIRCLE
  5
154
330
150
100
AcDbEntity
  8
0
100
AcDbCircle
 10
16.97138987
 20
15.33568614
 30
0.0
 40
2.58835439
  0
ARC
  5
155
330
150
100
AcDbEntity
  8
0
100
AcDbCircle
 10
105.74134107
 20
15.33568614
 30
0.0
 40
7.123136749999999
100
AcDbArc
 50
270.0
 51
0.0
  0
CIRCLE
  5
156
330
150
100
AcDbEntity
  8
0
100
AcDbCircle
 10
105.74134107
 20
15.33568614
 30
0.0
 40
2.58835439
  0
LINE
  5
157
330
150
100
AcDbEntity
  8
0
100
AcDbLine
 10
9.848253129999999
 20
15.33568614
 30
0.0
 11
9.848253129999999
 21
221.0912604
 31
0.0
  0
LINE
  5
158
330
150
100
AcDbEntity
  8
0
100
AcDbLine
 10
112.86447781
 20
15.33568614
 30
0.0
 11
112.86447781
 21
221.0912604
 31
0.0
  0
LINE
  5
159
330
150
100
AcDbEntity
  8
0
100
AcDbLine
 10
16.97138987
 20
228.21439714
 30
0.0
 11
105.74134107
 21
228.21439714
 31
0.0
  0
ARC
  5
15A
330
150
100
AcDbEntity
  8
0
100
AcDbCircle
 10
16.97138987
 20
221.0912604
 30
0.0
 40
7.123136749999999
100
AcDbArc
 50
90.0
 51
180.0
  0
CIRCLE
  5
15B
330
150
100
AcDbEntity
  8
0
100
AcDbCircle
 10
16.97138987
 20
221.0912604
 30
0.0
 40
2.58835439
  0
CIRCLE
  5
15C
330
150
100
AcDbEntity
  8
0
100
AcDbCircle
 10
105.74134107
 20
221.0912604
 30
0.0
 40
2.58835439
  0
ARC
  5
15D
330
150
100
AcDbEntity
  8
0
100
AcDbCircle
 10
105.74134107
 20
221.0912604
 30
0.0
 40
7.123136749999999
100
AcDbArc
 50
0.0
 51
90.0
  0
ENDBLK
  5
15E
330
150
100
AcDbEntity
  8
0
100
AcDbBlockEnd
  0
BLOCK
  5
160
330
15F
100
AcDbEntity
  8
0
100
AcDbBlockBegin
  2
*D3
 70
     0
 10
0.0
 20
0.0
 30
0.0
  3
*D3
  1

  0
LINE
  5
161
330
15F
100
AcDbEntity
  8
QUOTE
 62
     7
100
AcDbLine
 10
340.87410625
 20
-127.23099548
 30
0.0
 11
340.87410625
 21
-161.30581575
 31
0.0
  0
LINE
  5
162
330
15F
100
AcDbEntity
  8
QUOTE
 62
     7
100
AcDbLine
 10
20.87410625
 20
-127.16612515
 30
0.0
 11
20.87410625
 21
-161.30581575
 31
0.0
  0
LINE
  5
163
330
15F
100
AcDbEntity
  8
QUOTE
 62
     7
100
AcDbLine
 10
325.87410625
 20
-161.12581575
 30
0.0
 11
194.10152955
 21
-161.12581575
 31
0.0
  0
LINE
  5
164
330
15F
100
AcDbEntity
  8
QUOTE
 62
     7
100
AcDbLine
 10
35.87410625
 20
-161.12581575
 30
0.0
 11
168.92152955
 21
-161.12581575
 31
0.0
  0
LWPOLYLINE
  5
165
102
{ACAD_REACTORS
330
166
102
}
330
15F
100
AcDbEntity
  8
QUOTE
 62
     7
100
AcDbPolyline
 90
        3
 70
     1
 43
0.0
 10
325.87410625
 20
-158.62581575
 10
325.87410625
 20
-163.62581575
 10
340.87410625
 20
-161.12581575
  0
HATCH
  5
166
330
15F
100
AcDbEntity
  8
QUOTE
 62
     7
100
AcDbHatch
 10
0.0
 20
0.0
 30
0.0
210
0.0
220
0.0
230
1.0
  2
SOLID
 70
     1
 71
     1
 91
        1
 92
        2
 72
     0
 73
     1
 93
        3
 10
325.87410625
 20
-158.62581575
 10
325.87410625
 20
-163.62581575
 10
340.87410625
 20
-161.12581575
 97
        1
330
165
 75
     0
 76
     1
 98
        1
 10
0.0
 20
0.0
1001
VD_TEMPHATCH
1000
VD_TEMPHATCH
  0
LWPOLYLINE
  5
167
102
{ACAD_REACTORS
330
168
102
}
330
15F
100
AcDbEntity
  8
QUOTE
 62
     7
100
AcDbPolyline
 90
        3
 70
     1
 43
0.0
 10
35.87410625
 20
-158.62581575
 10
35.87410625
 20
-163.62581575
 10
20.87410625
 20
-161.12581575
  0
HATCH
  5
168
330
15F
100
AcDbEntity
  8
QUOTE
 62
     7
100
AcDbHatch
 10
0.0
 20
0.0
 30
0.0
210
0.0
220
0.0
230
1.0
  2
SOLID
 70
     1
 71
     1
 91
        1
 92
        2
 72
     0
 73
     1
 93
        3
 10
35.87410625
 20
-158.62581575
 10
35.87410625
 20
-163.62581575
 10
20.87410625
 20
-161.12581575
 97
        1
330
167
 75
     0
 76
     1
 98
        1
 10
0.0
 20
0.0
1001
VD_TEMPHATCH
1000
VD_TEMPHATCH
  0
MTEXT
  5
169
330
15F
100
AcDbEntity
  8
QUOTE
 62
     7
100
AcDbMText
 10
181.51152955
 20
-161.12581575
 30
0.0
 40
10.0
 41
22.31652145
 71
     5
 72
     1
  1
\A1;320
 73
     1
 44
1.0
1001
ACAD
1000
MTEXTBEGIN
1070
    73
1070
     1
1070
    44
1040
1.0
1070
    74
1070
     0
1000
MTEXTEND
  0
ENDBLK
  5
16A
330
15F
100
AcDbEntity
  8
0
100
AcDbBlockEnd
  0
BLOCK
  5
413
330
412
100
AcDbEntity
  8
0
100
AcDbBlockBegin
  2
*D5
 70
     1
 10
0.0
 20
0.0
 30
0.0
  3
*D5
  1

  0
LINE
  5
443
330
412
100
AcDbEntity
  8
QUOTE
 62
     0
370
    -2
100
AcDbLine
 10
71.89273327357653
 20
551.9144883160927
 30
0.0
 11
31.19116595357666
 21
551.9144883160927
 31
0.0
  0
LINE
  5
444
330
412
100
AcDbEntity
  8
QUOTE
 62
     0
370
    -2
100
AcDbLine
 10
69.42200570357655
 20
41.96993831609262
 30
0.0
 11
31.19116595357655
 21
41.96993831609263
 31
0.0
  0
LINE
  5
445
330
412
100
AcDbEntity
  8
QUOTE
 62
     0
370
    -2
100
AcDbLine
 10
31.37116595357666
 20
536.9144883160926
 30
0.0
 11
31.3711659535766
 21
301.9632520060927
 31
0.0
  0
LINE
  5
446
330
412
100
AcDbEntity
  8
QUOTE
 62
     0
370
    -2
100
AcDbLine
 10
31.37116595357655
 20
56.96993831609263
 30
0.0
 11
31.3711659535766
 21
291.7832520060927
 31
0.0
  0
SOLID
  5
447
330
412
100
AcDbEntity
  8
QUOTE
 62
     0
100
AcDbTrace
 10
28.87116595357666
 20
536.9144883160926
 30
0.0
 11
33.87116595357666
 21
536.9144883160926
 31
0.0
 12
31.37116595357666
 22
551.9144883160927
 32
0.0
 13
31.37116595357666
 23
551.9144883160927
 33
0.0
  0
SOLID
  5
448
330
412
100
AcDbEntity
  8
QUOTE
 62
     0
100
AcDbTrace
 10
28.87116595357655
 20
56.96993831609263
 30
0.0
 11
33.87116595357655
 21
56.96993831609263
 31
0.0
 12
31.37116595357654
 22
41.96993831609263
 32
0.0
 13
31.37116595357654
 23
41.96993831609263
 33
0.0
  0
MTEXT
  5
449
330
412
100
AcDbEntity
  8
QUOTE
 62
     0
100
AcDbMText
 10
31.37116595357655
 20
296.8732520060927
 30
0.0
 40
10.0
 41
0.0
 71
     5
 72
     1
  1
\A1;510
 73
     1
 44
1.0
1001
ACAD
1000
MTEXTBEGIN
1070
    73
1070
     1
1070
    44
1040
1.0
1070
    74
1070
     0
1000
MTEXTEND
  0
POINT
  5
44A
330
412
100
AcDbEntity
  8
Defpoints
 62
     0
100
AcDbPoint
 10
71.95523327357654
 20
551.9144883160927
 30
0.0
  0
POINT
  5
44B
330
412
100
AcDbEntity
  8
Defpoints
 62
     0
100
AcDbPoint
 10
69.48450570357654
 20
41.96993831609262
 30
0.0
  0
POINT
  5
44C
330
412
100
AcDbEntity
  8
Defpoints
 62
     0
100
AcDbPoint
 10
31.37116595357654
 20
41.96993831609263
 30
0.0
  0
ENDBLK
  5
414
330
412
100
AcDbEntity
  8
0
100
AcDbBlockEnd
  0
BLOCK
  5
420
330
41F
100
AcDbEntity
  8
0
100
AcDbBlockBegin
  2
*D6
 70
     1
 10
0.0
 20
0.0
 30
0.0
  3
*D6
  1

  0
LINE
  5
436
330
41F
100
AcDbEntity
  8
QUOTE
 62
     0
370
    -2
100
AcDbLine
 10
373.4845057035766
 20
57.84958698609263
 30
0.0
 11
373.4845057035766
 21
23.77476671609265
 31
0.0
  0
LINE
  5
437
330
41F
100
AcDbEntity
  8
QUOTE
 62
     0
370
    -2
100
AcDbLine
 10
53.48450570357655
 20
57.91445731609264
 30
0.0
 11
53.48450570357655
 21
23.77476671609265
 31
0.0
  0
LINE
  5
438
330
41F
100
AcDbEntity
  8
QUOTE
 62
     0
370
    -2
100
AcDbLine
 10
358.4845057035766
 20
23.95476671609265
 30
0.0
 11
226.7119290035766
 21
23.95476671609265
 31
0.0
  0
LINE
  5
439
330
41F
100
AcDbEntity
  8
QUOTE
 62
     0
370
    -2
100
AcDbLine
 10
68.48450570357655
 20
23.95476671609265
 30
0.0
 11
201.5319290035765
 21
23.95476671609265
 31
0.0
  0
SOLID
  5
43A
330
41F
100
AcDbEntity
  8
QUOTE
 62
     0
100
AcDbTrace
 10
358.4845057035766
 20
26.45476671609265
 30
0.0
 11
358.4845057035766
 21
21.45476671609265
 31
0.0
 12
373.4845057035766
 22
23.95476671609265
 32
0.0
 13
373.4845057035766
 23
23.95476671609265
 33
0.0
  0
SOLID
  5
43B
330
41F
100
AcDbEntity
  8
QUOTE
 62
     0
100
AcDbTrace
 10
68.48450570357655
 20
26.45476671609265
 30
0.0
 11
68.48450570357655
 21
21.45476671609265
 31
0.0
 12
53.48450570357655
 22
23.95476671609265
 32
0.0
 13
53.48450570357655
 23
23.95476671609265
 33
0.0
  0
MTEXT
  5
43C
330
41F
100
AcDbEntity
  8
QUOTE
 62
     0
100
AcDbMText
 10
214.1219290035766
 20
23.95476671609265
 30
0.0
 40
10.0
 41
0.0
 71
     5
 72
     1
  1
\A1;320
 73
     1
 44
1.0
1001
ACAD
1000
MTEXTBEGIN
1070
    73
1070
     1
1070
    44
1040
1.0
1070
    74
1070
     0
1000
MTEXTEND
  0
POINT
  5
43D
330
41F
100
AcDbEntity
  8
Defpoints
 62
     0
100
AcDbPoint
 10
373.4845057035766
 20
57.91208698609263
 30
0.0
  0
POINT
  5
43E
330
41F
100
AcDbEntity
  8
Defpoints
 62
     0
100
AcDbPoint
 10
53.48450570357655
 20
57.97695731609263
 30
0.0
  0
POINT
  5
43F
330
41F
100
AcDbEntity
  8
Defpoints
 62
     0
100
AcDbPoint
 10
53.48450570357655
 20
23.95476671609265
 30
0.0
  0
ENDBLK
  5
421
330
41F
100
AcDbEntity
  8
0
100
AcDbBlockEnd
  0
ENDSEC
  0
SECTION
  2
ENTITIES
  0
LINE
  5
2C5
330
1F
100
AcDbEntity
  8
0
 62
   253
370
    35
100
AcDbLine
 10
157.9845057035765
 20
384.3433213160927
 30
0.0
 11
268.9845057035766
 21
384.4128093160927
 31
0.0
  0
ARC
  5
2C6
330
1F
100
AcDbEntity
  8
0
 62
   253
370
    35
100
AcDbCircle
 10
213.4952477035766
 20
372.3791793160927
 30
0.0
 40
10.452045
100
AcDbArc
 50
0.0
 51
232.8935809999999
  0
ARC
  5
2C7
330
1F
100
AcDbEntity
  8
0
 62
   253
370
    35
100
AcDbCircle
 10
213.4952477035766
 20
372.3791793160927
 30
0.0
 40
10.452045
100
AcDbArc
 50
303.2396360000001
 51
0.0
  0
LINE
  5
2C8
330
1F
100
AcDbEntity
  8
0
 62
   253
370
    35
100
AcDbLine
 10
69.19324570357655
 20
483.1118753160926
 30
0.0
 11
69.19324570357655
 21
362.2230203160926
 31
0.0
  0
LINE
  5
2C9
330
1F
100
AcDbEntity
  8
0
 62
   253
370
    35
100
AcDbLine
 10
357.7758267035765
 20
483.1118753160926
 30
0.0
 11
357.7758267035765
 21
362.2230203160926
 31
0.0
  0
ARC
  5
2CA
330
1F
100
AcDbEntity
  8
0
 62
   253
370
    35
100
AcDbCircle
 10
72.19306270357654
 20
483.1119973160926
 30
0.0
 40
2.999829999999999
100
AcDbArc
 50
89.99901200000001
 51
180.0009919999999
  0
ARC
  5
2CB
330
1F
100
AcDbEntity
  8
0
 62
   253
370
    35
100
AcDbCircle
 10
72.19306270357654
 20
362.2229903160927
 30
0.0
 40
2.999829999999999
100
AcDbArc
 50
179.9990080000001
 51
270.000988
  0
LINE
  5
2CC
330
1F
100
AcDbEntity
  8
0
 62
     7
370
    13
100
AcDbLine
 10
369.5786827035765
 20
70.61176931609264
 30
0.0
 11
57.39038970357654
 21
70.61176931609264
 31
0.0
  0
LINE
  5
2CD
330
1F
100
AcDbEntity
  8
0
 62
     7
370
    13
100
AcDbLine
 10
369.5786827035765
 20
523.2171613160926
 30
0.0
 11
57.39038970357654
 21
523.2171613160926
 31
0.0
  0
LINE
  5
2CE
330
1F
100
AcDbEntity
  8
0
 62
   253
370
    35
100
AcDbLine
 10
72.19312370357655
 20
486.1118143160926
 30
0.0
 11
354.7759487035766
 21
486.1118143160926
 31
0.0
  0
ARC
  5
2CF
330
1F
100
AcDbEntity
  8
0
 62
   253
370
    35
100
AcDbCircle
 10
354.7760097035765
 20
483.1119973160926
 30
0.0
 40
2.999829999999999
100
AcDbArc
 50
359.9990140000004
 51
90.00098600000002
  0
ARC
  5
2D0
330
1F
100
AcDbEntity
  8
0
 62
   253
370
    35
100
AcDbCircle
 10
354.7760097035765
 20
362.2229903160927
 30
0.0
 40
2.999829999999999
100
AcDbArc
 50
269.999014
 51
0.0009859999996218
  0
LINE
  5
2D1
330
1F
100
AcDbEntity
  8
0
 62
   253
370
    35
100
AcDbLine
 10
72.19312370357655
 20
359.2231423160927
 30
0.0
 11
354.7759487035766
 21
359.2231423160927
 31
0.0
  0
ARC
  5
2D2
330
1F
100
AcDbEntity
  8
0
 62
     7
370
    35
100
AcDbCircle
 10
354.9845057035766
 20
510.1204203160927
 30
0.0
 40
2.0
100
AcDbArc
 50
0.0
 51
90.0
  0
LINE
  5
2D3
330
1F
100
AcDbEntity
  8
0
 62
     7
 48
0.45
370
    35
100
AcDbLine
 10
356.9845057035766
 20
510.1204203160927
 30
0.0
 11
356.9845057035766
 21
492.1204203160926
 31
0.0
  0
ARC
  5
2D4
330
1F
100
AcDbEntity
  8
0
 62
     7
370
    35
100
AcDbCircle
 10
354.9845057035766
 20
492.1204203160926
 30
0.0
 40
2.0
100
AcDbArc
 50
270.0
 51
0.0
  0
LINE
  5
2D5
330
1F
100
AcDbEntity
  8
0
 62
     7
370
    35
100
AcDbLine
 10
309.9845057035766
 20
490.1204203160927
 30
0.0
 11
354.9845057035766
 21
490.1204203160927
 31
0.0
  0
ARC
  5
2D6
330
1F
100
AcDbEntity
  8
0
 62
     7
370
    35
100
AcDbCircle
 10
309.9845057035766
 20
492.1204203160926
 30
0.0
 40
2.0
100
AcDbArc
 50
180.0
 51
270.0
  0
LINE
  5
2D7
330
1F
100
AcDbEntity
  8
0
 62
     7
 48
0.45
370
    35
100
AcDbLine
 10
307.9845057035766
 20
492.1204203160926
 30
0.0
 11
307.9845057035766
 21
510.1204203160927
 31
0.0
  0
ARC
  5
2D8
330
1F
100
AcDbEntity
  8
0
 62
     7
370
    35
100
AcDbCircle
 10
309.9845057035766
 20
510.1204203160927
 30
0.0
 40
2.0
100
AcDbArc
 50
90.0
 51
180.0
  0
LINE
  5
2D9
330
1F
100
AcDbEntity
  8
0
 62
     7
370
    35
100
AcDbLine
 10
354.9845057035766
 20
512.1204203160926
 30
0.0
 11
309.9845057035766
 21
512.1204203160926
 31
0.0
  0
CIRCLE
  5
2DA
330
1F
100
AcDbEntity
  8
0
 62
     7
370
    35
100
AcDbCircle
 10
357.4845057035766
 20
326.9144573160927
 30
0.0
 40
9.352035
  0
CIRCLE
  5
2DB
330
1F
100
AcDbEntity
  8
0
 62
     7
370
    35
100
AcDbCircle
 10
69.48450570357654
 20
326.9144573160927
 30
0.0
 40
9.352035
  0
ARC
  5
2DC
330
1F
100
AcDbEntity
  8
0
 62
     7
370
    35
100
AcDbCircle
 10
357.4845057035766
 20
57.91445731609264
 30
0.0
 40
16.0
100
AcDbArc
 50
270.0
 51
337.0910520000002
  0
LINE
  5
2DD
330
1F
100
AcDbEntity
  8
0
 62
     7
370
    35
100
AcDbLine
 10
69.48450570357654
 20
41.91445731609263
 30
0.0
 11
357.4845057035766
 21
41.91445731609263
 31
0.0
  0
ARC
  5
2DE
330
1F
100
AcDbEntity
  8
0
 62
     7
370
    35
100
AcDbCircle
 10
69.48450570357654
 20
57.91445731609264
 30
0.0
 40
16.0
100
AcDbArc
 50
202.9089409999995
 51
270.0
  0
LINE
  5
2DF
330
1F
100
AcDbEntity
  8
0
 62
     7
 48
0.001465
370
    35
100
AcDbLine
 10
370.9207847035766
 20
64.01353231609263
 30
0.0
 11
370.9622277035766
 21
64.05499131609264
 31
0.0
  0
LINE
  5
2E0
330
1F
100
AcDbEntity
  8
0
 62
     7
 48
0.011675
370
    35
100
AcDbLine
 10
371.9621667035766
 20
64.06994431609263
 30
0.0
 11
372.4291467035765
 21
64.07230931609264
 31
0.0
  0
LINE
  5
2E1
330
1F
100
AcDbEntity
  8
0
 62
     7
 48
0.00196
370
    35
100
AcDbLine
 10
373.4845057035766
 20
64.14274431609263
 30
0.0
 11
373.4290857035766
 21
64.08726331609263
 31
0.0
  0
LINE
  5
2E2
330
1F
100
AcDbEntity
  8
0
 62
     7
 48
0.001665
370
    35
100
AcDbLine
 10
372.2225427035766
 20
51.68617031609264
 30
0.0
 11
372.1856777035765
 21
51.74165131609263
 31
0.0
  0
LINE
  5
2E3
330
1F
100
AcDbEntity
  8
0
 62
     7
 48
0.015674
370
    35
100
AcDbLine
 10
371.1015097035765
 20
51.75660531609264
 30
0.0
 11
370.4745567035766
 21
51.75948931609264
 31
0.0
  0
LINE
  5
2E4
330
1F
100
AcDbEntity
  8
0
 62
     7
 48
0.001155
370
    35
100
AcDbLine
 10
369.3463217035766
 20
51.77454931609265
 30
0.0
 11
369.3230067035766
 21
51.81445131609263
 31
0.0
  0
LINE
  5
2E5
330
1F
100
AcDbEntity
  8
0
 62
     7
 48
0.000026
370
    35
100
AcDbLine
 10
369.3230067035766
 20
51.81445131609263
 30
0.0
 11
369.3225187035765
 21
51.81538231609263
 31
0.0
  0
LINE
  5
2E6
330
1F
100
AcDbEntity
  8
0
 62
     7
370
    35
100
AcDbLine
 10
373.4845057035766
 20
320.6861863160926
 30
0.0
 11
373.4845057035766
 21
64.14274431609263
 31
0.0
  0
LINE
  5
2E7
330
1F
100
AcDbEntity
  8
0
 62
     7
 48
0.001466
370
    35
100
AcDbLine
 10
370.9207847035766
 20
333.0135173160927
 30
0.0
 11
370.9622277035766
 21
333.0549913160927
 31
0.0
  0
LINE
  5
2E8
330
1F
100
AcDbEntity
  8
0
 62
     7
 48
0.011675
370
    35
100
AcDbLine
 10
371.9621667035766
 20
333.0699443160927
 30
0.0
 11
372.4291467035765
 21
333.0722943160927
 31
0.0
  0
LINE
  5
2E9
330
1F
100
AcDbEntity
  8
0
 62
     7
 48
0.00196
370
    35
100
AcDbLine
 10
373.4845057035766
 20
333.1427593160927
 30
0.0
 11
373.4290857035766
 21
333.0872783160927
 31
0.0
  0
LINE
  5
2EA
330
1F
100
AcDbEntity
  8
0
 62
     7
 48
0.00196
370
    35
100
AcDbLine
 10
373.4845057035766
 20
320.6861863160926
 30
0.0
 11
373.4290857035766
 21
320.7416363160927
 31
0.0
  0
LINE
  5
2EB
330
1F
100
AcDbEntity
  8
0
 62
     7
 48
0.011675
370
    35
100
AcDbLine
 10
371.9621667035766
 20
320.7589703160927
 30
0.0
 11
372.4291467035765
 21
320.7566203160926
 31
0.0
  0
LINE
  5
2EC
330
1F
100
AcDbEntity
  8
0
 62
     7
 48
0.001466
370
    35
100
AcDbLine
 10
370.9207847035766
 20
320.8153973160927
 30
0.0
 11
370.9622277035766
 21
320.7739243160927
 31
0.0
  0
LINE
  5
2ED
330
1F
100
AcDbEntity
  8
0
 62
     7
370
    35
100
AcDbLine
 10
373.4845057035766
 20
529.6861553160925
 30
0.0
 11
373.4845057035766
 21
333.1427593160927
 31
0.0
  0
LINE
  5
2EE
330
1F
100
AcDbEntity
  8
0
 62
     7
 48
0.000026
370
    35
100
AcDbLine
 10
369.3230067035766
 20
542.0144633160925
 30
0.0
 11
369.3225187035765
 21
542.0135483160927
 31
0.0
  0
LINE
  5
2EF
330
1F
100
AcDbEntity
  8
0
 62
     7
 48
0.001156
370
    35
100
AcDbLine
 10
369.3230067035766
 20
542.0144633160925
 30
0.0
 11
369.3463217035766
 21
542.0543803160926
 31
0.0
  0
LINE
  5
2F0
330
1F
100
AcDbEntity
  8
0
 62
     7
 48
0.015674
370
    35
100
AcDbLine
 10
370.4745567035766
 20
542.0693953160926
 30
0.0
 11
371.1015097035765
 21
542.0723253160927
 31
0.0
  0
LINE
  5
2F1
330
1F
100
AcDbEntity
  8
0
 62
     7
 48
0.001665
370
    35
100
AcDbLine
 10
372.1856777035765
 20
542.0872783160927
 30
0.0
 11
372.2225427035766
 21
542.1427593160927
 31
0.0
  0
LINE
  5
2F2
330
1F
100
AcDbEntity
  8
0
 62
     7
 48
0.00196
370
    35
100
AcDbLine
 10
373.4845057035766
 20
529.6861553160925
 30
0.0
 11
373.4290857035766
 21
529.7416363160926
 31
0.0
  0
LINE
  5
2F3
330
1F
100
AcDbEntity
  8
0
 62
     7
 48
0.011675
370
    35
100
AcDbLine
 10
371.9621667035766
 20
529.7589703160926
 30
0.0
 11
372.4291467035765
 21
529.7565903160927
 31
0.0
  0
LINE
  5
2F4
330
1F
100
AcDbEntity
  8
0
 62
     7
 48
0.001465
370
    35
100
AcDbLine
 10
370.9207847035766
 20
529.8153673160926
 30
0.0
 11
370.9622277035766
 21
529.7739243160926
 31
0.0
  0
ARC
  5
2F5
330
1F
100
AcDbEntity
  8
0
 62
     7
370
    35
100
AcDbCircle
 10
69.48450570357654
 20
535.9144883160927
 30
0.0
 40
16.0
100
AcDbArc
 50
90.0
 51
157.0910590000005
  0
LINE
  5
2F6
330
1F
100
AcDbEntity
  8
0
 62
     7
370
    35
100
AcDbLine
 10
357.4845057035766
 20
551.9144883160927
 30
0.0
 11
69.48450570357654
 21
551.9144883160927
 31
0.0
  0
ARC
  5
2F7
330
1F
100
AcDbEntity
  8
0
 62
     7
370
    35
100
AcDbCircle
 10
357.4845057035766
 20
535.9144883160927
 30
0.0
 40
16.0
100
AcDbArc
 50
22.90894799999983
 51
90.0
  0
LINE
  5
2F8
330
1F
100
AcDbEntity
  8
0
 62
     7
 48
0.001465
370
    35
100
AcDbLine
 10
56.04828770357655
 20
529.8153673160926
 30
0.0
 11
56.00684470357655
 21
529.7739243160926
 31
0.0
  0
LINE
  5
2F9
330
1F
100
AcDbEntity
  8
0
 62
     7
 48
0.011675
370
    35
100
AcDbLine
 10
55.00690570357654
 20
529.7589703160926
 30
0.0
 11
54.53992570357654
 21
529.7565903160927
 31
0.0
  0
LINE
  5
2FA
330
1F
100
AcDbEntity
  8
0
 62
     7
 48
0.001962
370
    35
100
AcDbLine
 10
53.48450570357655
 20
529.6861553160925
 30
0.0
 11
53.53998670357654
 21
529.7416363160926
 31
0.0
  0
LINE
  5
2FB
330
1F
100
AcDbEntity
  8
0
 62
     7
 48
0.001664
370
    35
100
AcDbLine
 10
54.74652970357655
 20
542.1427593160927
 30
0.0
 11
54.78333370357654
 21
542.0872783160927
 31
0.0
  0
LINE
  5
2FC
330
1F
100
AcDbEntity
  8
0
 62
     7
 48
0.015674
370
    35
100
AcDbLine
 10
55.86756270357655
 20
542.0723253160927
 30
0.0
 11
56.49451570357655
 21
542.0693953160926
 31
0.0
  0
LINE
  5
2FD
330
1F
100
AcDbEntity
  8
0
 62
     7
 48
0.001156
370
    35
100
AcDbLine
 10
57.62268970357655
 20
542.0543803160926
 30
0.0
 11
57.64600470357655
 21
542.0144633160925
 31
0.0
  0
LINE
  5
2FE
330
1F
100
AcDbEntity
  8
0
 62
     7
 48
0.000027
370
    35
100
AcDbLine
 10
57.64600470357655
 20
542.0144633160925
 30
0.0
 11
57.64655370357655
 21
542.0135483160927
 31
0.0
  0
LINE
  5
2FF
330
1F
100
AcDbEntity
  8
0
 62
     7
370
    35
100
AcDbLine
 10
53.48450570357655
 20
333.1427593160927
 30
0.0
 11
53.48450570357655
 21
529.6861553160925
 31
0.0
  0
LINE
  5
300
330
1F
100
AcDbEntity
  8
0
 62
     7
 48
0.001466
370
    35
100
AcDbLine
 10
56.04828770357655
 20
320.8153973160927
 30
0.0
 11
56.00684470357655
 21
320.7739243160927
 31
0.0
  0
LINE
  5
301
330
1F
100
AcDbEntity
  8
0
 62
     7
 48
0.011675
370
    35
100
AcDbLine
 10
55.00690570357654
 20
320.7589703160927
 30
0.0
 11
54.53992570357654
 21
320.7566203160926
 31
0.0
  0
LINE
  5
302
330
1F
100
AcDbEntity
  8
0
 62
     7
 48
0.001961
370
    35
100
AcDbLine
 10
53.48450570357655
 20
320.6861863160926
 30
0.0
 11
53.53998670357654
 21
320.7416363160927
 31
0.0
  0
LINE
  5
303
330
1F
100
AcDbEntity
  8
0
 62
     7
 48
0.001962
370
    35
100
AcDbLine
 10
53.48450570357655
 20
333.1427593160927
 30
0.0
 11
53.53998670357654
 21
333.0872783160927
 31
0.0
  0
LINE
  5
304
330
1F
100
AcDbEntity
  8
0
 62
     7
 48
0.011675
370
    35
100
AcDbLine
 10
55.00690570357654
 20
333.0699443160927
 30
0.0
 11
54.53992570357654
 21
333.0722943160927
 31
0.0
  0
LINE
  5
305
330
1F
100
AcDbEntity
  8
0
 62
     7
 48
0.001466
370
    35
100
AcDbLine
 10
56.04828770357655
 20
333.0135173160927
 30
0.0
 11
56.00684470357655
 21
333.0549913160927
 31
0.0
  0
LINE
  5
306
330
1F
100
AcDbEntity
  8
0
 62
     7
370
    35
100
AcDbLine
 10
53.48450570357655
 20
64.14274431609263
 30
0.0
 11
53.48450570357655
 21
320.6861863160926
 31
0.0
  0
LINE
  5
307
330
1F
100
AcDbEntity
  8
0
 62
     7
 48
0.000027
370
    35
100
AcDbLine
 10
57.64600470357655
 20
51.81445131609263
 30
0.0
 11
57.64655370357655
 21
51.81538231609263
 31
0.0
  0
LINE
  5
308
330
1F
100
AcDbEntity
  8
0
 62
     7
 48
0.001155
370
    35
100
AcDbLine
 10
57.64600470357655
 20
51.81445131609263
 30
0.0
 11
57.62268970357655
 21
51.77454931609265
 31
0.0
  0
LINE
  5
309
330
1F
100
AcDbEntity
  8
0
 62
     7
 48
0.015674
370
    35
100
AcDbLine
 10
56.49451570357655
 20
51.75948931609264
 30
0.0
 11
55.86756270357655
 21
51.75660531609264
 31
0.0
  0
LINE
  5
30A
330
1F
100
AcDbEntity
  8
0
 62
     7
 48
0.001664
370
    35
100
AcDbLine
 10
54.78333370357654
 20
51.74165131609263
 30
0.0
 11
54.74652970357655
 21
51.68617031609264
 31
0.0
  0
LINE
  5
30B
330
1F
100
AcDbEntity
  8
0
 62
     7
 48
0.001962
370
    35
100
AcDbLine
 10
53.48450570357655
 20
64.14274431609263
 30
0.0
 11
53.53998670357654
 21
64.08726331609263
 31
0.0
  0
LINE
  5
30C
330
1F
100
AcDbEntity
  8
0
 62
     7
 48
0.011675
370
    35
100
AcDbLine
 10
55.00690570357654
 20
64.06994431609263
 30
0.0
 11
54.53992570357654
 21
64.07230931609264
 31
0.0
  0
LINE
  5
30D
330
1F
100
AcDbEntity
  8
0
 62
     7
 48
0.001465
370
    35
100
AcDbLine
 10
56.04828770357655
 20
64.01353231609263
 30
0.0
 11
56.00684470357655
 21
64.05499131609264
 31
0.0
  0
LINE
  5
30E
330
1F
100
AcDbEntity
  8
0
 62
     7
 48
0.024998
370
    35
100
AcDbLine
 10
369.5786827035765
 20
70.61176931609264
 30
0.0
 11
370.5786217035766
 21
70.61176931609264
 31
0.0
  0
LINE
  5
30F
330
1F
100
AcDbEntity
  8
0
 62
     7
 48
0.024998
370
    35
100
AcDbLine
 10
369.5786827035765
 20
523.2171613160926
 30
0.0
 11
370.5786217035766
 21
523.2171613160926
 31
0.0
  0
LINE
  5
310
330
1F
100
AcDbEntity
  8
0
 62
     7
 48
0.025
370
    35
100
AcDbLine
 10
57.39038970357654
 20
523.2171613160926
 30
0.0
 11
56.39038970357654
 21
523.2171613160926
 31
0.0
  0
LINE
  5
311
330
1F
100
AcDbEntity
  8
0
 62
     7
 48
0.025
370
    35
100
AcDbLine
 10
57.39038970357654
 20
70.61176931609264
 30
0.0
 11
56.39038970357654
 21
70.61176931609264
 31
0.0
  0
LINE
  5
312
330
1F
100
AcDbEntity
  8
0
 62
     7
 48
0.001387
370
    35
100
AcDbLine
 10
69.48450570357654
 20
41.96993831609262
 30
0.0
 11
69.48450570357654
 21
41.91445731609263
 31
0.0
  0
LINE
  5
313
330
1F
100
AcDbEntity
  8
0
 62
     7
 48
0.001387
370
    35
100
AcDbLine
 10
357.4845057035766
 20
41.96993831609262
 30
0.0
 11
357.4845057035766
 21
41.91445731609263
 31
0.0
  0
LINE
  5
314
330
1F
100
AcDbEntity
  8
0
 62
     7
370
    35
100
AcDbLine
 10
370.9622277035766
 20
333.0549913160927
 30
0.0
 11
370.9622277035766
 21
529.7739243160926
 31
0.0
  0
LINE
  5
315
330
1F
100
AcDbEntity
  8
0
 62
     7
370
    35
100
AcDbLine
 10
370.9622277035766
 20
64.05499131609264
 30
0.0
 11
370.9622277035766
 21
320.7739243160927
 31
0.0
  0
LINE
  5
316
330
1F
100
AcDbEntity
  8
0
 62
     7
 48
0.024998
370
    35
100
AcDbLine
 10
357.4845057035766
 20
42.96986231609264
 30
0.0
 11
357.4845057035766
 21
41.96993831609262
 31
0.0
  0
LINE
  5
317
330
1F
100
AcDbEntity
  8
0
 62
     7
 48
0.036801
370
    35
100
AcDbLine
 10
357.4845057035766
 20
44.44190831609262
 30
0.0
 11
357.4845057035766
 21
42.96986231609264
 31
0.0
  0
ARC
  5
318
330
1F
100
AcDbEntity
  8
0
 62
     7
370
    35
100
AcDbCircle
 10
358.4895107035766
 20
57.91425931609264
 30
0.0
 40
12.47262
100
AcDbArc
 50
269.97698
 51
330.5110889999993
  0
ARC
  5
319
330
1F
100
AcDbEntity
  8
0
 62
     7
370
    35
100
AcDbCircle
 10
358.4895107035766
 20
535.9146713160925
 30
0.0
 40
12.47262
100
AcDbArc
 50
29.48896299999935
 51
90.02302000000003
  0
LINE
  5
31A
330
1F
100
AcDbEntity
  8
0
 62
     7
 48
0.036801
370
    35
100
AcDbLine
 10
357.4845057035766
 20
549.3870223160927
 30
0.0
 11
357.4845057035766
 21
550.8590683160925
 31
0.0
  0
LINE
  5
31B
330
1F
100
AcDbEntity
  8
0
 62
     7
 48
0.024997
370
    35
100
AcDbLine
 10
357.4845057035766
 20
550.8590683160925
 30
0.0
 11
357.4845057035766
 21
551.8589463160926
 31
0.0
  0
LINE
  5
31C
330
1F
100
AcDbEntity
  8
0
 62
     7
 48
0.001389
370
    35
100
AcDbLine
 10
357.4845057035766
 20
551.8589463160926
 30
0.0
 11
357.4845057035766
 21
551.9144883160927
 31
0.0
  0
LINE
  5
31D
330
1F
100
AcDbEntity
  8
0
 62
     7
 48
0.001389
370
    35
100
AcDbLine
 10
69.48450570357654
 20
551.8589463160926
 30
0.0
 11
69.48450570357654
 21
551.9144883160927
 31
0.0
  0
LINE
  5
31E
330
1F
100
AcDbEntity
  8
0
 62
     7
370
    35
100
AcDbLine
 10
56.00684470357655
 20
529.7739243160926
 30
0.0
 11
56.00684470357655
 21
333.0549913160927
 31
0.0
  0
LINE
  5
31F
330
1F
100
AcDbEntity
  8
0
 62
     7
370
    35
100
AcDbLine
 10
56.00684470357655
 20
320.7739243160927
 30
0.0
 11
56.00684470357655
 21
64.05499131609264
 31
0.0
  0
ARC
  5
320
330
1F
100
AcDbEntity
  8
0
 62
     7
370
    35
100
AcDbCircle
 10
68.47950070357654
 20
535.9146713160925
 30
0.0
 40
12.47262
100
AcDbArc
 50
89.97697800000004
 51
150.5110180000006
  0
LINE
  5
321
330
1F
100
AcDbEntity
  8
0
 62
     7
 48
0.036801
370
    35
100
AcDbLine
 10
69.48450570357654
 20
549.3870223160927
 30
0.0
 11
69.48450570357654
 21
550.8590683160925
 31
0.0
  0
LINE
  5
322
330
1F
100
AcDbEntity
  8
0
 62
     7
 48
0.024997
370
    35
100
AcDbLine
 10
69.48450570357654
 20
550.8590683160925
 30
0.0
 11
69.48450570357654
 21
551.8589463160926
 31
0.0
  0
LINE
  5
323
330
1F
100
AcDbEntity
  8
0
 62
     7
 48
0.024998
370
    35
100
AcDbLine
 10
69.48450570357654
 20
42.96986231609264
 30
0.0
 11
69.48450570357654
 21
41.96993831609262
 31
0.0
  0
LINE
  5
324
330
1F
100
AcDbEntity
  8
0
 62
     7
 48
0.036801
370
    35
100
AcDbLine
 10
69.48450570357654
 20
44.44189231609263
 30
0.0
 11
69.48450570357654
 21
42.96986231609264
 31
0.0
  0
ARC
  5
325
330
1F
100
AcDbEntity
  8
0
 62
     7
370
    35
100
AcDbCircle
 10
68.47950070357654
 20
57.91425931609264
 30
0.0
 40
12.47262
100
AcDbArc
 50
209.4889679999995
 51
270.0230219999999
  0
LINE
  5
326
330
1F
100
AcDbEntity
  8
0
 62
     7
 48
0.025
370
    35
100
AcDbLine
 10
358.4845057035766
 20
45.44164831609262
 30
0.0
 11
357.4845057035766
 21
45.44183131609265
 31
0.0
  0
LINE
  5
327
330
1F
100
AcDbEntity
  8
0
 62
     7
370
    35
100
AcDbLine
 10
357.4845057035766
 20
45.44183131609265
 30
0.0
 11
69.48450570357654
 21
45.44183131609265
 31
0.0
  0
LINE
  5
328
330
1F
100
AcDbEntity
  8
0
 62
     7
 48
0.025
370
    35
100
AcDbLine
 10
69.48450570357654
 20
45.44183131609265
 30
0.0
 11
68.48450570357655
 21
45.44164831609262
 31
0.0
  0
LINE
  5
329
330
1F
100
AcDbEntity
  8
0
 62
     7
 48
0.025
370
    35
100
AcDbLine
 10
69.48450570357654
 20
548.3870833160927
 30
0.0
 11
68.48450570357655
 21
548.3872663160926
 31
0.0
  0
LINE
  5
32A
330
1F
100
AcDbEntity
  8
0
 62
     7
370
    35
100
AcDbLine
 10
357.4845057035766
 20
548.3870833160927
 30
0.0
 11
69.48450570357654
 21
548.3870833160927
 31
0.0
  0
LINE
  5
32B
330
1F
100
AcDbEntity
  8
0
 62
     7
 48
0.025
370
    35
100
AcDbLine
 10
358.4845057035766
 20
548.3872663160926
 30
0.0
 11
357.4845057035766
 21
548.3870833160927
 31
0.0
  0
LINE
  5
32C
330
1F
100
AcDbEntity
  8
0
 62
     7
 48
0.024998
370
    35
100
AcDbLine
 10
357.4845057035766
 20
44.44190831609262
 30
0.0
 11
357.4845057035766
 21
45.44183131609265
 31
0.0
  0
LINE
  5
32D
330
1F
100
AcDbEntity
  8
0
 62
     7
 48
0.024998
370
    35
100
AcDbLine
 10
357.4845057035766
 20
548.3870833160927
 30
0.0
 11
357.4845057035766
 21
549.3870223160927
 31
0.0
  0
LINE
  5
32E
330
1F
100
AcDbEntity
  8
0
 62
     7
 48
0.024998
370
    35
100
AcDbLine
 10
69.48450570357654
 20
548.3870833160927
 30
0.0
 11
69.48450570357654
 21
549.3870223160927
 31
0.0
  0
LINE
  5
32F
330
1F
100
AcDbEntity
  8
0
 62
     7
 48
0.024998
370
    35
100
AcDbLine
 10
69.48450570357654
 20
44.44190831609262
 30
0.0
 11
69.48450570357654
 21
45.44183131609265
 31
0.0
  0
ARC
  5
330
330
1F
100
AcDbEntity
  8
0
 62
   253
370
    35
100
AcDbCircle
 10
160.4940267035765
 20
388.8976423160926
 30
0.0
 40
2.509187999999999
100
AcDbArc
 50
118.2091819999999
 51
180.0944839999992
  0
LINE
  5
331
330
1F
100
AcDbEntity
  8
0
 62
   253
 48
0.012489
370
    35
100
AcDbLine
 10
178.4845057035765
 20
395.4109483160927
 30
0.0
 11
178.4845057035765
 21
395.9105203160926
 31
0.0
  0
ARC
  5
332
330
1F
100
AcDbEntity
  8
0
 62
   253
370
    35
100
AcDbCircle
 10
178.4796227035765
 20
355.2335493160927
 30
0.0
 40
40.676739
100
AcDbArc
 50
89.99309699999995
 51
118.11998
  0
LINE
  5
333
330
1F
100
AcDbEntity
  8
0
 62
   253
 48
0.012489
370
    35
100
AcDbLine
 10
248.4845057035766
 20
395.4109483160927
 30
0.0
 11
248.4845057035766
 21
395.9105203160926
 31
0.0
  0
LINE
  5
334
330
1F
100
AcDbEntity
  8
0
 62
   253
370
    35
100
AcDbLine
 10
248.4845057035766
 20
395.9105203160926
 30
0.0
 11
178.4845057035765
 21
395.9105203160926
 31
0.0
  0
ARC
  5
335
330
1F
100
AcDbEntity
  8
0
 62
   253
370
    35
100
AcDbCircle
 10
248.4894497035766
 20
355.2336413160926
 30
0.0
 40
40.676641
100
AcDbArc
 50
61.87997700000021
 51
90.0069279999999
  0
ARC
  5
336
330
1F
100
AcDbEntity
  8
0
 62
   253
370
    35
100
AcDbCircle
 10
266.4750457035765
 20
388.8977033160927
 30
0.0
 40
2.509184999999999
100
AcDbArc
 50
359.9050050000001
 51
61.79036499999999
  0
LINE
  5
337
330
1F
100
AcDbEntity
  8
0
 62
   253
 48
0.001304
370
    35
100
AcDbLine
 10
330.9930507035765
 20
384.2469773160926
 30
0.0
 11
331.0299157035765
 21
384.2100813160927
 31
0.0
  0
LINE
  5
338
330
1F
100
AcDbEntity
  8
0
 62
   253
 48
0.001304
370
    35
100
AcDbLine
 10
323.9760217035765
 20
384.2469773160926
 30
0.0
 11
323.9391567035766
 21
384.2100813160927
 31
0.0
  0
LINE
  5
339
330
1F
100
AcDbEntity
  8
0
 62
   253
 48
0.001304
370
    35
100
AcDbLine
 10
318.9930507035765
 20
384.2469773160926
 30
0.0
 11
319.0299157035765
 21
384.2100813160927
 31
0.0
  0
LINE
  5
33A
330
1F
100
AcDbEntity
  8
0
 62
   253
 48
0.012172
370
    35
100
AcDbLine
 10
178.4845057035765
 20
384.7077623160926
 30
0.0
 11
178.4845057035765
 21
384.2208843160927
 31
0.0
  0
LINE
  5
33B
330
1F
100
AcDbEntity
  8
0
 62
   253
 48
0.012172
370
    35
100
AcDbLine
 10
248.4845057035766
 20
384.7077623160926
 30
0.0
 11
248.4845057035766
 21
384.2208843160927
 31
0.0
  0
LINE
  5
33C
330
1F
100
AcDbEntity
  8
0
 62
   253
 48
0.2675800000000001
370
    35
100
AcDbLine
 10
178.4845057035765
 20
384.7077623160926
 30
0.0
 11
178.4845057035765
 21
395.4109483160927
 31
0.0
  0
LINE
  5
33D
330
1F
100
AcDbEntity
  8
0
 62
   253
 48
0.2675800000000001
370
    35
100
AcDbLine
 10
248.4845057035766
 20
384.7077623160926
 30
0.0
 11
248.4845057035766
 21
395.4109483160927
 31
0.0
  0
LINE
  5
33E
330
1F
100
AcDbEntity
  8
0
 62
   253
370
    35
100
AcDbLine
 10
353.2921227035765
 20
482.0781233160926
 30
0.0
 11
73.67688870357653
 21
482.0781233160926
 31
0.0
  0
ARC
  5
33F
330
1F
100
AcDbEntity
  8
0
 62
   253
370
    35
100
AcDbCircle
 10
73.67353170357654
 20
480.0891703160926
 30
0.0
 40
1.988738999999999
100
AcDbArc
 50
89.90185300000012
 51
180.0981450000006
  0
ARC
  5
340
330
1F
100
AcDbEntity
  8
0
 62
   253
370
    35
100
AcDbCircle
 10
353.2955407035765
 20
480.0891703160926
 30
0.0
 40
1.988738999999999
100
AcDbArc
 50
359.9018499999996
 51
90.09814500000002
  0
LINE
  5
341
330
1F
100
AcDbEntity
  8
0
 62
   253
 48
0.099519
370
    35
100
AcDbLine
 10
157.9845057035765
 20
384.9127183160927
 30
0.0
 11
157.9845057035765
 21
388.8934923160927
 31
0.0
  0
LINE
  5
342
330
1F
100
AcDbEntity
  8
0
 62
   253
 48
0.001737
370
    35
100
AcDbLine
 10
157.9845057035765
 20
384.4128093160927
 30
0.0
 11
157.9845057035765
 21
384.3433213160927
 31
0.0
  0
LINE
  5
343
330
1F
100
AcDbEntity
  8
0
 62
   253
 48
0.050026
370
    35
100
AcDbLine
 10
71.68451770357655
 20
384.8770733160926
 30
0.0
 11
71.68451770357655
 21
386.8781113160926
 31
0.0
  0
LINE
  5
344
330
1F
100
AcDbEntity
  8
0
 62
   253
 48
0.012283
370
    35
100
AcDbLine
 10
71.68451770357655
 20
386.8781113160926
 30
0.0
 11
71.68451770357655
 21
387.3694443160927
 31
0.0
  0
LINE
  5
345
330
1F
100
AcDbEntity
  8
0
 62
   253
370
    35
100
AcDbLine
 10
71.68451770357655
 20
387.3694443160927
 30
0.0
 11
71.68451770357655
 21
480.0857523160926
 31
0.0
  0
LINE
  5
346
330
1F
100
AcDbEntity
  8
0
 62
   253
 48
0.012498
370
    35
100
AcDbLine
 10
157.9845057035765
 20
384.4128093160927
 30
0.0
 11
157.9845057035765
 21
384.9127183160927
 31
0.0
  0
LINE
  5
347
330
1F
100
AcDbEntity
  8
0
 62
   253
370
    35
100
AcDbLine
 10
73.73590970357653
 20
384.4128093160927
 30
0.0
 11
157.9845057035765
 21
384.4128093160927
 31
0.0
  0
LINE
  5
348
330
1F
100
AcDbEntity
  8
0
 62
   253
 48
0.099519
370
    35
100
AcDbLine
 10
268.9845057035766
 20
384.9127183160927
 30
0.0
 11
268.9845057035766
 21
388.8934923160927
 31
0.0
  0
LINE
  5
349
330
1F
100
AcDbEntity
  8
0
 62
   253
 48
0.001737
370
    35
100
AcDbLine
 10
268.9845057035766
 20
384.4128093160927
 30
0.0
 11
268.9845057035766
 21
384.3433213160927
 31
0.0
  0
LINE
  5
34A
330
1F
100
AcDbEntity
  8
0
 62
   253
370
    35
100
AcDbLine
 10
355.2845547035766
 20
480.0857523160926
 30
0.0
 11
355.2845547035766
 21
386.8781113160926
 31
0.0
  0
LINE
  5
34B
330
1F
100
AcDbEntity
  8
0
 62
   253
 48
0.050026
370
    35
100
AcDbLine
 10
355.2845547035766
 20
386.8781113160926
 30
0.0
 11
355.2845547035766
 21
384.8770733160926
 31
0.0
  0
LINE
  5
34C
330
1F
100
AcDbEntity
  8
0
 62
   253
 48
0.012498
370
    35
100
AcDbLine
 10
268.9845057035766
 20
384.9127183160927
 30
0.0
 11
268.9845057035766
 21
384.4128093160927
 31
0.0
  0
LINE
  5
34D
330
1F
100
AcDbEntity
  8
0
 62
   253
370
    35
100
AcDbLine
 10
268.9845057035766
 20
384.4128093160927
 30
0.0
 11
353.2331627035766
 21
384.4128093160927
 31
0.0
  0
ARC
  5
34E
330
1F
100
AcDbEntity
  8
0
 62
   253
370
    35
100
AcDbCircle
 10
74.75617270357654
 20
384.8768293160927
 30
0.0
 40
3.071624
100
AcDbArc
 50
179.9955379999998
 51
184.1382020000007
  0
LINE
  5
34F
330
1F
100
AcDbEntity
  8
0
 62
   253
 48
0.001193
370
    35
100
AcDbLine
 10
71.69257470357655
 20
384.6551493160927
 30
0.0
 11
71.69648070357656
 21
384.6075723160926
 31
0.0
  0
LINE
  5
350
330
1F
100
AcDbEntity
  8
0
 62
   253
 48
0.001589
370
    35
100
AcDbLine
 10
72.24158570357655
 20
384.3889143160926
 30
0.0
 11
72.17926870357655
 21
384.3764633160927
 31
0.0
  0
LINE
  5
351
330
1F
100
AcDbEntity
  8
0
 62
   253
 48
0.000594
370
    35
100
AcDbLine
 10
72.20301170357655
 20
384.3764633160927
 30
0.0
 11
72.17926870357655
 21
384.3764633160927
 31
0.0
  0
ARC
  5
352
330
1F
100
AcDbEntity
  8
0
 62
   253
370
    35
100
AcDbCircle
 10
352.2712487035766
 20
384.8747843160927
 30
0.0
 40
3.013288
100
AcDbArc
 50
354.9125380000005
 51
0.0431890000000184
  0
LINE
  5
353
330
1F
100
AcDbEntity
  8
0
 62
   253
 48
0.00159
370
    35
100
AcDbLine
 10
354.7274257035765
 20
384.3889143160926
 30
0.0
 11
354.7898037035766
 21
384.3764633160927
 31
0.0
  0
LINE
  5
354
330
1F
100
AcDbEntity
  8
0
 62
   253
 48
0.000296
370
    35
100
AcDbLine
 10
354.7779017035765
 20
383.9461343160926
 30
0.0
 11
354.7660607035765
 21
383.9461343160926
 31
0.0
  0
LINE
  5
355
330
1F
100
AcDbEntity
  8
0
 62
   253
 48
0.000594
370
    35
100
AcDbLine
 10
354.7898037035766
 20
384.3764633160927
 30
0.0
 11
354.7660607035765
 21
384.3764633160927
 31
0.0
  0
LINE
  5
356
330
1F
100
AcDbEntity
  8
0
 62
   253
 48
0.004033
370
    35
100
AcDbLine
 10
268.9973227035765
 20
382.8331893160927
 30
0.0
 11
268.9973227035765
 21
382.9945053160926
 31
0.0
  0
LINE
  5
357
330
1F
100
AcDbEntity
  8
0
 62
   253
370
    35
100
AcDbLine
 10
268.9973227035765
 20
382.9945053160926
 30
0.0
 11
350.2749717035765
 21
382.9945053160926
 31
0.0
  0
LINE
  5
358
330
1F
100
AcDbEntity
  8
0
 62
   253
 48
0.024672
370
    35
100
AcDbLine
 10
351.2618497035766
 20
382.9945053160926
 30
0.0
 11
350.2749717035765
 21
382.9945053160926
 31
0.0
  0
LINE
  5
359
330
1F
100
AcDbEntity
  8
0
 62
   253
 48
0.013489
370
    35
100
AcDbLine
 10
351.2618497035766
 20
382.9945053160926
 30
0.0
 11
351.8013997035765
 21
382.9945053160926
 31
0.0
  0
LINE
  5
35A
330
1F
100
AcDbEntity
  8
0
 62
   253
 48
0.067445
370
    35
100
AcDbLine
 10
354.4992147035765
 20
382.9945053160926
 30
0.0
 11
351.8013997035765
 21
382.9945053160926
 31
0.0
  0
LINE
  5
35B
330
1F
100
AcDbEntity
  8
0
 62
   253
 48
0.004033
370
    35
100
AcDbLine
 10
157.9973227035765
 20
382.8331893160927
 30
0.0
 11
157.9973227035765
 21
382.9945053160926
 31
0.0
  0
LINE
  5
35C
330
1F
100
AcDbEntity
  8
0
 62
   253
 48
0.067445
370
    35
100
AcDbLine
 10
72.49543070357654
 20
382.9945053160926
 30
0.0
 11
75.19324570357655
 21
382.9945053160926
 31
0.0
  0
LINE
  5
35D
330
1F
100
AcDbEntity
  8
0
 62
   253
 48
0.013489
370
    35
100
AcDbLine
 10
75.19324570357655
 20
382.9945053160926
 30
0.0
 11
75.73279670357655
 21
382.9945053160926
 31
0.0
  0
LINE
  5
35E
330
1F
100
AcDbEntity
  8
0
 62
   253
 48
0.024672
370
    35
100
AcDbLine
 10
76.71967370357655
 20
382.9945053160926
 30
0.0
 11
75.73279670357655
 21
382.9945053160926
 31
0.0
  0
LINE
  5
35F
330
1F
100
AcDbEntity
  8
0
 62
   253
370
    35
100
AcDbLine
 10
76.71967370357655
 20
382.9945053160926
 30
0.0
 11
157.9973227035765
 21
382.9945053160926
 31
0.0
  0
ARC
  5
360
330
1F
100
AcDbEntity
  8
0
 62
   253
370
    35
100
AcDbCircle
 10
72.49457670357654
 20
382.4972513160926
 30
0.0
 40
0.4971850000000001
100
AcDbArc
 50
89.90185300000012
 51
180.0981450000006
  0
LINE
  5
361
330
1F
100
AcDbEntity
  8
0
 62
   253
 48
0.460811
370
    35
100
AcDbLine
 10
71.99732270357654
 20
364.0639633160926
 30
0.0
 11
71.99732270357654
 21
382.4963973160926
 31
0.0
  0
ARC
  5
362
330
1F
100
AcDbEntity
  8
0
 62
   253
370
    35
100
AcDbCircle
 10
73.98633670357654
 20
364.0605753160927
 30
0.0
 40
1.988738999999999
100
AcDbArc
 50
179.9018549999993
 51
270.0981399999999
  0
LINE
  5
363
330
1F
100
AcDbEntity
  8
0
 62
   253
370
    35
100
AcDbLine
 10
73.98969370357654
 20
362.0715923160926
 30
0.0
 11
353.0049527035766
 21
362.0715923160926
 31
0.0
  0
ARC
  5
364
330
1F
100
AcDbEntity
  8
0
 62
   253
370
    35
100
AcDbCircle
 10
353.0083097035765
 20
364.0605753160927
 30
0.0
 40
1.988738999999999
100
AcDbArc
 50
269.901848
 51
0.0981429999997892
  0
LINE
  5
365
330
1F
100
AcDbEntity
  8
0
 62
   253
 48
0.460811
370
    35
100
AcDbLine
 10
354.9973227035765
 20
364.0639633160926
 30
0.0
 11
354.9973227035765
 21
382.4963973160926
 31
0.0
  0
ARC
  5
366
330
1F
100
AcDbEntity
  8
0
 62
   253
370
    35
100
AcDbCircle
 10
354.5000697035765
 20
382.4972513160926
 30
0.0
 40
0.4971850000000001
100
AcDbArc
 50
359.9018570000002
 51
90.09815199999996
  0
LINE
  5
367
330
1F
100
AcDbEntity
  8
0
 62
   253
 48
0.011659
370
    35
100
AcDbLine
 10
178.4973227035765
 20
382.2949503160927
 30
0.0
 11
178.4973227035765
 21
382.7613203160927
 31
0.0
  0
LINE
  5
368
330
1F
100
AcDbEntity
  8
0
 62
   253
 48
0.011659
370
    35
100
AcDbLine
 10
248.4973227035765
 20
382.2949503160927
 30
0.0
 11
248.4973227035765
 21
382.7613203160927
 31
0.0
  0
LINE
  5
369
330
1F
100
AcDbEntity
  8
0
 62
   253
 48
0.150519
370
    35
100
AcDbLine
 10
216.5076987035766
 20
363.2656533160926
 30
0.0
 11
210.4869467035765
 21
363.2656533160926
 31
0.0
  0
LINE
  5
36A
330
1F
100
AcDbEntity
  8
0
 62
   253
 48
0.220043
370
    35
100
AcDbLine
 10
178.4973227035765
 20
382.2949203160927
 30
0.0
 11
178.4973227035765
 21
373.4931933160926
 31
0.0
  0
LINE
  5
36B
330
1F
100
AcDbEntity
  8
0
 62
   253
 48
0.220044
370
    35
100
AcDbLine
 10
248.4973227035765
 20
382.2949503160927
 30
0.0
 11
248.4973227035765
 21
373.4931933160926
 31
0.0
  0
LINE
  5
36C
330
1F
100
AcDbEntity
  8
0
 62
   253
 48
0.000222
370
    35
100
AcDbLine
 10
203.3333827035765
 20
373.6683633160926
 30
0.0
 11
203.3319787035765
 21
373.6596053160927
 31
0.0
  0
ARC
  5
36D
330
1F
100
AcDbEntity
  8
0
 62
   253
370
    35
100
AcDbCircle
 10
268.4528897035765
 20
373.2301003160926
 30
0.0
 40
3.607188999999999
100
AcDbArc
 50
103.9843639999998
 51
117.3690280000001
  0
LINE
  5
36E
330
1F
100
AcDbEntity
  8
0
 62
   253
 48
0.000033
370
    35
100
AcDbLine
 10
266.7944417035766
 20
376.4338663160927
 30
0.0
 11
266.7932827035766
 21
376.4332563160926
 31
0.0
  0
LINE
  5
36F
330
1F
100
AcDbEntity
  8
0
 62
   253
 48
0.067931
370
    35
100
AcDbLine
 10
248.4973227035765
 20
370.0870953160927
 30
0.0
 11
248.4973227035765
 21
372.8043503160926
 31
0.0
  0
LINE
  5
370
330
1F
100
AcDbEntity
  8
0
 62
   253
370
    35
100
AcDbLine
 10
223.6928797035766
 20
370.0870953160927
 30
0.0
 11
248.4973227035765
 21
370.0870953160927
 31
0.0
  0
LINE
  5
371
330
1F
100
AcDbEntity
  8
0
 62
   253
 48
0.001198
370
    35
100
AcDbLine
 10
223.6928797035766
 20
370.0870953160927
 30
0.0
 11
223.6449667035766
 21
370.0870953160927
 31
0.0
  0
ARC
  5
372
330
1F
100
AcDbEntity
  8
0
 62
   253
370
    35
100
AcDbCircle
 10
213.4952477035766
 20
372.3791793160927
 30
0.0
 40
10.452045
100
AcDbArc
 50
315.1042069999995
 51
347.3322150000003
  0
ARC
  5
373
330
1F
100
AcDbEntity
  8
0
 62
   253
370
    35
100
AcDbCircle
 10
216.5072717035766
 20
369.3781723160927
 30
0.0
 40
6.200150999999999
100
AcDbArc
 50
301.7433430000001
 51
315.1036199999996
  0
LINE
  5
374
330
1F
100
AcDbEntity
  8
0
 62
   253
 48
0.067931
370
    35
100
AcDbLine
 10
178.4973227035765
 20
370.0870953160927
 30
0.0
 11
178.4973227035765
 21
372.8043503160926
 31
0.0
  0
LINE
  5
375
330
1F
100
AcDbEntity
  8
0
 62
   253
370
    35
100
AcDbLine
 10
178.4973227035765
 20
370.0870953160927
 30
0.0
 11
203.3017667035766
 21
370.0870953160927
 31
0.0
  0
LINE
  5
376
330
1F
100
AcDbEntity
  8
0
 62
   253
 48
0.001198
370
    35
100
AcDbLine
 10
203.3017667035766
 20
370.0870953160927
 30
0.0
 11
203.3496787035765
 21
370.0870953160927
 31
0.0
  0
LINE
  5
377
330
1F
100
AcDbEntity
  8
0
 62
   253
 48
0.000033
370
    35
100
AcDbLine
 10
160.2002037035765
 20
376.4338663160927
 30
0.0
 11
160.2013637035765
 21
376.4332563160926
 31
0.0
  0
ARC
  5
378
330
1F
100
AcDbEntity
  8
0
 62
   253
370
    35
100
AcDbCircle
 10
158.5417567035765
 20
373.2301003160926
 30
0.0
 40
3.60719
100
AcDbArc
 50
62.63097000000019
 51
76.01564099999992
  0
ARC
  5
379
330
1F
100
AcDbEntity
  8
0
 62
   253
370
    35
100
AcDbCircle
 10
210.4873747035765
 20
369.3781723160927
 30
0.0
 40
6.200150999999999
100
AcDbArc
 50
224.8963859999999
 51
238.2566590000001
  0
ARC
  5
37A
330
1F
100
AcDbEntity
  8
0
 62
   253
370
    35
100
AcDbCircle
 10
213.4993987035766
 20
372.3791793160927
 30
0.0
 40
10.452045
100
AcDbArc
 50
192.6677830000001
 51
224.8957979999995
  0
LINE
  5
37B
330
1F
100
AcDbEntity
  8
0
 62
   253
 48
0.001712
370
    35
100
AcDbLine
 10
223.8595667035765
 20
373.4751873160926
 30
0.0
 11
223.8707357035766
 21
373.4076213160927
 31
0.0
  0
LINE
  5
37C
330
1F
100
AcDbEntity
  8
0
 62
   253
 48
0.000475
370
    35
100
AcDbLine
 10
223.8595667035765
 20
373.4941693160927
 30
0.0
 11
223.8595667035765
 21
373.4751873160926
 31
0.0
  0
LINE
  5
37D
330
1F
100
AcDbEntity
  8
0
 62
   253
 48
0.000035
370
    35
100
AcDbLine
 10
223.8595667035765
 20
373.4941693160927
 30
0.0
 11
223.8581627035765
 21
373.4942613160927
 31
0.0
  0
LINE
  5
37E
330
1F
100
AcDbEntity
  8
0
 62
   253
 48
0.000447
370
    35
100
AcDbLine
 10
248.4973227035765
 20
373.4930703160926
 30
0.0
 11
248.4973227035765
 21
373.4751873160926
 31
0.0
  0
LINE
  5
37F
330
1F
100
AcDbEntity
  8
0
 62
   253
 48
0.001154
370
    35
100
AcDbLine
 10
267.9323817035765
 20
376.7698343160926
 30
0.0
 11
267.9785247035766
 21
376.7698343160926
 31
0.0
  0
LINE
  5
380
330
1F
100
AcDbEntity
  8
0
 62
   253
 48
0.000822
370
    35
100
AcDbLine
 10
267.9323817035765
 20
376.7698343160926
 30
0.0
 11
267.8994837035765
 21
376.7695603160927
 31
0.0
  0
LINE
  5
381
330
1F
100
AcDbEntity
  8
0
 62
   253
 48
0.016771
370
    35
100
AcDbLine
 10
248.4973227035765
 20
373.4751873160926
 30
0.0
 11
248.4973227035765
 21
372.8043503160926
 31
0.0
  0
LINE
  5
382
330
1F
100
AcDbEntity
  8
0
 62
   253
 48
0.016769
370
    35
100
AcDbLine
 10
178.4973227035765
 20
373.4751873160926
 30
0.0
 11
178.4973227035765
 21
372.8044113160927
 31
0.0
  0
LINE
  5
383
330
1F
100
AcDbEntity
  8
0
 62
   253
 48
0.000447
370
    35
100
AcDbLine
 10
178.4973227035765
 20
373.4930703160926
 30
0.0
 11
178.4973227035765
 21
373.4751873160926
 31
0.0
  0
LINE
  5
384
330
1F
100
AcDbEntity
  8
0
 62
   253
 48
0.001154
370
    35
100
AcDbLine
 10
159.0622647035765
 20
376.7698343160926
 30
0.0
 11
159.0161217035765
 21
376.7698343160926
 31
0.0
  0
LINE
  5
385
330
1F
100
AcDbEntity
  8
0
 62
   253
 48
0.000822
370
    35
100
AcDbLine
 10
159.0622647035765
 20
376.7698343160926
 30
0.0
 11
159.0951627035765
 21
376.7695603160927
 31
0.0
  0
LINE
  5
386
330
1F
100
AcDbEntity
  8
0
 62
   253
370
    35
100
AcDbLine
 10
178.4973227035765
 20
373.4930703160926
 30
0.0
 11
202.8029257035765
 21
373.4930703160926
 31
0.0
  0
LINE
  5
387
330
1F
100
AcDbEntity
  8
0
 62
   253
 48
0.008304
370
    35
100
AcDbLine
 10
224.1917197035765
 20
373.4930703160926
 30
0.0
 11
223.8595667035765
 21
373.4941693160927
 31
0.0
  0
LINE
  5
388
330
1F
100
AcDbEntity
  8
0
 62
   253
 48
0.008304
370
    35
100
AcDbLine
 10
202.8029257035765
 20
373.4930703160926
 30
0.0
 11
203.1350797035766
 21
373.4941693160927
 31
0.0
  0
LINE
  5
389
330
1F
100
AcDbEntity
  8
0
 62
   253
370
    35
100
AcDbLine
 10
224.1917197035765
 20
373.4930703160926
 30
0.0
 11
248.4973227035765
 21
373.4930703160926
 31
0.0
  0
LINE
  5
38A
330
1F
100
AcDbEntity
  8
0
 62
   253
 48
0.002676
370
    35
100
AcDbLine
 10
268.0855797035765
 20
376.7699263160927
 30
0.0
 11
267.9785247035766
 21
376.7698343160926
 31
0.0
  0
LINE
  5
38B
330
1F
100
AcDbEntity
  8
0
 62
   253
 48
0.002024
370
    35
100
AcDbLine
 10
268.2013027035765
 20
376.7250963160926
 30
0.0
 11
268.1339807035765
 21
376.7700483160927
 31
0.0
  0
LINE
  5
38C
330
1F
100
AcDbEntity
  8
0
 62
   253
 48
0.00121
370
    35
100
AcDbLine
 10
268.0855797035765
 20
376.7699263160927
 30
0.0
 11
268.1339807035765
 21
376.7700483160927
 31
0.0
  0
LINE
  5
38D
330
1F
100
AcDbEntity
  8
0
 62
   253
 48
0.012452
370
    35
100
AcDbLine
 10
268.9973227035765
 20
382.8331893160927
 30
0.0
 11
268.9973227035765
 21
382.3351113160927
 31
0.0
  0
ARC
  5
38E
330
1F
100
AcDbEntity
  8
0
 62
   253
370
    35
100
AcDbCircle
 10
266.4839567035766
 20
378.5598433160926
 30
0.0
 40
2.513238
100
AcDbArc
 50
313.1076269999997
 51
0.0605569999994749
  0
LINE
  5
38F
330
1F
100
AcDbEntity
  8
0
 62
   253
 48
0.094332
370
    35
100
AcDbLine
 10
268.9973227035765
 20
378.5618273160926
 30
0.0
 11
268.9973227035765
 21
382.3351113160927
 31
0.0
  0
LINE
  5
390
330
1F
100
AcDbEntity
  8
0
 62
   253
 48
0.002678
370
    35
100
AcDbLine
 10
158.9090047035765
 20
376.7699263160927
 30
0.0
 11
159.0161217035765
 21
376.7698343160926
 31
0.0
  0
LINE
  5
391
330
1F
100
AcDbEntity
  8
0
 62
   253
 48
0.001208
370
    35
100
AcDbLine
 10
158.9090047035765
 20
376.7699263160927
 30
0.0
 11
158.8606657035765
 21
376.7700483160927
 31
0.0
  0
LINE
  5
392
330
1F
100
AcDbEntity
  8
0
 62
   253
 48
0.002024
370
    35
100
AcDbLine
 10
158.7933437035765
 20
376.7250963160926
 30
0.0
 11
158.8606657035765
 21
376.7700483160927
 31
0.0
  0
LINE
  5
393
330
1F
100
AcDbEntity
  8
0
 62
   253
 48
0.012452
370
    35
100
AcDbLine
 10
157.9973227035765
 20
382.3351113160927
 30
0.0
 11
157.9973227035765
 21
382.8331893160927
 31
0.0
  0
LINE
  5
394
330
1F
100
AcDbEntity
  8
0
 62
   253
 48
0.094332
370
    35
100
AcDbLine
 10
157.9973227035765
 20
378.5618273160926
 30
0.0
 11
157.9973227035765
 21
382.3351113160927
 31
0.0
  0
ARC
  5
395
330
1F
100
AcDbEntity
  8
0
 62
   253
370
    35
100
AcDbCircle
 10
160.5106897035765
 20
378.5598433160926
 30
0.0
 40
2.513238
100
AcDbArc
 50
179.9394489999993
 51
226.8922759999998
  0
LINE
  5
396
330
1F
100
AcDbEntity
  8
0
 62
   253
 48
0.005013
370
    35
100
AcDbLine
 10
158.8606657035765
 20
376.7700483160927
 30
0.0
 11
159.0611657035765
 21
376.7707503160926
 31
0.0
  0
LINE
  5
397
330
1F
100
AcDbEntity
  8
0
 62
   253
 48
0.003484
370
    35
100
AcDbLine
 10
159.2769247035765
 20
376.7583603160927
 30
0.0
 11
159.4133387035765
 21
376.7299173160926
 31
0.0
  0
ARC
  5
398
330
1F
100
AcDbEntity
  8
0
 62
   253
370
    35
100
AcDbCircle
 10
159.0505457035765
 20
374.5953653160926
 30
0.0
 40
2.174854999999999
100
AcDbArc
 50
84.02470700000005
 51
88.82365999999999
  0
LINE
  5
399
330
1F
100
AcDbEntity
  8
0
 62
   253
 48
0.000036
370
    35
100
AcDbLine
 10
159.0611657035765
 20
376.7707503160926
 30
0.0
 11
159.0622647035765
 21
376.7698343160926
 31
0.0
  0
ARC
  5
39A
330
1F
100
AcDbEntity
  8
0
 62
   253
370
    35
100
AcDbCircle
 10
267.9441007035765
 20
374.5953353160927
 30
0.0
 40
2.174881999999999
100
AcDbArc
 50
91.17651599999991
 51
95.97558499999999
  0
LINE
  5
39B
330
1F
100
AcDbEntity
  8
0
 62
   253
 48
0.003484
370
    35
100
AcDbLine
 10
267.7177207035766
 20
376.7583603160927
 30
0.0
 11
267.5813077035765
 21
376.7299173160926
 31
0.0
  0
LINE
  5
39C
330
1F
100
AcDbEntity
  8
0
 62
   253
 48
0.000036
370
    35
100
AcDbLine
 10
267.9323817035765
 20
376.7698343160926
 30
0.0
 11
267.9334807035766
 21
376.7707503160926
 31
0.0
  0
ARC
  5
39D
330
1F
100
AcDbEntity
  8
0
 62
   253
370
    35
100
AcDbCircle
 10
176.8637167035765
 20
2302.186582316092
 30
0.0
 40
1919.348851
100
AcDbArc
 50
269.4764499999999
 51
269.7952349999999
  0
ARC
  5
39E
330
1F
100
AcDbEntity
  8
0
 62
   253
370
    35
100
AcDbCircle
 10
159.5463347035765
 20
425.6914043160926
 30
0.0
 40
42.773528
100
AcDbArc
 50
268.2334029999999
 51
269.7042159999999
  0
LINE
  5
39F
330
1F
100
AcDbEntity
  8
0
 62
   253
370
    35
100
AcDbLine
 10
208.9938437035765
 20
382.7613203160927
 30
0.0
 11
178.4973227035765
 21
382.7613503160926
 31
0.0
  0
LINE
  5
3A0
330
1F
100
AcDbEntity
  8
0
 62
   253
370
    35
100
AcDbLine
 10
248.4973227035765
 20
382.7613203160927
 30
0.0
 11
218.0008017035766
 21
382.7613203160927
 31
0.0
  0
ARC
  5
3A1
330
1F
100
AcDbEntity
  8
0
 62
   253
370
    35
100
AcDbCircle
 10
267.4495327035765
 20
425.6161483160926
 30
0.0
 40
42.698279
100
AcDbArc
 50
270.294652
 51
271.769303
  0
ARC
  5
3A2
330
1F
100
AcDbEntity
  8
0
 62
   253
370
    35
100
AcDbCircle
 10
250.1294027035765
 20
2302.399717316093
 30
0.0
 40
1919.562071
100
AcDbArc
 50
270.2047869999999
 51
270.5235379999999
  0
LINE
  5
3A3
330
1F
100
AcDbEntity
  8
0
 62
   253
370
    35
100
AcDbLine
 10
178.4973227035765
 20
373.4931623160926
 30
0.0
 11
202.8029257035765
 21
373.4931623160926
 31
0.0
  0
LINE
  5
3A4
330
1F
100
AcDbEntity
  8
0
 62
   253
 48
0.008339
370
    35
100
AcDbLine
 10
223.8581627035765
 20
373.4942613160927
 30
0.0
 11
224.1917197035765
 21
373.4931623160926
 31
0.0
  0
LINE
  5
3A5
330
1F
100
AcDbEntity
  8
0
 62
   253
 48
0.008339
370
    35
100
AcDbLine
 10
203.1364827035766
 20
373.4942613160927
 30
0.0
 11
202.8029257035765
 21
373.4931623160926
 31
0.0
  0
LINE
  5
3A6
330
1F
100
AcDbEntity
  8
0
 62
   253
370
    35
100
AcDbLine
 10
224.1917197035765
 20
373.4931623160926
 30
0.0
 11
248.4973227035765
 21
373.4931623160926
 31
0.0
  0
ARC
  5
3A7
330
1F
100
AcDbEntity
  8
0
 62
     7
370
    35
100
AcDbCircle
 10
357.4845057035766
 20
57.91445731609264
 30
0.0
 40
16.0
100
AcDbArc
 50
270.0
 51
0.0
  0
LINE
  5
3A8
330
1F
100
AcDbEntity
  8
0
 62
     7
370
    35
100
AcDbLine
 10
69.48450570357654
 20
41.91445731609263
 30
0.0
 11
357.4845057035766
 21
41.91445731609263
 31
0.0
  0
ARC
  5
3A9
330
1F
100
AcDbEntity
  8
0
 62
     7
370
    35
100
AcDbCircle
 10
69.48450570357654
 20
57.91445731609264
 30
0.0
 40
16.0
100
AcDbArc
 50
180.0
 51
270.0
  0
LINE
  5
3AA
330
1F
100
AcDbEntity
  8
0
 62
     7
370
    35
100
AcDbLine
 10
53.48450570357655
 20
535.9144883160927
 30
0.0
 11
53.48450570357655
 21
57.91445731609264
 31
0.0
  0
ARC
  5
3AB
330
1F
100
AcDbEntity
  8
0
 62
     7
370
    35
100
AcDbCircle
 10
69.48450570357654
 20
535.9144883160927
 30
0.0
 40
16.0
100
AcDbArc
 50
157.0910590000005
 51
180.0
  0
ARC
  5
3AC
330
1F
100
AcDbEntity
  8
0
 62
     7
370
    35
100
AcDbCircle
 10
357.4845057035766
 20
535.9144883160927
 30
0.0
 40
16.0
100
AcDbArc
 50
0.0
 51
22.90894799999983
  0
LINE
  5
3AD
330
1F
100
AcDbEntity
  8
0
 62
     7
 48
0.155707
370
    35
100
AcDbLine
 10
373.4845057035766
 20
64.14274431609263
 30
0.0
 11
373.4845057035766
 21
57.91445731609264
 31
0.0
  0
LINE
  5
3AE
330
1F
100
AcDbEntity
  8
0
 62
     7
 48
0.311414
370
    35
100
AcDbLine
 10
373.4845057035766
 20
333.1427593160927
 30
0.0
 11
373.4845057035766
 21
320.6861863160926
 31
0.0
  0
LINE
  5
3AF
330
1F
100
AcDbEntity
  8
0
 62
     7
 48
0.155708
370
    35
100
AcDbLine
 10
373.4845057035766
 20
535.9144883160927
 30
0.0
 11
373.4845057035766
 21
529.6861553160925
 31
0.0
  0
CIRCLE
  5
3B0
330
1F
100
AcDbEntity
  8
0
 62
     7
370
    35
100
AcDbCircle
 10
69.48450570357654
 20
57.91445731609264
 30
0.0
 40
4.883901999999999
  0
LINE
  5
3B1
330
1F
100
AcDbEntity
  8
0
 62
     7
 48
0.05
370
    35
100
AcDbLine
 10
68.48450570357655
 20
62.41445731609264
 30
0.0
 11
70.48450570357655
 21
62.41445731609264
 31
0.0
  0
LINE
  5
3B2
330
1F
100
AcDbEntity
  8
0
 62
     7
 48
0.225
370
    35
100
AcDbLine
 10
68.48450570357655
 20
62.41445731609264
 30
0.0
 11
68.48450570357655
 21
53.41445731609264
 31
0.0
  0
LINE
  5
3B3
330
1F
100
AcDbEntity
  8
0
 62
     7
 48
0.05
370
    35
100
AcDbLine
 10
70.48450570357655
 20
53.41445731609264
 30
0.0
 11
68.48450570357655
 21
53.41445731609264
 31
0.0
  0
LINE
  5
3B4
330
1F
100
AcDbEntity
  8
0
 62
     7
 48
0.225
370
    35
100
AcDbLine
 10
70.48450570357655
 20
53.41445731609264
 30
0.0
 11
70.48450570357655
 21
62.41445731609264
 31
0.0
  0
CIRCLE
  5
3B5
330
1F
100
AcDbEntity
  8
0
 62
     7
370
    35
100
AcDbCircle
 10
357.4845057035766
 20
57.91445731609264
 30
0.0
 40
4.883901999999999
  0
LINE
  5
3B6
330
1F
100
AcDbEntity
  8
0
 62
     7
 48
0.05
370
    35
100
AcDbLine
 10
356.4845057035766
 20
62.41445731609264
 30
0.0
 11
358.4845057035766
 21
62.41445731609264
 31
0.0
  0
LINE
  5
3B7
330
1F
100
AcDbEntity
  8
0
 62
     7
 48
0.225
370
    35
100
AcDbLine
 10
356.4845057035766
 20
62.41445731609264
 30
0.0
 11
356.4845057035766
 21
53.41445731609264
 31
0.0
  0
LINE
  5
3B8
330
1F
100
AcDbEntity
  8
0
 62
     7
 48
0.05
370
    35
100
AcDbLine
 10
358.4845057035766
 20
53.41445731609264
 30
0.0
 11
356.4845057035766
 21
53.41445731609264
 31
0.0
  0
LINE
  5
3B9
330
1F
100
AcDbEntity
  8
0
 62
     7
 48
0.225
370
    35
100
AcDbLine
 10
358.4845057035766
 20
53.41445731609264
 30
0.0
 11
358.4845057035766
 21
62.41445731609264
 31
0.0
  0
CIRCLE
  5
3BA
330
1F
100
AcDbEntity
  8
0
 62
     7
370
    35
100
AcDbCircle
 10
357.4845057035766
 20
326.9144573160927
 30
0.0
 40
4.883901999999999
  0
LINE
  5
3BB
330
1F
100
AcDbEntity
  8
0
 62
     7
 48
0.05
370
    35
100
AcDbLine
 10
356.4845057035766
 20
331.4144573160927
 30
0.0
 11
358.4845057035766
 21
331.4144573160927
 31
0.0
  0
LINE
  5
3BC
330
1F
100
AcDbEntity
  8
0
 62
     7
 48
0.225
370
    35
100
AcDbLine
 10
356.4845057035766
 20
331.4144573160927
 30
0.0
 11
356.4845057035766
 21
322.4144573160927
 31
0.0
  0
LINE
  5
3BD
330
1F
100
AcDbEntity
  8
0
 62
     7
 48
0.05
370
    35
100
AcDbLine
 10
358.4845057035766
 20
322.4144573160927
 30
0.0
 11
356.4845057035766
 21
322.4144573160927
 31
0.0
  0
LINE
  5
3BE
330
1F
100
AcDbEntity
  8
0
 62
     7
 48
0.225
370
    35
100
AcDbLine
 10
358.4845057035766
 20
322.4144573160927
 30
0.0
 11
358.4845057035766
 21
331.4144573160927
 31
0.0
  0
CIRCLE
  5
3BF
330
1F
100
AcDbEntity
  8
0
 62
     7
370
    35
100
AcDbCircle
 10
69.48450570357654
 20
326.9144573160927
 30
0.0
 40
4.883901999999999
  0
LINE
  5
3C0
330
1F
100
AcDbEntity
  8
0
 62
     7
 48
0.05
370
    35
100
AcDbLine
 10
68.48450570357655
 20
331.4144573160927
 30
0.0
 11
70.48450570357655
 21
331.4144573160927
 31
0.0
  0
LINE
  5
3C1
330
1F
100
AcDbEntity
  8
0
 62
     7
 48
0.225
370
    35
100
AcDbLine
 10
68.48450570357655
 20
331.4144573160927
 30
0.0
 11
68.48450570357655
 21
322.4144573160927
 31
0.0
  0
LINE
  5
3C2
330
1F
100
AcDbEntity
  8
0
 62
     7
 48
0.05
370
    35
100
AcDbLine
 10
70.48450570357655
 20
322.4144573160927
 30
0.0
 11
68.48450570357655
 21
322.4144573160927
 31
0.0
  0
LINE
  5
3C3
330
1F
100
AcDbEntity
  8
0
 62
     7
 48
0.225
370
    35
100
AcDbLine
 10
70.48450570357655
 20
322.4144573160927
 30
0.0
 11
70.48450570357655
 21
331.4144573160927
 31
0.0
  0
CIRCLE
  5
3C4
330
1F
100
AcDbEntity
  8
0
 62
     7
370
    35
100
AcDbCircle
 10
69.48450570357654
 20
535.9144883160927
 30
0.0
 40
4.883901999999999
  0
LINE
  5
3C5
330
1F
100
AcDbEntity
  8
0
 62
     7
 48
0.05
370
    35
100
AcDbLine
 10
68.48450570357655
 20
540.4144883160927
 30
0.0
 11
70.48450570357655
 21
540.4144883160927
 31
0.0
  0
LINE
  5
3C6
330
1F
100
AcDbEntity
  8
0
 62
     7
 48
0.225
370
    35
100
AcDbLine
 10
68.48450570357655
 20
540.4144883160927
 30
0.0
 11
68.48450570357655
 21
531.4144883160927
 31
0.0
  0
LINE
  5
3C7
330
1F
100
AcDbEntity
  8
0
 62
     7
 48
0.05
370
    35
100
AcDbLine
 10
70.48450570357655
 20
531.4144883160927
 30
0.0
 11
68.48450570357655
 21
531.4144883160927
 31
0.0
  0
LINE
  5
3C8
330
1F
100
AcDbEntity
  8
0
 62
     7
 48
0.225
370
    35
100
AcDbLine
 10
70.48450570357655
 20
531.4144883160927
 30
0.0
 11
70.48450570357655
 21
540.4144883160927
 31
0.0
  0
CIRCLE
  5
3C9
330
1F
100
AcDbEntity
  8
0
 62
     7
370
    35
100
AcDbCircle
 10
357.4845057035766
 20
535.9144883160927
 30
0.0
 40
4.883901999999999
  0
LINE
  5
3CA
330
1F
100
AcDbEntity
  8
0
 62
     7
 48
0.05
370
    35
100
AcDbLine
 10
356.4845057035766
 20
540.4144883160927
 30
0.0
 11
358.4845057035766
 21
540.4144883160927
 31
0.0
  0
LINE
  5
3CB
330
1F
100
AcDbEntity
  8
0
 62
     7
 48
0.225
370
    35
100
AcDbLine
 10
356.4845057035766
 20
540.4144883160927
 30
0.0
 11
356.4845057035766
 21
531.4144883160927
 31
0.0
  0
LINE
  5
3CC
330
1F
100
AcDbEntity
  8
0
 62
     7
 48
0.05
370
    35
100
AcDbLine
 10
358.4845057035766
 20
531.4144883160927
 30
0.0
 11
356.4845057035766
 21
531.4144883160927
 31
0.0
  0
LINE
  5
3CD
330
1F
100
AcDbEntity
  8
0
 62
     7
 48
0.225
370
    35
100
AcDbLine
 10
358.4845057035766
 20
531.4144883160927
 30
0.0
 11
358.4845057035766
 21
540.4144883160927
 31
0.0
  0
LINE
  5
3CE
330
1F
100
AcDbEntity
  8
0
 62
     7
100
AcDbLine
 10
87.48450570357654
 20
459.4144883160926
 30
0.0
 11
339.4845057035766
 21
459.4144883160926
 31
0.0
  0
LINE
  5
3CF
330
1F
100
AcDbEntity
  8
0
 62
     7
100
AcDbLine
 10
339.4845057035766
 20
459.4144883160926
 30
0.0
 11
339.4845057035766
 21
414.4144883160926
 31
0.0
  0
LINE
  5
3D0
330
1F
100
AcDbEntity
  8
0
 62
     7
100
AcDbLine
 10
339.4845057035766
 20
414.4144883160926
 30
0.0
 11
87.48450570357654
 21
414.4144883160926
 31
0.0
  0
LINE
  5
3D1
330
1F
100
AcDbEntity
  8
0
 62
     7
100
AcDbLine
 10
87.48450570357654
 20
414.4144883160926
 30
0.0
 11
87.48450570357654
 21
459.4144883160926
 31
0.0
  0
DIMENSION
  5
3D2
330
1F
100
AcDbEntity
  8
QUOTE
 62
     7
100
AcDbDimension
  2
*D5
 10
31.37116595357654
 20
41.96993831609263
 30
0.0
 11
31.37116595357655
 21
296.8732520060927
 31
0.0
 70
   160
 71
     0
 42
509.94455
  3
Standard
100
AcDbAlignedDimension
 13
71.95523327357654
 23
551.9144883160927
 33
0.0
 14
69.48450570357654
 24
41.96993831609262
 34
0.0
 50
90.0
100
AcDbRotatedDimension
1001
ACAD
1000
DSTYLE
1002
{
1070
    45
1040
1.0
1070
    41
1040
15.0
1070
   140
1040
10.0
1070
    78
1070
     8
1070
   284
1070
     8
1002
}
  0
DIMENSION
  5
3D3
330
1F
100
AcDbEntity
  8
QUOTE
 62
     7
100
AcDbDimension
  2
*D6
 10
53.48450570357655
 20
23.95476671609265
 30
0.0
 11
214.1219290035766
 21
23.95476671609265
 31
0.0
 70
   160
 71
     0
 42
320.0000000000001
  3
Standard
100
AcDbAlignedDimension
 13
373.4845057035766
 23
57.91208698609263
 33
0.0
 14
53.48450570357655
 24
57.97695731609263
 34
0.0
100
AcDbRotatedDimension
1001
ACAD
1000
DSTYLE
1002
{
1070
    41
1040
15.0
1070
   140
1040
10.0
1070
    78
1070
     8
1070
   284
1070
     8
1002
}
  0
TEXT
  5
3D4
330
1F
100
AcDbEntity
  8
0
 62
     7
100
AcDbText
 10
82.6664361511956
 20
533.4062275160927
 30
0.0
 40
5.0
  1
GW68010N
 72
     1
 11
101.1188171035765
 21
533.4062275160927
 31
0.0
100
AcDbText
  0
LWPOLYLINE
  5
3D5
330
1F
100
AcDbEntity
  8
0
 62
     7
370
    35
100
AcDbPolyline
 90
        4
 70
     0
 43
0.0
 10
371.9621667035766
 20
64.06994431609263
 10
370.9950037035766
 20
64.05798131609263
 10
370.9665617035765
 20
64.05599831609264
 10
370.9622277035766
 20
64.05499131609264
  0
LWPOLYLINE
  5
3D6
330
1F
100
AcDbEntity
  8
0
 62
     7
370
    35
100
AcDbPolyline
 90
        4
 70
     0
 43
0.0
 10
373.4290857035766
 20
64.08726331609263
 10
373.4246917035765
 20
64.08625631609263
 10
373.3960047035765
 20
64.08425731609263
 10
372.4291467035765
 20
64.07230931609264
  0
LWPOLYLINE
  5
3D7
330
1F
100
AcDbEntity
  8
0
 62
     7
370
    35
100
AcDbPolyline
 90
        5
 70
     0
 43
0.0
 10
371.1015097035765
 20
51.75660531609264
 10
371.8975917035765
 20
51.75022731609264
 10
372.1741417035766
 20
51.74336031609263
 10
372.1841517035765
 20
51.74221631609262
 10
372.1856777035765
 20
51.74165131609263
  0
LWPOLYLINE
  5
3D8
330
1F
100
AcDbEntity
  8
0
 62
     7
370
    35
100
AcDbPolyline
 90
        5
 70
     0
 43
0.0
 10
369.3463217035766
 20
51.77454931609265
 10
369.3474207035765
 20
51.77409231609264
 10
369.3524867035766
 20
51.77334431609264
 10
369.5948577035765
 20
51.76670631609264
 10
370.4745567035766
 20
51.75948931609264
  0
LWPOLYLINE
  5
3D9
330
1F
100
AcDbEntity
  8
0
 62
     7
370
    35
100
AcDbPolyline
 90
        4
 70
     0
 43
0.0
 10
371.9621667035766
 20
333.0699443160927
 10
370.9950037035766
 20
333.0579813160927
 10
370.9665617035765
 20
333.0559983160926
 10
370.9622277035766
 20
333.0549913160927
  0
LWPOLYLINE
  5
3DA
330
1F
100
AcDbEntity
  8
0
 62
     7
370
    35
100
AcDbPolyline
 90
        4
 70
     0
 43
0.0
 10
373.4290857035766
 20
333.0872783160927
 10
373.4246917035765
 20
333.0862413160927
 10
373.3960047035765
 20
333.0842573160927
 10
372.4291467035765
 20
333.0722943160927
  0
LWPOLYLINE
  5
3DB
330
1F
100
AcDbEntity
  8
0
 62
     7
370
    35
100
AcDbPolyline
 90
        4
 70
     0
 43
0.0
 10
373.4290857035766
 20
320.7416363160927
 10
373.4246917035765
 20
320.7426433160927
 10
373.3960047035765
 20
320.7446573160927
 10
372.4291467035765
 20
320.7566203160926
  0
LWPOLYLINE
  5
3DC
330
1F
100
AcDbEntity
  8
0
 62
     7
370
    35
100
AcDbPolyline
 90
        4
 70
     0
 43
0.0
 10
371.9621667035766
 20
320.7589703160927
 10
370.9950037035766
 20
320.7709333160926
 10
370.9665617035765
 20
320.7729173160926
 10
370.9622277035766
 20
320.7739243160927
  0
LWPOLYLINE
  5
3DD
330
1F
100
AcDbEntity
  8
0
 62
     7
370
    35
100
AcDbPolyline
 90
        5
 70
     0
 43
0.0
 10
369.3463217035766
 20
542.0543803160926
 10
369.3509607035766
 20
542.0554183160926
 10
369.3810507035765
 20
542.0573103160926
 10
369.7068567035766
 20
542.0637193160926
 10
370.4745567035766
 20
542.0693953160926
  0
LWPOLYLINE
  5
3DE
330
1F
100
AcDbEntity
  8
0
 62
     7
370
    35
100
AcDbPolyline
 90
        5
 70
     0
 43
0.0
 10
371.1015097035765
 20
542.0723253160927
 10
371.8975917035765
 20
542.0786723160927
 10
372.1741417035766
 20
542.0855693160927
 10
372.1841517035765
 20
542.0867293160926
 10
372.1856777035765
 20
542.0872783160927
  0
LWPOLYLINE
  5
3DF
330
1F
100
AcDbEntity
  8
0
 62
     7
370
    35
100
AcDbPolyline
 90
        4
 70
     0
 43
0.0
 10
373.4290857035766
 20
529.7416363160926
 10
373.4246917035765
 20
529.7426743160927
 10
373.3960047035765
 20
529.7446883160926
 10
372.4291467035765
 20
529.7565903160927
  0
LWPOLYLINE
  5
3E0
330
1F
100
AcDbEntity
  8
0
 62
     7
370
    35
100
AcDbPolyline
 90
        4
 70
     0
 43
0.0
 10
371.9621667035766
 20
529.7589703160926
 10
370.9950037035766
 20
529.7709333160926
 10
370.9665617035765
 20
529.7728863160926
 10
370.9622277035766
 20
529.7739243160926
  0
LWPOLYLINE
  5
3E1
330
1F
100
AcDbEntity
  8
0
 62
     7
370
    35
100
AcDbPolyline
 90
        4
 70
     0
 43
0.0
 10
55.00690570357654
 20
529.7589703160926
 10
55.97406870357655
 20
529.7709333160926
 10
56.00251070357654
 20
529.7728863160926
 10
56.00684470357655
 20
529.7739243160926
  0
LWPOLYLINE
  5
3E2
330
1F
100
AcDbEntity
  8
0
 62
     7
370
    35
100
AcDbPolyline
 90
        4
 70
     0
 43
0.0
 10
53.53998670357654
 20
529.7416363160926
 10
53.54431970357655
 20
529.7426743160927
 10
53.57300670357656
 20
529.7446883160926
 10
54.53992570357654
 20
529.7565903160927
  0
LWPOLYLINE
  5
3E3
330
1F
100
AcDbEntity
  8
0
 62
     7
370
    35
100
AcDbPolyline
 90
        5
 70
     0
 43
0.0
 10
55.86756270357655
 20
542.0723253160927
 10
55.07148070357654
 20
542.0786723160927
 10
54.79493070357655
 20
542.0855693160927
 10
54.78492070357654
 20
542.0867293160926
 10
54.78333370357654
 20
542.0872783160927
  0
LWPOLYLINE
  5
3E4
330
1F
100
AcDbEntity
  8
0
 62
     7
370
    35
100
AcDbPolyline
 90
        5
 70
     0
 43
0.0
 10
57.62268970357655
 20
542.0543803160926
 10
57.61805070357654
 20
542.0554183160926
 10
57.58802170357654
 20
542.0573103160926
 10
57.26221570357655
 20
542.0637193160926
 10
56.49451570357655
 20
542.0693953160926
  0
LWPOLYLINE
  5
3E5
330
1F
100
AcDbEntity
  8
0
 62
     7
370
    35
100
AcDbPolyline
 90
        4
 70
     0
 43
0.0
 10
55.00690570357654
 20
320.7589703160927
 10
55.97406870357655
 20
320.7709333160926
 10
56.00251070357654
 20
320.7729173160926
 10
56.00684470357655
 20
320.7739243160927
  0
LWPOLYLINE
  5
3E6
330
1F
100
AcDbEntity
  8
0
 62
     7
370
    35
100
AcDbPolyline
 90
        4
 70
     0
 43
0.0
 10
53.53998670357654
 20
320.7416363160927
 10
53.54431970357655
 20
320.7426433160927
 10
53.57300670357656
 20
320.7446573160927
 10
54.53992570357654
 20
320.7566203160926
  0
LWPOLYLINE
  5
3E7
330
1F
100
AcDbEntity
  8
0
 62
     7
370
    35
100
AcDbPolyline
 90
        4
 70
     0
 43
0.0
 10
53.53998670357654
 20
333.0872783160927
 10
53.54431970357655
 20
333.0862413160927
 10
53.57300670357656
 20
333.0842573160927
 10
54.53992570357654
 20
333.0722943160927
  0
LWPOLYLINE
  5
3E8
330
1F
100
AcDbEntity
  8
0
 62
     7
370
    35
100
AcDbPolyline
 90
        4
 70
     0
 43
0.0
 10
55.00690570357654
 20
333.0699443160927
 10
55.97406870357655
 20
333.0579813160927
 10
56.00251070357654
 20
333.0559983160926
 10
56.00684470357655
 20
333.0549913160927
  0
LWPOLYLINE
  5
3E9
330
1F
100
AcDbEntity
  8
0
 62
     7
370
    35
100
AcDbPolyline
 90
        5
 70
     0
 43
0.0
 10
57.62268970357655
 20
51.77454931609265
 10
57.61805070357654
 20
51.77351231609264
 10
57.58802170357654
 20
51.77158931609264
 10
57.26221570357655
 20
51.76519631609264
 10
56.49451570357655
 20
51.75948931609264
  0
LWPOLYLINE
  5
3EA
330
1F
100
AcDbEntity
  8
0
 62
     7
370
    35
100
AcDbPolyline
 90
        5
 70
     0
 43
0.0
 10
55.86756270357655
 20
51.75660531609264
 10
55.07148070357654
 20
51.75022731609264
 10
54.79493070357655
 20
51.74336031609263
 10
54.78492070357654
 20
51.74221631609262
 10
54.78333370357654
 20
51.74165131609263
  0
LWPOLYLINE
  5
3EB
330
1F
100
AcDbEntity
  8
0
 62
     7
370
    35
100
AcDbPolyline
 90
        4
 70
     0
 43
0.0
 10
53.53998670357654
 20
64.08726331609263
 10
53.54431970357655
 20
64.08625631609263
 10
53.57300670357656
 20
64.08425731609263
 10
54.53992570357654
 20
64.07230931609264
  0
LWPOLYLINE
  5
3EC
330
1F
100
AcDbEntity
  8
0
 62
     7
370
    35
100
AcDbPolyline
 90
        4
 70
     0
 43
0.0
 10
55.00690570357654
 20
64.06994431609263
 10
55.97406870357655
 20
64.05798131609263
 10
56.00251070357654
 20
64.05599831609264
 10
56.00684470357655
 20
64.05499131609264
  0
LWPOLYLINE
  5
3ED
330
1F
100
AcDbEntity
  8
0
 62
     7
370
    35
100
AcDbPolyline
 90
       38
 70
     0
 43
0.0
 10
65.04761570357655
 20
49.79273831609262
 10
65.75318270357655
 20
49.45040731609262
 10
66.48529870357655
 20
49.16839431609265
 10
67.23889970357655
 20
48.94865231609265
 10
68.00861470357654
 20
48.79273831609262
 10
68.78894870357655
 20
48.70175031609264
 10
69.57441070357655
 20
48.67637431609264
 10
70.35920070357654
 20
48.71678031609263
 10
71.18445670357655
 20
48.83120531609264
 10
71.99598070357655
 20
49.01833931609264
 10
72.78711770357654
 20
49.27671631609263
 10
73.55176670357654
 20
49.60426131609264
 10
74.28394370357654
 20
49.99844231609265
 10
74.97791370357655
 20
50.45626631609263
 10
75.58387070357655
 20
50.93574331609264
 10
76.14795770357654
 20
51.46403331609263
 10
76.66645170357654
 20
52.03768731609264
 10
77.13562870357654
 20
52.65287631609263
 10
77.55213270357654
 20
53.30552531609263
 10
77.91303370357654
 20
53.99125531609263
 10
78.21564570357654
 20
54.70542731609262
 10
78.45771170357655
 20
55.44317431609264
 10
78.63733770357654
 20
56.19936931609263
 10
78.75556270357654
 20
56.99204831609264
 10
78.80494070357655
 20
57.79266231609263
 10
78.78485970357655
 20
58.59510631609264
 10
78.69538170357654
 20
59.39330831609265
 10
78.53717870357655
 20
60.18127231609263
 10
78.31122670357655
 20
60.95306231609264
 10
78.01923470357656
 20
61.70283331609264
 10
77.66321670357655
 20
62.42497031609264
 10
77.24585770357655
 20
63.11398131609263
 10
76.77008870357655
 20
63.76467731609263
 10
76.23957170357655
 20
64.37208431609263
 10
75.65821170357654
 20
64.93154731609263
 10
75.03040370357656
 20
65.43879531609263
 10
74.50995770357654
 20
65.79667531609263
 10
73.96643970357655
 20
66.11852831609263
  0
LWPOLYLINE
  5
3EE
330
1F
100
AcDbEntity
  8
0
 62
     7
370
    35
100
AcDbPolyline
 90
       37
 70
     0
 43
0.0
 10
65.04761570357655
 20
49.79273831609262
 10
64.36402270357655
 20
50.19923231609263
 10
63.71765970357654
 20
50.66253531609262
 10
63.11322870357655
 20
51.17944131609263
 10
62.55506270357655
 20
51.74636631609264
 10
62.04718870357655
 20
52.35932731609264
 10
61.59351470357655
 20
53.01405131609263
 10
61.19733570357655
 20
53.70590031609262
 10
60.86182470357655
 20
54.42996031609263
 10
60.58954670357654
 20
55.18098231609264
 10
60.38275970357655
 20
55.95352031609263
 10
60.24317270357655
 20
56.74258231609264
 10
60.17212770357655
 20
57.54144131609263
 10
60.17047970357655
 20
58.34402331609263
 10
60.23822870357655
 20
59.14427031609263
 10
60.37500870357654
 20
59.93615531609264
 10
60.57996470357655
 20
60.71372831609264
 10
60.85157070357655
 20
61.47111331609264
 10
61.18787470357655
 20
62.20260431609263
 10
61.58643470357654
 20
62.90267731609263
 10
62.04444170357655
 20
63.56602331609264
 10
62.55835770357655
 20
64.18759031609264
 10
63.12452070357655
 20
64.76260231609264
 10
63.73841170357654
 20
65.28666531609264
 10
64.41919770357654
 20
65.77102531609263
 10
65.14057270357653
 20
66.19253331609264
 10
65.89673670357655
 20
66.54778831609263
 10
66.68164970357654
 20
66.83396731609263
 10
67.48889970357655
 20
67.04881131609264
 10
68.31208170357655
 20
67.19064131609264
 10
69.14466170357655
 20
67.25834531609263
 10
69.97998870357654
 20
67.25137131609263
 10
70.81134870357655
 20
67.16979831609264
 10
71.63221070357654
 20
67.01421931609264
 10
72.43598270357654
 20
66.78584131609264
 10
73.21613370357654
 20
66.48647931609264
 10
73.96643970357655
 20
66.11852831609263
  0
LWPOLYLINE
  5
3EF
330
1F
100
AcDbEntity
  8
0
 62
     7
370
    35
100
AcDbPolyline
 90
       37
 70
     0
 43
0.0
 10
361.9214567035765
 20
49.79273831609262
 10
362.6050497035766
 20
50.19923231609263
 10
363.2513517035766
 20
50.66253531609262
 10
363.8558437035765
 20
51.17944131609263
 10
364.4140097035765
 20
51.74636631609264
 10
364.9218837035765
 20
52.35932731609264
 10
365.3755577035765
 20
53.01405131609263
 10
365.7717367035765
 20
53.70590031609262
 10
366.1072477035766
 20
54.42996031609263
 10
366.3795247035765
 20
55.18098231609264
 10
366.5863127035766
 20
55.95352031609263
 10
366.7258997035766
 20
56.74258231609264
 10
366.7968837035766
 20
57.54144131609263
 10
366.7985927035766
 20
58.34402331609263
 10
366.7308437035765
 20
59.14427031609263
 10
366.5940027035765
 20
59.93615531609264
 10
366.3891077035765
 20
60.71372831609264
 10
366.1175017035765
 20
61.47111331609264
 10
365.7811977035766
 20
62.20260431609263
 10
365.3825767035765
 20
62.90267731609263
 10
364.9246297035765
 20
63.56602331609264
 10
364.4106527035766
 20
64.18759031609264
 10
363.8446127035765
 20
64.76260231609264
 10
363.2305997035766
 20
65.28666531609264
 10
362.5498747035765
 20
65.77102531609263
 10
361.8284997035766
 20
66.19253331609264
 10
361.0722747035766
 20
66.54778831609263
 10
360.2874227035766
 20
66.83396731609263
 10
359.4801717035765
 20
67.04881131609264
 10
358.6569907035765
 20
67.19064131609264
 10
357.8244107035765
 20
67.25834531609263
 10
356.9891447035766
 20
67.25137131609263
 10
356.1577237035765
 20
67.16979831609264
 10
355.3368007035765
 20
67.01421931609264
 10
354.5330897035766
 20
66.78584131609264
 10
353.7529387035765
 20
66.48647931609264
 10
353.0026327035765
 20
66.11852831609263
  0
LWPOLYLINE
  5
3F0
330
1F
100
AcDbEntity
  8
0
 62
     7
370
    35
100
AcDbPolyline
 90
       38
 70
     0
 43
0.0
 10
361.9214567035765
 20
49.79273831609262
 10
361.2158897035765
 20
49.45040731609262
 10
360.4837737035765
 20
49.16839431609265
 10
359.7301717035765
 20
48.94865231609265
 10
358.9604577035766
 20
48.79273831609262
 10
358.1800627035766
 20
48.70175031609264
 10
357.3946617035765
 20
48.67637431609264
 10
356.6098717035766
 20
48.71678031609263
 10
355.7845547035765
 20
48.83120531609264
 10
354.9730917035765
 20
49.01833931609264
 10
354.1818937035765
 20
49.27671631609263
 10
353.4172447035766
 20
49.60426131609264
 10
352.6850667035766
 20
49.99844231609265
 10
351.9911587035765
 20
50.45626631609263
 10
351.3852017035765
 20
50.93574331609264
 10
350.8210537035766
 20
51.46403331609263
 10
350.3026207035765
 20
52.03768731609264
 10
349.8334437035766
 20
52.65287631609263
 10
349.4169397035765
 20
53.30552531609263
 10
349.0560387035765
 20
53.99125531609263
 10
348.7534267035766
 20
54.70542731609262
 10
348.5113607035765
 20
55.44317431609264
 10
348.3316737035766
 20
56.19936931609263
 10
348.2135097035765
 20
56.99204831609264
 10
348.1641927035765
 20
57.79266231609263
 10
348.1842127035766
 20
58.59510631609264
 10
348.2736907035766
 20
59.39330831609265
 10
348.4318937035765
 20
60.18127231609263
 10
348.6578457035765
 20
60.95306231609264
 10
348.9498377035766
 20
61.70283331609264
 10
349.3058557035765
 20
62.42497031609264
 10
349.7232137035766
 20
63.11398131609263
 10
350.1989827035766
 20
63.76467731609263
 10
350.7295007035766
 20
64.37208431609263
 10
351.3108607035765
 20
64.93154731609263
 10
351.9386687035766
 20
65.43879531609263
 10
352.4591147035766
 20
65.79667531609263
 10
353.0026327035765
 20
66.11852831609263
  0
LWPOLYLINE
  5
3F1
330
1F
100
AcDbEntity
  8
0
 62
     7
370
    35
100
AcDbPolyline
 90
       38
 70
     0
 43
0.0
 10
73.92145670357655
 20
544.0361923160926
 10
73.21588970357655
 20
544.3784773160926
 10
72.48377370357655
 20
544.6605203160927
 10
71.73017170357654
 20
544.8802473160927
 10
70.96045770357654
 20
545.0361923160926
 10
70.18006270357654
 20
545.1271343160926
 10
69.39466170357654
 20
545.1525253160927
 10
68.60987170357654
 20
545.1121203160925
 10
67.78455470357655
 20
544.9977403160926
 10
66.97309170357655
 20
544.8106063160926
 10
66.18189370357654
 20
544.5521833160926
 10
65.41724470357656
 20
544.2246683160926
 10
64.68506670357655
 20
543.8305033160927
 10
63.99115870357654
 20
543.3726183160927
 10
63.38520170357655
 20
542.8931863160926
 10
62.82105370357655
 20
542.3648663160927
 10
62.30262070357655
 20
541.7911973160926
 10
61.83344370357655
 20
541.1760233160926
 10
61.41693970357654
 20
540.5233743160927
 10
61.05603870357654
 20
539.8376443160926
 10
60.75342670357655
 20
539.1234723160926
 10
60.51136070357655
 20
538.3857403160926
 10
60.33167370357655
 20
537.6295763160926
 10
60.21350970357655
 20
536.8368513160926
 10
60.16419270357655
 20
536.0362533160926
 10
60.18421270357655
 20
535.2338243160926
 10
60.27369070357655
 20
534.4356063160926
 10
60.43189370357655
 20
533.6476423160927
 10
60.65784570357655
 20
532.8758523160927
 10
60.94983770357655
 20
532.1260973160926
 10
61.30585570357655
 20
531.4039293160926
 10
61.72321370357654
 20
530.7149033160926
 10
62.19898270357655
 20
530.0642683160925
 10
62.72950070357655
 20
529.4568463160926
 10
63.31086070357655
 20
528.8973983160927
 10
63.93866870357655
 20
528.3901353160926
 10
64.45911470357654
 20
528.0322253160926
 10
65.00263270357655
 20
527.7103863160926
  0
LWPOLYLINE
  5
3F2
330
1F
100
AcDbEntity
  8
0
 62
     7
370
    35
100
AcDbPolyline
 90
       37
 70
     0
 43
0.0
 10
73.92145670357655
 20
544.0361923160926
 10
74.60504970357655
 20
543.6296983160927
 10
75.25135170357654
 20
543.1663803160927
 10
75.85584370357654
 20
542.6494733160926
 10
76.41400970357654
 20
542.0825793160927
 10
76.92188370357655
 20
541.4696023160927
 10
77.37555770357655
 20
540.8148783160927
 10
77.77173670357655
 20
540.1229843160926
 10
78.10724770357655
 20
539.3989853160926
 10
78.37952470357655
 20
538.6479473160926
 10
78.58631270357654
 20
537.8754253160926
 10
78.72589970357655
 20
537.0863633160927
 10
78.79688370357655
 20
536.2874743160926
 10
78.79859270357655
 20
535.4849223160926
 10
78.73084370357654
 20
534.6846293160926
 10
78.59400270357655
 20
533.8927593160926
 10
78.38910770357654
 20
533.1151713160926
 10
78.11750170357655
 20
532.3577863160926
 10
77.78119770357654
 20
531.6262803160927
 10
77.38257670357654
 20
530.9262063160925
 10
76.92462970357656
 20
530.2628763160925
 10
76.41065270357654
 20
529.6412943160926
 10
75.84461270357656
 20
529.0663433160927
 10
75.23059970357656
 20
528.5422343160925
 10
74.54987470357655
 20
528.0579203160926
 10
73.82849970357654
 20
527.6364123160926
 10
73.07227470357654
 20
527.2811263160925
 10
72.28742270357654
 20
526.9949323160926
 10
71.48017170357654
 20
526.7800883160925
 10
70.65699070357656
 20
526.6382433160925
 10
69.82441070357655
 20
526.5705553160926
 10
68.98914470357656
 20
526.5775743160926
 10
68.15772370357655
 20
526.6591173160926
 10
67.33680070357656
 20
526.8146953160926
 10
66.53308970357655
 20
527.0430893160926
 10
65.75293870357654
 20
527.3424663160926
 10
65.00263270357655
 20
527.7103863160926
  0
LWPOLYLINE
  5
3F3
330
1F
100
AcDbEntity
  8
0
 62
     7
370
    35
100
AcDbPolyline
 90
       37
 70
     0
 43
0.0
 10
353.0476157035765
 20
544.0361923160926
 10
352.3640227035766
 20
543.6296983160927
 10
351.7176597035766
 20
543.1663803160927
 10
351.1132287035765
 20
542.6494733160926
 10
350.5550627035766
 20
542.0825793160927
 10
350.0471887035766
 20
541.4696023160927
 10
349.5935147035766
 20
540.8148783160927
 10
349.1973357035765
 20
540.1229843160926
 10
348.8618247035765
 20
539.3989853160926
 10
348.5895467035765
 20
538.6479473160926
 10
348.3827597035765
 20
537.8754253160926
 10
348.2431727035765
 20
537.0863633160927
 10
348.1721277035765
 20
536.2874743160926
 10
348.1704797035766
 20
535.4849223160926
 10
348.2382287035765
 20
534.6846293160926
 10
348.3750087035766
 20
533.8927593160926
 10
348.5799647035766
 20
533.1151713160926
 10
348.8515707035765
 20
532.3577863160926
 10
349.1878747035765
 20
531.6262803160927
 10
349.5864347035765
 20
530.9262063160925
 10
350.0444417035766
 20
530.2628763160925
 10
350.5583577035766
 20
529.6412943160926
 10
351.1245207035766
 20
529.0663433160927
 10
351.7384117035765
 20
528.5422343160925
 10
352.4191977035765
 20
528.0579203160926
 10
353.1405727035766
 20
527.6364123160926
 10
353.8967367035765
 20
527.2811263160925
 10
354.6816497035766
 20
526.9949323160926
 10
355.4888997035765
 20
526.7800883160925
 10
356.3120817035765
 20
526.6382433160925
 10
357.1446617035765
 20
526.5705553160926
 10
357.9799887035765
 20
526.5775743160926
 10
358.8113487035765
 20
526.6591173160926
 10
359.6322107035766
 20
526.8146953160926
 10
360.4359827035765
 20
527.0430893160926
 10
361.2161337035766
 20
527.3424663160926
 10
361.9664397035765
 20
527.7103863160926
  0
LWPOLYLINE
  5
3F4
330
1F
100
AcDbEntity
  8
0
 62
     7
370
    35
100
AcDbPolyline
 90
       38
 70
     0
 43
0.0
 10
353.0476157035765
 20
544.0361923160926
 10
353.7531827035765
 20
544.3784773160926
 10
354.4852987035765
 20
544.6605203160927
 10
355.2388997035765
 20
544.8802473160927
 10
356.0086147035765
 20
545.0361923160926
 10
356.7889487035766
 20
545.1271343160926
 10
357.5744107035765
 20
545.1525253160927
 10
358.3592007035766
 20
545.1121203160925
 10
359.1844567035765
 20
544.9977403160926
 10
359.9959807035765
 20
544.8106063160926
 10
360.7871177035765
 20
544.5521833160926
 10
361.5517667035765
 20
544.2246683160926
 10
362.2839437035766
 20
543.8305033160927
 10
362.9779137035765
 20
543.3726183160927
 10
363.5838707035765
 20
542.8931863160926
 10
364.1479577035766
 20
542.3648663160927
 10
364.6664517035765
 20
541.7911973160926
 10
365.1356287035766
 20
541.1760233160926
 10
365.5521327035766
 20
540.5233743160927
 10
365.9130337035765
 20
539.8376443160926
 10
366.2156457035766
 20
539.1234723160926
 10
366.4577117035766
 20
538.3857403160926
 10
366.6373377035766
 20
537.6295763160926
 10
366.7555627035765
 20
536.8368513160926
 10
366.8049407035766
 20
536.0362533160926
 10
366.7848597035765
 20
535.2338243160926
 10
366.6953817035766
 20
534.4356063160926
 10
366.5371787035765
 20
533.6476423160927
 10
366.3112267035765
 20
532.8758523160927
 10
366.0192347035766
 20
532.1260973160926
 10
365.6632167035765
 20
531.4039293160926
 10
365.2458577035766
 20
530.7149033160926
 10
364.7700887035766
 20
530.0642683160925
 10
364.2395717035765
 20
529.4568463160926
 10
363.6582117035765
 20
528.8973983160927
 10
363.0304037035766
 20
528.3901353160926
 10
362.5099577035765
 20
528.0322253160926
 10
361.9664397035765
 20
527.7103863160926
  0
LWPOLYLINE
  5
3F5
330
1F
100
AcDbEntity
  8
0
 62
     7
370
    35
100
AcDbPolyline
 90
        7
 70
     0
 43
0.0
 10
370.8684777035766
 20
57.91445731609264
 10
370.8739097035766
 20
60.59937831609264
 10
370.8903897035766
 20
62.84670831609263
 10
370.9085777035765
 20
63.82646031609263
 10
370.9189537035765
 20
64.00640731609263
 10
370.9201747035765
 20
64.01193031609263
 10
370.9207847035766
 20
64.01353231609263
  0
LWPOLYLINE
  5
3F6
330
1F
100
AcDbEntity
  8
0
 62
     7
370
    35
100
AcDbPolyline
 90
       12
 70
     0
 43
0.0
 10
369.3225187035765
 20
51.81538231609263
 10
369.3231287035766
 20
51.81852531609263
 10
369.3280117035765
 20
51.83146531609264
 10
369.3717127035766
 20
51.92245331609263
 10
369.7033777035765
 20
52.60703831609262
 10
370.0157557035766
 20
53.34966831609264
 10
370.3251427035766
 20
54.25013531609264
 10
370.4647307035765
 20
54.74752631609263
 10
370.5883877035766
 20
55.27071931609262
 10
370.7405477035766
 20
56.12275531609262
 10
370.8359457035765
 20
57.00970331609264
 10
370.8684777035766
 20
57.91445731609264
  0
LWPOLYLINE
  5
3F7
330
1F
100
AcDbEntity
  8
0
 62
     7
370
    35
100
AcDbPolyline
 90
       13
 70
     0
 43
0.0
 10
370.9207847035766
 20
333.0135173160927
 10
370.9193807035765
 20
333.0085733160927
 10
370.9165737035765
 20
332.9859603160927
 10
370.9083337035766
 20
332.8185713160926
 10
370.8871547035766
 20
331.5569443160927
 10
370.8711027035765
 20
328.8152753160927
 10
370.8695767035765
 20
325.6843553160927
 10
370.8838587035765
 20
322.6235643160926
 10
370.8971647035765
 20
321.5000283160927
 10
370.9124837035765
 20
320.9061873160927
 10
370.9179777035765
 20
320.8292523160926
 10
370.9198087035766
 20
320.8181743160926
 10
370.9207847035766
 20
320.8153973160927
  0
LWPOLYLINE
  5
3F8
330
1F
100
AcDbEntity
  8
0
 62
     7
370
    35
100
AcDbPolyline
 90
        7
 70
     0
 43
0.0
 10
370.8684777035766
 20
535.9144883160927
 10
370.8739097035766
 20
533.2295513160927
 10
370.8903897035766
 20
530.9822373160926
 10
370.9085777035765
 20
530.0024393160925
 10
370.9189537035765
 20
529.8225083160925
 10
370.9201747035765
 20
529.8169543160926
 10
370.9207847035766
 20
529.8153673160926
  0
LWPOLYLINE
  5
3F9
330
1F
100
AcDbEntity
  8
0
 62
     7
370
    35
100
AcDbPolyline
 90
       12
 70
     0
 43
0.0
 10
369.3225187035765
 20
542.0135483160927
 10
369.3231287035766
 20
542.0103743160926
 10
369.3280117035765
 20
541.9974343160927
 10
369.3717127035766
 20
541.9064313160927
 10
369.7033777035765
 20
541.2218613160925
 10
370.0157557035766
 20
540.4792463160926
 10
370.3251427035766
 20
539.5787943160926
 10
370.4647307035765
 20
539.0813583160927
 10
370.5883877035766
 20
538.5581643160926
 10
370.7405477035766
 20
537.7061753160926
 10
370.8359457035765
 20
536.8192123160927
 10
370.8684777035766
 20
535.9144883160927
  0
LWPOLYLINE
  5
3FA
330
1F
100
AcDbEntity
  8
0
 62
     7
370
    35
100
AcDbPolyline
 90
       13
 70
     0
 43
0.0
 10
56.04828770357655
 20
333.0135173160927
 10
56.04969170357655
 20
333.0085733160927
 10
56.05249870357654
 20
332.9859603160927
 10
56.06073870357654
 20
332.8185713160926
 10
56.08191770357655
 20
331.5569443160927
 10
56.09790870357655
 20
328.8152753160927
 10
56.09949570357655
 20
325.6843553160927
 10
56.08521370357655
 20
322.6235643160926
 10
56.07190770357655
 20
321.5000283160927
 10
56.05652670357655
 20
320.9061873160927
 10
56.05103370357655
 20
320.8292523160926
 10
56.04920270357655
 20
320.8181743160926
 10
56.04828770357655
 20
320.8153973160927
  0
LWPOLYLINE
  5
3FB
330
1F
100
AcDbEntity
  8
0
 62
     7
370
    35
100
AcDbPolyline
 90
        7
 70
     0
 43
0.0
 10
56.10059470357654
 20
535.9144883160927
 10
56.09516270357655
 20
533.2295513160927
 10
56.07868270357655
 20
530.9822373160926
 10
56.06049470357655
 20
530.0024393160925
 10
56.05011870357654
 20
529.8225083160925
 10
56.04889770357655
 20
529.8169543160926
 10
56.04828770357655
 20
529.8153673160926
  0
LWPOLYLINE
  5
3FC
330
1F
100
AcDbEntity
  8
0
 62
     7
370
    35
100
AcDbPolyline
 90
        7
 70
     0
 43
0.0
 10
56.10059470357654
 20
57.91445731609264
 10
56.09516270357655
 20
60.59937831609264
 10
56.07868270357655
 20
62.84670831609263
 10
56.06049470357655
 20
63.82646031609263
 10
56.05011870357654
 20
64.00640731609263
 10
56.04889770357655
 20
64.01193031609263
 10
56.04828770357655
 20
64.01353231609263
  0
LWPOLYLINE
  5
3FD
330
1F
100
AcDbEntity
  8
0
 62
     7
370
    35
100
AcDbPolyline
 90
       12
 70
     0
 43
0.0
 10
57.64655370357655
 20
542.0135483160927
 10
57.64600470357655
 20
542.0103743160926
 10
57.64099970357655
 20
541.9974343160927
 10
57.59735970357654
 20
541.9064313160927
 10
57.26569470357655
 20
541.2218613160925
 10
56.95325570357654
 20
540.4792463160926
 10
56.64392970357654
 20
539.5787943160926
 10
56.50440270357655
 20
539.0813583160927
 10
56.38068470357655
 20
538.5581643160926
 10
56.22852470357655
 20
537.7061753160926
 10
56.13306570357655
 20
536.8192123160927
 10
56.10059470357654
 20
535.9144883160927
  0
LWPOLYLINE
  5
3FE
330
1F
100
AcDbEntity
  8
0
 62
     7
370
    35
100
AcDbPolyline
 90
       12
 70
     0
 43
0.0
 10
57.64655370357655
 20
51.81538231609263
 10
57.64600470357655
 20
51.81852531609263
 10
57.64099970357655
 20
51.83146531609264
 10
57.59735970357654
 20
51.92245331609263
 10
57.26569470357655
 20
52.60703831609262
 10
56.95325570357654
 20
53.34966831609264
 10
56.64392970357654
 20
54.25013531609264
 10
56.50440270357655
 20
54.74752631609263
 10
56.38068470357655
 20
55.27071931609262
 10
56.22852470357655
 20
56.12275531609262
 10
56.13306570357655
 20
57.00970331609264
 10
56.10059470357654
 20
57.91445731609264
  0
LWPOLYLINE
  5
3FF
330
1F
100
AcDbEntity
  8
0
 62
   253
370
    35
100
AcDbPolyline
 90
        4
 70
     0
 43
0.0
 10
73.73590970357653
 20
384.4128093160927
 10
72.43897370357655
 20
384.3997783160927
 10
72.27668070357655
 20
384.3926983160926
 10
72.24158570357655
 20
384.3889143160926
  0
LWPOLYLINE
  5
400
330
1F
100
AcDbEntity
  8
0
 62
   253
370
    35
100
AcDbPolyline
 90
        4
 70
     0
 43
0.0
 10
353.2331627035766
 20
384.4128093160927
 10
354.5301597035766
 20
384.3997783160927
 10
354.6923917035765
 20
384.3926983160926
 10
354.7274257035765
 20
384.3889143160926
  0
LWPOLYLINE
  5
401
330
1F
100
AcDbEntity
  8
0
 62
   253
370
    35
100
AcDbPolyline
 90
        5
 70
     0
 43
0.0
 10
71.69648070357656
 20
384.6075723160926
 10
71.82062670357655
 20
384.4973733160927
 10
71.90918870357655
 20
384.4432963160926
 10
72.03211270357655
 20
384.3959333160926
 10
72.17926870357655
 20
384.3764633160927
  0
LWPOLYLINE
  5
402
330
1F
100
AcDbEntity
  8
0
 62
   253
370
    35
100
AcDbPolyline
 90
        5
 70
     0
 43
0.0
 10
354.7898037035766
 20
384.3764633160927
 10
354.9373257035766
 20
384.3960553160926
 10
355.0605557035766
 20
384.4436323160927
 10
355.1368497035765
 20
384.4892863160926
 10
355.2725917035765
 20
384.6075723160926
  0
LWPOLYLINE
  5
403
330
1F
100
AcDbEntity
  8
0
 62
   253
370
    35
100
AcDbPolyline
 90
        6
 70
     0
 43
0.0
 10
219.7692347035765
 20
364.1054673160927
 10
219.1612637035766
 20
363.8052353160926
 10
218.5238737035766
 20
363.5700973160926
 10
217.8648157035766
 20
363.4013653160927
 10
217.1910487035765
 20
363.2997423160926
 10
216.5076987035766
 20
363.2656533160926
  0
LWPOLYLINE
  5
404
330
1F
100
AcDbEntity
  8
0
 62
   253
370
    35
100
AcDbPolyline
 90
        7
 70
     0
 43
0.0
 10
210.4869467035765
 20
363.2656533160926
 10
209.8889247035765
 20
363.2917463160926
 10
209.2963347035766
 20
363.3697793160926
 10
208.7141197035765
 20
363.4994493160927
 10
208.1467977035766
 20
363.6802043160926
 10
207.6774377035766
 20
363.8746323160926
 10
207.2254117035766
 20
364.1054673160927
  0
LWPOLYLINE
  5
405
330
1F
100
AcDbEntity
  8
0
 62
   253
370
    35
100
AcDbPolyline
 90
       16
 70
     0
 43
0.0
 10
267.6535727035765
 20
375.5945113160926
 10
266.5300987035765
 20
374.9264513160927
 10
265.3817227035765
 20
374.2968423160927
 10
264.0479207035765
 20
373.6293313160927
 10
262.6846397035765
 20
373.0142803160926
 10
261.2952357035765
 20
372.4538863160926
 10
260.2335897035765
 20
372.0691513160927
 10
259.1621787035766
 20
371.7177413160927
 10
258.0871057035765
 20
371.4013653160927
 10
256.7365197035766
 20
371.0541363160927
 10
255.3737877035765
 20
370.7591233160926
 10
253.9994597035765
 20
370.5166613160926
 10
252.6153037035765
 20
370.3275433160926
 10
251.2441497035765
 20
370.1940593160927
 10
249.8699427035766
 20
370.1137983160927
 10
248.4973227035765
 20
370.0870953160927
  0
LWPOLYLINE
  5
406
330
1F
100
AcDbEntity
  8
0
 62
   253
370
    35
100
AcDbPolyline
 90
       16
 70
     0
 43
0.0
 10
159.3410727035765
 20
375.5945413160926
 10
160.4645467035765
 20
374.9264813160927
 10
161.6129237035765
 20
374.2968423160927
 10
162.9467247035765
 20
373.6293313160927
 10
164.3100057035765
 20
373.0142803160926
 10
165.6994107035765
 20
372.4539163160927
 10
166.7610557035765
 20
372.0691513160927
 10
167.8324667035765
 20
371.7177413160927
 10
168.9075407035765
 20
371.4013653160927
 10
170.2581267035765
 20
371.0541363160927
 10
171.6208577035765
 20
370.7591233160926
 10
172.9951257035765
 20
370.5166613160926
 10
174.3793417035765
 20
370.3275433160926
 10
175.7504357035765
 20
370.1940593160927
 10
177.1247037035765
 20
370.1137983160927
 10
178.4973227035765
 20
370.0870953160927
  0
LWPOLYLINE
  5
407
330
1F
100
AcDbEntity
  8
0
 62
   253
370
    35
100
AcDbPolyline
 90
       10
 70
     0
 43
0.0
 10
267.6535727035765
 20
375.5945113160926
 10
267.8693937035765
 20
375.7649823160926
 10
268.0015347035766
 20
375.9086593160926
 10
268.1211637035765
 20
376.0720193160927
 10
268.2151577035766
 20
376.2389203160926
 10
268.2759487035765
 20
376.4015793160927
 10
268.2906577035766
 20
376.4769883160926
 10
268.2923057035765
 20
376.5618573160927
 10
268.2785727035765
 20
376.6248763160927
 10
268.2013027035765
 20
376.7250963160926
  0
LWPOLYLINE
  5
408
330
1F
100
AcDbEntity
  8
0
 62
   253
370
    35
100
AcDbPolyline
 90
       10
 70
     0
 43
0.0
 10
159.3410727035765
 20
375.5945413160926
 10
159.1015707035765
 20
375.7883283160927
 10
158.9707117035765
 20
375.9364913160927
 10
158.8548667035765
 20
376.1013773160927
 10
158.7662437035765
 20
376.2678203160926
 10
158.7120447035765
 20
376.4295633160926
 10
158.7006917035765
 20
376.5306683160926
 10
158.7040487035765
 20
376.5761703160927
 10
158.7203457035765
 20
376.6357403160927
 10
158.7933437035765
 20
376.7250963160926
  0
LWPOLYLINE
  5
409
330
1F
100
AcDbEntity
  8
0
 62
   253
370
    35
100
AcDbPolyline
 90
        4
 70
     0
 43
0.0
 10
170.0043417035765
 20
382.8498513160927
 10
173.1695647035765
 20
382.8133523160926
 10
177.4293297035765
 20
382.7638533160926
 10
178.4973227035765
 20
382.7613503160926
  0
LWPOLYLINE
  5
40A
330
1F
100
AcDbEntity
  8
0
 62
   253
370
    35
100
AcDbPolyline
 90
        6
 70
     0
 43
0.0
 10
208.9938437035765
 20
382.7613203160927
 10
210.4068077035766
 20
382.7856733160927
 10
212.6225057035765
 20
382.8393533160927
 10
214.8083577035766
 20
382.8322123160926
 10
217.0487757035766
 20
382.7738633160926
 10
218.0008017035766
 20
382.7613203160927
  0
LWPOLYLINE
  5
40B
330
1F
100
AcDbEntity
  8
0
 62
   253
370
    35
100
AcDbPolyline
 90
        4
 70
     0
 43
0.0
 10
248.4973227035765
 20
382.7613203160927
 10
252.4088217035765
 20
382.7921123160927
 10
255.9392787035765
 20
382.8421923160927
 10
256.9903037035766
 20
382.8498513160927
  0
LWPOLYLINE
  5
40C
330
1F
100
AcDbEntity
  8
0
 62
   253
370
    35
100
AcDbPolyline
 90
       14
 70
     0
 43
0.0
 10
248.4973227035765
 20
373.4931623160926
 10
250.5879607035765
 20
373.5299363160927
 10
252.6561367035765
 20
373.6389753160927
 10
254.6902547035766
 20
373.8166793160926
 10
256.6937957035765
 20
374.0599043160927
 10
258.6870817035765
 20
374.3685893160927
 10
260.6828087035765
 20
374.7434373160927
 10
262.8241667035766
 20
375.2185953160926
 10
264.1271447035766
 20
375.5478803160927
 10
265.0367517035765
 20
375.8019393160927
 10
265.8439417035765
 20
376.0548083160927
 10
266.2116177035765
 20
376.1849963160927
 10
266.5315637035766
 20
376.3121323160926
 10
266.7930997035766
 20
376.4331643160927
  0
LWPOLYLINE
  5
40D
330
1F
100
AcDbEntity
  8
0
 62
   253
370
    35
100
AcDbPolyline
 90
       14
 70
     0
 43
0.0
 10
160.2015467035765
 20
376.4331643160927
 10
160.4630827035765
 20
376.3121323160926
 10
160.7830287035765
 20
376.1849963160927
 10
161.5456017035765
 20
375.9267563160927
 10
162.3814177035765
 20
375.6805403160927
 10
163.7639247035765
 20
375.3177163160926
 10
165.6488737035765
 20
374.8823833160926
 10
167.6422817035765
 20
374.4862653160926
 10
169.6372157035765
 20
374.1553323160927
 10
171.6343467035765
 20
373.8905013160927
 10
173.6571737035765
 20
373.6907023160926
 10
175.7147307035765
 20
373.5583783160927
 10
177.7997527035765
 20
373.4972213160927
 10
178.4973227035765
 20
373.4931623160926
  0
INSERT
  5
40E
330
1F
100
AcDbEntity
  8
0
 62
    56
100
AcDbBlockReference
  2
IBvert
 10
47.66593398357655
 20
80.12530919609263
 30
0.0
  0
INSERT
  5
40F
330
1F
100
AcDbEntity
  8
0
 62
    56
100
AcDbBlockReference
  2
IBvert
 10
152.1281339835765
 20
80.12530919609263
 30
0.0
  0
INSERT
  5
410
330
1F
100
AcDbEntity
  8
0
 62
    56
100
AcDbBlockReference
  2
IBvert
 10
256.5904339835765
 20
80.12530919609263
 30
0.0
  0
ENDSEC
  0
SECTION
  2
OBJECTS
  0
DICTIONARY
  5
C
330
0
100
AcDbDictionary
281
     1
  3
ACAD_COLOR
350
73
  3
ACAD_GROUP
350
D
  3
ACAD_LAYOUT
350
1A
  3
ACAD_MATERIAL
350
72
  3
ACAD_MLEADERSTYLE
350
D7
  3
ACAD_MLINESTYLE
350
17
  3
ACAD_PLOTSETTINGS
350
19
  3
ACAD_PLOTSTYLENAME
350
E
  3
ACAD_SCALELIST
350
B6
  3
ACAD_TABLESTYLE
350
86
  3
ACAD_VISUALSTYLE
350
99
  3
ACDB_RECOMPOSE_DATA
350
FF
  3
AcDbVariableDictionary
350
66
  3
DWGPROPS
350
455
  0
DICTIONARY
  5
E6
330
10
100
AcDbDictionary
280
     1
281
     1
  3
ADSK_XREC_LAYER_RECONCILED
360
44D
  0
DICTIONARY
  5
44E
330
16B
100
AcDbDictionary
280
     1
281
     1
  3
ADSK_XREC_LAYER_RECONCILED
360
44F
  0
DICTIONARY
  5
73
102
{ACAD_REACTORS
330
C
102
}
330
C
100
AcDbDictionary
281
     1
  0
DICTIONARY
  5
D
102
{ACAD_REACTORS
330
C
102
}
330
C
100
AcDbDictionary
281
     1
  0
DICTIONARY
  5
1A
102
{ACAD_REACTORS
330
C
102
}
330
C
100
AcDbDictionary
281
     1
  3
Layout1
350
59
  3
Layout2
350
5E
  3
Model
350
22
  0
DICTIONARY
  5
72
102
{ACAD_REACTORS
330
C
102
}
330
C
100
AcDbDictionary
281
     1
  3
ByBlock
350
97
  3
ByLayer
350
96
  3
Global
350
98
  0
DICTIONARY
  5
D7
102
{ACAD_REACTORS
330
C
102
}
330
C
100
AcDbDictionary
281
     1
  3
Annotativa
350
E5
  3
Standard
350
D8
  0
DICTIONARY
  5
17
102
{ACAD_REACTORS
330
C
102
}
330
C
100
AcDbDictionary
281
     1
  3
Standard
350
18
  0
DICTIONARY
  5
19
102
{ACAD_REACTORS
330
C
102
}
330
C
100
AcDbDictionary
281
     1
  0
ACDBDICTIONARYWDFLT
  5
E
102
{ACAD_REACTORS
330
C
102
}
330
C
100
AcDbDictionary
281
     1
  3
Normal
350
F
100
AcDbDictionaryWithDefault
340
F
  0
DICTIONARY
  5
B6
102
{ACAD_REACTORS
330
C
102
}
330
C
100
AcDbDictionary
281
     1
  3
A0
350
B7
  3
A1
350
124
  3
A2
350
125
  3
A3
350
126
  3
A4
350
127
  3
A5
350
128
  3
A6
350
129
  3
A7
350
12A
  3
A8
350
12B
  3
A9
350
12C
  3
B0
350
12D
  3
B1
350
12E
  3
B2
350
12F
  3
B3
350
130
  3
B4
350
131
  3
B5
350
132
  3
B6
350
133
  3
B7
350
134
  3
B8
350
135
  3
B9
350
136
  3
C0
350
137
  3
C1
350
138
  3
C2
350
139
  3
C3
350
13A
  3
C4
350
13B
  3
C5
350
13C
  3
C6
350
13D
  3
C7
350
13E
  3
C8
350
13F
  3
C9
350
140
  3
D0
350
141
  3
D1
350
142
  3
D2
350
143
  0
DICTIONARY
  5
86
102
{ACAD_REACTORS
330
C
102
}
330
C
100
AcDbDictionary
281
     1
  3
Standard
350
87
  0
DICTIONARY
  5
99
102
{ACAD_REACTORS
330
C
102
}
330
C
100
AcDbDictionary
281
     1
  3
2dWireframe
350
9F
  3
3D Hidden
350
A1
  3
3dWireframe
350
A0
  3
Basic
350
9E
  3
Brighten
350
A5
  3
ColorChange
350
A9
  3
Conceptual
350
A2
  3
Dim
350
A4
  3
Facepattern
350
A8
  3
Flat
350
9A
  3
FlatWithEdges
350
9B
  3
Gouraud
350
9C
  3
GouraudWithEdges
350
9D
  3
Linepattern
350
A7
  3
Realistic
350
A3
  3
Thicken
350
A6
  0
XRECORD
  5
FF
102
{ACAD_REACTORS
330
C
102
}
330
C
100
AcDbXrecord
280
     1
 90
        1
330
87
  0
DICTIONARY
  5
66
102
{ACAD_REACTORS
330
C
102
}
330
C
100
AcDbDictionary
281
     1
  3
CANNOSCALE
350
F0
  3
CMLEADERSTYLE
350
EF
  3
CTABLESTYLE
350
89
  3
DIMASSOC
350
67
  3
HIDETEXT
350
6B
  3
INDEXCTL
350
453
  3
LIGHTINGUNITS
350
451
  3
MSLTSCALE
350
450
  3
SORTENTS
350
452
  0
XRECORD
  5
455
102
{ACAD_REACTORS
330
C
102
}
330
C
100
AcDbXrecord
280
     1
  1
DWGPROPS COOKIE
  2

  3

  4

  6

  7

  8
fontanaNZ
  9

300
=
301
=
302
=
303
=
304
=
305
=
306
=
307
=
308
=
309
=
 40
0.0002451967592593
 41
2455511.360526644
 42
2455511.36077184
  1

 90
        0
  0
XRECORD
  5
44D
102
{ACAD_REACTORS
330
E6
102
}
330
E6
100
AcDbXrecord
280
     1
290
     1
  0
XRECORD
  5
44F
102
{ACAD_REACTORS
330
44E
102
}
330
44E
100
AcDbXrecord
280
     1
290
     1
  0
LAYOUT
  5
59
102
{ACAD_XDICTIONARY
360
458
102
}
102
{ACAD_REACTORS
330
1A
102
}
330
1A
100
AcDbPlotSettings
  1

  2
None
  4

  6

 40
0.0
 41
0.0
 42
0.0
 43
0.0
 44
0.0
 45
0.0
 46
0.0
 47
0.0
 48
0.0
 49
0.0
140
0.0
141
0.0
142
1.0
143
1.0
 70
   688
 72
     0
 73
     0
 74
     5
  7

 75
    16
147
1.0
148
0.0
149
0.0
100
AcDbLayout
  1
Layout1
 70
     1
 71
     1
 10
0.0
 20
0.0
 11
12.0
 21
9.0
 12
0.0
 22
0.0
 32
0.0
 14
0.0
 24
0.0
 34
0.0
 15
0.0
 25
0.0
 35
0.0
146
0.0
 13
0.0
 23
0.0
 33
0.0
 16
1.0
 26
0.0
 36
0.0
 17
0.0
 27
1.0
 37
0.0
 76
     0
330
58
  0
LAYOUT
  5
5E
102
{ACAD_XDICTIONARY
360
45A
102
}
102
{ACAD_REACTORS
330
1A
102
}
330
1A
100
AcDbPlotSettings
  1

  2
None
  4

  6

 40
0.0
 41
0.0
 42
0.0
 43
0.0
 44
0.0
 45
0.0
 46
0.0
 47
0.0
 48
0.0
 49
0.0
140
0.0
141
0.0
142
1.0
143
1.0
 70
   688
 72
     0
 73
     0
 74
     5
  7

 75
    16
147
1.0
148
0.0
149
0.0
100
AcDbLayout
  1
Layout2
 70
     1
 71
     2
 10
0.0
 20
0.0
 11
12.0
 21
9.0
 12
0.0
 22
0.0
 32
0.0
 14
0.0
 24
0.0
 34
0.0
 15
0.0
 25
0.0
 35
0.0
146
0.0
 13
0.0
 23
0.0
 33
0.0
 16
1.0
 26
0.0
 36
0.0
 17
0.0
 27
1.0
 37
0.0
 76
     0
330
5D
  0
LAYOUT
  5
22
102
{ACAD_XDICTIONARY
360
456
102
}
102
{ACAD_REACTORS
330
1A
102
}
330
1A
100
AcDbPlotSettings
  1

  2
none_device
  4
ANSI_A_(8.50_x_11.00_Inches)
  6

 40
6.349999904632568
 41
19.04999923706055
 42
6.350006103515625
 43
19.04998779296875
 44
215.8999938964844
 45
279.3999938964844
 46
0.0
 47
0.0
 48
0.0
 49
0.0
140
0.0
141
0.0
142
1.0
143
2.584895464708373
 70
 11952
 72
     0
 73
     1
 74
     0
  7

 75
     0
147
0.3868628397755418
148
0.0
149
0.0
100
AcDbLayout
  1
Model
 70
     1
 71
     0
 10
0.0
 20
0.0
 11
12.0
 21
9.0
 12
0.0
 22
0.0
 32
0.0
 14
0.0
 24
0.0
 34
0.0
 15
0.0
 25
0.0
 35
0.0
146
0.0
 13
0.0
 23
0.0
 33
0.0
 16
1.0
 26
0.0
 36
0.0
 17
0.0
 27
1.0
 37
0.0
 76
     0
330
1F
331
94
  0
MATERIAL
  5
97
102
{ACAD_XDICTIONARY
360
45F
102
}
102
{ACAD_REACTORS
330
72
102
}
330
72
100
AcDbMaterial
  1
ByBlock
  0
MATERIAL
  5
96
102
{ACAD_XDICTIONARY
360
45D
102
}
102
{ACAD_REACTORS
330
72
102
}
330
72
100
AcDbMaterial
  1
ByLayer
  0
MATERIAL
  5
98
102
{ACAD_XDICTIONARY
360
110
102
}
102
{ACAD_REACTORS
330
72
102
}
330
72
100
AcDbMaterial
  1
Global
 43
0.0208000000566244
 43
0.0
 43
0.0
 43
0.0
 43
0.0
 43
0.0208000000566244
 43
0.0
 43
0.0
 43
0.0
 43
0.0
 43
1.0
 43
0.0
 43
0.0
 43
0.0
 43
0.0
 43
1.0
 49
0.0208000000566244
 49
0.0
 49
0.0
 49
0.0
 49
0.0
 49
0.0208000000566244
 49
0.0
 49
0.0
 49
0.0
 49
0.0
 49
1.0
 49
0.0
 49
0.0
 49
0.0
 49
0.0
 49
1.0
142
0.0208000000566244
142
0.0
142
0.0
142
0.0
142
0.0
142
0.0208000000566244
142
0.0
142
0.0
142
0.0
142
0.0
142
1.0
142
0.0
142
0.0
142
0.0
142
0.0
142
1.0
144
0.0208000000566244
144
0.0
144
0.0
144
0.0
144
0.0
144
0.0208000000566244
144
0.0
144
0.0
144
0.0
144
0.0
144
1.0
144
0.0
144
0.0
144
0.0
144
0.0
144
1.0
1001
ACAD
1070
    -1
1070
     3
1070
     0
1000

1071
        0
1070
     0
  0
MLEADERSTYLE
  5
E5
102
{ACAD_REACTORS
330
D7
102
}
330
D7
100
AcDbMLeaderStyle
170
     2
171
     1
172
     0
 90
        2
 40
0.0
 41
0.0
173
     1
 91
-1056964608
340
14
 92
       -2
290
     1
 42
0.09
291
     1
 43
0.36
  3
Standard
 44
0.18
300

342
11
174
     1
178
     1
175
     1
176
     0
 93
-1056964608
 45
0.18
292
     0
297
     0
 46
0.18
 94
-1056964608
 47
1.0
 49
1.0
140
1.0
293
     1
141
0.0
294
     1
177
     0
142
1.0
295
     0
296
     1
143
0.125
1001
ACAD_MLEADERVER
1070
     2
  0
MLEADERSTYLE
  5
D8
102
{ACAD_REACTORS
330
D7
102
}
330
D7
100
AcDbMLeaderStyle
170
     2
171
     1
172
     0
 90
        2
 40
0.0
 41
0.0
173
     1
 91
-1056964608
340
14
 92
       -2
290
     1
 42
0.09
291
     1
 43
0.36
  3
Standard
 44
0.18
300

342
11
174
     1
178
     1
175
     1
176
     0
 93
-1056964608
 45
0.18
292
     0
297
     0
 46
0.18
 94
-1056964608
 47
1.0
 49
1.0
140
1.0
293
     1
141
0.0
294
     1
177
     0
142
1.0
295
     0
296
     0
143
0.125
1001
ACAD_MLEADERVER
1070
     2
  0
MLINESTYLE
  5
18
102
{ACAD_REACTORS
330
17
102
}
330
17
100
AcDbMlineStyle
  2
STANDARD
 70
     0
  3

 62
   256
 51
90.0
 52
90.0
 71
     2
 49
0.5
 62
   256
  6
BYLAYER
 49
-0.5
 62
   256
  6
BYLAYER
  0
ACDBPLACEHOLDER
  5
F
102
{ACAD_REACTORS
330
E
102
}
330
E
  0
SCALE
  5
B7
102
{ACAD_REACTORS
330
B6
102
}
330
B6
100
AcDbScale
 70
     0
300
1:1
140
1.0
141
1.0
290
     1
  0
SCALE
  5
124
102
{ACAD_REACTORS
330
B6
102
}
330
B6
100
AcDbScale
 70
     0
300
1:2
140
1.0
141
2.0
290
     0
  0
SCALE
  5
125
102
{ACAD_REACTORS
330
B6
102
}
330
B6
100
AcDbScale
 70
     0
300
1:4
140
1.0
141
4.0
290
     0
  0
SCALE
  5
126
102
{ACAD_REACTORS
330
B6
102
}
330
B6
100
AcDbScale
 70
     0
300
1:5
140
1.0
141
5.0
290
     0
  0
SCALE
  5
127
102
{ACAD_REACTORS
330
B6
102
}
330
B6
100
AcDbScale
 70
     0
300
1:8
140
1.0
141
8.0
290
     0
  0
SCALE
  5
128
102
{ACAD_REACTORS
330
B6
102
}
330
B6
100
AcDbScale
 70
     0
300
1:10
140
1.0
141
10.0
290
     0
  0
SCALE
  5
129
102
{ACAD_REACTORS
330
B6
102
}
330
B6
100
AcDbScale
 70
     0
300
1:16
140
1.0
141
16.0
290
     0
  0
SCALE
  5
12A
102
{ACAD_REACTORS
330
B6
102
}
330
B6
100
AcDbScale
 70
     0
300
1:20
140
1.0
141
20.0
290
     0
  0
SCALE
  5
12B
102
{ACAD_REACTORS
330
B6
102
}
330
B6
100
AcDbScale
 70
     0
300
1:30
140
1.0
141
30.0
290
     0
  0
SCALE
  5
12C
102
{ACAD_REACTORS
330
B6
102
}
330
B6
100
AcDbScale
 70
     0
300
1:40
140
1.0
141
40.0
290
     0
  0
SCALE
  5
12D
102
{ACAD_REACTORS
330
B6
102
}
330
B6
100
AcDbScale
 70
     0
300
1:50
140
1.0
141
50.0
290
     0
  0
SCALE
  5
12E
102
{ACAD_REACTORS
330
B6
102
}
330
B6
100
AcDbScale
 70
     0
300
1:100
140
1.0
141
100.0
290
     0
  0
SCALE
  5
12F
102
{ACAD_REACTORS
330
B6
102
}
330
B6
100
AcDbScale
 70
     0
300
2:1
140
2.0
141
1.0
290
     0
  0
SCALE
  5
130
102
{ACAD_REACTORS
330
B6
102
}
330
B6
100
AcDbScale
 70
     0
300
4:1
140
4.0
141
1.0
290
     0
  0
SCALE
  5
131
102
{ACAD_REACTORS
330
B6
102
}
330
B6
100
AcDbScale
 70
     0
300
8:1
140
8.0
141
1.0
290
     0
  0
SCALE
  5
132
102
{ACAD_REACTORS
330
B6
102
}
330
B6
100
AcDbScale
 70
     0
300
10:1
140
10.0
141
1.0
290
     0
  0
SCALE
  5
133
102
{ACAD_REACTORS
330
B6
102
}
330
B6
100
AcDbScale
 70
     0
300
100:1
140
100.0
141
1.0
290
     0
  0
SCALE
  5
134
102
{ACAD_REACTORS
330
B6
102
}
330
B6
100
AcDbScale
 70
     0
300
1/128" = 1'-0"
140
0.0078125
141
12.0
290
     0
  0
SCALE
  5
135
102
{ACAD_REACTORS
330
B6
102
}
330
B6
100
AcDbScale
 70
     0
300
1/64" = 1'-0"
140
0.015625
141
12.0
290
     0
  0
SCALE
  5
136
102
{ACAD_REACTORS
330
B6
102
}
330
B6
100
AcDbScale
 70
     0
300
1/32" = 1'-0"
140
0.03125
141
12.0
290
     0
  0
SCALE
  5
137
102
{ACAD_REACTORS
330
B6
102
}
330
B6
100
AcDbScale
 70
     0
300
1/16" = 1'-0"
140
0.0625
141
12.0
290
     0
  0
SCALE
  5
138
102
{ACAD_REACTORS
330
B6
102
}
330
B6
100
AcDbScale
 70
     0
300
3/32" = 1'-0"
140
0.09375
141
12.0
290
     0
  0
SCALE
  5
139
102
{ACAD_REACTORS
330
B6
102
}
330
B6
100
AcDbScale
 70
     0
300
1/8" = 1'-0"
140
0.125
141
12.0
290
     0
  0
SCALE
  5
13A
102
{ACAD_REACTORS
330
B6
102
}
330
B6
100
AcDbScale
 70
     0
300
3/16" = 1'-0"
140
0.1875
141
12.0
290
     0
  0
SCALE
  5
13B
102
{ACAD_REACTORS
330
B6
102
}
330
B6
100
AcDbScale
 70
     0
300
1/4" = 1'-0"
140
0.25
141
12.0
290
     0
  0
SCALE
  5
13C
102
{ACAD_REACTORS
330
B6
102
}
330
B6
100
AcDbScale
 70
     0
300
3/8" = 1'-0"
140
0.375
141
12.0
290
     0
  0
SCALE
  5
13D
102
{ACAD_REACTORS
330
B6
102
}
330
B6
100
AcDbScale
 70
     0
300
1/2" = 1'-0"
140
0.5
141
12.0
290
     0
  0
SCALE
  5
13E
102
{ACAD_REACTORS
330
B6
102
}
330
B6
100
AcDbScale
 70
     0
300
3/4" = 1'-0"
140
0.75
141
12.0
290
     0
  0
SCALE
  5
13F
102
{ACAD_REACTORS
330
B6
102
}
330
B6
100
AcDbScale
 70
     0
300
1" = 1'-0"
140
1.0
141
12.0
290
     0
  0
SCALE
  5
140
102
{ACAD_REACTORS
330
B6
102
}
330
B6
100
AcDbScale
 70
     0
300
1-1/2" = 1'-0"
140
1.5
141
12.0
290
     0
  0
SCALE
  5
141
102
{ACAD_REACTORS
330
B6
102
}
330
B6
100
AcDbScale
 70
     0
300
3" = 1'-0"
140
3.0
141
12.0
290
     0
  0
SCALE
  5
142
102
{ACAD_REACTORS
330
B6
102
}
330
B6
100
AcDbScale
 70
     0
300
6" = 1'-0"
140
6.0
141
12.0
290
     0
  0
SCALE
  5
143
102
{ACAD_REACTORS
330
B6
102
}
330
B6
100
AcDbScale
 70
     0
300
1'-0" = 1'-0"
140
12.0
141
12.0
290
     0
  0
TABLESTYLE
  5
87
102
{ACAD_XDICTIONARY
360
104
102
}
102
{ACAD_REACTORS
330
86
102
}
330
86
100
AcDbTableStyle
  3
Standard
 70
     0
 71
     0
 40
0.06
 41
0.06
280
     0
281
     0
  7
Standard
140
0.18
170
     2
 62
     0
 63
     7
283
     0
274
    -2
284
     1
 64
     0
275
    -2
285
     1
 65
     0
276
    -2
286
     1
 66
     0
277
    -2
287
     1
 67
     0
278
    -2
288
     1
 68
     0
279
    -2
289
     1
 69
     0
  7
Standard
140
0.25
170
     5
 62
     0
 63
     7
283
     0
274
    -2
284
     1
 64
     0
275
    -2
285
     1
 65
     0
276
    -2
286
     1
 66
     0
277
    -2
287
     1
 67
     0
278
    -2
288
     1
 68
     0
279
    -2
289
     1
 69
     0
  7
Standard
140
0.18
170
     5
 62
     0
 63
     7
283
     0
274
    -2
284
     1
 64
     0
275
    -2
285
     1
 65
     0
276
    -2
286
     1
 66
     0
277
    -2
287
     1
 67
     0
278
    -2
288
     1
 68
     0
279
    -2
289
     1
 69
     0
  0
VISUALSTYLE
  5
9F
102
{ACAD_REACTORS
330
99
102
}
330
99
100
AcDbVisualStyle
  2
2dWireframe
 70
     4
 71
     0
 72
     2
 73
     1
 90
        0
 40
-0.6
 41
-30.0
 62
     5
 63
     7
 74
     1
 91
        4
 64
     7
 65
   257
 75
     1
175
     1
 42
1.0
 92
        0
 66
   257
 43
1.0
 76
     1
 77
     6
 78
     2
 67
     7
 79
     5
170
     0
171
     0
290
     0
174
     0
 93
        1
 44
0.0
173
     0
291
     0
 45
0.0
1001
ACAD
1000
AcDbSavedByObjectVersion
1070
     0
  0
VISUALSTYLE
  5
A1
102
{ACAD_REACTORS
330
99
102
}
330
99
100
AcDbVisualStyle
  2
3D Hidden
 70
     6
 71
     1
 72
     2
 73
     2
 90
        0
 40
-0.6
 41
-30.0
 62
     5
 63
     7
 74
     2
 91
        2
 64
     7
 65
   257
 75
     2
175
     1
 42
40.0
 92
        0
 66
   257
 43
1.0
 76
     1
 77
     6
 78
     2
 67
     7
 79
     3
170
     0
171
     0
290
     0
174
     0
 93
        1
 44
0.0
173
     0
291
     0
 45
0.0
1001
ACAD
1000
AcDbSavedByObjectVersion
1070
     0
  0
VISUALSTYLE
  5
A0
102
{ACAD_REACTORS
330
99
102
}
330
99
100
AcDbVisualStyle
  2
3dWireframe
 70
     5
 71
     0
 72
     2
 73
     1
 90
        0
 40
-0.6
 41
-30.0
 62
     5
 63
     7
 74
     1
 91
        4
 64
     7
 65
   257
 75
     1
175
     1
 42
1.0
 92
        0
 66
   257
 43
1.0
 76
     1
 77
     6
 78
     2
 67
     7
 79
     5
170
     0
171
     0
290
     0
174
     0
 93
        1
 44
0.0
173
     0
291
     0
 45
0.0
1001
ACAD
1000
AcDbSavedByObjectVersion
1070
     0
  0
VISUALSTYLE
  5
9E
102
{ACAD_REACTORS
330
99
102
}
330
99
100
AcDbVisualStyle
  2
Basic
 70
     7
 71
     1
 72
     0
 73
     1
 90
        0
 40
-0.6
 41
-30.0
 62
     5
 63
     7
 74
     0
 91
        4
 64
     7
 65
   257
 75
     1
175
     1
 42
1.0
 92
        8
 66
     7
 43
1.0
 76
     1
 77
     6
 78
     2
 67
     7
 79
     5
170
     0
171
     0
290
     0
174
     0
 93
        1
 44
0.0
173
     0
291
     1
 45
0.0
1001
ACAD
1000
AcDbSavedByObjectVersion
1070
     0
  0
VISUALSTYLE
  5
A5
102
{ACAD_REACTORS
330
99
102
}
330
99
100
AcDbVisualStyle
  2
Brighten
 70
    12
 71
     2
 72
     2
 73
     1
 90
        0
 40
-0.6
 41
-30.0
 62
     5
 63
     7
 74
     1
 91
        4
 64
     7
 65
   257
 75
     1
175
     1
 42
1.0
 92
        8
 66
     7
 43
1.0
 76
     1
 77
     6
 78
     2
 67
     7
 79
     5
170
     0
171
     0
290
     0
174
     0
 93
        1
 44
50.0
173
     0
291
     1
 45
0.0
1001
ACAD
1000
AcDbSavedByObjectVersion
1070
     0
  0
VISUALSTYLE
  5
A9
102
{ACAD_REACTORS
330
99
102
}
330
99
100
AcDbVisualStyle
  2
ColorChange
 70
    16
 71
     2
 72
     2
 73
     3
 90
        0
 40
-0.6
 41
-30.0
 62
     5
 63
     8
 74
     1
 91
        4
 64
     7
 65
   257
 75
     1
175
     1
 42
1.0
 92
        8
 66
     8
 43
1.0
 76
     1
 77
     6
 78
     2
 67
     7
 79
     5
170
     0
171
     0
290
     0
174
     0
 93
        1
 44
0.0
173
     0
291
     1
 45
0.0
1001
ACAD
1000
AcDbSavedByObjectVersion
1070
     0
  0
VISUALSTYLE
  5
A2
102
{ACAD_REACTORS
330
99
102
}
330
99
100
AcDbVisualStyle
  2
Conceptual
 70
     9
 71
     3
 72
     2
 73
     1
 90
        0
 40
-0.6
 41
-30.0
 62
     5
 63
     7
 74
     2
 91
        2
 64
     7
 65
   257
 75
     1
175
     1
 42
40.0
 92
        8
 66
     7
 43
1.0
 76
     1
 77
     6
 78
     2
 67
     7
 79
     3
170
     0
171
     0
290
     0
174
     0
 93
        1
 44
0.0
173
     0
291
     0
 45
0.0
1001
ACAD
1000
AcDbSavedByObjectVersion
1070
     0
  0
VISUALSTYLE
  5
A4
102
{ACAD_REACTORS
330
99
102
}
330
99
100
AcDbVisualStyle
  2
Dim
 70
    11
 71
     2
 72
     2
 73
     1
 90
        0
 40
-0.6
 41
-30.0
 62
     5
 63
     7
 74
     1
 91
        4
 64
     7
 65
   257
 75
     1
175
     1
 42
1.0
 92
        8
 66
     7
 43
1.0
 76
     1
 77
     6
 78
     2
 67
     7
 79
     5
170
     0
171
     0
290
     0
174
     0
 93
        1
 44
-50.0
173
     0
291
     1
 45
0.0
1001
ACAD
1000
AcDbSavedByObjectVersion
1070
     0
  0
VISUALSTYLE
  5
A8
102
{ACAD_REACTORS
330
99
102
}
330
99
100
AcDbVisualStyle
  2
Facepattern
 70
    15
 71
     2
 72
     2
 73
     1
 90
        0
 40
-0.6
 41
-30.0
 62
     5
 63
     7
 74
     1
 91
        4
 64
     7
 65
   257
 75
     1
175
     1
 42
1.0
 92
        8
 66
     7
 43
1.0
 76
     1
 77
     6
 78
     2
 67
     7
 79
     5
170
     0
171
     0
290
     0
174
     0
 93
        1
 44
0.0
173
     0
291
     1
 45
0.0
1001
ACAD
1000
AcDbSavedByObjectVersion
1070
     0
  0
VISUALSTYLE
  5
9A
102
{ACAD_REACTORS
330
99
102
}
330
99
100
AcDbVisualStyle
  2
Flat
 70
     0
 71
     2
 72
     1
 73
     1
 90
        2
 40
-0.6
 41
30.0
 62
     5
 63
     7
 74
     0
 91
        4
 64
     7
 65
   257
 75
     1
175
     1
 42
1.0
 92
        8
 66
     7
 43
1.0
 76
     1
 77
     6
 78
     2
 67
     7
 79
     5
170
     0
171
     0
290
     0
174
     0
 93
        1
 44
0.0
173
     0
291
     1
 45
0.0
1001
ACAD
1000
AcDbSavedByObjectVersion
1070
     0
  0
VISUALSTYLE
  5
9B
102
{ACAD_REACTORS
330
99
102
}
330
99
100
AcDbVisualStyle
  2
FlatWithEdges
 70
     1
 71
     2
 72
     1
 73
     1
 90
        2
 40
-0.6
 41
30.0
 62
     5
 63
     7
 74
     1
 91
        4
 64
     7
 65
   257
 75
     1
175
     1
 42
1.0
 92
        0
 66
   257
 43
1.0
 76
     1
 77
     6
 78
     2
 67
     7
 79
     5
170
     0
171
     0
290
     0
174
     0
 93
        1
 44
0.0
173
     0
291
     1
 45
0.0
1001
ACAD
1000
AcDbSavedByObjectVersion
1070
     0
  0
VISUALSTYLE
  5
9C
102
{ACAD_REACTORS
330
99
102
}
330
99
100
AcDbVisualStyle
  2
Gouraud
 70
     2
 71
     2
 72
     2
 73
     1
 90
        2
 40
-0.6
 41
30.0
 62
     5
 63
     7
 74
     0
 91
        4
 64
     7
 65
   257
 75
     1
175
     1
 42
1.0
 92
        0
 66
     7
 43
1.0
 76
     1
 77
     6
 78
     2
 67
     7
 79
     5
170
     0
171
     0
290
     0
174
     0
 93
        1
 44
0.0
173
     0
291
     1
 45
0.0
1001
ACAD
1000
AcDbSavedByObjectVersion
1070
     0
  0
VISUALSTYLE
  5
9D
102
{ACAD_REACTORS
330
99
102
}
330
99
100
AcDbVisualStyle
  2
GouraudWithEdges
 70
     3
 71
     2
 72
     2
 73
     1
 90
        2
 40
-0.6
 41
30.0
 62
     5
 63
     7
 74
     1
 91
        4
 64
     7
 65
   257
 75
     1
175
     1
 42
1.0
 92
        0
 66
   257
 43
1.0
 76
     1
 77
     6
 78
     2
 67
     7
 79
     5
170
     0
171
     0
290
     0
174
     0
 93
        1
 44
0.0
173
     0
291
     1
 45
0.0
1001
ACAD
1000
AcDbSavedByObjectVersion
1070
     0
  0
VISUALSTYLE
  5
A7
102
{ACAD_REACTORS
330
99
102
}
330
99
100
AcDbVisualStyle
  2
Linepattern
 70
    14
 71
     2
 72
     2
 73
     1
 90
        0
 40
-0.6
 41
-30.0
 62
     5
 63
     7
 74
     1
 91
        4
 64
     7
 65
   257
 75
     7
175
     7
 42
1.0
 92
        8
 66
     7
 43
1.0
 76
     1
 77
     6
 78
     2
 67
     7
 79
     5
170
     0
171
     0
290
     0
174
     0
 93
        1
 44
0.0
173
     0
291
     1
 45
0.0
1001
ACAD
1000
AcDbSavedByObjectVersion
1070
     0
  0
VISUALSTYLE
  5
A3
102
{ACAD_REACTORS
330
99
102
}
330
99
100
AcDbVisualStyle
  2
Realistic
 70
     8
 71
     2
 72
     2
 73
     1
 90
        0
 40
-0.6
 41
-30.0
 62
     5
 63
     7
 74
     1
 91
        0
 64
     7
 65
   257
 75
     1
175
     1
 42
1.0
 92
        8
 66
     8
 43
1.0
 76
     1
 77
     6
 78
     2
 67
     7
 79
     5
170
     0
171
     0
290
     0
174
     0
 93
       13
 44
0.0
173
     0
291
     0
 45
0.0
1001
ACAD
1000
AcDbSavedByObjectVersion
1070
     0
  0
VISUALSTYLE
  5
A6
102
{ACAD_REACTORS
330
99
102
}
330
99
100
AcDbVisualStyle
  2
Thicken
 70
    13
 71
     2
 72
     2
 73
     1
 90
        0
 40
-0.6
 41
-30.0
 62
     5
 63
     7
 74
     1
 91
        4
 64
     7
 65
   257
 75
     1
175
     1
 42
1.0
 92
       12
 66
     7
 43
1.0
 76
     1
 77
     6
 78
     2
 67
     7
 79
     5
170
     0
171
     0
290
     0
174
     0
 93
        1
 44
0.0
173
     0
291
     1
 45
0.0
1001
ACAD
1000
AcDbSavedByObjectVersion
1070
     0
  0
DICTIONARYVAR
  5
F0
102
{ACAD_REACTORS
330
66
102
}
330
66
100
DictionaryVariables
280
     0
  1
1:1
  0
DICTIONARYVAR
  5
EF
102
{ACAD_REACTORS
330
66
102
}
330
66
100
DictionaryVariables
280
     0
  1
STANDARD
  0
DICTIONARYVAR
  5
89
102
{ACAD_REACTORS
330
66
102
}
330
66
100
DictionaryVariables
280
     0
  1
STANDARD
  0
DICTIONARYVAR
  5
67
102
{ACAD_REACTORS
330
66
102
}
330
66
100
DictionaryVariables
280
     0
  1
2
  0
DICTIONARYVAR
  5
6B
102
{ACAD_REACTORS
330
66
102
}
330
66
100
DictionaryVariables
280
     0
  1
1
  0
DICTIONARYVAR
  5
453
102
{ACAD_REACTORS
330
66
102
}
330
66
100
DictionaryVariables
280
     0
  1
0
  0
DICTIONARYVAR
  5
451
102
{ACAD_REACTORS
330
66
102
}
330
66
100
DictionaryVariables
280
     0
  1
2
  0
DICTIONARYVAR
  5
450
102
{ACAD_REACTORS
330
66
102
}
330
66
100
DictionaryVariables
280
     0
  1
1
  0
DICTIONARYVAR
  5
452
102
{ACAD_REACTORS
330
66
102
}
330
66
100
DictionaryVariables
280
     0
  1
127
  0
DICTIONARY
  5
458
330
59
100
AcDbDictionary
280
     1
281
     1
  3
ACAD_XREC_ROUNDTRIP
360
459
  0
DICTIONARY
  5
45A
330
5E
100
AcDbDictionary
280
     1
281
     1
  3
ACAD_XREC_ROUNDTRIP
360
45B
  0
DICTIONARY
  5
456
330
22
100
AcDbDictionary
280
     1
281
     1
  3
ACAD_XREC_ROUNDTRIP
360
457
  0
DICTIONARY
  5
45F
330
97
100
AcDbDictionary
280
     1
281
     1
  3
ACAD_XREC_ROUNDTRIP
360
460
  0
DICTIONARY
  5
45D
330
96
100
AcDbDictionary
280
     1
281
     1
  3
ACAD_XREC_ROUNDTRIP
360
45E
  0
DICTIONARY
  5
110
330
98
100
AcDbDictionary
280
     1
281
     1
  3
ACAD_XREC_ROUNDTRIP
360
461
  3
BUMPTILE
360
112
  3
DIFFUSETILE
360
111
  3
OPACITYTILE
360
113
  3
REFLECTIONTILE
360
114
  0
DICTIONARY
  5
104
330
87
100
AcDbDictionary
280
     1
281
     1
  3
ACAD_ROUNDTRIP_2008_TABLESTYLE_CELLSTYLEMAP
360
454
  3
ACAD_XREC_ROUNDTRIP
360
45C
  0
XRECORD
  5
459
102
{ACAD_REACTORS
330
458
102
}
330
458
100
AcDbXrecord
280
     1
102
SHADEPLOT
 70
     0
102
SHADEPLOTRESLEVEL
 70
     2
102
SHADEPLOTCUSTOMDPI
 70
   300
  0
XRECORD
  5
45B
102
{ACAD_REACTORS
330
45A
102
}
330
45A
100
AcDbXrecord
280
     1
102
SHADEPLOT
 70
     0
102
SHADEPLOTRESLEVEL
 70
     2
102
SHADEPLOTCUSTOMDPI
 70
   300
  0
XRECORD
  5
457
102
{ACAD_REACTORS
330
456
102
}
330
456
100
AcDbXrecord
280
     1
102
SHADEPLOT
 70
     0
102
SHADEPLOTRESLEVEL
 70
     2
102
SHADEPLOTCUSTOMDPI
 70
   300
  0
XRECORD
  5
460
102
{ACAD_REACTORS
330
45F
102
}
330
45F
100
AcDbXrecord
280
     1
102
MATERIAL
148
0.0
149
0.0
149
0.0
 93
        0
 94
       63
282
     0
 72
     1
 77
     1
171
     1
175
     1
179
     1
273
     0
  0
XRECORD
  5
45E
102
{ACAD_REACTORS
330
45D
102
}
330
45D
100
AcDbXrecord
280
     1
102
MATERIAL
148
0.0
149
0.0
149
0.0
 93
        0
 94
       63
282
     0
 72
     1
 77
     1
171
     1
175
     1
179
     1
273
     0
  0
XRECORD
  5
461
102
{ACAD_REACTORS
330
110
102
}
330
110
100
AcDbXrecord
280
     1
102
MATERIAL
148
0.0
149
0.0
149
0.0
 93
        0
 94
       63
282
     0
 72
     1
 77
     1
171
     1
175
     1
179
     1
273
     0
  0
XRECORD
  5
112
102
{ACAD_REACTORS
330
110
102
}
330
110
100
AcDbXrecord
280
     1
270
     1
271
     1
  0
XRECORD
  5
111
102
{ACAD_REACTORS
330
110
102
}
330
110
100
AcDbXrecord
280
     1
270
     1
271
     1
  0
XRECORD
  5
113
102
{ACAD_REACTORS
330
110
102
}
330
110
100
AcDbXrecord
280
     1
270
     1
271
     1
  0
XRECORD
  5
114
102
{ACAD_REACTORS
330
110
102
}
330
110
100
AcDbXrecord
280
     1
270
     1
271
     1
  0
CELLSTYLEMAP
  5
454
102
{ACAD_REACTORS
330
104
102
}
330
104
100
AcDbCellStyleMap
 90
        3
300
CELLSTYLE
  1
TABLEFORMAT_BEGIN
 90
        5
170
     1
 91
        0
 92
    32768
 62
   257
 93
        1
300
CONTENTFORMAT
  1
CONTENTFORMAT_BEGIN
 90
        0
 91
        0
 92
      512
 93
        0
300

 40
0.0
140
1.0
 94
        5
 62
     0
340
11
144
0.25
309
CONTENTFORMAT_END
171
     1
301
MARGIN
  1
CELLMARGIN_BEGIN
 40
0.06
 40
0.06
 40
0.06
 40
0.06
 40
0.18
 40
0.18
309
CELLMARGIN_END
 94
        6
 95
        1
302
GRIDFORMAT
  1
GRIDFORMAT_BEGIN
 90
        0
 91
        1
 62
     0
 92
       -2
340
0
 93
        0
 40
0.045
309
GRIDFORMAT_END
 95
        2
302
GRIDFORMAT
  1
GRIDFORMAT_BEGIN
 90
        0
 91
        1
 62
     0
 92
       -2
340
0
 93
        0
 40
0.045
309
GRIDFORMAT_END
 95
        4
302
GRIDFORMAT
  1
GRIDFORMAT_BEGIN
 90
        0
 91
        1
 62
     0
 92
       -2
340
0
 93
        0
 40
0.045
309
GRIDFORMAT_END
 95
        8
302
GRIDFORMAT
  1
GRIDFORMAT_BEGIN
 90
        0
 91
        1
 62
     0
 92
       -2
340
0
 93
        0
 40
0.045
309
GRIDFORMAT_END
 95
       16
302
GRIDFORMAT
  1
GRIDFORMAT_BEGIN
 90
        0
 91
        1
 62
     0
 92
       -2
340
0
 93
        0
 40
0.045
309
GRIDFORMAT_END
 95
       32
302
GRIDFORMAT
  1
GRIDFORMAT_BEGIN
 90
        0
 91
        1
 62
     0
 92
       -2
340
0
 93
        0
 40
0.045
309
GRIDFORMAT_END
309
TABLEFORMAT_END
  1
CELLSTYLE_BEGIN
 90
        1
 91
        1
300
_TITLE
309
CELLSTYLE_END
300
CELLSTYLE
  1
TABLEFORMAT_BEGIN
 90
        5
170
     1
 91
        0
 92
        0
 62
   257
 93
        1
300
CONTENTFORMAT
  1
CONTENTFORMAT_BEGIN
 90
        0
 91
        0
 92
      512
 93
        0
300

 40
0.0
140
1.0
 94
        5
 62
     0
340
11
144
0.18
309
CONTENTFORMAT_END
171
     1
301
MARGIN
  1
CELLMARGIN_BEGIN
 40
0.06
 40
0.06
 40
0.06
 40
0.06
 40
0.18
 40
0.18
309
CELLMARGIN_END
 94
        6
 95
        1
302
GRIDFORMAT
  1
GRIDFORMAT_BEGIN
 90
        0
 91
        1
 62
     0
 92
       -2
340
0
 93
        0
 40
0.045
309
GRIDFORMAT_END
 95
        2
302
GRIDFORMAT
  1
GRIDFORMAT_BEGIN
 90
        0
 91
        1
 62
     0
 92
       -2
340
0
 93
        0
 40
0.045
309
GRIDFORMAT_END
 95
        4
302
GRIDFORMAT
  1
GRIDFORMAT_BEGIN
 90
        0
 91
        1
 62
     0
 92
       -2
340
0
 93
        0
 40
0.045
309
GRIDFORMAT_END
 95
        8
302
GRIDFORMAT
  1
GRIDFORMAT_BEGIN
 90
        0
 91
        1
 62
     0
 92
       -2
340
0
 93
        0
 40
0.045
309
GRIDFORMAT_END
 95
       16
302
GRIDFORMAT
  1
GRIDFORMAT_BEGIN
 90
        0
 91
        1
 62
     0
 92
       -2
340
0
 93
        0
 40
0.045
309
GRIDFORMAT_END
 95
       32
302
GRIDFORMAT
  1
GRIDFORMAT_BEGIN
 90
        0
 91
        1
 62
     0
 92
       -2
340
0
 93
        0
 40
0.045
309
GRIDFORMAT_END
309
TABLEFORMAT_END
  1
CELLSTYLE_BEGIN
 90
        2
 91
        1
300
_HEADER
309
CELLSTYLE_END
300
CELLSTYLE
  1
TABLEFORMAT_BEGIN
 90
        5
170
     1
 91
        0
 92
        0
 62
   257
 93
        1
300
CONTENTFORMAT
  1
CONTENTFORMAT_BEGIN
 90
        0
 91
        0
 92
      512
 93
        0
300

 40
0.0
140
1.0
 94
        2
 62
     0
340
11
144
0.18
309
CONTENTFORMAT_END
171
     1
301
MARGIN
  1
CELLMARGIN_BEGIN
 40
0.06
 40
0.06
 40
0.06
 40
0.06
 40
0.18
 40
0.18
309
CELLMARGIN_END
 94
        6
 95
        1
302
GRIDFORMAT
  1
GRIDFORMAT_BEGIN
 90
        0
 91
        1
 62
     0
 92
       -2
340
0
 93
        0
 40
0.045
309
GRIDFORMAT_END
 95
        2
302
GRIDFORMAT
  1
GRIDFORMAT_BEGIN
 90
        0
 91
        1
 62
     0
 92
       -2
340
0
 93
        0
 40
0.045
309
GRIDFORMAT_END
 95
        4
302
GRIDFORMAT
  1
GRIDFORMAT_BEGIN
 90
        0
 91
        1
 62
     0
 92
       -2
340
0
 93
        0
 40
0.045
309
GRIDFORMAT_END
 95
        8
302
GRIDFORMAT
  1
GRIDFORMAT_BEGIN
 90
        0
 91
        1
 62
     0
 92
       -2
340
0
 93
        0
 40
0.045
309
GRIDFORMAT_END
 95
       16
302
GRIDFORMAT
  1
GRIDFORMAT_BEGIN
 90
        0
 91
        1
 62
     0
 92
       -2
340
0
 93
        0
 40
0.045
309
GRIDFORMAT_END
 95
       32
302
GRIDFORMAT
  1
GRIDFORMAT_BEGIN
 90
        0
 91
        1
 62
     0
 92
       -2
340
0
 93
        0
 40
0.045
309
GRIDFORMAT_END
309
TABLEFORMAT_END
  1
CELLSTYLE_BEGIN
 90
        3
 91
        2
300
_DATA
309
CELLSTYLE_END
  0
XRECORD
  5
45C
102
{ACAD_REACTORS
330
104
102
}
330
104
100
AcDbXrecord
280
     1
102
ACAD_ROUNDTRIP_PRE2007_TABLESTYLE
 90
      512
 91
        0
  1

 92
      512
 93
        0
  2

 94
      512
 95
        0
  3

  0
ENDSEC
  0
EOF
