  0
SECTION
  2
HEADER
  9
$ACADVER
  1
AC1015
  9
$ACADMAINTVER
 70
    20
  9
$DWGCODEPAGE
  3
ANSI_1252
  9
$INSBASE
 10
0.0
 20
0.0
 30
0.0
  9
$EXTMIN
 10
-12.06226472858588
 20
-166.1305194447577
 30
-0.0000000000000135
  9
$EXTMAX
 10
340.8879961654175
 20
366.9029824533764
 30
0.0000000000000171
  9
$LIMMIN
 10
0.0
 20
0.0
  9
$LIMMAX
 10
12.0
 20
9.0
  9
$ORTHOMODE
 70
     0
  9
$REGENMODE
 70
     1
  9
$FILLMODE
 70
     1
  9
$QTEXTMODE
 70
     0
  9
$MIRRTEXT
 70
     0
  9
$LTSCALE
 40
1.0
  9
$ATTMODE
 70
     1
  9
$TEXTSIZE
 40
0.2
  9
$TRACEWID
 40
0.05
  9
$TEXTSTYLE
  7
Standard
  9
$CLAYER
  8
0
  9
$CELTYPE
  6
ByLayer
  9
$CECOLOR
 62
   256
  9
$CELTSCALE
 40
1.0
  9
$DISPSILH
 70
     0
  9
$DIMSCALE
 40
1.0
  9
$DIMASZ
 40
0.18
  9
$DIMEXO
 40
0.0625
  9
$DIMDLI
 40
0.38
  9
$DIMRND
 40
0.0
  9
$DIMDLE
 40
0.0
  9
$DIMEXE
 40
0.18
  9
$DIMTP
 40
0.0
  9
$DIMTM
 40
0.0
  9
$DIMTXT
 40
0.18
  9
$DIMCEN
 40
0.09
  9
$DIMTSZ
 40
0.0
  9
$DIMTOL
 70
     0
  9
$DIMLIM
 70
     0
  9
$DIMTIH
 70
     1
  9
$DIMTOH
 70
     1
  9
$DIMSE1
 70
     0
  9
$DIMSE2
 70
     0
  9
$DIMTAD
 70
     0
  9
$DIMZIN
 70
     0
  9
$DIMBLK
  1

  9
$DIMASO
 70
     1
  9
$DIMSHO
 70
     1
  9
$DIMPOST
  1

  9
$DIMAPOST
  1

  9
$DIMALT
 70
     0
  9
$DIMALTD
 70
     2
  9
$DIMALTF
 40
25.4
  9
$DIMLFAC
 40
1.0
  9
$DIMTOFL
 70
     0
  9
$DIMTVP
 40
0.0
  9
$DIMTIX
 70
     0
  9
$DIMSOXD
 70
     0
  9
$DIMSAH
 70
     0
  9
$DIMBLK1
  1

  9
$DIMBLK2
  1

  9
$DIMSTYLE
  2
Standard
  9
$DIMCLRD
 70
     0
  9
$DIMCLRE
 70
     0
  9
$DIMCLRT
 70
     0
  9
$DIMTFAC
 40
1.0
  9
$DIMGAP
 40
0.09
  9
$DIMJUST
 70
     0
  9
$DIMSD1
 70
     0
  9
$DIMSD2
 70
     0
  9
$DIMTOLJ
 70
     1
  9
$DIMTZIN
 70
     0
  9
$DIMALTZ
 70
     0
  9
$DIMALTTZ
 70
     0
  9
$DIMUPT
 70
     0
  9
$DIMDEC
 70
     4
  9
$DIMTDEC
 70
     4
  9
$DIMALTU
 70
     2
  9
$DIMALTTD
 70
     2
  9
$DIMTXSTY
  7
Standard
  9
$DIMAUNIT
 70
     0
  9
$DIMADEC
 70
     0
  9
$DIMALTRND
 40
0.0
  9
$DIMAZIN
 70
     0
  9
$DIMDSEP
 70
    46
  9
$DIMATFIT
 70
     3
  9
$DIMFRAC
 70
     0
  9
$DIMLDRBLK
  1

  9
$DIMLUNIT
 70
     2
  9
$DIMLWD
 70
    -2
  9
$DIMLWE
 70
    -2
  9
$DIMTMOVE
 70
     0
  9
$LUNITS
 70
     2
  9
$LUPREC
 70
     4
  9
$SKETCHINC
 40
0.1
  9
$FILLETRAD
 40
0.0
  9
$AUNITS
 70
     0
  9
$AUPREC
 70
     0
  9
$MENU
  1
.
  9
$ELEVATION
 40
0.0
  9
$PELEVATION
 40
0.0
  9
$THICKNESS
 40
0.0
  9
$LIMCHECK
 70
     0
  9
$CHAMFERA
 40
0.0
  9
$CHAMFERB
 40
0.0
  9
$CHAMFERC
 40
0.0
  9
$CHAMFERD
 40
0.0
  9
$SKPOLY
 70
     0
  9
$TDCREATE
 40
2455286.567286702
  9
$TDUCREATE
 40
2455286.525620035
  9
$TDUPDATE
 40
2455510.728304132
  9
$TDUUPDATE
 40
2455510.686637465
  9
$TDINDWG
 40
0.0981364699
  9
$TDUSRTIMER
 40
0.0981362500
  9
$USRTIMER
 70
     1
  9
$ANGBASE
 50
0.0
  9
$ANGDIR
 70
     0
  9
$PDMODE
 70
     0
  9
$PDSIZE
 40
0.0
  9
$PLINEWID
 40
0.0
  9
$SPLFRAME
 70
     0
  9
$SPLINETYPE
 70
     6
  9
$SPLINESEGS
 70
     8
  9
$HANDSEED
  5
2DC5
  9
$SURFTAB1
 70
     6
  9
$SURFTAB2
 70
     6
  9
$SURFTYPE
 70
     6
  9
$SURFU
 70
     6
  9
$SURFV
 70
     6
  9
$UCSBASE
  2

  9
$UCSNAME
  2

  9
$UCSORG
 10
0.0
 20
0.0
 30
0.0
  9
$UCSXDIR
 10
1.0
 20
0.0
 30
0.0
  9
$UCSYDIR
 10
0.0
 20
1.0
 30
0.0
  9
$UCSORTHOREF
  2

  9
$UCSORTHOVIEW
 70
     0
  9
$UCSORGTOP
 10
0.0
 20
0.0
 30
0.0
  9
$UCSORGBOTTOM
 10
0.0
 20
0.0
 30
0.0
  9
$UCSORGLEFT
 10
0.0
 20
0.0
 30
0.0
  9
$UCSORGRIGHT
 10
0.0
 20
0.0
 30
0.0
  9
$UCSORGFRONT
 10
0.0
 20
0.0
 30
0.0
  9
$UCSORGBACK
 10
0.0
 20
0.0
 30
0.0
  9
$PUCSBASE
  2

  9
$PUCSNAME
  2

  9
$PUCSORG
 10
0.0
 20
0.0
 30
0.0
  9
$PUCSXDIR
 10
1.0
 20
0.0
 30
0.0
  9
$PUCSYDIR
 10
0.0
 20
1.0
 30
0.0
  9
$PUCSORTHOREF
  2

  9
$PUCSORTHOVIEW
 70
     0
  9
$PUCSORGTOP
 10
0.0
 20
0.0
 30
0.0
  9
$PUCSORGBOTTOM
 10
0.0
 20
0.0
 30
0.0
  9
$PUCSORGLEFT
 10
0.0
 20
0.0
 30
0.0
  9
$PUCSORGRIGHT
 10
0.0
 20
0.0
 30
0.0
  9
$PUCSORGFRONT
 10
0.0
 20
0.0
 30
0.0
  9
$PUCSORGBACK
 10
0.0
 20
0.0
 30
0.0
  9
$USERI1
 70
     0
  9
$USERI2
 70
     0
  9
$USERI3
 70
     0
  9
$USERI4
 70
     0
  9
$USERI5
 70
     0
  9
$USERR1
 40
0.0
  9
$USERR2
 40
0.0
  9
$USERR3
 40
0.0
  9
$USERR4
 40
0.0
  9
$USERR5
 40
0.0
  9
$WORLDVIEW
 70
     1
  9
$SHADEDGE
 70
     3
  9
$SHADEDIF
 70
    70
  9
$TILEMODE
 70
     1
  9
$MAXACTVP
 70
    64
  9
$PINSBASE
 10
0.0
 20
0.0
 30
0.0
  9
$PLIMCHECK
 70
     0
  9
$PEXTMIN
 10
0.0
 20
0.0
 30
0.0
  9
$PEXTMAX
 10
0.0
 20
0.0
 30
0.0
  9
$PLIMMIN
 10
0.0
 20
0.0
  9
$PLIMMAX
 10
12.0
 20
9.0
  9
$UNITMODE
 70
     0
  9
$VISRETAIN
 70
     1
  9
$PLINEGEN
 70
     0
  9
$PSLTSCALE
 70
     1
  9
$TREEDEPTH
 70
  3020
  9
$CMLSTYLE
  2
Standard
  9
$CMLJUST
 70
     0
  9
$CMLSCALE
 40
1.0
  9
$PROXYGRAPHICS
 70
     1
  9
$MEASUREMENT
 70
     0
  9
$CELWEIGHT
370
    -1
  9
$ENDCAPS
280
     0
  9
$JOINSTYLE
280
     0
  9
$LWDISPLAY
290
     0
  9
$INSUNITS
 70
     1
  9
$HYPERLINKBASE
  1

  9
$STYLESHEET
  1

  9
$XEDIT
290
     1
  9
$CEPSNTYPE
380
     0
  9
$PSTYLEMODE
290
     1
  9
$FINGERPRINTGUID
  2
{F7AB8ACA-D7CA-45D9-9FB4-F54A052DA1D9}
  9
$VERSIONGUID
  2
{B5C76487-0B7D-408C-8A18-AE5DF957EB90}
  9
$EXTNAMES
290
     1
  9
$PSVPSCALE
 40
0.0
  9
$OLESTARTUP
290
     0
  0
ENDSEC
  0
SECTION
  2
CLASSES
  0
CLASS
  1
ACDBDICTIONARYWDFLT
  2
AcDbDictionaryWithDefault
  3
ObjectDBX Classes
 90
        0
280
     0
281
     0
  0
CLASS
  1
ACDBPLACEHOLDER
  2
AcDbPlaceHolder
  3
ObjectDBX Classes
 90
        0
280
     0
281
     0
  0
CLASS
  1
LAYOUT
  2
AcDbLayout
  3
ObjectDBX Classes
 90
        0
280
     0
281
     0
  0
CLASS
  1
DICTIONARYVAR
  2
AcDbDictionaryVar
  3
ObjectDBX Classes
 90
        0
280
     0
281
     0
  0
CLASS
  1
TABLESTYLE
  2
AcDbTableStyle
  3
ObjectDBX Classes
 90
     4095
280
     0
281
     0
  0
CLASS
  1
MATERIAL
  2
AcDbMaterial
  3
ObjectDBX Classes
 90
     1153
280
     0
281
     0
  0
CLASS
  1
VISUALSTYLE
  2
AcDbVisualStyle
  3
ObjectDBX Classes
 90
     4095
280
     0
281
     0
  0
CLASS
  1
SCALE
  2
AcDbScale
  3
ObjectDBX Classes
 90
     1153
280
     0
281
     0
  0
CLASS
  1
MLEADERSTYLE
  2
AcDbMLeaderStyle
  3
ACDB_MLEADERSTYLE_CLASS
 90
     4095
280
     0
281
     0
  0
CLASS
  1
CELLSTYLEMAP
  2
AcDbCellStyleMap
  3
ObjectDBX Classes
 90
     1152
280
     0
281
     0
  0
CLASS
  1
DIMASSOC
  2
AcDbDimAssoc
  3
"AcDbDimAssoc|Product Desc:     AcDim ARX App For Dimension|Company:          Autodesk, Inc.|WEB Address:      www.autodesk.com"
 90
    32768
280
     0
281
     0
  0
CLASS
  1
SORTENTSTABLE
  2
AcDbSortentsTable
  3
ObjectDBX Classes
 90
    32768
280
     0
281
     0
  0
ENDSEC
  0
SECTION
  2
TABLES
  0
TABLE
  2
VPORT
  5
8
330
0
100
AcDbSymbolTable
 70
     1
  0
VPORT
  5
94
330
8
100
AcDbSymbolTableRecord
100
AcDbViewportTableRecord
  2
*Active
 70
     0
 10
0.0
 20
0.0
 11
1.0
 21
1.0
 12
164.4128657184158
 22
100.3862315043093
 13
0.0
 23
0.0
 14
0.5
 24
0.5
 15
0.5
 25
0.5
 16
0.0
 26
0.0
 36
1.0
 17
0.0
 27
0.0
 37
0.0
 40
537.4326779798243
 41
1.148760330578512
 42
50.0
 43
0.0
 44
0.0
 50
0.0
 51
0.0
 71
     0
 72
  1000
 73
     1
 74
     3
 75
     0
 76
     0
 77
     0
 78
     0
281
     0
 65
     1
110
0.0
120
0.0
130
0.0
111
1.0
121
0.0
131
0.0
112
0.0
122
1.0
132
0.0
 79
     0
146
0.0
  0
ENDTAB
  0
TABLE
  2
LTYPE
  5
5
330
0
100
AcDbSymbolTable
 70
     2
  0
LTYPE
  5
14
330
5
100
AcDbSymbolTableRecord
100
AcDbLinetypeTableRecord
  2
ByBlock
 70
     0
  3

 72
    65
 73
     0
 40
0.0
  0
LTYPE
  5
15
330
5
100
AcDbSymbolTableRecord
100
AcDbLinetypeTableRecord
  2
ByLayer
 70
     0
  3

 72
    65
 73
     0
 40
0.0
  0
LTYPE
  5
16
330
5
100
AcDbSymbolTableRecord
100
AcDbLinetypeTableRecord
  2
Continuous
 70
     0
  3
Solid line
 72
    65
 73
     0
 40
0.0
  0
LTYPE
  5
14D
330
5
100
AcDbSymbolTableRecord
100
AcDbLinetypeTableRecord
  2
DASHDOT
 70
     0
  3
 __ . __ . __ . __ . __ . __ . __ . 
 72
    65
 73
     4
 40
18.5
 49
12.0
 74
     0
 49
-3.0
 74
     0
 49
0.5
 74
     0
 49
-3.0
 74
     0
  0
ENDTAB
  0
TABLE
  2
LAYER
  5
2
102
{ACAD_XDICTIONARY
360
11DD
102
}
330
0
100
AcDbSymbolTable
 70
    10
  0
LAYER
  5
10
102
{ACAD_XDICTIONARY
360
E6
102
}
330
2
100
AcDbSymbolTableRecord
100
AcDbLayerTableRecord
  2
0
 70
     0
 62
     7
  6
Continuous
370
    -3
390
F
  0
LAYER
  5
10A1
330
2
100
AcDbSymbolTableRecord
100
AcDbLayerTableRecord
  2
Defpoints
 70
     0
 62
     7
  6
Continuous
290
     0
370
    -3
390
F
  0
LAYER
  5
11DB
102
{ACAD_XDICTIONARY
360
135B
102
}
330
2
100
AcDbSymbolTableRecord
100
AcDbLayerTableRecord
  2
Q
 70
     0
 62
     7
  6
Continuous
370
    -3
390
F
1001
AcAecLayerStandard
1000

1000

  0
LAYER
  5
120B
102
{ACAD_XDICTIONARY
360
120C
102
}
330
2
100
AcDbSymbolTableRecord
100
AcDbLayerTableRecord
  2
C
 70
     0
 62
     7
  6
Continuous
370
    -3
390
F
1001
AcAecLayerStandard
1000

1000

  0
LAYER
  5
1378
102
{ACAD_XDICTIONARY
360
1379
102
}
330
2
100
AcDbSymbolTableRecord
100
AcDbLayerTableRecord
  2
S
 70
     0
 62
     7
  6
Continuous
370
    -3
390
F
1001
AcAecLayerStandard
1000

1000

  0
LAYER
  5
137A
102
{ACAD_XDICTIONARY
360
137B
102
}
330
2
100
AcDbSymbolTableRecord
100
AcDbLayerTableRecord
  2
T
 70
     0
 62
     7
  6
Continuous
370
    -3
390
F
1001
AcAecLayerStandard
1000

1000

  0
LAYER
  5
1F13
330
2
100
AcDbSymbolTableRecord
100
AcDbLayerTableRecord
  2
E
 70
     0
 62
     7
  6
Continuous
370
    -3
390
F
1001
AcAecLayerStandard
1000

1000

  0
LAYER
  5
2C93
330
2
100
AcDbSymbolTableRecord
100
AcDbLayerTableRecord
  2
CTM
 70
     0
 62
     7
  6
Continuous
370
    -3
390
F
1001
AcAecLayerStandard
1000

1000

  0
LAYER
  5
2C94
330
2
100
AcDbSymbolTableRecord
100
AcDbLayerTableRecord
  2
STM
 70
     0
 62
     7
  6
Continuous
370
    -3
390
F
1001
AcAecLayerStandard
1000

1000

  0
LAYER
  5
2D19
330
2
100
AcDbSymbolTableRecord
100
AcDbLayerTableRecord
  2
QUOTE
 70
     0
 62
     7
  6
Continuous
370
    -3
390
F
1001
AcAecLayerStandard
1000

1000

  0
ENDTAB
  0
TABLE
  2
STYLE
  5
3
330
0
100
AcDbSymbolTable
 70
     3
  0
STYLE
  5
11
330
3
100
AcDbSymbolTableRecord
100
AcDbTextStyleTableRecord
  2
Standard
 70
     0
 40
0.0
 41
1.0
 50
0.0
 71
     0
 42
0.2
  3
txt.shx
  4

  0
STYLE
  5
DC
330
3
100
AcDbSymbolTableRecord
100
AcDbTextStyleTableRecord
  2
Annotativa
 70
     0
 40
0.0
 41
1.0
 50
0.0
 71
     0
 42
0.2
  3
txt.shx
  4

1001
AcadAnnotative
1000
AnnotativeData
1002
{
1070
     1
1070
     1
1002
}
  0
STYLE
  5
10C7
330
3
100
AcDbSymbolTableRecord
100
AcDbTextStyleTableRecord
  2
H
 70
     0
 40
0.0
 41
1.0
 50
0.0
 71
     0
 42
1.0
  3
ROMANS.SHX
  4

  0
ENDTAB
  0
TABLE
  2
VIEW
  5
6
330
0
100
AcDbSymbolTable
 70
     1
  0
ENDTAB
  0
TABLE
  2
UCS
  5
7
330
0
100
AcDbSymbolTable
 70
     0
  0
ENDTAB
  0
TABLE
  2
APPID
  5
9
330
0
100
AcDbSymbolTable
 70
     8
  0
APPID
  5
12
330
9
100
AcDbSymbolTableRecord
100
AcDbRegAppTableRecord
  2
ACAD
 70
     0
  0
APPID
  5
DD
330
9
100
AcDbSymbolTableRecord
100
AcDbRegAppTableRecord
  2
AcadAnnoPO
 70
     0
  0
APPID
  5
DE
330
9
100
AcDbSymbolTableRecord
100
AcDbRegAppTableRecord
  2
AcadAnnotative
 70
     0
  0
APPID
  5
DF
330
9
100
AcDbSymbolTableRecord
100
AcDbRegAppTableRecord
  2
ACAD_DSTYLE_DIMJAG
 70
     0
  0
APPID
  5
E0
330
9
100
AcDbSymbolTableRecord
100
AcDbRegAppTableRecord
  2
ACAD_DSTYLE_DIMTALN
 70
     0
  0
APPID
  5
107
330
9
100
AcDbSymbolTableRecord
100
AcDbRegAppTableRecord
  2
ACAD_MLEADERVER
 70
     0
  0
APPID
  5
11DC
330
9
100
AcDbSymbolTableRecord
100
AcDbRegAppTableRecord
  2
AcAecLayerStandard
 70
     0
  0
APPID
  5
1205
330
9
100
AcDbSymbolTableRecord
100
AcDbRegAppTableRecord
  2
ACAD_EXEMPT_FROM_CAD_STANDARDS
 70
     0
  0
ENDTAB
  0
TABLE
  2
DIMSTYLE
  5
A
330
0
100
AcDbSymbolTable
 70
     2
100
AcDbDimStyleTable
 71
     2
340
27
340
E1
  0
DIMSTYLE
105
27
102
{ACAD_REACTORS
330
2D21
330
2D22
102
}
330
A
100
AcDbSymbolTableRecord
100
AcDbDimStyleTableRecord
  2
Standard
 70
     0
340
11
  0
DIMSTYLE
105
E1
330
A
100
AcDbSymbolTableRecord
100
AcDbDimStyleTableRecord
  2
Annotativa
 70
     0
 40
0.0
340
11
1001
AcadAnnotative
1000
AnnotativeData
1002
{
1070
     1
1070
     1
1002
}
1001
ACAD_DSTYLE_DIMJAG
1070
   388
1040
1.5
1001
ACAD_DSTYLE_DIMTALN
1070
   392
1070
     0
  0
ENDTAB
  0
TABLE
  2
BLOCK_RECORD
  5
1
330
0
100
AcDbSymbolTable
 70
     6
  0
BLOCK_RECORD
  5
1F
330
1
100
AcDbSymbolTableRecord
100
AcDbBlockTableRecord
  2
*Model_Space
340
22
  0
BLOCK_RECORD
  5
58
330
1
100
AcDbSymbolTableRecord
100
AcDbBlockTableRecord
  2
*Paper_Space
340
59
  0
BLOCK_RECORD
  5
5D
330
1
100
AcDbSymbolTableRecord
100
AcDbBlockTableRecord
  2
*Paper_Space0
340
5E
  0
BLOCK_RECORD
  5
10A2
330
1
100
AcDbSymbolTableRecord
100
AcDbBlockTableRecord
  2
*D1
340
0
  0
BLOCK_RECORD
  5
2CFF
330
1
100
AcDbSymbolTableRecord
100
AcDbBlockTableRecord
  2
*D2
340
0
  0
BLOCK_RECORD
  5
2D0C
330
1
100
AcDbSymbolTableRecord
100
AcDbBlockTableRecord
  2
*D3
340
0
  0
BLOCK_RECORD
  5
2D23
330
1
100
AcDbSymbolTableRecord
100
AcDbBlockTableRecord
  2
*D4
340
0
  0
BLOCK_RECORD
  5
2D30
330
1
100
AcDbSymbolTableRecord
100
AcDbBlockTableRecord
  2
*D5
340
0
  0
ENDTAB
  0
ENDSEC
  0
SECTION
  2
BLOCKS
  0
BLOCK
  5
20
330
1F
100
AcDbEntity
  8
0
100
AcDbBlockBegin
  2
*Model_Space
 70
     0
 10
0.0
 20
0.0
 30
0.0
  3
*Model_Space
  1

  0
ENDBLK
  5
21
330
1F
100
AcDbEntity
  8
0
100
AcDbBlockEnd
  0
BLOCK
  5
5A
330
58
100
AcDbEntity
 67
     1
  8
0
100
AcDbBlockBegin
  2
*Paper_Space
 70
     0
 10
0.0
 20
0.0
 30
0.0
  3
*Paper_Space
  1

  0
ENDBLK
  5
5B
330
58
100
AcDbEntity
 67
     1
  8
0
100
AcDbBlockEnd
  0
BLOCK
  5
5F
330
5D
100
AcDbEntity
 67
     1
  8
0
100
AcDbBlockBegin
  2
*Paper_Space0
 70
     0
 10
0.0
 20
0.0
 30
0.0
  3
*Paper_Space0
  1

  0
ENDBLK
  5
60
330
5D
100
AcDbEntity
 67
     1
  8
0
100
AcDbBlockEnd
  0
BLOCK
  5
10A3
330
10A2
100
AcDbEntity
  8
0
100
AcDbBlockBegin
  2
*D1
 70
     1
 10
0.0
 20
0.0
 30
0.0
  3
*D1
  1

  0
LINE
  5
10B0
330
10A2
100
AcDbEntity
  8
0
 62
     0
370
    -2
100
AcDbLine
 10
35.70432986678478
 20
481.4069933417463
 30
0.0
 11
35.70432986678478
 21
530.6494520074759
 31
0.0
  0
LINE
  5
10B1
330
10A2
100
AcDbEntity
  8
0
 62
     0
370
    -2
100
AcDbLine
 10
355.7043298667847
 20
481.4069933417464
 30
0.0
 11
355.7043298667847
 21
530.6494520074759
 31
0.0
  0
LINE
  5
10B2
330
10A2
100
AcDbEntity
  8
0
 62
     0
370
    -2
100
AcDbLine
 10
35.88432986678478
 20
530.4694520074758
 30
0.0
 11
195.0593298667847
 21
530.4694520074758
 31
0.0
  0
LINE
  5
10B3
330
10A2
100
AcDbEntity
  8
0
 62
     0
370
    -2
100
AcDbLine
 10
355.5243298667847
 20
530.4694520074758
 30
0.0
 11
196.3493298667847
 21
530.4694520074758
 31
0.0
  0
SOLID
  5
10B4
330
10A2
100
AcDbEntity
  8
0
 62
     0
100
AcDbTrace
 10
35.88432986678478
 20
530.4994520074758
 30
0.0
 11
35.88432986678478
 21
530.4394520074761
 31
0.0
 12
35.70432986678478
 22
530.4694520074758
 32
0.0
 13
35.70432986678478
 23
530.4694520074758
 33
0.0
  0
SOLID
  5
10B5
330
10A2
100
AcDbEntity
  8
0
 62
     0
100
AcDbTrace
 10
355.5243298667847
 20
530.4994520074758
 30
0.0
 11
355.5243298667847
 21
530.4394520074761
 31
0.0
 12
355.7043298667847
 22
530.4694520074758
 32
0.0
 13
355.7043298667847
 23
530.4694520074758
 33
0.0
  0
MTEXT
  5
10B6
330
10A2
100
AcDbEntity
  8
0
 62
     0
100
AcDbMText
 10
195.7043298667847
 20
530.4694520074758
 30
0.0
 40
0.18
 41
0.0
 71
     5
 72
     1
  1
\A1;320.0000
 73
     1
 44
1.0
1001
ACAD
1000
MTEXTBEGIN
1070
    73
1070
     1
1070
    44
1040
1.0
1070
    74
1070
     0
1000
MTEXTEND
  0
POINT
  5
10B7
330
10A2
100
AcDbEntity
  8
Defpoints
 62
     0
100
AcDbPoint
 10
35.70432986678478
 20
481.3444933417462
 30
0.0
  0
POINT
  5
10B8
330
10A2
100
AcDbEntity
  8
Defpoints
 62
     0
100
AcDbPoint
 10
355.7043298667847
 20
481.3444933417462
 30
0.0
  0
POINT
  5
10B9
330
10A2
100
AcDbEntity
  8
Defpoints
 62
     0
100
AcDbPoint
 10
355.7043298667847
 20
530.4694520074758
 30
0.0
  0
ENDBLK
  5
10A4
330
10A2
100
AcDbEntity
  8
0
100
AcDbBlockEnd
  0
BLOCK
  5
2D00
330
2CFF
100
AcDbEntity
  8
0
100
AcDbBlockBegin
  2
*D2
 70
     1
 10
0.0
 20
0.0
 30
0.0
  3
*D2
  1

  0
LINE
  5
2D01
330
2CFF
100
AcDbEntity
  8
QUOTE
 62
     7
370
    -2
100
AcDbLine
 10
-107.0805200348571
 20
322.4648743244586
 30
0.0
 11
-147.7820873541619
 21
322.4648743244586
 31
0.0
  0
LINE
  5
2D02
330
2CFF
100
AcDbEntity
  8
QUOTE
 62
     7
370
    -2
100
AcDbLine
 10
-109.551247605389
 20
-107.5351256755409
 30
0.0
 11
-147.782087354162
 21
-107.5351256755409
 31
0.0
  0
LINE
  5
2D03
330
2CFF
100
AcDbEntity
  8
QUOTE
 62
     7
370
    -2
100
AcDbLine
 10
-147.6020873541619
 20
307.4648743244587
 30
0.0
 11
-147.6020873541619
 21
106.8956934585356
 31
0.0
  0
LINE
  5
2D04
330
2CFF
100
AcDbEntity
  8
QUOTE
 62
     7
370
    -2
100
AcDbLine
 10
-147.602087354162
 20
-92.53512567554093
 30
0.0
 11
-147.6020873541619
 21
96.71569345853564
 31
0.0
  0
SOLID
  5
2D05
330
2CFF
100
AcDbEntity
  8
QUOTE
 62
     7
100
AcDbTrace
 10
-150.1020873541619
 20
307.4648743244587
 30
0.0
 11
-145.1020873541619
 21
307.4648743244587
 31
0.0
 12
-147.6020873541619
 22
322.4648743244586
 32
0.0
 13
-147.6020873541619
 23
322.4648743244586
 33
0.0
  0
SOLID
  5
2D06
330
2CFF
100
AcDbEntity
  8
QUOTE
 62
     7
100
AcDbTrace
 10
-150.102087354162
 20
-92.53512567554093
 30
0.0
 11
-145.102087354162
 21
-92.53512567554093
 31
0.0
 12
-147.602087354162
 22
-107.5351256755409
 32
0.0
 13
-147.602087354162
 23
-107.5351256755409
 33
0.0
  0
MTEXT
  5
2D07
330
2CFF
100
AcDbEntity
  8
QUOTE
 62
     7
100
AcDbMText
 10
-147.6020873541619
 20
101.8056934585356
 30
0.0
 40
10.0
 41
0.0
 71
     5
 72
     1
  1
\A1;430
 73
     1
 44
1.0
1001
ACAD
1000
MTEXTBEGIN
1070
    73
1070
     1
1070
    44
1040
1.0
1070
    74
1070
     0
1000
MTEXTEND
  0
POINT
  5
2D08
330
2CFF
100
AcDbEntity
  8
Defpoints
 62
     0
100
AcDbPoint
 10
-107.0180200348571
 20
322.4648743244586
 30
0.0
  0
POINT
  5
2D09
330
2CFF
100
AcDbEntity
  8
Defpoints
 62
     0
100
AcDbPoint
 10
-109.488747605389
 20
-107.5351256755409
 30
0.0
  0
POINT
  5
2D0A
330
2CFF
100
AcDbEntity
  8
Defpoints
 62
     0
100
AcDbPoint
 10
-147.602087354162
 20
-107.5351256755409
 30
0.0
  0
ENDBLK
  5
2D0B
330
2CFF
100
AcDbEntity
  8
0
100
AcDbBlockEnd
  0
BLOCK
  5
2D0D
330
2D0C
100
AcDbEntity
  8
0
100
AcDbBlockBegin
  2
*D3
 70
     1
 10
0.0
 20
0.0
 30
0.0
  3
*D3
  1

  0
LINE
  5
2D0E
330
2D0C
100
AcDbEntity
  8
QUOTE
 62
     7
370
    -2
100
AcDbLine
 10
75.5183623946113
 20
-92.59941600788572
 30
0.0
 11
75.5183623946113
 21
-126.6742362736619
 31
0.0
  0
LINE
  5
2D0F
330
2D0C
100
AcDbEntity
  8
QUOTE
 62
     7
370
    -2
100
AcDbLine
 10
-124.489317605389
 20
-92.53454567554092
 30
0.0
 11
-124.489317605389
 21
-126.6742362736619
 31
0.0
  0
LINE
  5
2D10
330
2D0C
100
AcDbEntity
  8
QUOTE
 62
     7
370
    -2
100
AcDbLine
 10
60.5183623946113
 20
-126.4942362736619
 30
0.0
 11
-11.26116932183178
 21
-126.4942362736619
 31
0.0
  0
LINE
  5
2D11
330
2D0C
100
AcDbEntity
  8
QUOTE
 62
     7
370
    -2
100
AcDbLine
 10
-109.489317605389
 20
-126.4942362736619
 30
0.0
 11
-34.77450265516512
 21
-126.4942362736619
 31
0.0
  0
SOLID
  5
2D12
330
2D0C
100
AcDbEntity
  8
QUOTE
 62
     7
100
AcDbTrace
 10
60.5183623946113
 20
-123.9942362736619
 30
0.0
 11
60.5183623946113
 21
-128.9942362736619
 31
0.0
 12
75.5183623946113
 22
-126.4942362736619
 32
0.0
 13
75.5183623946113
 23
-126.4942362736619
 33
0.0
  0
SOLID
  5
2D13
330
2D0C
100
AcDbEntity
  8
QUOTE
 62
     7
100
AcDbTrace
 10
-109.489317605389
 20
-123.9942362736619
 30
0.0
 11
-109.489317605389
 21
-128.9942362736619
 31
0.0
 12
-124.489317605389
 22
-126.4942362736619
 32
0.0
 13
-124.489317605389
 23
-126.4942362736619
 33
0.0
  0
MTEXT
  5
2D14
330
2D0C
100
AcDbEntity
  8
QUOTE
 62
     7
100
AcDbMText
 10
-23.01783598849845
 20
-126.4942362736619
 30
0.0
 40
10.0
 41
0.0
 71
     5
 72
     1
  1
\A1;200
 73
     1
 44
1.0
1001
ACAD
1000
MTEXTBEGIN
1070
    73
1070
     1
1070
    44
1040
1.0
1070
    74
1070
     0
1000
MTEXTEND
  0
POINT
  5
2D15
330
2D0C
100
AcDbEntity
  8
Defpoints
 62
     0
100
AcDbPoint
 10
75.5183623946113
 20
-92.53691600788574
 30
0.0
  0
POINT
  5
2D16
330
2D0C
100
AcDbEntity
  8
Defpoints
 62
     0
100
AcDbPoint
 10
-124.489317605389
 20
-92.47204567554092
 30
0.0
  0
POINT
  5
2D17
330
2D0C
100
AcDbEntity
  8
Defpoints
 62
     0
100
AcDbPoint
 10
-124.489317605389
 20
-126.4942362736619
 30
0.0
  0
ENDBLK
  5
2D18
330
2D0C
100
AcDbEntity
  8
0
100
AcDbBlockEnd
  0
BLOCK
  5
2D24
330
2D23
100
AcDbEntity
  8
0
100
AcDbBlockBegin
  2
*D4
 70
     1
 10
0.0
 20
0.0
 30
0.0
  3
*D4
  1

  0
LINE
  5
2D8D
330
2D23
100
AcDbEntity
  8
QUOTE
 62
     7
370
    -2
100
AcDbLine
 10
36.81160624848903
 20
366.8339058500728
 30
0.0
 11
-1.356733500283827
 21
366.8339058500728
 31
0.0
  0
LINE
  5
2D8E
330
2D23
100
AcDbEntity
  8
QUOTE
 62
     7
370
    -2
100
AcDbLine
 10
36.87410624848904
 20
-143.1661251499271
 30
0.0
 11
-1.356733500283938
 21
-143.1661251499271
 31
0.0
  0
LINE
  5
2D8F
330
2D23
100
AcDbEntity
  8
QUOTE
 62
     7
370
    -2
100
AcDbLine
 10
-1.176733500283831
 20
351.8339058500728
 30
0.0
 11
-1.176733500283883
 21
116.5908172360221
 31
0.0
  0
LINE
  5
2D90
330
2D23
100
AcDbEntity
  8
QUOTE
 62
     7
370
    -2
100
AcDbLine
 10
-1.176733500283935
 20
-128.1661251499271
 30
0.0
 11
-1.176733500283885
 21
106.4108172360221
 31
0.0
  0
SOLID
  5
2D91
330
2D23
100
AcDbEntity
  8
QUOTE
 62
     7
100
AcDbTrace
 10
-3.676733500283829
 20
351.8339058500728
 30
0.0
 11
1.323266499716166
 21
351.8339058500728
 31
0.0
 12
-1.176733500283827
 22
366.8339058500728
 32
0.0
 13
-1.176733500283827
 23
366.8339058500728
 33
0.0
  0
SOLID
  5
2D92
330
2D23
100
AcDbEntity
  8
QUOTE
 62
     7
100
AcDbTrace
 10
-3.676733500283936
 20
-128.1661251499271
 30
0.0
 11
1.323266499716061
 21
-128.1661251499271
 31
0.0
 12
-1.17673350028394
 22
-143.1661251499271
 32
0.0
 13
-1.17673350028394
 23
-143.1661251499271
 33
0.0
  0
MTEXT
  5
2D93
330
2D23
100
AcDbEntity
  8
QUOTE
 62
     7
100
AcDbMText
 10
-1.176733500283902
 20
111.5008172360221
 30
0.0
 40
10.0
 41
0.0
 71
     5
 72
     1
  1
\A1;510
 73
     1
 44
1.0
1001
ACAD
1000
MTEXTBEGIN
1070
    73
1070
     1
1070
    44
1040
1.0
1070
    74
1070
     0
1000
MTEXTEND
  0
POINT
  5
2D94
330
2D23
100
AcDbEntity
  8
Defpoints
 62
     0
100
AcDbPoint
 10
36.87410624848904
 20
366.8339058500728
 30
0.0
  0
POINT
  5
2D95
330
2D23
100
AcDbEntity
  8
Defpoints
 62
     0
100
AcDbPoint
 10
36.93660624848905
 20
-143.1661251499271
 30
0.0
  0
POINT
  5
2D96
330
2D23
100
AcDbEntity
  8
Defpoints
 62
     0
100
AcDbPoint
 10
-1.17673350028394
 20
-143.1661251499271
 30
0.0
  0
ENDBLK
  5
2D25
330
2D23
100
AcDbEntity
  8
0
100
AcDbBlockEnd
  0
BLOCK
  5
2D31
330
2D30
100
AcDbEntity
  8
0
100
AcDbBlockBegin
  2
*D5
 70
     1
 10
0.0
 20
0.0
 30
0.0
  3
*D5
  1

  0
LINE
  5
2D79
330
2D30
100
AcDbEntity
  8
QUOTE
 62
     7
370
    -2
100
AcDbLine
 10
340.8741062484889
 20
-127.2309954822719
 30
0.0
 11
340.8741062484889
 21
-161.3058157480481
 31
0.0
  0
LINE
  5
2D7A
330
2D30
100
AcDbEntity
  8
QUOTE
 62
     7
370
    -2
100
AcDbLine
 10
20.87410624848903
 20
-127.1661251499271
 30
0.0
 11
20.87410624848903
 21
-161.3058157480481
 31
0.0
  0
LINE
  5
2D7B
330
2D30
100
AcDbEntity
  8
QUOTE
 62
     7
370
    -2
100
AcDbLine
 10
325.8741062484889
 20
-161.1258157480481
 30
0.0
 11
193.6491086141403
 21
-161.1258157480481
 31
0.0
  0
LINE
  5
2D7C
330
2D30
100
AcDbEntity
  8
QUOTE
 62
     7
370
    -2
100
AcDbLine
 10
35.87410624848903
 20
-161.1258157480481
 30
0.0
 11
168.4691086141403
 21
-161.1258157480481
 31
0.0
  0
SOLID
  5
2D7D
330
2D30
100
AcDbEntity
  8
QUOTE
 62
     7
100
AcDbTrace
 10
325.8741062484889
 20
-158.6258157480481
 30
0.0
 11
325.8741062484889
 21
-163.6258157480481
 31
0.0
 12
340.8741062484889
 22
-161.1258157480481
 32
0.0
 13
340.8741062484889
 23
-161.1258157480481
 33
0.0
  0
SOLID
  5
2D7E
330
2D30
100
AcDbEntity
  8
QUOTE
 62
     7
100
AcDbTrace
 10
35.87410624848903
 20
-158.6258157480481
 30
0.0
 11
35.87410624848903
 21
-163.6258157480481
 31
0.0
 12
20.87410624848903
 22
-161.1258157480481
 32
0.0
 13
20.87410624848903
 23
-161.1258157480481
 33
0.0
  0
MTEXT
  5
2D7F
330
2D30
100
AcDbEntity
  8
QUOTE
 62
     7
100
AcDbMText
 10
181.0591086141403
 20
-161.1258157480481
 30
0.0
 40
10.0
 41
0.0
 71
     5
 72
     1
  1
\A1;320
 73
     1
 44
1.0
1001
ACAD
1000
MTEXTBEGIN
1070
    73
1070
     1
1070
    44
1040
1.0
1070
    74
1070
     0
1000
MTEXTEND
  0
POINT
  5
2D80
330
2D30
100
AcDbEntity
  8
Defpoints
 62
     0
100
AcDbPoint
 10
340.8741062484889
 20
-127.1684954822719
 30
0.0
  0
POINT
  5
2D81
330
2D30
100
AcDbEntity
  8
Defpoints
 62
     0
100
AcDbPoint
 10
20.87410624848903
 20
-127.1036251499271
 30
0.0
  0
POINT
  5
2D82
330
2D30
100
AcDbEntity
  8
Defpoints
 62
     0
100
AcDbPoint
 10
20.87410624848903
 20
-161.1258157480481
 30
0.0
  0
ENDBLK
  5
2D32
330
2D30
100
AcDbEntity
  8
0
100
AcDbBlockEnd
  0
ENDSEC
  0
SECTION
  2
ENTITIES
  0
LINE
  5
C8C
330
1F
100
AcDbEntity
  8
0
 62
   253
370
    35
100
AcDbLine
 10
125.3741062484889
 20
199.2627388500729
 30
0.0
 11
236.3741062484891
 21
199.3322268500729
 31
0.0
  0
ARC
  5
C8E
330
1F
100
AcDbEntity
  8
0
 62
   253
370
    35
100
AcDbCircle
 10
180.884848248489
 20
187.2985968500729
 30
0.0
 40
10.452045
100
AcDbArc
 50
0.0
 51
232.8935809999974
  0
ARC
  5
C8F
330
1F
100
AcDbEntity
  8
0
 62
   253
370
    35
100
AcDbCircle
 10
180.884848248489
 20
187.2985968500729
 30
0.0
 40
10.452045
100
AcDbArc
 50
303.239636
 51
0.0
  0
LINE
  5
CA4
330
1F
100
AcDbEntity
  8
0
 62
   253
370
    35
100
AcDbLine
 10
36.58284624848906
 20
298.0312928500725
 30
0.0
 11
36.58284624848906
 21
177.1424378500728
 31
0.0
  0
LINE
  5
CA5
330
1F
100
AcDbEntity
  8
0
 62
   253
370
    35
100
AcDbLine
 10
325.1654272484891
 20
298.0312928500725
 30
0.0
 11
325.1654272484891
 21
177.1424378500728
 31
0.0
  0
ARC
  5
CA6
330
1F
100
AcDbEntity
  8
0
 62
   253
370
    35
100
AcDbCircle
 10
39.58266324848909
 20
298.0314148500728
 30
0.0
 40
2.999829999999997
100
AcDbArc
 50
89.99901200000081
 51
180.0009919999999
  0
ARC
  5
CA7
330
1F
100
AcDbEntity
  8
0
 62
   253
370
    35
100
AcDbCircle
 10
39.58266324848909
 20
177.1424078500729
 30
0.0
 40
2.999829999999997
100
AcDbArc
 50
179.9990080000001
 51
270.0009879999992
  0
LINE
  5
CA8
330
1F
100
AcDbEntity
  8
0
 62
     7
370
    13
100
AcDbLine
 10
336.9682832484891
 20
-114.4688131499271
 30
0.0
 11
24.77999024848916
 21
-114.4688131499271
 31
0.0
  0
LINE
  5
CA9
330
1F
100
AcDbEntity
  8
0
 62
     7
370
    13
100
AcDbLine
 10
336.9682832484891
 20
338.1365788500728
 30
0.0
 11
24.77999024848916
 21
338.1365788500728
 31
0.0
  0
LINE
  5
CAA
330
1F
100
AcDbEntity
  8
0
 62
   253
370
    35
100
AcDbLine
 10
39.58272424848914
 20
301.0312318500729
 30
0.0
 11
322.1655492484891
 21
301.0312318500729
 31
0.0
  0
ARC
  5
CAB
330
1F
100
AcDbEntity
  8
0
 62
   253
370
    35
100
AcDbCircle
 10
322.1656102484891
 20
298.0314148500728
 30
0.0
 40
2.999829999999997
100
AcDbArc
 50
359.9990140000004
 51
90.00098600000288
  0
ARC
  5
CAC
330
1F
100
AcDbEntity
  8
0
 62
   253
370
    35
100
AcDbCircle
 10
322.1656102484891
 20
177.1424078500729
 30
0.0
 40
2.999829999999997
100
AcDbArc
 50
269.9990139999972
 51
0.0009859999996218
  0
LINE
  5
CAD
330
1F
100
AcDbEntity
  8
0
 62
   253
370
    35
100
AcDbLine
 10
39.58272424848914
 20
174.1425598500728
 30
0.0
 11
322.1655492484891
 21
174.1425598500728
 31
0.0
  0
ARC
  5
CAE
330
1F
100
AcDbEntity
  8
0
 62
     7
370
    35
100
AcDbCircle
 10
322.374106248489
 20
325.0398378500729
 30
0.0
 40
2.0
100
AcDbArc
 50
0.0
 51
90.00000299999769
  0
LINE
  5
CAF
330
1F
100
AcDbEntity
  8
0
 62
     7
 48
0.45
370
    35
100
AcDbLine
 10
324.374106248489
 20
325.0398378500729
 30
0.0
 11
324.374106248489
 21
307.0398378500727
 31
0.0
  0
ARC
  5
CB0
330
1F
100
AcDbEntity
  8
0
 62
     7
370
    35
100
AcDbCircle
 10
322.374106248489
 20
307.0398378500727
 30
0.0
 40
2.0
100
AcDbArc
 50
269.9999970000023
 51
0.0
  0
LINE
  5
CB1
330
1F
100
AcDbEntity
  8
0
 62
     7
370
    35
100
AcDbLine
 10
277.3741062484891
 20
305.0398378500728
 30
0.0
 11
322.374106248489
 21
305.0398378500728
 31
0.0
  0
ARC
  5
CB2
330
1F
100
AcDbEntity
  8
0
 62
     7
370
    35
100
AcDbCircle
 10
277.3741062484891
 20
307.0398378500727
 30
0.0
 40
2.0
100
AcDbArc
 50
180.0000050000005
 51
269.9999970000023
  0
LINE
  5
CB3
330
1F
100
AcDbEntity
  8
0
 62
     7
 48
0.45
370
    35
100
AcDbLine
 10
275.3741062484891
 20
307.0398378500727
 30
0.0
 11
275.3741062484891
 21
325.0398378500729
 31
0.0
  0
ARC
  5
CB4
330
1F
100
AcDbEntity
  8
0
 62
     7
370
    35
100
AcDbCircle
 10
277.3741062484891
 20
325.0398378500729
 30
0.0
 40
2.0
100
AcDbArc
 50
90.00000299999769
 51
180.0000050000005
  0
LINE
  5
CB5
330
1F
100
AcDbEntity
  8
0
 62
     7
370
    35
100
AcDbLine
 10
322.374106248489
 20
327.0398378500729
 30
0.0
 11
277.3741062484891
 21
327.0398378500729
 31
0.0
  0
CIRCLE
  5
CB6
330
1F
100
AcDbEntity
  8
0
 62
     7
370
    35
100
AcDbCircle
 10
324.874106248489
 20
141.8338748500729
 30
0.0
 40
9.352035
  0
CIRCLE
  5
CB7
330
1F
100
AcDbEntity
  8
0
 62
     7
370
    35
100
AcDbCircle
 10
36.87410624848904
 20
141.8338748500729
 30
0.0
 40
9.352035
  0
ARC
  5
CB8
330
1F
100
AcDbEntity
  8
0
 62
     7
370
    35
100
AcDbCircle
 10
324.874106248489
 20
-127.1661251499271
 30
0.0
 40
16.0
100
AcDbArc
 50
269.9999970000023
 51
337.0910520000002
  0
LINE
  5
CB9
330
1F
100
AcDbEntity
  8
0
 62
     7
370
    35
100
AcDbLine
 10
36.87410624848904
 20
-143.1661251499271
 30
0.0
 11
324.874106248489
 21
-143.1661251499271
 31
0.0
  0
ARC
  5
CBA
330
1F
100
AcDbEntity
  8
0
 62
     7
370
    35
100
AcDbCircle
 10
36.87410624848904
 20
-127.1661251499271
 30
0.0
 40
16.0
100
AcDbArc
 50
202.9089409999978
 51
269.9999970000023
  0
LINE
  5
CBB
330
1F
100
AcDbEntity
  8
0
 62
     7
 48
0.001465
370
    35
100
AcDbLine
 10
338.3103852484891
 20
-121.0670501499271
 30
0.0
 11
338.3518282484891
 21
-121.0255911499271
 31
0.0
  0
POLYLINE
  5
CBC
330
1F
100
AcDbEntity
  8
0
 62
     7
370
    35
100
AcDb2dPolyline
 66
     1
 10
0.0
 20
0.0
 30
0.0
  0
VERTEX
  5
CBD
330
CBC
100
AcDbEntity
  8
0
370
     0
100
AcDbVertex
100
AcDb2dVertex
 10
339.3517672484891
 20
-121.0106381499271
 30
0.0
  0
VERTEX
  5
CBE
330
CBC
100
AcDbEntity
  8
0
370
     0
100
AcDbVertex
100
AcDb2dVertex
 10
338.3846042484892
 20
-121.0226011499271
 30
0.0
  0
VERTEX
  5
CBF
330
CBC
100
AcDbEntity
  8
0
370
     0
100
AcDbVertex
100
AcDb2dVertex
 10
338.3561622484891
 20
-121.0245841499271
 30
0.0
  0
VERTEX
  5
CC0
330
CBC
100
AcDbEntity
  8
0
370
     0
100
AcDbVertex
100
AcDb2dVertex
 10
338.3518282484891
 20
-121.0255911499271
 30
0.0
  0
SEQEND
  5
CC1
330
CBC
100
AcDbEntity
  8
0
370
     0
  0
LINE
  5
CC2
330
1F
100
AcDbEntity
  8
0
 62
     7
 48
0.011675
370
    35
100
AcDbLine
 10
339.3517672484891
 20
-121.0106381499271
 30
0.0
 11
339.818747248489
 21
-121.0082731499271
 31
0.0
  0
POLYLINE
  5
CC3
330
1F
100
AcDbEntity
  8
0
 62
     7
370
    35
100
AcDb2dPolyline
 66
     1
 10
0.0
 20
0.0
 30
0.0
  0
VERTEX
  5
CC4
330
CC3
100
AcDbEntity
  8
0
370
     0
100
AcDbVertex
100
AcDb2dVertex
 10
340.8186862484892
 20
-120.9933191499271
 30
0.0
  0
VERTEX
  5
CC5
330
CC3
100
AcDbEntity
  8
0
370
     0
100
AcDbVertex
100
AcDb2dVertex
 10
340.8142922484892
 20
-120.9943261499271
 30
0.0
  0
VERTEX
  5
CC6
330
CC3
100
AcDbEntity
  8
0
370
     0
100
AcDbVertex
100
AcDb2dVertex
 10
340.785605248489
 20
-120.9963251499271
 30
0.0
  0
VERTEX
  5
CC7
330
CC3
100
AcDbEntity
  8
0
370
     0
100
AcDbVertex
100
AcDb2dVertex
 10
339.818747248489
 20
-121.0082731499271
 30
0.0
  0
SEQEND
  5
CC8
330
CC3
100
AcDbEntity
  8
0
370
     0
  0
LINE
  5
CC9
330
1F
100
AcDbEntity
  8
0
 62
     7
 48
0.00196
370
    35
100
AcDbLine
 10
340.8741062484889
 20
-120.9378381499271
 30
0.0
 11
340.8186862484892
 21
-120.9933191499271
 31
0.0
  0
LINE
  5
CCA
330
1F
100
AcDbEntity
  8
0
 62
     7
 48
0.001665
370
    35
100
AcDbLine
 10
339.6121432484893
 20
-133.3944121499271
 30
0.0
 11
339.5752782484891
 21
-133.3389311499271
 31
0.0
  0
POLYLINE
  5
CCB
330
1F
100
AcDbEntity
  8
0
 62
     7
370
    35
100
AcDb2dPolyline
 66
     1
 10
0.0
 20
0.0
 30
0.0
  0
VERTEX
  5
CCC
330
CCB
100
AcDbEntity
  8
0
370
     0
100
AcDbVertex
100
AcDb2dVertex
 10
338.4911102484891
 20
-133.3239771499271
 30
0.0
  0
VERTEX
  5
CCD
330
CCB
100
AcDbEntity
  8
0
370
     0
100
AcDbVertex
100
AcDb2dVertex
 10
339.2871922484891
 20
-133.3303551499271
 30
0.0
  0
VERTEX
  5
CCE
330
CCB
100
AcDbEntity
  8
0
370
     0
100
AcDbVertex
100
AcDb2dVertex
 10
339.5637422484892
 20
-133.3372221499271
 30
0.0
  0
VERTEX
  5
CCF
330
CCB
100
AcDbEntity
  8
0
370
     0
100
AcDbVertex
100
AcDb2dVertex
 10
339.5737522484891
 20
-133.3383661499271
 30
0.0
  0
VERTEX
  5
CD0
330
CCB
100
AcDbEntity
  8
0
370
     0
100
AcDbVertex
100
AcDb2dVertex
 10
339.5752782484891
 20
-133.3389311499271
 30
0.0
  0
SEQEND
  5
CD1
330
CCB
100
AcDbEntity
  8
0
370
     0
  0
LINE
  5
CD2
330
1F
100
AcDbEntity
  8
0
 62
     7
 48
0.015674
370
    35
100
AcDbLine
 10
338.4911102484891
 20
-133.3239771499271
 30
0.0
 11
337.8641572484889
 21
-133.3210931499271
 31
0.0
  0
POLYLINE
  5
CD3
330
1F
100
AcDbEntity
  8
0
 62
     7
370
    35
100
AcDb2dPolyline
 66
     1
 10
0.0
 20
0.0
 30
0.0
  0
VERTEX
  5
CD4
330
CD3
100
AcDbEntity
  8
0
370
     0
100
AcDbVertex
100
AcDb2dVertex
 10
336.7359222484891
 20
-133.3060331499271
 30
0.0
  0
VERTEX
  5
CD5
330
CD3
100
AcDbEntity
  8
0
370
     0
100
AcDbVertex
100
AcDb2dVertex
 10
336.7370212484892
 20
-133.3064901499271
 30
0.0
  0
VERTEX
  5
CD6
330
CD3
100
AcDbEntity
  8
0
370
     0
100
AcDbVertex
100
AcDb2dVertex
 10
336.7420872484891
 20
-133.3072381499271
 30
0.0
  0
VERTEX
  5
CD7
330
CD3
100
AcDbEntity
  8
0
370
     0
100
AcDbVertex
100
AcDb2dVertex
 10
336.9844582484891
 20
-133.3138761499271
 30
0.0
  0
VERTEX
  5
CD8
330
CD3
100
AcDbEntity
  8
0
370
     0
100
AcDbVertex
100
AcDb2dVertex
 10
337.8641572484889
 20
-133.3210931499271
 30
0.0
  0
SEQEND
  5
CD9
330
CD3
100
AcDbEntity
  8
0
370
     0
  0
LINE
  5
CDA
330
1F
100
AcDbEntity
  8
0
 62
     7
 48
0.001155
370
    35
100
AcDbLine
 10
336.7359222484891
 20
-133.3060331499271
 30
0.0
 11
336.7126072484891
 21
-133.2661311499271
 31
0.0
  0
LINE
  5
CDB
330
1F
100
AcDbEntity
  8
0
 62
     7
 48
0.000026
370
    35
100
AcDbLine
 10
336.7126072484891
 20
-133.2661311499271
 30
0.0
 11
336.7121192484892
 21
-133.2652001499271
 31
0.0
  0
LINE
  5
CDC
330
1F
100
AcDbEntity
  8
0
 62
     7
370
    35
100
AcDbLine
 10
340.8741062484889
 20
135.605603850073
 30
0.0
 11
340.8741062484889
 21
-120.9378381499271
 31
0.0
  0
LINE
  5
CDD
330
1F
100
AcDbEntity
  8
0
 62
     7
 48
0.001466
370
    35
100
AcDbLine
 10
338.3103852484891
 20
147.9329348500729
 30
0.0
 11
338.3518282484891
 21
147.9744088500729
 31
0.0
  0
POLYLINE
  5
CDE
330
1F
100
AcDbEntity
  8
0
 62
     7
370
    35
100
AcDb2dPolyline
 66
     1
 10
0.0
 20
0.0
 30
0.0
  0
VERTEX
  5
CDF
330
CDE
100
AcDbEntity
  8
0
370
     0
100
AcDbVertex
100
AcDb2dVertex
 10
339.3517672484891
 20
147.9893618500729
 30
0.0
  0
VERTEX
  5
CE0
330
CDE
100
AcDbEntity
  8
0
370
     0
100
AcDbVertex
100
AcDb2dVertex
 10
338.3846042484892
 20
147.9773988500727
 30
0.0
  0
VERTEX
  5
CE1
330
CDE
100
AcDbEntity
  8
0
370
     0
100
AcDbVertex
100
AcDb2dVertex
 10
338.3561622484891
 20
147.9754158500728
 30
0.0
  0
VERTEX
  5
CE2
330
CDE
100
AcDbEntity
  8
0
370
     0
100
AcDbVertex
100
AcDb2dVertex
 10
338.3518282484891
 20
147.9744088500729
 30
0.0
  0
SEQEND
  5
CE3
330
CDE
100
AcDbEntity
  8
0
370
     0
  0
LINE
  5
CE4
330
1F
100
AcDbEntity
  8
0
 62
     7
 48
0.011675
370
    35
100
AcDbLine
 10
339.3517672484891
 20
147.9893618500729
 30
0.0
 11
339.818747248489
 21
147.9917118500728
 31
0.0
  0
POLYLINE
  5
CE5
330
1F
100
AcDbEntity
  8
0
 62
     7
370
    35
100
AcDb2dPolyline
 66
     1
 10
0.0
 20
0.0
 30
0.0
  0
VERTEX
  5
CE6
330
CE5
100
AcDbEntity
  8
0
370
     0
100
AcDbVertex
100
AcDb2dVertex
 10
340.8186862484892
 20
148.0066958500729
 30
0.0
  0
VERTEX
  5
CE7
330
CE5
100
AcDbEntity
  8
0
370
     0
100
AcDbVertex
100
AcDb2dVertex
 10
340.8142922484892
 20
148.0056588500729
 30
0.0
  0
VERTEX
  5
CE8
330
CE5
100
AcDbEntity
  8
0
370
     0
100
AcDbVertex
100
AcDb2dVertex
 10
340.785605248489
 20
148.0036748500729
 30
0.0
  0
VERTEX
  5
CE9
330
CE5
100
AcDbEntity
  8
0
370
     0
100
AcDbVertex
100
AcDb2dVertex
 10
339.818747248489
 20
147.9917118500728
 30
0.0
  0
SEQEND
  5
CEA
330
CE5
100
AcDbEntity
  8
0
370
     0
  0
LINE
  5
CEB
330
1F
100
AcDbEntity
  8
0
 62
     7
 48
0.00196
370
    35
100
AcDbLine
 10
340.8741062484889
 20
148.0621768500729
 30
0.0
 11
340.8186862484892
 21
148.0066958500729
 31
0.0
  0
LINE
  5
CEC
330
1F
100
AcDbEntity
  8
0
 62
     7
 48
0.00196
370
    35
100
AcDbLine
 10
340.8741062484889
 20
135.605603850073
 30
0.0
 11
340.8186862484892
 21
135.6610538500729
 31
0.0
  0
POLYLINE
  5
CED
330
1F
100
AcDbEntity
  8
0
 62
     7
370
    35
100
AcDb2dPolyline
 66
     1
 10
0.0
 20
0.0
 30
0.0
  0
VERTEX
  5
CEE
330
CED
100
AcDbEntity
  8
0
370
     0
100
AcDbVertex
100
AcDb2dVertex
 10
340.8186862484892
 20
135.6610538500729
 30
0.0
  0
VERTEX
  5
CEF
330
CED
100
AcDbEntity
  8
0
370
     0
100
AcDbVertex
100
AcDb2dVertex
 10
340.8142922484892
 20
135.6620608500728
 30
0.0
  0
VERTEX
  5
CF0
330
CED
100
AcDbEntity
  8
0
370
     0
100
AcDbVertex
100
AcDb2dVertex
 10
340.785605248489
 20
135.6640748500729
 30
0.0
  0
VERTEX
  5
CF1
330
CED
100
AcDbEntity
  8
0
370
     0
100
AcDbVertex
100
AcDb2dVertex
 10
339.818747248489
 20
135.6760378500728
 30
0.0
  0
SEQEND
  5
CF2
330
CED
100
AcDbEntity
  8
0
370
     0
  0
LINE
  5
CF3
330
1F
100
AcDbEntity
  8
0
 62
     7
 48
0.011675
370
    35
100
AcDbLine
 10
339.3517672484891
 20
135.6783878500729
 30
0.0
 11
339.818747248489
 21
135.6760378500728
 31
0.0
  0
POLYLINE
  5
CF4
330
1F
100
AcDbEntity
  8
0
 62
     7
370
    35
100
AcDb2dPolyline
 66
     1
 10
0.0
 20
0.0
 30
0.0
  0
VERTEX
  5
CF5
330
CF4
100
AcDbEntity
  8
0
370
     0
100
AcDbVertex
100
AcDb2dVertex
 10
339.3517672484891
 20
135.6783878500729
 30
0.0
  0
VERTEX
  5
CF6
330
CF4
100
AcDbEntity
  8
0
370
     0
100
AcDbVertex
100
AcDb2dVertex
 10
338.3846042484892
 20
135.6903508500727
 30
0.0
  0
VERTEX
  5
CF7
330
CF4
100
AcDbEntity
  8
0
370
     0
100
AcDbVertex
100
AcDb2dVertex
 10
338.3561622484891
 20
135.6923348500727
 30
0.0
  0
VERTEX
  5
CF8
330
CF4
100
AcDbEntity
  8
0
370
     0
100
AcDbVertex
100
AcDb2dVertex
 10
338.3518282484891
 20
135.6933418500729
 30
0.0
  0
SEQEND
  5
CF9
330
CF4
100
AcDbEntity
  8
0
370
     0
  0
LINE
  5
CFA
330
1F
100
AcDbEntity
  8
0
 62
     7
 48
0.001466
370
    35
100
AcDbLine
 10
338.3103852484891
 20
135.7348148500729
 30
0.0
 11
338.3518282484891
 21
135.6933418500729
 31
0.0
  0
LINE
  5
CFB
330
1F
100
AcDbEntity
  8
0
 62
     7
370
    35
100
AcDbLine
 10
340.8741062484889
 20
344.6055728500728
 30
0.0
 11
340.8741062484889
 21
148.0621768500729
 31
0.0
  0
LINE
  5
CFC
330
1F
100
AcDbEntity
  8
0
 62
     7
 48
0.000026
370
    35
100
AcDbLine
 10
336.7126072484891
 20
356.9338808500729
 30
0.0
 11
336.7121192484892
 21
356.932965850073
 31
0.0
  0
LINE
  5
CFD
330
1F
100
AcDbEntity
  8
0
 62
     7
 48
0.001156
370
    35
100
AcDbLine
 10
336.7126072484891
 20
356.9338808500729
 30
0.0
 11
336.7359222484891
 21
356.9737978500726
 31
0.0
  0
POLYLINE
  5
CFE
330
1F
100
AcDbEntity
  8
0
 62
     7
370
    35
100
AcDb2dPolyline
 66
     1
 10
0.0
 20
0.0
 30
0.0
  0
VERTEX
  5
CFF
330
CFE
100
AcDbEntity
  8
0
370
     0
100
AcDbVertex
100
AcDb2dVertex
 10
336.7359222484891
 20
356.9737978500726
 30
0.0
  0
VERTEX
  5
D00
330
CFE
100
AcDbEntity
  8
0
370
     0
100
AcDbVertex
100
AcDb2dVertex
 10
336.7405612484891
 20
356.9748358500726
 30
0.0
  0
VERTEX
  5
D01
330
CFE
100
AcDbEntity
  8
0
370
     0
100
AcDbVertex
100
AcDb2dVertex
 10
336.7706512484892
 20
356.9767278500728
 30
0.0
  0
VERTEX
  5
D02
330
CFE
100
AcDbEntity
  8
0
370
     0
100
AcDbVertex
100
AcDb2dVertex
 10
337.096457248489
 20
356.9831368500729
 30
0.0
  0
VERTEX
  5
D03
330
CFE
100
AcDbEntity
  8
0
370
     0
100
AcDbVertex
100
AcDb2dVertex
 10
337.8641572484889
 20
356.9888128500729
 30
0.0
  0
SEQEND
  5
D04
330
CFE
100
AcDbEntity
  8
0
370
     0
  0
LINE
  5
D05
330
1F
100
AcDbEntity
  8
0
 62
     7
 48
0.015674
370
    35
100
AcDbLine
 10
337.8641572484889
 20
356.9888128500729
 30
0.0
 11
338.4911102484891
 21
356.9917428500728
 31
0.0
  0
POLYLINE
  5
D06
330
1F
100
AcDbEntity
  8
0
 62
     7
370
    35
100
AcDb2dPolyline
 66
     1
 10
0.0
 20
0.0
 30
0.0
  0
VERTEX
  5
D07
330
D06
100
AcDbEntity
  8
0
370
     0
100
AcDbVertex
100
AcDb2dVertex
 10
338.4911102484891
 20
356.9917428500728
 30
0.0
  0
VERTEX
  5
D08
330
D06
100
AcDbEntity
  8
0
370
     0
100
AcDbVertex
100
AcDb2dVertex
 10
339.2871922484891
 20
356.9980898500729
 30
0.0
  0
VERTEX
  5
D09
330
D06
100
AcDbEntity
  8
0
370
     0
100
AcDbVertex
100
AcDb2dVertex
 10
339.5637422484892
 20
357.004986850073
 30
0.0
  0
VERTEX
  5
D0A
330
D06
100
AcDbEntity
  8
0
370
     0
100
AcDbVertex
100
AcDb2dVertex
 10
339.5737522484891
 20
357.0061468500729
 30
0.0
  0
VERTEX
  5
D0B
330
D06
100
AcDbEntity
  8
0
370
     0
100
AcDbVertex
100
AcDb2dVertex
 10
339.5752782484891
 20
357.0066958500728
 30
0.0
  0
SEQEND
  5
D0C
330
D06
100
AcDbEntity
  8
0
370
     0
  0
LINE
  5
D0D
330
1F
100
AcDbEntity
  8
0
 62
     7
 48
0.001665
370
    35
100
AcDbLine
 10
339.5752782484891
 20
357.0066958500728
 30
0.0
 11
339.6121432484893
 21
357.0621768500729
 31
0.0
  0
LINE
  5
D0E
330
1F
100
AcDbEntity
  8
0
 62
     7
 48
0.00196
370
    35
100
AcDbLine
 10
340.8741062484889
 20
344.6055728500728
 30
0.0
 11
340.8186862484892
 21
344.6610538500729
 31
0.0
  0
POLYLINE
  5
D0F
330
1F
100
AcDbEntity
  8
0
 62
     7
370
    35
100
AcDb2dPolyline
 66
     1
 10
0.0
 20
0.0
 30
0.0
  0
VERTEX
  5
D10
330
D0F
100
AcDbEntity
  8
0
370
     0
100
AcDbVertex
100
AcDb2dVertex
 10
340.8186862484892
 20
344.6610538500729
 30
0.0
  0
VERTEX
  5
D11
330
D0F
100
AcDbEntity
  8
0
370
     0
100
AcDbVertex
100
AcDb2dVertex
 10
340.8142922484892
 20
344.6620918500729
 30
0.0
  0
VERTEX
  5
D12
330
D0F
100
AcDbEntity
  8
0
370
     0
100
AcDbVertex
100
AcDb2dVertex
 10
340.785605248489
 20
344.6641058500729
 30
0.0
  0
VERTEX
  5
D13
330
D0F
100
AcDbEntity
  8
0
370
     0
100
AcDbVertex
100
AcDb2dVertex
 10
339.818747248489
 20
344.676007850073
 30
0.0
  0
SEQEND
  5
D14
330
D0F
100
AcDbEntity
  8
0
370
     0
  0
LINE
  5
D15
330
1F
100
AcDbEntity
  8
0
 62
     7
 48
0.011675
370
    35
100
AcDbLine
 10
339.3517672484891
 20
344.6783878500728
 30
0.0
 11
339.818747248489
 21
344.676007850073
 31
0.0
  0
POLYLINE
  5
D16
330
1F
100
AcDbEntity
  8
0
 62
     7
370
    35
100
AcDb2dPolyline
 66
     1
 10
0.0
 20
0.0
 30
0.0
  0
VERTEX
  5
D17
330
D16
100
AcDbEntity
  8
0
370
     0
100
AcDbVertex
100
AcDb2dVertex
 10
339.3517672484891
 20
344.6783878500728
 30
0.0
  0
VERTEX
  5
D18
330
D16
100
AcDbEntity
  8
0
370
     0
100
AcDbVertex
100
AcDb2dVertex
 10
338.3846042484892
 20
344.6903508500729
 30
0.0
  0
VERTEX
  5
D19
330
D16
100
AcDbEntity
  8
0
370
     0
100
AcDbVertex
100
AcDb2dVertex
 10
338.3561622484891
 20
344.6923038500728
 30
0.0
  0
VERTEX
  5
D1A
330
D16
100
AcDbEntity
  8
0
370
     0
100
AcDbVertex
100
AcDb2dVertex
 10
338.3518282484891
 20
344.6933418500728
 30
0.0
  0
SEQEND
  5
D1B
330
D16
100
AcDbEntity
  8
0
370
     0
  0
LINE
  5
D1C
330
1F
100
AcDbEntity
  8
0
 62
     7
 48
0.001465
370
    35
100
AcDbLine
 10
338.3103852484891
 20
344.7347848500728
 30
0.0
 11
338.3518282484891
 21
344.6933418500728
 31
0.0
  0
ARC
  5
D1D
330
1F
100
AcDbEntity
  8
0
 62
     7
370
    35
100
AcDbCircle
 10
36.87410624848904
 20
350.8339058500727
 30
0.0
 40
16.0
100
AcDbArc
 50
90.00000299999769
 51
157.0910590000021
  0
LINE
  5
D1E
330
1F
100
AcDbEntity
  8
0
 62
     7
370
    35
100
AcDbLine
 10
324.874106248489
 20
366.8339058500728
 30
0.0
 11
36.87410624848904
 21
366.8339058500728
 31
0.0
  0
ARC
  5
D1F
330
1F
100
AcDbEntity
  8
0
 62
     7
370
    35
100
AcDbCircle
 10
324.874106248489
 20
350.8339058500727
 30
0.0
 40
16.0
100
AcDbArc
 50
22.90894799999975
 51
90.00000299999769
  0
LINE
  5
D20
330
1F
100
AcDbEntity
  8
0
 62
     7
 48
0.001465
370
    35
100
AcDbLine
 10
23.43788824848908
 20
344.7347848500728
 30
0.0
 11
23.39644524848914
 21
344.6933418500728
 31
0.0
  0
POLYLINE
  5
D21
330
1F
100
AcDbEntity
  8
0
 62
     7
370
    35
100
AcDb2dPolyline
 66
     1
 10
0.0
 20
0.0
 30
0.0
  0
VERTEX
  5
D22
330
D21
100
AcDbEntity
  8
0
370
     0
100
AcDbVertex
100
AcDb2dVertex
 10
22.3965062484891
 20
344.6783878500728
 30
0.0
  0
VERTEX
  5
D23
330
D21
100
AcDbEntity
  8
0
370
     0
100
AcDbVertex
100
AcDb2dVertex
 10
23.36366924848911
 20
344.6903508500729
 30
0.0
  0
VERTEX
  5
D24
330
D21
100
AcDbEntity
  8
0
370
     0
100
AcDbVertex
100
AcDb2dVertex
 10
23.39211124848916
 20
344.6923038500728
 30
0.0
  0
VERTEX
  5
D25
330
D21
100
AcDbEntity
  8
0
370
     0
100
AcDbVertex
100
AcDb2dVertex
 10
23.39644524848914
 20
344.6933418500728
 30
0.0
  0
SEQEND
  5
D26
330
D21
100
AcDbEntity
  8
0
370
     0
  0
LINE
  5
D27
330
1F
100
AcDbEntity
  8
0
 62
     7
 48
0.011675
370
    35
100
AcDbLine
 10
22.3965062484891
 20
344.6783878500728
 30
0.0
 11
21.92952624848904
 21
344.676007850073
 31
0.0
  0
POLYLINE
  5
D28
330
1F
100
AcDbEntity
  8
0
 62
     7
370
    35
100
AcDb2dPolyline
 66
     1
 10
0.0
 20
0.0
 30
0.0
  0
VERTEX
  5
D29
330
D28
100
AcDbEntity
  8
0
370
     0
100
AcDbVertex
100
AcDb2dVertex
 10
20.92958724848914
 20
344.6610538500729
 30
0.0
  0
VERTEX
  5
D2A
330
D28
100
AcDbEntity
  8
0
370
     0
100
AcDbVertex
100
AcDb2dVertex
 10
20.93392024848911
 20
344.6620918500729
 30
0.0
  0
VERTEX
  5
D2B
330
D28
100
AcDbEntity
  8
0
370
     0
100
AcDbVertex
100
AcDb2dVertex
 10
20.96260724848921
 20
344.6641058500729
 30
0.0
  0
VERTEX
  5
D2C
330
D28
100
AcDbEntity
  8
0
370
     0
100
AcDbVertex
100
AcDb2dVertex
 10
21.92952624848904
 20
344.676007850073
 30
0.0
  0
SEQEND
  5
D2D
330
D28
100
AcDbEntity
  8
0
370
     0
  0
LINE
  5
D2E
330
1F
100
AcDbEntity
  8
0
 62
     7
 48
0.001962
370
    35
100
AcDbLine
 10
20.87410624848903
 20
344.6055728500728
 30
0.0
 11
20.92958724848914
 21
344.6610538500729
 31
0.0
  0
LINE
  5
D2F
330
1F
100
AcDbEntity
  8
0
 62
     7
 48
0.001664
370
    35
100
AcDbLine
 10
22.13613024848914
 20
357.0621768500729
 30
0.0
 11
22.17293424848911
 21
357.0066958500728
 31
0.0
  0
POLYLINE
  5
D30
330
1F
100
AcDbEntity
  8
0
 62
     7
370
    35
100
AcDb2dPolyline
 66
     1
 10
0.0
 20
0.0
 30
0.0
  0
VERTEX
  5
D31
330
D30
100
AcDbEntity
  8
0
370
     0
100
AcDbVertex
100
AcDb2dVertex
 10
23.25716324848915
 20
356.9917428500728
 30
0.0
  0
VERTEX
  5
D32
330
D30
100
AcDbEntity
  8
0
370
     0
100
AcDbVertex
100
AcDb2dVertex
 10
22.46108124848908
 20
356.9980898500729
 30
0.0
  0
VERTEX
  5
D33
330
D30
100
AcDbEntity
  8
0
370
     0
100
AcDbVertex
100
AcDb2dVertex
 10
22.18453124848904
 20
357.004986850073
 30
0.0
  0
VERTEX
  5
D34
330
D30
100
AcDbEntity
  8
0
370
     0
100
AcDbVertex
100
AcDb2dVertex
 10
22.17452124848907
 20
357.0061468500729
 30
0.0
  0
VERTEX
  5
D35
330
D30
100
AcDbEntity
  8
0
370
     0
100
AcDbVertex
100
AcDb2dVertex
 10
22.17293424848911
 20
357.0066958500728
 30
0.0
  0
SEQEND
  5
D36
330
D30
100
AcDbEntity
  8
0
370
     0
  0
LINE
  5
D37
330
1F
100
AcDbEntity
  8
0
 62
     7
 48
0.015674
370
    35
100
AcDbLine
 10
23.25716324848915
 20
356.9917428500728
 30
0.0
 11
23.88411624848911
 21
356.9888128500729
 31
0.0
  0
POLYLINE
  5
D38
330
1F
100
AcDbEntity
  8
0
 62
     7
370
    35
100
AcDb2dPolyline
 66
     1
 10
0.0
 20
0.0
 30
0.0
  0
VERTEX
  5
D39
330
D38
100
AcDbEntity
  8
0
370
     0
100
AcDbVertex
100
AcDb2dVertex
 10
25.01229024848915
 20
356.9737978500726
 30
0.0
  0
VERTEX
  5
D3A
330
D38
100
AcDbEntity
  8
0
370
     0
100
AcDbVertex
100
AcDb2dVertex
 10
25.00765124848905
 20
356.9748358500726
 30
0.0
  0
VERTEX
  5
D3B
330
D38
100
AcDbEntity
  8
0
370
     0
100
AcDbVertex
100
AcDb2dVertex
 10
24.97762224848904
 20
356.9767278500728
 30
0.0
  0
VERTEX
  5
D3C
330
D38
100
AcDbEntity
  8
0
370
     0
100
AcDbVertex
100
AcDb2dVertex
 10
24.65181624848911
 20
356.9831368500729
 30
0.0
  0
VERTEX
  5
D3D
330
D38
100
AcDbEntity
  8
0
370
     0
100
AcDbVertex
100
AcDb2dVertex
 10
23.88411624848911
 20
356.9888128500729
 30
0.0
  0
SEQEND
  5
D3E
330
D38
100
AcDbEntity
  8
0
370
     0
  0
LINE
  5
D3F
330
1F
100
AcDbEntity
  8
0
 62
     7
 48
0.001156
370
    35
100
AcDbLine
 10
25.01229024848915
 20
356.9737978500726
 30
0.0
 11
25.03560524848908
 21
356.9338808500729
 31
0.0
  0
LINE
  5
D40
330
1F
100
AcDbEntity
  8
0
 62
     7
 48
0.000027
370
    35
100
AcDbLine
 10
25.03560524848908
 20
356.9338808500729
 30
0.0
 11
25.03615424848919
 21
356.932965850073
 31
0.0
  0
LINE
  5
D41
330
1F
100
AcDbEntity
  8
0
 62
     7
370
    35
100
AcDbLine
 10
20.87410624848903
 20
148.0621768500729
 30
0.0
 11
20.87410624848903
 21
344.6055728500728
 31
0.0
  0
LINE
  5
D42
330
1F
100
AcDbEntity
  8
0
 62
     7
 48
0.001466
370
    35
100
AcDbLine
 10
23.43788824848908
 20
135.7348148500729
 30
0.0
 11
23.39644524848914
 21
135.6933418500729
 31
0.0
  0
POLYLINE
  5
D43
330
1F
100
AcDbEntity
  8
0
 62
     7
370
    35
100
AcDb2dPolyline
 66
     1
 10
0.0
 20
0.0
 30
0.0
  0
VERTEX
  5
D44
330
D43
100
AcDbEntity
  8
0
370
     0
100
AcDbVertex
100
AcDb2dVertex
 10
22.3965062484891
 20
135.6783878500729
 30
0.0
  0
VERTEX
  5
D45
330
D43
100
AcDbEntity
  8
0
370
     0
100
AcDbVertex
100
AcDb2dVertex
 10
23.36366924848911
 20
135.6903508500727
 30
0.0
  0
VERTEX
  5
D46
330
D43
100
AcDbEntity
  8
0
370
     0
100
AcDbVertex
100
AcDb2dVertex
 10
23.39211124848916
 20
135.6923348500727
 30
0.0
  0
VERTEX
  5
D47
330
D43
100
AcDbEntity
  8
0
370
     0
100
AcDbVertex
100
AcDb2dVertex
 10
23.39644524848914
 20
135.6933418500729
 30
0.0
  0
SEQEND
  5
D48
330
D43
100
AcDbEntity
  8
0
370
     0
  0
LINE
  5
D49
330
1F
100
AcDbEntity
  8
0
 62
     7
 48
0.011675
370
    35
100
AcDbLine
 10
22.3965062484891
 20
135.6783878500729
 30
0.0
 11
21.92952624848904
 21
135.6760378500728
 31
0.0
  0
POLYLINE
  5
D4A
330
1F
100
AcDbEntity
  8
0
 62
     7
370
    35
100
AcDb2dPolyline
 66
     1
 10
0.0
 20
0.0
 30
0.0
  0
VERTEX
  5
D4B
330
D4A
100
AcDbEntity
  8
0
370
     0
100
AcDbVertex
100
AcDb2dVertex
 10
20.92958724848914
 20
135.6610538500729
 30
0.0
  0
VERTEX
  5
D4C
330
D4A
100
AcDbEntity
  8
0
370
     0
100
AcDbVertex
100
AcDb2dVertex
 10
20.93392024848911
 20
135.6620608500728
 30
0.0
  0
VERTEX
  5
D4D
330
D4A
100
AcDbEntity
  8
0
370
     0
100
AcDbVertex
100
AcDb2dVertex
 10
20.96260724848921
 20
135.6640748500729
 30
0.0
  0
VERTEX
  5
D4E
330
D4A
100
AcDbEntity
  8
0
370
     0
100
AcDbVertex
100
AcDb2dVertex
 10
21.92952624848904
 20
135.6760378500728
 30
0.0
  0
SEQEND
  5
D4F
330
D4A
100
AcDbEntity
  8
0
370
     0
  0
LINE
  5
D50
330
1F
100
AcDbEntity
  8
0
 62
     7
 48
0.001961
370
    35
100
AcDbLine
 10
20.87410624848903
 20
135.605603850073
 30
0.0
 11
20.92958724848914
 21
135.6610538500729
 31
0.0
  0
LINE
  5
D51
330
1F
100
AcDbEntity
  8
0
 62
     7
 48
0.001962
370
    35
100
AcDbLine
 10
20.87410624848903
 20
148.0621768500729
 30
0.0
 11
20.92958724848914
 21
148.0066958500729
 31
0.0
  0
POLYLINE
  5
D52
330
1F
100
AcDbEntity
  8
0
 62
     7
370
    35
100
AcDb2dPolyline
 66
     1
 10
0.0
 20
0.0
 30
0.0
  0
VERTEX
  5
D53
330
D52
100
AcDbEntity
  8
0
370
     0
100
AcDbVertex
100
AcDb2dVertex
 10
20.92958724848914
 20
148.0066958500729
 30
0.0
  0
VERTEX
  5
D54
330
D52
100
AcDbEntity
  8
0
370
     0
100
AcDbVertex
100
AcDb2dVertex
 10
20.93392024848911
 20
148.0056588500729
 30
0.0
  0
VERTEX
  5
D55
330
D52
100
AcDbEntity
  8
0
370
     0
100
AcDbVertex
100
AcDb2dVertex
 10
20.96260724848921
 20
148.0036748500729
 30
0.0
  0
VERTEX
  5
D56
330
D52
100
AcDbEntity
  8
0
370
     0
100
AcDbVertex
100
AcDb2dVertex
 10
21.92952624848904
 20
147.9917118500728
 30
0.0
  0
SEQEND
  5
D57
330
D52
100
AcDbEntity
  8
0
370
     0
  0
LINE
  5
D58
330
1F
100
AcDbEntity
  8
0
 62
     7
 48
0.011675
370
    35
100
AcDbLine
 10
22.3965062484891
 20
147.9893618500729
 30
0.0
 11
21.92952624848904
 21
147.9917118500728
 31
0.0
  0
POLYLINE
  5
D59
330
1F
100
AcDbEntity
  8
0
 62
     7
370
    35
100
AcDb2dPolyline
 66
     1
 10
0.0
 20
0.0
 30
0.0
  0
VERTEX
  5
D5A
330
D59
100
AcDbEntity
  8
0
370
     0
100
AcDbVertex
100
AcDb2dVertex
 10
22.3965062484891
 20
147.9893618500729
 30
0.0
  0
VERTEX
  5
D5B
330
D59
100
AcDbEntity
  8
0
370
     0
100
AcDbVertex
100
AcDb2dVertex
 10
23.36366924848911
 20
147.9773988500727
 30
0.0
  0
VERTEX
  5
D5C
330
D59
100
AcDbEntity
  8
0
370
     0
100
AcDbVertex
100
AcDb2dVertex
 10
23.39211124848916
 20
147.9754158500728
 30
0.0
  0
VERTEX
  5
D5D
330
D59
100
AcDbEntity
  8
0
370
     0
100
AcDbVertex
100
AcDb2dVertex
 10
23.39644524848914
 20
147.9744088500729
 30
0.0
  0
SEQEND
  5
D5E
330
D59
100
AcDbEntity
  8
0
370
     0
  0
LINE
  5
D5F
330
1F
100
AcDbEntity
  8
0
 62
     7
 48
0.001466
370
    35
100
AcDbLine
 10
23.43788824848908
 20
147.9329348500729
 30
0.0
 11
23.39644524848914
 21
147.9744088500729
 31
0.0
  0
LINE
  5
D60
330
1F
100
AcDbEntity
  8
0
 62
     7
370
    35
100
AcDbLine
 10
20.87410624848903
 20
-120.9378381499271
 30
0.0
 11
20.87410624848903
 21
135.605603850073
 31
0.0
  0
LINE
  5
D61
330
1F
100
AcDbEntity
  8
0
 62
     7
 48
0.000027
370
    35
100
AcDbLine
 10
25.03560524848908
 20
-133.2661311499271
 30
0.0
 11
25.03615424848919
 21
-133.2652001499271
 31
0.0
  0
LINE
  5
D62
330
1F
100
AcDbEntity
  8
0
 62
     7
 48
0.001155
370
    35
100
AcDbLine
 10
25.03560524848908
 20
-133.2661311499271
 30
0.0
 11
25.01229024848915
 21
-133.3060331499271
 31
0.0
  0
POLYLINE
  5
D63
330
1F
100
AcDbEntity
  8
0
 62
     7
370
    35
100
AcDb2dPolyline
 66
     1
 10
0.0
 20
0.0
 30
0.0
  0
VERTEX
  5
D64
330
D63
100
AcDbEntity
  8
0
370
     0
100
AcDbVertex
100
AcDb2dVertex
 10
25.01229024848915
 20
-133.3060331499271
 30
0.0
  0
VERTEX
  5
D65
330
D63
100
AcDbEntity
  8
0
370
     0
100
AcDbVertex
100
AcDb2dVertex
 10
25.00765124848905
 20
-133.3070701499271
 30
0.0
  0
VERTEX
  5
D66
330
D63
100
AcDbEntity
  8
0
370
     0
100
AcDbVertex
100
AcDb2dVertex
 10
24.97762224848904
 20
-133.3089931499271
 30
0.0
  0
VERTEX
  5
D67
330
D63
100
AcDbEntity
  8
0
370
     0
100
AcDbVertex
100
AcDb2dVertex
 10
24.65181624848911
 20
-133.3153861499271
 30
0.0
  0
VERTEX
  5
D68
330
D63
100
AcDbEntity
  8
0
370
     0
100
AcDbVertex
100
AcDb2dVertex
 10
23.88411624848911
 20
-133.3210931499271
 30
0.0
  0
SEQEND
  5
D69
330
D63
100
AcDbEntity
  8
0
370
     0
  0
LINE
  5
D6A
330
1F
100
AcDbEntity
  8
0
 62
     7
 48
0.015674
370
    35
100
AcDbLine
 10
23.88411624848911
 20
-133.3210931499271
 30
0.0
 11
23.25716324848915
 21
-133.3239771499271
 31
0.0
  0
POLYLINE
  5
D6B
330
1F
100
AcDbEntity
  8
0
 62
     7
370
    35
100
AcDb2dPolyline
 66
     1
 10
0.0
 20
0.0
 30
0.0
  0
VERTEX
  5
D6C
330
D6B
100
AcDbEntity
  8
0
370
     0
100
AcDbVertex
100
AcDb2dVertex
 10
23.25716324848915
 20
-133.3239771499271
 30
0.0
  0
VERTEX
  5
D6D
330
D6B
100
AcDbEntity
  8
0
370
     0
100
AcDbVertex
100
AcDb2dVertex
 10
22.46108124848908
 20
-133.3303551499271
 30
0.0
  0
VERTEX
  5
D6E
330
D6B
100
AcDbEntity
  8
0
370
     0
100
AcDbVertex
100
AcDb2dVertex
 10
22.18453124848904
 20
-133.3372221499271
 30
0.0
  0
VERTEX
  5
D6F
330
D6B
100
AcDbEntity
  8
0
370
     0
100
AcDbVertex
100
AcDb2dVertex
 10
22.17452124848907
 20
-133.3383661499271
 30
0.0
  0
VERTEX
  5
D70
330
D6B
100
AcDbEntity
  8
0
370
     0
100
AcDbVertex
100
AcDb2dVertex
 10
22.17293424848911
 20
-133.3389311499271
 30
0.0
  0
SEQEND
  5
D71
330
D6B
100
AcDbEntity
  8
0
370
     0
  0
LINE
  5
D72
330
1F
100
AcDbEntity
  8
0
 62
     7
 48
0.001664
370
    35
100
AcDbLine
 10
22.17293424848911
 20
-133.3389311499271
 30
0.0
 11
22.13613024848914
 21
-133.3944121499271
 31
0.0
  0
LINE
  5
D73
330
1F
100
AcDbEntity
  8
0
 62
     7
 48
0.001962
370
    35
100
AcDbLine
 10
20.87410624848903
 20
-120.9378381499271
 30
0.0
 11
20.92958724848914
 21
-120.9933191499271
 31
0.0
  0
POLYLINE
  5
D74
330
1F
100
AcDbEntity
  8
0
 62
     7
370
    35
100
AcDb2dPolyline
 66
     1
 10
0.0
 20
0.0
 30
0.0
  0
VERTEX
  5
D75
330
D74
100
AcDbEntity
  8
0
370
     0
100
AcDbVertex
100
AcDb2dVertex
 10
20.92958724848914
 20
-120.9933191499271
 30
0.0
  0
VERTEX
  5
D76
330
D74
100
AcDbEntity
  8
0
370
     0
100
AcDbVertex
100
AcDb2dVertex
 10
20.93392024848911
 20
-120.9943261499271
 30
0.0
  0
VERTEX
  5
D77
330
D74
100
AcDbEntity
  8
0
370
     0
100
AcDbVertex
100
AcDb2dVertex
 10
20.96260724848921
 20
-120.9963251499271
 30
0.0
  0
VERTEX
  5
D78
330
D74
100
AcDbEntity
  8
0
370
     0
100
AcDbVertex
100
AcDb2dVertex
 10
21.92952624848904
 20
-121.0082731499271
 30
0.0
  0
SEQEND
  5
D79
330
D74
100
AcDbEntity
  8
0
370
     0
  0
LINE
  5
D7A
330
1F
100
AcDbEntity
  8
0
 62
     7
 48
0.011675
370
    35
100
AcDbLine
 10
22.3965062484891
 20
-121.0106381499271
 30
0.0
 11
21.92952624848904
 21
-121.0082731499271
 31
0.0
  0
POLYLINE
  5
D7B
330
1F
100
AcDbEntity
  8
0
 62
     7
370
    35
100
AcDb2dPolyline
 66
     1
 10
0.0
 20
0.0
 30
0.0
  0
VERTEX
  5
D7C
330
D7B
100
AcDbEntity
  8
0
370
     0
100
AcDbVertex
100
AcDb2dVertex
 10
22.3965062484891
 20
-121.0106381499271
 30
0.0
  0
VERTEX
  5
D7D
330
D7B
100
AcDbEntity
  8
0
370
     0
100
AcDbVertex
100
AcDb2dVertex
 10
23.36366924848911
 20
-121.0226011499271
 30
0.0
  0
VERTEX
  5
D7E
330
D7B
100
AcDbEntity
  8
0
370
     0
100
AcDbVertex
100
AcDb2dVertex
 10
23.39211124848916
 20
-121.0245841499271
 30
0.0
  0
VERTEX
  5
D7F
330
D7B
100
AcDbEntity
  8
0
370
     0
100
AcDbVertex
100
AcDb2dVertex
 10
23.39644524848914
 20
-121.0255911499271
 30
0.0
  0
SEQEND
  5
D80
330
D7B
100
AcDbEntity
  8
0
370
     0
  0
LINE
  5
D81
330
1F
100
AcDbEntity
  8
0
 62
     7
 48
0.001465
370
    35
100
AcDbLine
 10
23.43788824848908
 20
-121.0670501499271
 30
0.0
 11
23.39644524848914
 21
-121.0255911499271
 31
0.0
  0
POLYLINE
  5
D82
330
1F
100
AcDbEntity
  8
0
 62
     7
370
    35
100
AcDb2dPolyline
 66
     1
 10
0.0
 20
0.0
 30
0.0
  0
VERTEX
  5
D83
330
D82
100
AcDbEntity
  8
0
370
     0
100
AcDbVertex
100
AcDb2dVertex
 10
32.43721624848918
 20
-135.2878441499271
 30
0.0
  0
VERTEX
  5
D84
330
D82
100
AcDbEntity
  8
0
370
     0
100
AcDbVertex
100
AcDb2dVertex
 10
33.14278324848914
 20
-135.6301751499271
 30
0.0
  0
VERTEX
  5
D85
330
D82
100
AcDbEntity
  8
0
370
     0
100
AcDbVertex
100
AcDb2dVertex
 10
33.87489924848919
 20
-135.9121881499271
 30
0.0
  0
VERTEX
  5
D86
330
D82
100
AcDbEntity
  8
0
370
     0
100
AcDbVertex
100
AcDb2dVertex
 10
34.62850024848908
 20
-136.1319301499271
 30
0.0
  0
VERTEX
  5
D87
330
D82
100
AcDbEntity
  8
0
370
     0
100
AcDbVertex
100
AcDb2dVertex
 10
35.39821524848921
 20
-136.2878441499271
 30
0.0
  0
VERTEX
  5
D88
330
D82
100
AcDbEntity
  8
0
370
     0
100
AcDbVertex
100
AcDb2dVertex
 10
36.17854924848914
 20
-136.3788321499271
 30
0.0
  0
VERTEX
  5
D89
330
D82
100
AcDbEntity
  8
0
370
     0
100
AcDbVertex
100
AcDb2dVertex
 10
36.96401124848918
 20
-136.4042081499271
 30
0.0
  0
VERTEX
  5
D8A
330
D82
100
AcDbEntity
  8
0
370
     0
100
AcDbVertex
100
AcDb2dVertex
 10
37.7488012484891
 20
-136.3638021499271
 30
0.0
  0
VERTEX
  5
D8B
330
D82
100
AcDbEntity
  8
0
370
     0
100
AcDbVertex
100
AcDb2dVertex
 10
38.57405724848918
 20
-136.2493771499271
 30
0.0
  0
VERTEX
  5
D8C
330
D82
100
AcDbEntity
  8
0
370
     0
100
AcDbVertex
100
AcDb2dVertex
 10
39.38558124848905
 20
-136.0622431499271
 30
0.0
  0
VERTEX
  5
D8D
330
D82
100
AcDbEntity
  8
0
370
     0
100
AcDbVertex
100
AcDb2dVertex
 10
40.1767182484891
 20
-135.8038661499271
 30
0.0
  0
VERTEX
  5
D8E
330
D82
100
AcDbEntity
  8
0
370
     0
100
AcDbVertex
100
AcDb2dVertex
 10
40.94136724848906
 20
-135.4763211499271
 30
0.0
  0
VERTEX
  5
D8F
330
D82
100
AcDbEntity
  8
0
370
     0
100
AcDbVertex
100
AcDb2dVertex
 10
41.67354424848914
 20
-135.0821401499271
 30
0.0
  0
VERTEX
  5
D90
330
D82
100
AcDbEntity
  8
0
370
     0
100
AcDbVertex
100
AcDb2dVertex
 10
42.36751424848907
 20
-134.6243161499271
 30
0.0
  0
VERTEX
  5
D91
330
D82
100
AcDbEntity
  8
0
370
     0
100
AcDbVertex
100
AcDb2dVertex
 10
42.97347124848903
 20
-134.1448391499271
 30
0.0
  0
VERTEX
  5
D92
330
D82
100
AcDbEntity
  8
0
370
     0
100
AcDbVertex
100
AcDb2dVertex
 10
43.53755824848914
 20
-133.6165491499271
 30
0.0
  0
VERTEX
  5
D93
330
D82
100
AcDbEntity
  8
0
370
     0
100
AcDbVertex
100
AcDb2dVertex
 10
44.05605224848918
 20
-133.0428951499271
 30
0.0
  0
VERTEX
  5
D94
330
D82
100
AcDbEntity
  8
0
370
     0
100
AcDbVertex
100
AcDb2dVertex
 10
44.52522924848911
 20
-132.4277061499271
 30
0.0
  0
VERTEX
  5
D95
330
D82
100
AcDbEntity
  8
0
370
     0
100
AcDbVertex
100
AcDb2dVertex
 10
44.94173324848914
 20
-131.7750571499271
 30
0.0
  0
VERTEX
  5
D96
330
D82
100
AcDbEntity
  8
0
370
     0
100
AcDbVertex
100
AcDb2dVertex
 10
45.30263424848905
 20
-131.0893271499271
 30
0.0
  0
VERTEX
  5
D97
330
D82
100
AcDbEntity
  8
0
370
     0
100
AcDbVertex
100
AcDb2dVertex
 10
45.60524624848911
 20
-130.3751551499271
 30
0.0
  0
VERTEX
  5
D98
330
D82
100
AcDbEntity
  8
0
370
     0
100
AcDbVertex
100
AcDb2dVertex
 10
45.84731224848914
 20
-129.6374081499271
 30
0.0
  0
VERTEX
  5
D99
330
D82
100
AcDbEntity
  8
0
370
     0
100
AcDbVertex
100
AcDb2dVertex
 10
46.02693824848913
 20
-128.8812131499271
 30
0.0
  0
VERTEX
  5
D9A
330
D82
100
AcDbEntity
  8
0
370
     0
100
AcDbVertex
100
AcDb2dVertex
 10
46.14516324848907
 20
-128.0885341499271
 30
0.0
  0
VERTEX
  5
D9B
330
D82
100
AcDbEntity
  8
0
370
     0
100
AcDbVertex
100
AcDb2dVertex
 10
46.1945412484891
 20
-127.2879201499271
 30
0.0
  0
VERTEX
  5
D9C
330
D82
100
AcDbEntity
  8
0
370
     0
100
AcDbVertex
100
AcDb2dVertex
 10
46.1744602484891
 20
-126.4854761499271
 30
0.0
  0
VERTEX
  5
D9D
330
D82
100
AcDbEntity
  8
0
370
     0
100
AcDbVertex
100
AcDb2dVertex
 10
46.08498224848914
 20
-125.6872741499271
 30
0.0
  0
VERTEX
  5
D9E
330
D82
100
AcDbEntity
  8
0
370
     0
100
AcDbVertex
100
AcDb2dVertex
 10
45.92677924848916
 20
-124.8993101499271
 30
0.0
  0
VERTEX
  5
D9F
330
D82
100
AcDbEntity
  8
0
370
     0
100
AcDbVertex
100
AcDb2dVertex
 10
45.70082724848916
 20
-124.1275201499271
 30
0.0
  0
VERTEX
  5
DA0
330
D82
100
AcDbEntity
  8
0
370
     0
100
AcDbVertex
100
AcDb2dVertex
 10
45.40883524848911
 20
-123.3777491499271
 30
0.0
  0
VERTEX
  5
DA1
330
D82
100
AcDbEntity
  8
0
370
     0
100
AcDbVertex
100
AcDb2dVertex
 10
45.05281724848916
 20
-122.6556121499271
 30
0.0
  0
VERTEX
  5
DA2
330
D82
100
AcDbEntity
  8
0
370
     0
100
AcDbVertex
100
AcDb2dVertex
 10
44.63545824848909
 20
-121.9666011499271
 30
0.0
  0
VERTEX
  5
DA3
330
D82
100
AcDbEntity
  8
0
370
     0
100
AcDbVertex
100
AcDb2dVertex
 10
44.1596892484891
 20
-121.3159051499271
 30
0.0
  0
VERTEX
  5
DA4
330
D82
100
AcDbEntity
  8
0
370
     0
100
AcDbVertex
100
AcDb2dVertex
 10
43.62917224848907
 20
-120.7084981499271
 30
0.0
  0
VERTEX
  5
DA5
330
D82
100
AcDbEntity
  8
0
370
     0
100
AcDbVertex
100
AcDb2dVertex
 10
43.04781224848918
 20
-120.1490351499271
 30
0.0
  0
VERTEX
  5
DA6
330
D82
100
AcDbEntity
  8
0
370
     0
100
AcDbVertex
100
AcDb2dVertex
 10
42.42000424848909
 20
-119.6417871499271
 30
0.0
  0
VERTEX
  5
DA7
330
D82
100
AcDbEntity
  8
0
370
     0
100
AcDbVertex
100
AcDb2dVertex
 10
41.89955824848911
 20
-119.2839071499271
 30
0.0
  0
VERTEX
  5
DA8
330
D82
100
AcDbEntity
  8
0
370
     0
100
AcDbVertex
100
AcDb2dVertex
 10
41.35604024848914
 20
-118.9620541499271
 30
0.0
  0
SEQEND
  5
DA9
330
D82
100
AcDbEntity
  8
0
370
     0
  0
POLYLINE
  5
DAA
330
1F
100
AcDbEntity
  8
0
 62
     7
370
    35
100
AcDb2dPolyline
 66
     1
 10
0.0
 20
0.0
 30
0.0
  0
VERTEX
  5
DAB
330
DAA
100
AcDbEntity
  8
0
370
     0
100
AcDbVertex
100
AcDb2dVertex
 10
32.43721624848918
 20
-135.2878441499271
 30
0.0
  0
VERTEX
  5
DAC
330
DAA
100
AcDbEntity
  8
0
370
     0
100
AcDbVertex
100
AcDb2dVertex
 10
31.75362324848924
 20
-134.8813501499271
 30
0.0
  0
VERTEX
  5
DAD
330
DAA
100
AcDbEntity
  8
0
370
     0
100
AcDbVertex
100
AcDb2dVertex
 10
31.10726024848906
 20
-134.4180471499271
 30
0.0
  0
VERTEX
  5
DAE
330
DAA
100
AcDbEntity
  8
0
370
     0
100
AcDbVertex
100
AcDb2dVertex
 10
30.50282924848918
 20
-133.9011411499271
 30
0.0
  0
VERTEX
  5
DAF
330
DAA
100
AcDbEntity
  8
0
370
     0
100
AcDbVertex
100
AcDb2dVertex
 10
29.94466324848915
 20
-133.3342161499271
 30
0.0
  0
VERTEX
  5
DB0
330
DAA
100
AcDbEntity
  8
0
370
     0
100
AcDbVertex
100
AcDb2dVertex
 10
29.43678924848914
 20
-132.7212551499271
 30
0.0
  0
VERTEX
  5
DB1
330
DAA
100
AcDbEntity
  8
0
370
     0
100
AcDbVertex
100
AcDb2dVertex
 10
28.98311524848914
 20
-132.0665311499271
 30
0.0
  0
VERTEX
  5
DB2
330
DAA
100
AcDbEntity
  8
0
370
     0
100
AcDbVertex
100
AcDb2dVertex
 10
28.58693624848918
 20
-131.3746821499271
 30
0.0
  0
VERTEX
  5
DB3
330
DAA
100
AcDbEntity
  8
0
370
     0
100
AcDbVertex
100
AcDb2dVertex
 10
28.25142524848909
 20
-130.6506221499271
 30
0.0
  0
VERTEX
  5
DB4
330
DAA
100
AcDbEntity
  8
0
370
     0
100
AcDbVertex
100
AcDb2dVertex
 10
27.97914724848905
 20
-129.8996001499271
 30
0.0
  0
VERTEX
  5
DB5
330
DAA
100
AcDbEntity
  8
0
370
     0
100
AcDbVertex
100
AcDb2dVertex
 10
27.77236024848911
 20
-129.1270621499271
 30
0.0
  0
VERTEX
  5
DB6
330
DAA
100
AcDbEntity
  8
0
370
     0
100
AcDbVertex
100
AcDb2dVertex
 10
27.63277324848921
 20
-128.3380001499271
 30
0.0
  0
VERTEX
  5
DB7
330
DAA
100
AcDbEntity
  8
0
370
     0
100
AcDbVertex
100
AcDb2dVertex
 10
27.56172824848917
 20
-127.5391411499271
 30
0.0
  0
VERTEX
  5
DB8
330
DAA
100
AcDbEntity
  8
0
370
     0
100
AcDbVertex
100
AcDb2dVertex
 10
27.56008024848912
 20
-126.7365591499271
 30
0.0
  0
VERTEX
  5
DB9
330
DAA
100
AcDbEntity
  8
0
370
     0
100
AcDbVertex
100
AcDb2dVertex
 10
27.62782924848917
 20
-125.9363121499271
 30
0.0
  0
VERTEX
  5
DBA
330
DAA
100
AcDbEntity
  8
0
370
     0
100
AcDbVertex
100
AcDb2dVertex
 10
27.76460924848911
 20
-125.1444271499271
 30
0.0
  0
VERTEX
  5
DBB
330
DAA
100
AcDbEntity
  8
0
370
     0
100
AcDbVertex
100
AcDb2dVertex
 10
27.96956524848915
 20
-124.3668541499271
 30
0.0
  0
VERTEX
  5
DBC
330
DAA
100
AcDbEntity
  8
0
370
     0
100
AcDbVertex
100
AcDb2dVertex
 10
28.24117124848914
 20
-123.6094691499271
 30
0.0
  0
VERTEX
  5
DBD
330
DAA
100
AcDbEntity
  8
0
370
     0
100
AcDbVertex
100
AcDb2dVertex
 10
28.57747524848909
 20
-122.8779781499271
 30
0.0
  0
VERTEX
  5
DBE
330
DAA
100
AcDbEntity
  8
0
370
     0
100
AcDbVertex
100
AcDb2dVertex
 10
28.97603524848906
 20
-122.1779051499271
 30
0.0
  0
VERTEX
  5
DBF
330
DAA
100
AcDbEntity
  8
0
370
     0
100
AcDbVertex
100
AcDb2dVertex
 10
29.43404224848914
 20
-121.5145591499271
 30
0.0
  0
VERTEX
  5
DC0
330
DAA
100
AcDbEntity
  8
0
370
     0
100
AcDbVertex
100
AcDb2dVertex
 10
29.94795824848911
 20
-120.8929921499271
 30
0.0
  0
VERTEX
  5
DC1
330
DAA
100
AcDbEntity
  8
0
370
     0
100
AcDbVertex
100
AcDb2dVertex
 10
30.51412124848909
 20
-120.3179801499271
 30
0.0
  0
VERTEX
  5
DC2
330
DAA
100
AcDbEntity
  8
0
370
     0
100
AcDbVertex
100
AcDb2dVertex
 10
31.12801224848915
 20
-119.7939171499271
 30
0.0
  0
VERTEX
  5
DC3
330
DAA
100
AcDbEntity
  8
0
370
     0
100
AcDbVertex
100
AcDb2dVertex
 10
31.80879824848918
 20
-119.3095571499271
 30
0.0
  0
VERTEX
  5
DC4
330
DAA
100
AcDbEntity
  8
0
370
     0
100
AcDbVertex
100
AcDb2dVertex
 10
32.53017324848914
 20
-118.8880491499271
 30
0.0
  0
VERTEX
  5
DC5
330
DAA
100
AcDbEntity
  8
0
370
     0
100
AcDbVertex
100
AcDb2dVertex
 10
33.28633724848916
 20
-118.5327941499271
 30
0.0
  0
VERTEX
  5
DC6
330
DAA
100
AcDbEntity
  8
0
370
     0
100
AcDbVertex
100
AcDb2dVertex
 10
34.07125024848912
 20
-118.2466151499271
 30
0.0
  0
VERTEX
  5
DC7
330
DAA
100
AcDbEntity
  8
0
370
     0
100
AcDbVertex
100
AcDb2dVertex
 10
34.87850024848909
 20
-118.0317711499271
 30
0.0
  0
VERTEX
  5
DC8
330
DAA
100
AcDbEntity
  8
0
370
     0
100
AcDbVertex
100
AcDb2dVertex
 10
35.70168224848914
 20
-117.8899411499271
 30
0.0
  0
VERTEX
  5
DC9
330
DAA
100
AcDbEntity
  8
0
370
     0
100
AcDbVertex
100
AcDb2dVertex
 10
36.53426224848918
 20
-117.8222371499271
 30
0.0
  0
VERTEX
  5
DCA
330
DAA
100
AcDbEntity
  8
0
370
     0
100
AcDbVertex
100
AcDb2dVertex
 10
37.36958924848906
 20
-117.8292111499271
 30
0.0
  0
VERTEX
  5
DCB
330
DAA
100
AcDbEntity
  8
0
370
     0
100
AcDbVertex
100
AcDb2dVertex
 10
38.20094924848918
 20
-117.9107841499271
 30
0.0
  0
VERTEX
  5
DCC
330
DAA
100
AcDbEntity
  8
0
370
     0
100
AcDbVertex
100
AcDb2dVertex
 10
39.0218112484891
 20
-118.0663631499271
 30
0.0
  0
VERTEX
  5
DCD
330
DAA
100
AcDbEntity
  8
0
370
     0
100
AcDbVertex
100
AcDb2dVertex
 10
39.82558324848909
 20
-118.2947411499271
 30
0.0
  0
VERTEX
  5
DCE
330
DAA
100
AcDbEntity
  8
0
370
     0
100
AcDbVertex
100
AcDb2dVertex
 10
40.60573424848914
 20
-118.5941031499271
 30
0.0
  0
VERTEX
  5
DCF
330
DAA
100
AcDbEntity
  8
0
370
     0
100
AcDbVertex
100
AcDb2dVertex
 10
41.35604024848914
 20
-118.9620541499271
 30
0.0
  0
SEQEND
  5
DD0
330
DAA
100
AcDbEntity
  8
0
370
     0
  0
POLYLINE
  5
DD1
330
1F
100
AcDbEntity
  8
0
 62
     7
370
    35
100
AcDb2dPolyline
 66
     1
 10
0.0
 20
0.0
 30
0.0
  0
VERTEX
  5
DD2
330
DD1
100
AcDbEntity
  8
0
370
     0
100
AcDbVertex
100
AcDb2dVertex
 10
329.3110572484891
 20
-135.2878441499271
 30
0.0
  0
VERTEX
  5
DD3
330
DD1
100
AcDbEntity
  8
0
370
     0
100
AcDbVertex
100
AcDb2dVertex
 10
329.9946502484892
 20
-134.8813501499271
 30
0.0
  0
VERTEX
  5
DD4
330
DD1
100
AcDbEntity
  8
0
370
     0
100
AcDbVertex
100
AcDb2dVertex
 10
330.6409522484892
 20
-134.4180471499271
 30
0.0
  0
VERTEX
  5
DD5
330
DD1
100
AcDbEntity
  8
0
370
     0
100
AcDbVertex
100
AcDb2dVertex
 10
331.2454442484892
 20
-133.9011411499271
 30
0.0
  0
VERTEX
  5
DD6
330
DD1
100
AcDbEntity
  8
0
370
     0
100
AcDbVertex
100
AcDb2dVertex
 10
331.8036102484891
 20
-133.3342161499271
 30
0.0
  0
VERTEX
  5
DD7
330
DD1
100
AcDbEntity
  8
0
370
     0
100
AcDbVertex
100
AcDb2dVertex
 10
332.3114842484891
 20
-132.7212551499271
 30
0.0
  0
VERTEX
  5
DD8
330
DD1
100
AcDbEntity
  8
0
370
     0
100
AcDbVertex
100
AcDb2dVertex
 10
332.765158248489
 20
-132.0665311499271
 30
0.0
  0
VERTEX
  5
DD9
330
DD1
100
AcDbEntity
  8
0
370
     0
100
AcDbVertex
100
AcDb2dVertex
 10
333.1613372484891
 20
-131.3746821499271
 30
0.0
  0
VERTEX
  5
DDA
330
DD1
100
AcDbEntity
  8
0
370
     0
100
AcDbVertex
100
AcDb2dVertex
 10
333.4968482484889
 20
-130.6506221499271
 30
0.0
  0
VERTEX
  5
DDB
330
DD1
100
AcDbEntity
  8
0
370
     0
100
AcDbVertex
100
AcDb2dVertex
 10
333.7691252484892
 20
-129.8996001499271
 30
0.0
  0
VERTEX
  5
DDC
330
DD1
100
AcDbEntity
  8
0
370
     0
100
AcDbVertex
100
AcDb2dVertex
 10
333.9759132484892
 20
-129.1270621499271
 30
0.0
  0
VERTEX
  5
DDD
330
DD1
100
AcDbEntity
  8
0
370
     0
100
AcDbVertex
100
AcDb2dVertex
 10
334.1155002484892
 20
-128.3380001499271
 30
0.0
  0
VERTEX
  5
DDE
330
DD1
100
AcDbEntity
  8
0
370
     0
100
AcDbVertex
100
AcDb2dVertex
 10
334.1864842484893
 20
-127.5391411499271
 30
0.0
  0
VERTEX
  5
DDF
330
DD1
100
AcDbEntity
  8
0
370
     0
100
AcDbVertex
100
AcDb2dVertex
 10
334.1881932484892
 20
-126.7365591499271
 30
0.0
  0
VERTEX
  5
DE0
330
DD1
100
AcDbEntity
  8
0
370
     0
100
AcDbVertex
100
AcDb2dVertex
 10
334.1204442484892
 20
-125.9363121499271
 30
0.0
  0
VERTEX
  5
DE1
330
DD1
100
AcDbEntity
  8
0
370
     0
100
AcDbVertex
100
AcDb2dVertex
 10
333.9836032484892
 20
-125.1444271499271
 30
0.0
  0
VERTEX
  5
DE2
330
DD1
100
AcDbEntity
  8
0
370
     0
100
AcDbVertex
100
AcDb2dVertex
 10
333.7787082484888
 20
-124.3668541499271
 30
0.0
  0
VERTEX
  5
DE3
330
DD1
100
AcDbEntity
  8
0
370
     0
100
AcDbVertex
100
AcDb2dVertex
 10
333.5071022484892
 20
-123.6094691499271
 30
0.0
  0
VERTEX
  5
DE4
330
DD1
100
AcDbEntity
  8
0
370
     0
100
AcDbVertex
100
AcDb2dVertex
 10
333.1707982484888
 20
-122.8779781499271
 30
0.0
  0
VERTEX
  5
DE5
330
DD1
100
AcDbEntity
  8
0
370
     0
100
AcDbVertex
100
AcDb2dVertex
 10
332.7721772484891
 20
-122.1779051499271
 30
0.0
  0
VERTEX
  5
DE6
330
DD1
100
AcDbEntity
  8
0
370
     0
100
AcDbVertex
100
AcDb2dVertex
 10
332.3142302484892
 20
-121.5145591499271
 30
0.0
  0
VERTEX
  5
DE7
330
DD1
100
AcDbEntity
  8
0
370
     0
100
AcDbVertex
100
AcDb2dVertex
 10
331.8002532484891
 20
-120.8929921499271
 30
0.0
  0
VERTEX
  5
DE8
330
DD1
100
AcDbEntity
  8
0
370
     0
100
AcDbVertex
100
AcDb2dVertex
 10
331.2342132484892
 20
-120.3179801499271
 30
0.0
  0
VERTEX
  5
DE9
330
DD1
100
AcDbEntity
  8
0
370
     0
100
AcDbVertex
100
AcDb2dVertex
 10
330.6202002484891
 20
-119.7939171499271
 30
0.0
  0
VERTEX
  5
DEA
330
DD1
100
AcDbEntity
  8
0
370
     0
100
AcDbVertex
100
AcDb2dVertex
 10
329.9394752484892
 20
-119.3095571499271
 30
0.0
  0
VERTEX
  5
DEB
330
DD1
100
AcDbEntity
  8
0
370
     0
100
AcDbVertex
100
AcDb2dVertex
 10
329.2181002484891
 20
-118.8880491499271
 30
0.0
  0
VERTEX
  5
DEC
330
DD1
100
AcDbEntity
  8
0
370
     0
100
AcDbVertex
100
AcDb2dVertex
 10
328.4618752484893
 20
-118.5327941499271
 30
0.0
  0
VERTEX
  5
DED
330
DD1
100
AcDbEntity
  8
0
370
     0
100
AcDbVertex
100
AcDb2dVertex
 10
327.6770232484891
 20
-118.2466151499271
 30
0.0
  0
VERTEX
  5
DEE
330
DD1
100
AcDbEntity
  8
0
370
     0
100
AcDbVertex
100
AcDb2dVertex
 10
326.8697722484891
 20
-118.0317711499271
 30
0.0
  0
VERTEX
  5
DEF
330
DD1
100
AcDbEntity
  8
0
370
     0
100
AcDbVertex
100
AcDb2dVertex
 10
326.0465912484891
 20
-117.8899411499271
 30
0.0
  0
VERTEX
  5
DF0
330
DD1
100
AcDbEntity
  8
0
370
     0
100
AcDbVertex
100
AcDb2dVertex
 10
325.2140112484891
 20
-117.8222371499271
 30
0.0
  0
VERTEX
  5
DF1
330
DD1
100
AcDbEntity
  8
0
370
     0
100
AcDbVertex
100
AcDb2dVertex
 10
324.3787452484891
 20
-117.8292111499271
 30
0.0
  0
VERTEX
  5
DF2
330
DD1
100
AcDbEntity
  8
0
370
     0
100
AcDbVertex
100
AcDb2dVertex
 10
323.5473242484891
 20
-117.9107841499271
 30
0.0
  0
VERTEX
  5
DF3
330
DD1
100
AcDbEntity
  8
0
370
     0
100
AcDbVertex
100
AcDb2dVertex
 10
322.7264012484891
 20
-118.0663631499271
 30
0.0
  0
VERTEX
  5
DF4
330
DD1
100
AcDbEntity
  8
0
370
     0
100
AcDbVertex
100
AcDb2dVertex
 10
321.9226902484891
 20
-118.2947411499271
 30
0.0
  0
VERTEX
  5
DF5
330
DD1
100
AcDbEntity
  8
0
370
     0
100
AcDbVertex
100
AcDb2dVertex
 10
321.1425392484891
 20
-118.5941031499271
 30
0.0
  0
VERTEX
  5
DF6
330
DD1
100
AcDbEntity
  8
0
370
     0
100
AcDbVertex
100
AcDb2dVertex
 10
320.3922332484891
 20
-118.9620541499271
 30
0.0
  0
SEQEND
  5
DF7
330
DD1
100
AcDbEntity
  8
0
370
     0
  0
POLYLINE
  5
DF8
330
1F
100
AcDbEntity
  8
0
 62
     7
370
    35
100
AcDb2dPolyline
 66
     1
 10
0.0
 20
0.0
 30
0.0
  0
VERTEX
  5
DF9
330
DF8
100
AcDbEntity
  8
0
370
     0
100
AcDbVertex
100
AcDb2dVertex
 10
329.3110572484891
 20
-135.2878441499271
 30
0.0
  0
VERTEX
  5
DFA
330
DF8
100
AcDbEntity
  8
0
370
     0
100
AcDbVertex
100
AcDb2dVertex
 10
328.605490248489
 20
-135.6301751499271
 30
0.0
  0
VERTEX
  5
DFB
330
DF8
100
AcDbEntity
  8
0
370
     0
100
AcDbVertex
100
AcDb2dVertex
 10
327.8733742484891
 20
-135.9121881499271
 30
0.0
  0
VERTEX
  5
DFC
330
DF8
100
AcDbEntity
  8
0
370
     0
100
AcDbVertex
100
AcDb2dVertex
 10
327.1197722484891
 20
-136.1319301499271
 30
0.0
  0
VERTEX
  5
DFD
330
DF8
100
AcDbEntity
  8
0
370
     0
100
AcDbVertex
100
AcDb2dVertex
 10
326.350058248489
 20
-136.2878441499271
 30
0.0
  0
VERTEX
  5
DFE
330
DF8
100
AcDbEntity
  8
0
370
     0
100
AcDbVertex
100
AcDb2dVertex
 10
325.5696632484891
 20
-136.3788321499271
 30
0.0
  0
VERTEX
  5
DFF
330
DF8
100
AcDbEntity
  8
0
370
     0
100
AcDbVertex
100
AcDb2dVertex
 10
324.7842622484891
 20
-136.4042081499271
 30
0.0
  0
VERTEX
  5
E00
330
DF8
100
AcDbEntity
  8
0
370
     0
100
AcDbVertex
100
AcDb2dVertex
 10
323.9994722484891
 20
-136.3638021499271
 30
0.0
  0
VERTEX
  5
E01
330
DF8
100
AcDbEntity
  8
0
370
     0
100
AcDbVertex
100
AcDb2dVertex
 10
323.1741552484891
 20
-136.2493771499271
 30
0.0
  0
VERTEX
  5
E02
330
DF8
100
AcDbEntity
  8
0
370
     0
100
AcDbVertex
100
AcDb2dVertex
 10
322.3626922484891
 20
-136.0622431499271
 30
0.0
  0
VERTEX
  5
E03
330
DF8
100
AcDbEntity
  8
0
370
     0
100
AcDbVertex
100
AcDb2dVertex
 10
321.571494248489
 20
-135.8038661499271
 30
0.0
  0
VERTEX
  5
E04
330
DF8
100
AcDbEntity
  8
0
370
     0
100
AcDbVertex
100
AcDb2dVertex
 10
320.8068452484891
 20
-135.4763211499271
 30
0.0
  0
VERTEX
  5
E05
330
DF8
100
AcDbEntity
  8
0
370
     0
100
AcDbVertex
100
AcDb2dVertex
 10
320.0746672484893
 20
-135.0821401499271
 30
0.0
  0
VERTEX
  5
E06
330
DF8
100
AcDbEntity
  8
0
370
     0
100
AcDbVertex
100
AcDb2dVertex
 10
319.3807592484891
 20
-134.6243161499271
 30
0.0
  0
VERTEX
  5
E07
330
DF8
100
AcDbEntity
  8
0
370
     0
100
AcDbVertex
100
AcDb2dVertex
 10
318.7748022484891
 20
-134.1448391499271
 30
0.0
  0
VERTEX
  5
E08
330
DF8
100
AcDbEntity
  8
0
370
     0
100
AcDbVertex
100
AcDb2dVertex
 10
318.2106542484891
 20
-133.6165491499271
 30
0.0
  0
VERTEX
  5
E09
330
DF8
100
AcDbEntity
  8
0
370
     0
100
AcDbVertex
100
AcDb2dVertex
 10
317.6922212484891
 20
-133.0428951499271
 30
0.0
  0
VERTEX
  5
E0A
330
DF8
100
AcDbEntity
  8
0
370
     0
100
AcDbVertex
100
AcDb2dVertex
 10
317.2230442484891
 20
-132.4277061499271
 30
0.0
  0
VERTEX
  5
E0B
330
DF8
100
AcDbEntity
  8
0
370
     0
100
AcDbVertex
100
AcDb2dVertex
 10
316.8065402484891
 20
-131.7750571499271
 30
0.0
  0
VERTEX
  5
E0C
330
DF8
100
AcDbEntity
  8
0
370
     0
100
AcDbVertex
100
AcDb2dVertex
 10
316.4456392484891
 20
-131.0893271499271
 30
0.0
  0
VERTEX
  5
E0D
330
DF8
100
AcDbEntity
  8
0
370
     0
100
AcDbVertex
100
AcDb2dVertex
 10
316.1430272484891
 20
-130.3751551499271
 30
0.0
  0
VERTEX
  5
E0E
330
DF8
100
AcDbEntity
  8
0
370
     0
100
AcDbVertex
100
AcDb2dVertex
 10
315.9009612484891
 20
-129.6374081499271
 30
0.0
  0
VERTEX
  5
E0F
330
DF8
100
AcDbEntity
  8
0
370
     0
100
AcDbVertex
100
AcDb2dVertex
 10
315.7212742484891
 20
-128.8812131499271
 30
0.0
  0
VERTEX
  5
E10
330
DF8
100
AcDbEntity
  8
0
370
     0
100
AcDbVertex
100
AcDb2dVertex
 10
315.6031102484891
 20
-128.0885341499271
 30
0.0
  0
VERTEX
  5
E11
330
DF8
100
AcDbEntity
  8
0
370
     0
100
AcDbVertex
100
AcDb2dVertex
 10
315.5537932484891
 20
-127.2879201499271
 30
0.0
  0
VERTEX
  5
E12
330
DF8
100
AcDbEntity
  8
0
370
     0
100
AcDbVertex
100
AcDb2dVertex
 10
315.5738132484891
 20
-126.4854761499271
 30
0.0
  0
VERTEX
  5
E13
330
DF8
100
AcDbEntity
  8
0
370
     0
100
AcDbVertex
100
AcDb2dVertex
 10
315.663291248489
 20
-125.6872741499271
 30
0.0
  0
VERTEX
  5
E14
330
DF8
100
AcDbEntity
  8
0
370
     0
100
AcDbVertex
100
AcDb2dVertex
 10
315.8214942484891
 20
-124.8993101499271
 30
0.0
  0
VERTEX
  5
E15
330
DF8
100
AcDbEntity
  8
0
370
     0
100
AcDbVertex
100
AcDb2dVertex
 10
316.0474462484891
 20
-124.1275201499271
 30
0.0
  0
VERTEX
  5
E16
330
DF8
100
AcDbEntity
  8
0
370
     0
100
AcDbVertex
100
AcDb2dVertex
 10
316.3394382484891
 20
-123.3777491499271
 30
0.0
  0
VERTEX
  5
E17
330
DF8
100
AcDbEntity
  8
0
370
     0
100
AcDbVertex
100
AcDb2dVertex
 10
316.6954562484891
 20
-122.6556121499271
 30
0.0
  0
VERTEX
  5
E18
330
DF8
100
AcDbEntity
  8
0
370
     0
100
AcDbVertex
100
AcDb2dVertex
 10
317.1128142484891
 20
-121.9666011499271
 30
0.0
  0
VERTEX
  5
E19
330
DF8
100
AcDbEntity
  8
0
370
     0
100
AcDbVertex
100
AcDb2dVertex
 10
317.5885832484889
 20
-121.3159051499271
 30
0.0
  0
VERTEX
  5
E1A
330
DF8
100
AcDbEntity
  8
0
370
     0
100
AcDbVertex
100
AcDb2dVertex
 10
318.1191012484891
 20
-120.7084981499271
 30
0.0
  0
VERTEX
  5
E1B
330
DF8
100
AcDbEntity
  8
0
370
     0
100
AcDbVertex
100
AcDb2dVertex
 10
318.7004612484891
 20
-120.1490351499271
 30
0.0
  0
VERTEX
  5
E1C
330
DF8
100
AcDbEntity
  8
0
370
     0
100
AcDbVertex
100
AcDb2dVertex
 10
319.3282692484891
 20
-119.6417871499271
 30
0.0
  0
VERTEX
  5
E1D
330
DF8
100
AcDbEntity
  8
0
370
     0
100
AcDbVertex
100
AcDb2dVertex
 10
319.848715248489
 20
-119.2839071499271
 30
0.0
  0
VERTEX
  5
E1E
330
DF8
100
AcDbEntity
  8
0
370
     0
100
AcDbVertex
100
AcDb2dVertex
 10
320.3922332484891
 20
-118.9620541499271
 30
0.0
  0
SEQEND
  5
E1F
330
DF8
100
AcDbEntity
  8
0
370
     0
  0
LINE
  5
E20
330
1F
100
AcDbEntity
  8
0
 62
     7
 48
0.024998
370
    35
100
AcDbLine
 10
336.9682832484891
 20
-114.4688131499271
 30
0.0
 11
337.9682222484892
 21
-114.4688131499271
 31
0.0
  0
LINE
  5
E21
330
1F
100
AcDbEntity
  8
0
 62
     7
 48
0.024998
370
    35
100
AcDbLine
 10
336.9682832484891
 20
338.1365788500728
 30
0.0
 11
337.9682222484892
 21
338.1365788500728
 31
0.0
  0
POLYLINE
  5
E22
330
1F
100
AcDbEntity
  8
0
 62
     7
370
    35
100
AcDb2dPolyline
 66
     1
 10
0.0
 20
0.0
 30
0.0
  0
VERTEX
  5
E23
330
E22
100
AcDbEntity
  8
0
370
     0
100
AcDbVertex
100
AcDb2dVertex
 10
41.31105724848914
 20
358.9556098500727
 30
0.0
  0
VERTEX
  5
E24
330
E22
100
AcDbEntity
  8
0
370
     0
100
AcDbVertex
100
AcDb2dVertex
 10
40.60549024848914
 20
359.2978948500728
 30
0.0
  0
VERTEX
  5
E25
330
E22
100
AcDbEntity
  8
0
370
     0
100
AcDbVertex
100
AcDb2dVertex
 10
39.87337424848918
 20
359.5799378500728
 30
0.0
  0
VERTEX
  5
E26
330
E22
100
AcDbEntity
  8
0
370
     0
100
AcDbVertex
100
AcDb2dVertex
 10
39.11977224848906
 20
359.7996648500729
 30
0.0
  0
VERTEX
  5
E27
330
E22
100
AcDbEntity
  8
0
370
     0
100
AcDbVertex
100
AcDb2dVertex
 10
38.35005824848914
 20
359.9556098500725
 30
0.0
  0
VERTEX
  5
E28
330
E22
100
AcDbEntity
  8
0
370
     0
100
AcDbVertex
100
AcDb2dVertex
 10
37.56966324848915
 20
360.0465518500726
 30
0.0
  0
VERTEX
  5
E29
330
E22
100
AcDbEntity
  8
0
370
     0
100
AcDbVertex
100
AcDb2dVertex
 10
36.78426224848918
 20
360.0719428500728
 30
0.0
  0
VERTEX
  5
E2A
330
E22
100
AcDbEntity
  8
0
370
     0
100
AcDbVertex
100
AcDb2dVertex
 10
35.99947224848912
 20
360.031537850073
 30
0.0
  0
VERTEX
  5
E2B
330
E22
100
AcDbEntity
  8
0
370
     0
100
AcDbVertex
100
AcDb2dVertex
 10
35.17415524848909
 20
359.917157850073
 30
0.0
  0
VERTEX
  5
E2C
330
E22
100
AcDbEntity
  8
0
370
     0
100
AcDbVertex
100
AcDb2dVertex
 10
34.36269224848909
 20
359.7300238500727
 30
0.0
  0
VERTEX
  5
E2D
330
E22
100
AcDbEntity
  8
0
370
     0
100
AcDbVertex
100
AcDb2dVertex
 10
33.57149424848918
 20
359.4716008500729
 30
0.0
  0
VERTEX
  5
E2E
330
E22
100
AcDbEntity
  8
0
370
     0
100
AcDbVertex
100
AcDb2dVertex
 10
32.80684524848911
 20
359.144085850073
 30
0.0
  0
VERTEX
  5
E2F
330
E22
100
AcDbEntity
  8
0
370
     0
100
AcDbVertex
100
AcDb2dVertex
 10
32.07466724848914
 20
358.749920850073
 30
0.0
  0
VERTEX
  5
E30
330
E22
100
AcDbEntity
  8
0
370
     0
100
AcDbVertex
100
AcDb2dVertex
 10
31.38075924848906
 20
358.2920358500725
 30
0.0
  0
VERTEX
  5
E31
330
E22
100
AcDbEntity
  8
0
370
     0
100
AcDbVertex
100
AcDb2dVertex
 10
30.77480224848918
 20
357.8126038500728
 30
0.0
  0
VERTEX
  5
E32
330
E22
100
AcDbEntity
  8
0
370
     0
100
AcDbVertex
100
AcDb2dVertex
 10
30.21065424848914
 20
357.2842838500729
 30
0.0
  0
VERTEX
  5
E33
330
E22
100
AcDbEntity
  8
0
370
     0
100
AcDbVertex
100
AcDb2dVertex
 10
29.69222124848906
 20
356.7106148500727
 30
0.0
  0
VERTEX
  5
E34
330
E22
100
AcDbEntity
  8
0
370
     0
100
AcDbVertex
100
AcDb2dVertex
 10
29.2230442484891
 20
356.0954408500728
 30
0.0
  0
VERTEX
  5
E35
330
E22
100
AcDbEntity
  8
0
370
     0
100
AcDbVertex
100
AcDb2dVertex
 10
28.80654024848918
 20
355.4427918500729
 30
0.0
  0
VERTEX
  5
E36
330
E22
100
AcDbEntity
  8
0
370
     0
100
AcDbVertex
100
AcDb2dVertex
 10
28.44563924848907
 20
354.7570618500727
 30
0.0
  0
VERTEX
  5
E37
330
E22
100
AcDbEntity
  8
0
370
     0
100
AcDbVertex
100
AcDb2dVertex
 10
28.14302724848911
 20
354.0428898500725
 30
0.0
  0
VERTEX
  5
E38
330
E22
100
AcDbEntity
  8
0
370
     0
100
AcDbVertex
100
AcDb2dVertex
 10
27.90096124848921
 20
353.3051578500728
 30
0.0
  0
VERTEX
  5
E39
330
E22
100
AcDbEntity
  8
0
370
     0
100
AcDbVertex
100
AcDb2dVertex
 10
27.72127424848914
 20
352.5489938500725
 30
0.0
  0
VERTEX
  5
E3A
330
E22
100
AcDbEntity
  8
0
370
     0
100
AcDbVertex
100
AcDb2dVertex
 10
27.60311024848907
 20
351.7562688500726
 30
0.0
  0
VERTEX
  5
E3B
330
E22
100
AcDbEntity
  8
0
370
     0
100
AcDbVertex
100
AcDb2dVertex
 10
27.55379324848909
 20
350.9556708500729
 30
0.0
  0
VERTEX
  5
E3C
330
E22
100
AcDbEntity
  8
0
370
     0
100
AcDbVertex
100
AcDb2dVertex
 10
27.57381324848913
 20
350.1532418500728
 30
0.0
  0
VERTEX
  5
E3D
330
E22
100
AcDbEntity
  8
0
370
     0
100
AcDbVertex
100
AcDb2dVertex
 10
27.66329124848911
 20
349.3550238500727
 30
0.0
  0
VERTEX
  5
E3E
330
E22
100
AcDbEntity
  8
0
370
     0
100
AcDbVertex
100
AcDb2dVertex
 10
27.82149424848917
 20
348.5670598500728
 30
0.0
  0
VERTEX
  5
E3F
330
E22
100
AcDbEntity
  8
0
370
     0
100
AcDbVertex
100
AcDb2dVertex
 10
28.04744624848908
 20
347.7952698500727
 30
0.0
  0
VERTEX
  5
E40
330
E22
100
AcDbEntity
  8
0
370
     0
100
AcDbVertex
100
AcDb2dVertex
 10
28.33943824848912
 20
347.0455148500727
 30
0.0
  0
VERTEX
  5
E41
330
E22
100
AcDbEntity
  8
0
370
     0
100
AcDbVertex
100
AcDb2dVertex
 10
28.69545624848907
 20
346.3233468500729
 30
0.0
  0
VERTEX
  5
E42
330
E22
100
AcDbEntity
  8
0
370
     0
100
AcDbVertex
100
AcDb2dVertex
 10
29.11281424848908
 20
345.6343208500725
 30
0.0
  0
VERTEX
  5
E43
330
E22
100
AcDbEntity
  8
0
370
     0
100
AcDbVertex
100
AcDb2dVertex
 10
29.58858324848911
 20
344.9836858500728
 30
0.0
  0
VERTEX
  5
E44
330
E22
100
AcDbEntity
  8
0
370
     0
100
AcDbVertex
100
AcDb2dVertex
 10
30.11910124848905
 20
344.3762638500725
 30
0.0
  0
VERTEX
  5
E45
330
E22
100
AcDbEntity
  8
0
370
     0
100
AcDbVertex
100
AcDb2dVertex
 10
30.70046124848918
 20
343.8168158500729
 30
0.0
  0
VERTEX
  5
E46
330
E22
100
AcDbEntity
  8
0
370
     0
100
AcDbVertex
100
AcDb2dVertex
 10
31.32826924848914
 20
343.3095528500725
 30
0.0
  0
VERTEX
  5
E47
330
E22
100
AcDbEntity
  8
0
370
     0
100
AcDbVertex
100
AcDb2dVertex
 10
31.84871524848912
 20
342.9516428500729
 30
0.0
  0
VERTEX
  5
E48
330
E22
100
AcDbEntity
  8
0
370
     0
100
AcDbVertex
100
AcDb2dVertex
 10
32.39223324848907
 20
342.6298038500728
 30
0.0
  0
SEQEND
  5
E49
330
E22
100
AcDbEntity
  8
0
370
     0
  0
POLYLINE
  5
E4A
330
1F
100
AcDbEntity
  8
0
 62
     7
370
    35
100
AcDb2dPolyline
 66
     1
 10
0.0
 20
0.0
 30
0.0
  0
VERTEX
  5
E4B
330
E4A
100
AcDbEntity
  8
0
370
     0
100
AcDbVertex
100
AcDb2dVertex
 10
41.31105724848914
 20
358.9556098500727
 30
0.0
  0
VERTEX
  5
E4C
330
E4A
100
AcDbEntity
  8
0
370
     0
100
AcDbVertex
100
AcDb2dVertex
 10
41.99465024848914
 20
358.549115850073
 30
0.0
  0
VERTEX
  5
E4D
330
E4A
100
AcDbEntity
  8
0
370
     0
100
AcDbVertex
100
AcDb2dVertex
 10
42.64095224848914
 20
358.0857978500725
 30
0.0
  0
VERTEX
  5
E4E
330
E4A
100
AcDbEntity
  8
0
370
     0
100
AcDbVertex
100
AcDb2dVertex
 10
43.24544424848918
 20
357.5688908500729
 30
0.0
  0
VERTEX
  5
E4F
330
E4A
100
AcDbEntity
  8
0
370
     0
100
AcDbVertex
100
AcDb2dVertex
 10
43.80361024848909
 20
357.001996850073
 30
0.0
  0
VERTEX
  5
E50
330
E4A
100
AcDbEntity
  8
0
370
     0
100
AcDbVertex
100
AcDb2dVertex
 10
44.31148424848911
 20
356.3890198500727
 30
0.0
  0
VERTEX
  5
E51
330
E4A
100
AcDbEntity
  8
0
370
     0
100
AcDbVertex
100
AcDb2dVertex
 10
44.76515824848907
 20
355.734295850073
 30
0.0
  0
VERTEX
  5
E52
330
E4A
100
AcDbEntity
  8
0
370
     0
100
AcDbVertex
100
AcDb2dVertex
 10
45.16133724848915
 20
355.0424018500728
 30
0.0
  0
VERTEX
  5
E53
330
E4A
100
AcDbEntity
  8
0
370
     0
100
AcDbVertex
100
AcDb2dVertex
 10
45.49684824848911
 20
354.3184028500728
 30
0.0
  0
VERTEX
  5
E54
330
E4A
100
AcDbEntity
  8
0
370
     0
100
AcDbVertex
100
AcDb2dVertex
 10
45.76912524848907
 20
353.5673648500729
 30
0.0
  0
VERTEX
  5
E55
330
E4A
100
AcDbEntity
  8
0
370
     0
100
AcDbVertex
100
AcDb2dVertex
 10
45.97591324848914
 20
352.7948428500727
 30
0.0
  0
VERTEX
  5
E56
330
E4A
100
AcDbEntity
  8
0
370
     0
100
AcDbVertex
100
AcDb2dVertex
 10
46.11550024848914
 20
352.0057808500727
 30
0.0
  0
VERTEX
  5
E57
330
E4A
100
AcDbEntity
  8
0
370
     0
100
AcDbVertex
100
AcDb2dVertex
 10
46.18648424848911
 20
351.2068918500728
 30
0.0
  0
VERTEX
  5
E58
330
E4A
100
AcDbEntity
  8
0
370
     0
100
AcDbVertex
100
AcDb2dVertex
 10
46.18819324848911
 20
350.4043398500729
 30
0.0
  0
VERTEX
  5
E59
330
E4A
100
AcDbEntity
  8
0
370
     0
100
AcDbVertex
100
AcDb2dVertex
 10
46.12044424848916
 20
349.6040468500729
 30
0.0
  0
VERTEX
  5
E5A
330
E4A
100
AcDbEntity
  8
0
370
     0
100
AcDbVertex
100
AcDb2dVertex
 10
45.98360324848917
 20
348.8121768500726
 30
0.0
  0
VERTEX
  5
E5B
330
E4A
100
AcDbEntity
  8
0
370
     0
100
AcDbVertex
100
AcDb2dVertex
 10
45.77870824848909
 20
348.0345888500728
 30
0.0
  0
VERTEX
  5
E5C
330
E4A
100
AcDbEntity
  8
0
370
     0
100
AcDbVertex
100
AcDb2dVertex
 10
45.50710224848915
 20
347.277203850073
 30
0.0
  0
VERTEX
  5
E5D
330
E4A
100
AcDbEntity
  8
0
370
     0
100
AcDbVertex
100
AcDb2dVertex
 10
45.17079824848914
 20
346.5456978500729
 30
0.0
  0
VERTEX
  5
E5E
330
E4A
100
AcDbEntity
  8
0
370
     0
100
AcDbVertex
100
AcDb2dVertex
 10
44.77217724848919
 20
345.8456238500727
 30
0.0
  0
VERTEX
  5
E5F
330
E4A
100
AcDbEntity
  8
0
370
     0
100
AcDbVertex
100
AcDb2dVertex
 10
44.31423024848911
 20
345.1822938500728
 30
0.0
  0
VERTEX
  5
E60
330
E4A
100
AcDbEntity
  8
0
370
     0
100
AcDbVertex
100
AcDb2dVertex
 10
43.80025324848914
 20
344.5607118500728
 30
0.0
  0
VERTEX
  5
E61
330
E4A
100
AcDbEntity
  8
0
370
     0
100
AcDbVertex
100
AcDb2dVertex
 10
43.23421324848911
 20
343.985760850073
 30
0.0
  0
VERTEX
  5
E62
330
E4A
100
AcDbEntity
  8
0
370
     0
100
AcDbVertex
100
AcDb2dVertex
 10
42.62020024848911
 20
343.4616518500728
 30
0.0
  0
VERTEX
  5
E63
330
E4A
100
AcDbEntity
  8
0
370
     0
100
AcDbVertex
100
AcDb2dVertex
 10
41.93947524848918
 20
342.9773378500727
 30
0.0
  0
VERTEX
  5
E64
330
E4A
100
AcDbEntity
  8
0
370
     0
100
AcDbVertex
100
AcDb2dVertex
 10
41.21810024848909
 20
342.555829850073
 30
0.0
  0
VERTEX
  5
E65
330
E4A
100
AcDbEntity
  8
0
370
     0
100
AcDbVertex
100
AcDb2dVertex
 10
40.46187524848909
 20
342.2005438500729
 30
0.0
  0
VERTEX
  5
E66
330
E4A
100
AcDbEntity
  8
0
370
     0
100
AcDbVertex
100
AcDb2dVertex
 10
39.67702324848912
 20
341.914349850073
 30
0.0
  0
VERTEX
  5
E67
330
E4A
100
AcDbEntity
  8
0
370
     0
100
AcDbVertex
100
AcDb2dVertex
 10
38.86977224848905
 20
341.6995058500729
 30
0.0
  0
VERTEX
  5
E68
330
E4A
100
AcDbEntity
  8
0
370
     0
100
AcDbVertex
100
AcDb2dVertex
 10
38.04659124848919
 20
341.5576608500728
 30
0.0
  0
VERTEX
  5
E69
330
E4A
100
AcDbEntity
  8
0
370
     0
100
AcDbVertex
100
AcDb2dVertex
 10
37.21401124848918
 20
341.4899728500726
 30
0.0
  0
VERTEX
  5
E6A
330
E4A
100
AcDbEntity
  8
0
370
     0
100
AcDbVertex
100
AcDb2dVertex
 10
36.37874524848914
 20
341.496991850073
 30
0.0
  0
VERTEX
  5
E6B
330
E4A
100
AcDbEntity
  8
0
370
     0
100
AcDbVertex
100
AcDb2dVertex
 10
35.54732424848914
 20
341.5785348500727
 30
0.0
  0
VERTEX
  5
E6C
330
E4A
100
AcDbEntity
  8
0
370
     0
100
AcDbVertex
100
AcDb2dVertex
 10
34.72640124848906
 20
341.7341128500729
 30
0.0
  0
VERTEX
  5
E6D
330
E4A
100
AcDbEntity
  8
0
370
     0
100
AcDbVertex
100
AcDb2dVertex
 10
33.92269024848914
 20
341.9625068500729
 30
0.0
  0
VERTEX
  5
E6E
330
E4A
100
AcDbEntity
  8
0
370
     0
100
AcDbVertex
100
AcDb2dVertex
 10
33.14253924848909
 20
342.2618838500725
 30
0.0
  0
VERTEX
  5
E6F
330
E4A
100
AcDbEntity
  8
0
370
     0
100
AcDbVertex
100
AcDb2dVertex
 10
32.39223324848907
 20
342.6298038500728
 30
0.0
  0
SEQEND
  5
E70
330
E4A
100
AcDbEntity
  8
0
370
     0
  0
POLYLINE
  5
E71
330
1F
100
AcDbEntity
  8
0
 62
     7
370
    35
100
AcDb2dPolyline
 66
     1
 10
0.0
 20
0.0
 30
0.0
  0
VERTEX
  5
E72
330
E71
100
AcDbEntity
  8
0
370
     0
100
AcDbVertex
100
AcDb2dVertex
 10
320.4372162484891
 20
358.9556098500727
 30
0.0
  0
VERTEX
  5
E73
330
E71
100
AcDbEntity
  8
0
370
     0
100
AcDbVertex
100
AcDb2dVertex
 10
319.7536232484891
 20
358.549115850073
 30
0.0
  0
VERTEX
  5
E74
330
E71
100
AcDbEntity
  8
0
370
     0
100
AcDbVertex
100
AcDb2dVertex
 10
319.1072602484891
 20
358.0857978500725
 30
0.0
  0
VERTEX
  5
E75
330
E71
100
AcDbEntity
  8
0
370
     0
100
AcDbVertex
100
AcDb2dVertex
 10
318.5028292484891
 20
357.5688908500729
 30
0.0
  0
VERTEX
  5
E76
330
E71
100
AcDbEntity
  8
0
370
     0
100
AcDbVertex
100
AcDb2dVertex
 10
317.9446632484891
 20
357.001996850073
 30
0.0
  0
VERTEX
  5
E77
330
E71
100
AcDbEntity
  8
0
370
     0
100
AcDbVertex
100
AcDb2dVertex
 10
317.4367892484891
 20
356.3890198500727
 30
0.0
  0
VERTEX
  5
E78
330
E71
100
AcDbEntity
  8
0
370
     0
100
AcDbVertex
100
AcDb2dVertex
 10
316.9831152484891
 20
355.734295850073
 30
0.0
  0
VERTEX
  5
E79
330
E71
100
AcDbEntity
  8
0
370
     0
100
AcDbVertex
100
AcDb2dVertex
 10
316.5869362484891
 20
355.0424018500728
 30
0.0
  0
VERTEX
  5
E7A
330
E71
100
AcDbEntity
  8
0
370
     0
100
AcDbVertex
100
AcDb2dVertex
 10
316.2514252484891
 20
354.3184028500728
 30
0.0
  0
VERTEX
  5
E7B
330
E71
100
AcDbEntity
  8
0
370
     0
100
AcDbVertex
100
AcDb2dVertex
 10
315.9791472484891
 20
353.5673648500729
 30
0.0
  0
VERTEX
  5
E7C
330
E71
100
AcDbEntity
  8
0
370
     0
100
AcDbVertex
100
AcDb2dVertex
 10
315.7723602484891
 20
352.7948428500727
 30
0.0
  0
VERTEX
  5
E7D
330
E71
100
AcDbEntity
  8
0
370
     0
100
AcDbVertex
100
AcDb2dVertex
 10
315.6327732484891
 20
352.0057808500727
 30
0.0
  0
VERTEX
  5
E7E
330
E71
100
AcDbEntity
  8
0
370
     0
100
AcDbVertex
100
AcDb2dVertex
 10
315.5617282484891
 20
351.2068918500728
 30
0.0
  0
VERTEX
  5
E7F
330
E71
100
AcDbEntity
  8
0
370
     0
100
AcDbVertex
100
AcDb2dVertex
 10
315.5600802484891
 20
350.4043398500729
 30
0.0
  0
VERTEX
  5
E80
330
E71
100
AcDbEntity
  8
0
370
     0
100
AcDbVertex
100
AcDb2dVertex
 10
315.6278292484891
 20
349.6040468500729
 30
0.0
  0
VERTEX
  5
E81
330
E71
100
AcDbEntity
  8
0
370
     0
100
AcDbVertex
100
AcDb2dVertex
 10
315.7646092484891
 20
348.8121768500726
 30
0.0
  0
VERTEX
  5
E82
330
E71
100
AcDbEntity
  8
0
370
     0
100
AcDbVertex
100
AcDb2dVertex
 10
315.9695652484891
 20
348.0345888500728
 30
0.0
  0
VERTEX
  5
E83
330
E71
100
AcDbEntity
  8
0
370
     0
100
AcDbVertex
100
AcDb2dVertex
 10
316.2411712484892
 20
347.277203850073
 30
0.0
  0
VERTEX
  5
E84
330
E71
100
AcDbEntity
  8
0
370
     0
100
AcDbVertex
100
AcDb2dVertex
 10
316.5774752484891
 20
346.5456978500729
 30
0.0
  0
VERTEX
  5
E85
330
E71
100
AcDbEntity
  8
0
370
     0
100
AcDbVertex
100
AcDb2dVertex
 10
316.9760352484891
 20
345.8456238500727
 30
0.0
  0
VERTEX
  5
E86
330
E71
100
AcDbEntity
  8
0
370
     0
100
AcDbVertex
100
AcDb2dVertex
 10
317.4340422484893
 20
345.1822938500728
 30
0.0
  0
VERTEX
  5
E87
330
E71
100
AcDbEntity
  8
0
370
     0
100
AcDbVertex
100
AcDb2dVertex
 10
317.9479582484891
 20
344.5607118500728
 30
0.0
  0
VERTEX
  5
E88
330
E71
100
AcDbEntity
  8
0
370
     0
100
AcDbVertex
100
AcDb2dVertex
 10
318.5141212484891
 20
343.985760850073
 30
0.0
  0
VERTEX
  5
E89
330
E71
100
AcDbEntity
  8
0
370
     0
100
AcDbVertex
100
AcDb2dVertex
 10
319.1280122484891
 20
343.4616518500728
 30
0.0
  0
VERTEX
  5
E8A
330
E71
100
AcDbEntity
  8
0
370
     0
100
AcDbVertex
100
AcDb2dVertex
 10
319.8087982484891
 20
342.9773378500727
 30
0.0
  0
VERTEX
  5
E8B
330
E71
100
AcDbEntity
  8
0
370
     0
100
AcDbVertex
100
AcDb2dVertex
 10
320.5301732484891
 20
342.555829850073
 30
0.0
  0
VERTEX
  5
E8C
330
E71
100
AcDbEntity
  8
0
370
     0
100
AcDbVertex
100
AcDb2dVertex
 10
321.2863372484891
 20
342.2005438500729
 30
0.0
  0
VERTEX
  5
E8D
330
E71
100
AcDbEntity
  8
0
370
     0
100
AcDbVertex
100
AcDb2dVertex
 10
322.0712502484891
 20
341.914349850073
 30
0.0
  0
VERTEX
  5
E8E
330
E71
100
AcDbEntity
  8
0
370
     0
100
AcDbVertex
100
AcDb2dVertex
 10
322.8785002484891
 20
341.6995058500729
 30
0.0
  0
VERTEX
  5
E8F
330
E71
100
AcDbEntity
  8
0
370
     0
100
AcDbVertex
100
AcDb2dVertex
 10
323.7016822484891
 20
341.5576608500728
 30
0.0
  0
VERTEX
  5
E90
330
E71
100
AcDbEntity
  8
0
370
     0
100
AcDbVertex
100
AcDb2dVertex
 10
324.5342622484891
 20
341.4899728500726
 30
0.0
  0
VERTEX
  5
E91
330
E71
100
AcDbEntity
  8
0
370
     0
100
AcDbVertex
100
AcDb2dVertex
 10
325.3695892484891
 20
341.496991850073
 30
0.0
  0
VERTEX
  5
E92
330
E71
100
AcDbEntity
  8
0
370
     0
100
AcDbVertex
100
AcDb2dVertex
 10
326.2009492484891
 20
341.5785348500727
 30
0.0
  0
VERTEX
  5
E93
330
E71
100
AcDbEntity
  8
0
370
     0
100
AcDbVertex
100
AcDb2dVertex
 10
327.0218112484891
 20
341.7341128500729
 30
0.0
  0
VERTEX
  5
E94
330
E71
100
AcDbEntity
  8
0
370
     0
100
AcDbVertex
100
AcDb2dVertex
 10
327.825583248489
 20
341.9625068500729
 30
0.0
  0
VERTEX
  5
E95
330
E71
100
AcDbEntity
  8
0
370
     0
100
AcDbVertex
100
AcDb2dVertex
 10
328.6057342484893
 20
342.2618838500725
 30
0.0
  0
VERTEX
  5
E96
330
E71
100
AcDbEntity
  8
0
370
     0
100
AcDbVertex
100
AcDb2dVertex
 10
329.3560402484891
 20
342.6298038500728
 30
0.0
  0
SEQEND
  5
E97
330
E71
100
AcDbEntity
  8
0
370
     0
  0
POLYLINE
  5
E98
330
1F
100
AcDbEntity
  8
0
 62
     7
370
    35
100
AcDb2dPolyline
 66
     1
 10
0.0
 20
0.0
 30
0.0
  0
VERTEX
  5
E99
330
E98
100
AcDbEntity
  8
0
370
     0
100
AcDbVertex
100
AcDb2dVertex
 10
320.4372162484891
 20
358.9556098500727
 30
0.0
  0
VERTEX
  5
E9A
330
E98
100
AcDbEntity
  8
0
370
     0
100
AcDbVertex
100
AcDb2dVertex
 10
321.1427832484891
 20
359.2978948500728
 30
0.0
  0
VERTEX
  5
E9B
330
E98
100
AcDbEntity
  8
0
370
     0
100
AcDbVertex
100
AcDb2dVertex
 10
321.8748992484891
 20
359.5799378500728
 30
0.0
  0
VERTEX
  5
E9C
330
E98
100
AcDbEntity
  8
0
370
     0
100
AcDbVertex
100
AcDb2dVertex
 10
322.6285002484891
 20
359.7996648500729
 30
0.0
  0
VERTEX
  5
E9D
330
E98
100
AcDbEntity
  8
0
370
     0
100
AcDbVertex
100
AcDb2dVertex
 10
323.3982152484891
 20
359.9556098500725
 30
0.0
  0
VERTEX
  5
E9E
330
E98
100
AcDbEntity
  8
0
370
     0
100
AcDbVertex
100
AcDb2dVertex
 10
324.1785492484889
 20
360.0465518500726
 30
0.0
  0
VERTEX
  5
E9F
330
E98
100
AcDbEntity
  8
0
370
     0
100
AcDbVertex
100
AcDb2dVertex
 10
324.9640112484891
 20
360.0719428500728
 30
0.0
  0
VERTEX
  5
EA0
330
E98
100
AcDbEntity
  8
0
370
     0
100
AcDbVertex
100
AcDb2dVertex
 10
325.7488012484891
 20
360.031537850073
 30
0.0
  0
VERTEX
  5
EA1
330
E98
100
AcDbEntity
  8
0
370
     0
100
AcDbVertex
100
AcDb2dVertex
 10
326.5740572484891
 20
359.917157850073
 30
0.0
  0
VERTEX
  5
EA2
330
E98
100
AcDbEntity
  8
0
370
     0
100
AcDbVertex
100
AcDb2dVertex
 10
327.3855812484891
 20
359.7300238500727
 30
0.0
  0
VERTEX
  5
EA3
330
E98
100
AcDbEntity
  8
0
370
     0
100
AcDbVertex
100
AcDb2dVertex
 10
328.1767182484891
 20
359.4716008500729
 30
0.0
  0
VERTEX
  5
EA4
330
E98
100
AcDbEntity
  8
0
370
     0
100
AcDbVertex
100
AcDb2dVertex
 10
328.9413672484891
 20
359.144085850073
 30
0.0
  0
VERTEX
  5
EA5
330
E98
100
AcDbEntity
  8
0
370
     0
100
AcDbVertex
100
AcDb2dVertex
 10
329.6735442484891
 20
358.749920850073
 30
0.0
  0
VERTEX
  5
EA6
330
E98
100
AcDbEntity
  8
0
370
     0
100
AcDbVertex
100
AcDb2dVertex
 10
330.3675142484891
 20
358.2920358500725
 30
0.0
  0
VERTEX
  5
EA7
330
E98
100
AcDbEntity
  8
0
370
     0
100
AcDbVertex
100
AcDb2dVertex
 10
330.9734712484892
 20
357.8126038500728
 30
0.0
  0
VERTEX
  5
EA8
330
E98
100
AcDbEntity
  8
0
370
     0
100
AcDbVertex
100
AcDb2dVertex
 10
331.537558248489
 20
357.2842838500729
 30
0.0
  0
VERTEX
  5
EA9
330
E98
100
AcDbEntity
  8
0
370
     0
100
AcDbVertex
100
AcDb2dVertex
 10
332.0560522484892
 20
356.7106148500727
 30
0.0
  0
VERTEX
  5
EAA
330
E98
100
AcDbEntity
  8
0
370
     0
100
AcDbVertex
100
AcDb2dVertex
 10
332.5252292484892
 20
356.0954408500728
 30
0.0
  0
VERTEX
  5
EAB
330
E98
100
AcDbEntity
  8
0
370
     0
100
AcDbVertex
100
AcDb2dVertex
 10
332.9417332484889
 20
355.4427918500729
 30
0.0
  0
VERTEX
  5
EAC
330
E98
100
AcDbEntity
  8
0
370
     0
100
AcDbVertex
100
AcDb2dVertex
 10
333.3026342484891
 20
354.7570618500727
 30
0.0
  0
VERTEX
  5
EAD
330
E98
100
AcDbEntity
  8
0
370
     0
100
AcDbVertex
100
AcDb2dVertex
 10
333.6052462484892
 20
354.0428898500725
 30
0.0
  0
VERTEX
  5
EAE
330
E98
100
AcDbEntity
  8
0
370
     0
100
AcDbVertex
100
AcDb2dVertex
 10
333.8473122484892
 20
353.3051578500728
 30
0.0
  0
VERTEX
  5
EAF
330
E98
100
AcDbEntity
  8
0
370
     0
100
AcDbVertex
100
AcDb2dVertex
 10
334.0269382484891
 20
352.5489938500725
 30
0.0
  0
VERTEX
  5
EB0
330
E98
100
AcDbEntity
  8
0
370
     0
100
AcDbVertex
100
AcDb2dVertex
 10
334.1451632484892
 20
351.7562688500726
 30
0.0
  0
VERTEX
  5
EB1
330
E98
100
AcDbEntity
  8
0
370
     0
100
AcDbVertex
100
AcDb2dVertex
 10
334.1945412484889
 20
350.9556708500729
 30
0.0
  0
VERTEX
  5
EB2
330
E98
100
AcDbEntity
  8
0
370
     0
100
AcDbVertex
100
AcDb2dVertex
 10
334.1744602484892
 20
350.1532418500728
 30
0.0
  0
VERTEX
  5
EB3
330
E98
100
AcDbEntity
  8
0
370
     0
100
AcDbVertex
100
AcDb2dVertex
 10
334.0849822484889
 20
349.3550238500727
 30
0.0
  0
VERTEX
  5
EB4
330
E98
100
AcDbEntity
  8
0
370
     0
100
AcDbVertex
100
AcDb2dVertex
 10
333.9267792484891
 20
348.5670598500728
 30
0.0
  0
VERTEX
  5
EB5
330
E98
100
AcDbEntity
  8
0
370
     0
100
AcDbVertex
100
AcDb2dVertex
 10
333.7008272484891
 20
347.7952698500727
 30
0.0
  0
VERTEX
  5
EB6
330
E98
100
AcDbEntity
  8
0
370
     0
100
AcDbVertex
100
AcDb2dVertex
 10
333.4088352484893
 20
347.0455148500727
 30
0.0
  0
VERTEX
  5
EB7
330
E98
100
AcDbEntity
  8
0
370
     0
100
AcDbVertex
100
AcDb2dVertex
 10
333.0528172484891
 20
346.3233468500729
 30
0.0
  0
VERTEX
  5
EB8
330
E98
100
AcDbEntity
  8
0
370
     0
100
AcDbVertex
100
AcDb2dVertex
 10
332.6354582484889
 20
345.6343208500725
 30
0.0
  0
VERTEX
  5
EB9
330
E98
100
AcDbEntity
  8
0
370
     0
100
AcDbVertex
100
AcDb2dVertex
 10
332.1596892484891
 20
344.9836858500728
 30
0.0
  0
VERTEX
  5
EBA
330
E98
100
AcDbEntity
  8
0
370
     0
100
AcDbVertex
100
AcDb2dVertex
 10
331.6291722484891
 20
344.3762638500725
 30
0.0
  0
VERTEX
  5
EBB
330
E98
100
AcDbEntity
  8
0
370
     0
100
AcDbVertex
100
AcDb2dVertex
 10
331.0478122484891
 20
343.8168158500729
 30
0.0
  0
VERTEX
  5
EBC
330
E98
100
AcDbEntity
  8
0
370
     0
100
AcDbVertex
100
AcDb2dVertex
 10
330.4200042484891
 20
343.3095528500725
 30
0.0
  0
VERTEX
  5
EBD
330
E98
100
AcDbEntity
  8
0
370
     0
100
AcDbVertex
100
AcDb2dVertex
 10
329.8995582484888
 20
342.9516428500729
 30
0.0
  0
VERTEX
  5
EBE
330
E98
100
AcDbEntity
  8
0
370
     0
100
AcDbVertex
100
AcDb2dVertex
 10
329.3560402484891
 20
342.6298038500728
 30
0.0
  0
SEQEND
  5
EBF
330
E98
100
AcDbEntity
  8
0
370
     0
  0
LINE
  5
EC0
330
1F
100
AcDbEntity
  8
0
 62
     7
 48
0.025
370
    35
100
AcDbLine
 10
24.77999024848916
 20
338.1365788500728
 30
0.0
 11
23.77999024848916
 21
338.1365788500728
 31
0.0
  0
LINE
  5
EC1
330
1F
100
AcDbEntity
  8
0
 62
     7
 48
0.025
370
    35
100
AcDbLine
 10
24.77999024848916
 20
-114.4688131499271
 30
0.0
 11
23.77999024848916
 21
-114.4688131499271
 31
0.0
  0
LINE
  5
EC2
330
1F
100
AcDbEntity
  8
0
 62
     7
 48
0.001387
370
    35
100
AcDbLine
 10
36.87410624848904
 20
-143.1106441499271
 30
0.0
 11
36.87410624848904
 21
-143.1661251499271
 31
0.0
  0
LINE
  5
EC3
330
1F
100
AcDbEntity
  8
0
 62
     7
 48
0.001387
370
    35
100
AcDbLine
 10
324.874106248489
 20
-143.1106441499271
 30
0.0
 11
324.874106248489
 21
-143.1661251499271
 31
0.0
  0
POLYLINE
  5
EC4
330
1F
100
AcDbEntity
  8
0
 62
     7
370
    35
100
AcDb2dPolyline
 66
     1
 10
0.0
 20
0.0
 30
0.0
  0
VERTEX
  5
EC5
330
EC4
100
AcDbEntity
  8
0
370
     0
100
AcDbVertex
100
AcDb2dVertex
 10
338.2580782484891
 20
-127.1661251499271
 30
0.0
  0
VERTEX
  5
EC6
330
EC4
100
AcDbEntity
  8
0
370
     0
100
AcDbVertex
100
AcDb2dVertex
 10
338.2635102484891
 20
-124.4812041499271
 30
0.0
  0
VERTEX
  5
EC7
330
EC4
100
AcDbEntity
  8
0
370
     0
100
AcDbVertex
100
AcDb2dVertex
 10
338.2799902484891
 20
-122.2338741499271
 30
0.0
  0
VERTEX
  5
EC8
330
EC4
100
AcDbEntity
  8
0
370
     0
100
AcDbVertex
100
AcDb2dVertex
 10
338.2981782484892
 20
-121.2541221499271
 30
0.0
  0
VERTEX
  5
EC9
330
EC4
100
AcDbEntity
  8
0
370
     0
100
AcDbVertex
100
AcDb2dVertex
 10
338.3085542484891
 20
-121.0741751499271
 30
0.0
  0
VERTEX
  5
ECA
330
EC4
100
AcDbEntity
  8
0
370
     0
100
AcDbVertex
100
AcDb2dVertex
 10
338.3097752484891
 20
-121.0686521499271
 30
0.0
  0
VERTEX
  5
ECB
330
EC4
100
AcDbEntity
  8
0
370
     0
100
AcDbVertex
100
AcDb2dVertex
 10
338.3103852484891
 20
-121.0670501499271
 30
0.0
  0
SEQEND
  5
ECC
330
EC4
100
AcDbEntity
  8
0
370
     0
  0
POLYLINE
  5
ECD
330
1F
100
AcDbEntity
  8
0
 62
     7
370
    35
100
AcDb2dPolyline
 66
     1
 10
0.0
 20
0.0
 30
0.0
  0
VERTEX
  5
ECE
330
ECD
100
AcDbEntity
  8
0
370
     0
100
AcDbVertex
100
AcDb2dVertex
 10
336.7121192484892
 20
-133.2652001499271
 30
0.0
  0
VERTEX
  5
ECF
330
ECD
100
AcDbEntity
  8
0
370
     0
100
AcDbVertex
100
AcDb2dVertex
 10
336.7127292484891
 20
-133.2620571499271
 30
0.0
  0
VERTEX
  5
ED0
330
ECD
100
AcDbEntity
  8
0
370
     0
100
AcDbVertex
100
AcDb2dVertex
 10
336.7176122484892
 20
-133.2491171499271
 30
0.0
  0
VERTEX
  5
ED1
330
ECD
100
AcDbEntity
  8
0
370
     0
100
AcDbVertex
100
AcDb2dVertex
 10
336.7613132484891
 20
-133.1581291499271
 30
0.0
  0
VERTEX
  5
ED2
330
ECD
100
AcDbEntity
  8
0
370
     0
100
AcDbVertex
100
AcDb2dVertex
 10
337.0929782484891
 20
-132.4735441499271
 30
0.0
  0
VERTEX
  5
ED3
330
ECD
100
AcDbEntity
  8
0
370
     0
100
AcDbVertex
100
AcDb2dVertex
 10
337.4053562484889
 20
-131.7309141499271
 30
0.0
  0
VERTEX
  5
ED4
330
ECD
100
AcDbEntity
  8
0
370
     0
100
AcDbVertex
100
AcDb2dVertex
 10
337.7147432484891
 20
-130.8304471499271
 30
0.0
  0
VERTEX
  5
ED5
330
ECD
100
AcDbEntity
  8
0
370
     0
100
AcDbVertex
100
AcDb2dVertex
 10
337.8543312484891
 20
-130.3330561499271
 30
0.0
  0
VERTEX
  5
ED6
330
ECD
100
AcDbEntity
  8
0
370
     0
100
AcDbVertex
100
AcDb2dVertex
 10
337.9779882484892
 20
-129.8098631499271
 30
0.0
  0
VERTEX
  5
ED7
330
ECD
100
AcDbEntity
  8
0
370
     0
100
AcDbVertex
100
AcDb2dVertex
 10
338.1301482484892
 20
-128.9578271499271
 30
0.0
  0
VERTEX
  5
ED8
330
ECD
100
AcDbEntity
  8
0
370
     0
100
AcDbVertex
100
AcDb2dVertex
 10
338.2255462484891
 20
-128.0708791499271
 30
0.0
  0
VERTEX
  5
ED9
330
ECD
100
AcDbEntity
  8
0
370
     0
100
AcDbVertex
100
AcDb2dVertex
 10
338.2580782484891
 20
-127.1661251499271
 30
0.0
  0
SEQEND
  5
EDA
330
ECD
100
AcDbEntity
  8
0
370
     0
  0
LINE
  5
EDB
330
1F
100
AcDbEntity
  8
0
 62
     7
370
    35
100
AcDbLine
 10
338.3518282484891
 20
147.9744088500729
 30
0.0
 11
338.3518282484891
 21
344.6933418500728
 31
0.0
  0
POLYLINE
  5
EDC
330
1F
100
AcDbEntity
  8
0
 62
     7
370
    35
100
AcDb2dPolyline
 66
     1
 10
0.0
 20
0.0
 30
0.0
  0
VERTEX
  5
EDD
330
EDC
100
AcDbEntity
  8
0
370
     0
100
AcDbVertex
100
AcDb2dVertex
 10
338.3103852484891
 20
147.9329348500729
 30
0.0
  0
VERTEX
  5
EDE
330
EDC
100
AcDbEntity
  8
0
370
     0
100
AcDbVertex
100
AcDb2dVertex
 10
338.3089812484891
 20
147.9279908500729
 30
0.0
  0
VERTEX
  5
EDF
330
EDC
100
AcDbEntity
  8
0
370
     0
100
AcDbVertex
100
AcDb2dVertex
 10
338.3061742484891
 20
147.9053778500728
 30
0.0
  0
VERTEX
  5
EE0
330
EDC
100
AcDbEntity
  8
0
370
     0
100
AcDbVertex
100
AcDb2dVertex
 10
338.2979342484891
 20
147.7379888500728
 30
0.0
  0
VERTEX
  5
EE1
330
EDC
100
AcDbEntity
  8
0
370
     0
100
AcDbVertex
100
AcDb2dVertex
 10
338.2767552484892
 20
146.4763618500728
 30
0.0
  0
VERTEX
  5
EE2
330
EDC
100
AcDbEntity
  8
0
370
     0
100
AcDbVertex
100
AcDb2dVertex
 10
338.2607032484892
 20
143.7346928500728
 30
0.0
  0
VERTEX
  5
EE3
330
EDC
100
AcDbEntity
  8
0
370
     0
100
AcDbVertex
100
AcDb2dVertex
 10
338.2591772484892
 20
140.6037728500728
 30
0.0
  0
VERTEX
  5
EE4
330
EDC
100
AcDbEntity
  8
0
370
     0
100
AcDbVertex
100
AcDb2dVertex
 10
338.2734592484891
 20
137.5429818500727
 30
0.0
  0
VERTEX
  5
EE5
330
EDC
100
AcDbEntity
  8
0
370
     0
100
AcDbVertex
100
AcDb2dVertex
 10
338.2867652484891
 20
136.4194458500728
 30
0.0
  0
VERTEX
  5
EE6
330
EDC
100
AcDbEntity
  8
0
370
     0
100
AcDbVertex
100
AcDb2dVertex
 10
338.3020842484892
 20
135.8256048500728
 30
0.0
  0
VERTEX
  5
EE7
330
EDC
100
AcDbEntity
  8
0
370
     0
100
AcDbVertex
100
AcDb2dVertex
 10
338.3075782484892
 20
135.7486698500727
 30
0.0
  0
VERTEX
  5
EE8
330
EDC
100
AcDbEntity
  8
0
370
     0
100
AcDbVertex
100
AcDb2dVertex
 10
338.3094092484892
 20
135.7375918500729
 30
0.0
  0
VERTEX
  5
EE9
330
EDC
100
AcDbEntity
  8
0
370
     0
100
AcDbVertex
100
AcDb2dVertex
 10
338.3103852484891
 20
135.7348148500729
 30
0.0
  0
SEQEND
  5
EEA
330
EDC
100
AcDbEntity
  8
0
370
     0
  0
LINE
  5
EEB
330
1F
100
AcDbEntity
  8
0
 62
     7
370
    35
100
AcDbLine
 10
338.3518282484891
 20
-121.0255911499271
 30
0.0
 11
338.3518282484891
 21
135.6933418500729
 31
0.0
  0
POLYLINE
  5
EEC
330
1F
100
AcDbEntity
  8
0
 62
     7
370
    35
100
AcDb2dPolyline
 66
     1
 10
0.0
 20
0.0
 30
0.0
  0
VERTEX
  5
EED
330
EEC
100
AcDbEntity
  8
0
370
     0
100
AcDbVertex
100
AcDb2dVertex
 10
338.2580782484891
 20
350.8339058500727
 30
0.0
  0
VERTEX
  5
EEE
330
EEC
100
AcDbEntity
  8
0
370
     0
100
AcDbVertex
100
AcDb2dVertex
 10
338.2635102484891
 20
348.1489688500727
 30
0.0
  0
VERTEX
  5
EEF
330
EEC
100
AcDbEntity
  8
0
370
     0
100
AcDbVertex
100
AcDb2dVertex
 10
338.2799902484891
 20
345.9016548500727
 30
0.0
  0
VERTEX
  5
EF0
330
EEC
100
AcDbEntity
  8
0
370
     0
100
AcDbVertex
100
AcDb2dVertex
 10
338.2981782484892
 20
344.9218568500729
 30
0.0
  0
VERTEX
  5
EF1
330
EEC
100
AcDbEntity
  8
0
370
     0
100
AcDbVertex
100
AcDb2dVertex
 10
338.3085542484891
 20
344.7419258500728
 30
0.0
  0
VERTEX
  5
EF2
330
EEC
100
AcDbEntity
  8
0
370
     0
100
AcDbVertex
100
AcDb2dVertex
 10
338.3097752484891
 20
344.7363718500729
 30
0.0
  0
VERTEX
  5
EF3
330
EEC
100
AcDbEntity
  8
0
370
     0
100
AcDbVertex
100
AcDb2dVertex
 10
338.3103852484891
 20
344.7347848500728
 30
0.0
  0
SEQEND
  5
EF4
330
EEC
100
AcDbEntity
  8
0
370
     0
  0
LINE
  5
EF5
330
1F
100
AcDbEntity
  8
0
 62
     7
 48
0.024998
370
    35
100
AcDbLine
 10
324.874106248489
 20
-142.1107201499271
 30
0.0
 11
324.874106248489
 21
-143.1106441499271
 31
0.0
  0
LINE
  5
EF6
330
1F
100
AcDbEntity
  8
0
 62
     7
 48
0.036801
370
    35
100
AcDbLine
 10
324.874106248489
 20
-140.6386741499271
 30
0.0
 11
324.874106248489
 21
-142.1107201499271
 31
0.0
  0
ARC
  5
EF7
330
1F
100
AcDbEntity
  8
0
 62
     7
370
    35
100
AcDbCircle
 10
325.8791112484891
 20
-127.1663231499271
 30
0.0
 40
12.47262
100
AcDbArc
 50
269.9769800000016
 51
330.5110890000008
  0
POLYLINE
  5
EF8
330
1F
100
AcDbEntity
  8
0
 62
     7
370
    35
100
AcDb2dPolyline
 66
     1
 10
0.0
 20
0.0
 30
0.0
  0
VERTEX
  5
EF9
330
EF8
100
AcDbEntity
  8
0
370
     0
100
AcDbVertex
100
AcDb2dVertex
 10
336.7121192484892
 20
356.932965850073
 30
0.0
  0
VERTEX
  5
EFA
330
EF8
100
AcDbEntity
  8
0
370
     0
100
AcDbVertex
100
AcDb2dVertex
 10
336.7127292484891
 20
356.9297918500727
 30
0.0
  0
VERTEX
  5
EFB
330
EF8
100
AcDbEntity
  8
0
370
     0
100
AcDbVertex
100
AcDb2dVertex
 10
336.7176122484892
 20
356.9168518500729
 30
0.0
  0
VERTEX
  5
EFC
330
EF8
100
AcDbEntity
  8
0
370
     0
100
AcDbVertex
100
AcDb2dVertex
 10
336.7613132484891
 20
356.8258488500727
 30
0.0
  0
VERTEX
  5
EFD
330
EF8
100
AcDbEntity
  8
0
370
     0
100
AcDbVertex
100
AcDb2dVertex
 10
337.0929782484891
 20
356.1412788500728
 30
0.0
  0
VERTEX
  5
EFE
330
EF8
100
AcDbEntity
  8
0
370
     0
100
AcDbVertex
100
AcDb2dVertex
 10
337.4053562484889
 20
355.3986638500729
 30
0.0
  0
VERTEX
  5
EFF
330
EF8
100
AcDbEntity
  8
0
370
     0
100
AcDbVertex
100
AcDb2dVertex
 10
337.7147432484891
 20
354.498211850073
 30
0.0
  0
VERTEX
  5
F00
330
EF8
100
AcDbEntity
  8
0
370
     0
100
AcDbVertex
100
AcDb2dVertex
 10
337.8543312484891
 20
354.0007758500729
 30
0.0
  0
VERTEX
  5
F01
330
EF8
100
AcDbEntity
  8
0
370
     0
100
AcDbVertex
100
AcDb2dVertex
 10
337.9779882484892
 20
353.4775818500726
 30
0.0
  0
VERTEX
  5
F02
330
EF8
100
AcDbEntity
  8
0
370
     0
100
AcDbVertex
100
AcDb2dVertex
 10
338.1301482484892
 20
352.6255928500729
 30
0.0
  0
VERTEX
  5
F03
330
EF8
100
AcDbEntity
  8
0
370
     0
100
AcDbVertex
100
AcDb2dVertex
 10
338.2255462484891
 20
351.7386298500729
 30
0.0
  0
VERTEX
  5
F04
330
EF8
100
AcDbEntity
  8
0
370
     0
100
AcDbVertex
100
AcDb2dVertex
 10
338.2580782484891
 20
350.8339058500727
 30
0.0
  0
SEQEND
  5
F05
330
EF8
100
AcDbEntity
  8
0
370
     0
  0
ARC
  5
F06
330
1F
100
AcDbEntity
  8
0
 62
     7
370
    35
100
AcDbCircle
 10
325.8791112484891
 20
350.8340888500729
 30
0.0
 40
12.47262
100
AcDbArc
 50
29.48896300000079
 51
90.0230199999984
  0
LINE
  5
F07
330
1F
100
AcDbEntity
  8
0
 62
     7
 48
0.036801
370
    35
100
AcDbLine
 10
324.874106248489
 20
364.3064398500728
 30
0.0
 11
324.874106248489
 21
365.7784858500729
 31
0.0
  0
LINE
  5
F08
330
1F
100
AcDbEntity
  8
0
 62
     7
 48
0.024997
370
    35
100
AcDbLine
 10
324.874106248489
 20
365.7784858500729
 30
0.0
 11
324.874106248489
 21
366.7783638500729
 31
0.0
  0
LINE
  5
F09
330
1F
100
AcDbEntity
  8
0
 62
     7
 48
0.001389
370
    35
100
AcDbLine
 10
324.874106248489
 20
366.7783638500729
 30
0.0
 11
324.874106248489
 21
366.8339058500728
 31
0.0
  0
LINE
  5
F0A
330
1F
100
AcDbEntity
  8
0
 62
     7
 48
0.001389
370
    35
100
AcDbLine
 10
36.87410624848904
 20
366.7783638500729
 30
0.0
 11
36.87410624848904
 21
366.8339058500728
 31
0.0
  0
LINE
  5
F0B
330
1F
100
AcDbEntity
  8
0
 62
     7
370
    35
100
AcDbLine
 10
23.39644524848914
 20
344.6933418500728
 30
0.0
 11
23.39644524848914
 21
147.9744088500729
 31
0.0
  0
LINE
  5
F0C
330
1F
100
AcDbEntity
  8
0
 62
     7
370
    35
100
AcDbLine
 10
23.39644524848914
 20
135.6933418500729
 30
0.0
 11
23.39644524848914
 21
-121.0255911499271
 31
0.0
  0
POLYLINE
  5
F0D
330
1F
100
AcDbEntity
  8
0
 62
     7
370
    35
100
AcDb2dPolyline
 66
     1
 10
0.0
 20
0.0
 30
0.0
  0
VERTEX
  5
F0E
330
F0D
100
AcDbEntity
  8
0
370
     0
100
AcDbVertex
100
AcDb2dVertex
 10
23.43788824848908
 20
147.9329348500729
 30
0.0
  0
VERTEX
  5
F0F
330
F0D
100
AcDbEntity
  8
0
370
     0
100
AcDbVertex
100
AcDb2dVertex
 10
23.43929224848908
 20
147.9279908500729
 30
0.0
  0
VERTEX
  5
F10
330
F0D
100
AcDbEntity
  8
0
370
     0
100
AcDbVertex
100
AcDb2dVertex
 10
23.44209924848914
 20
147.9053778500728
 30
0.0
  0
VERTEX
  5
F11
330
F0D
100
AcDbEntity
  8
0
370
     0
100
AcDbVertex
100
AcDb2dVertex
 10
23.45033924848914
 20
147.7379888500728
 30
0.0
  0
VERTEX
  5
F12
330
F0D
100
AcDbEntity
  8
0
370
     0
100
AcDbVertex
100
AcDb2dVertex
 10
23.47151824848911
 20
146.4763618500728
 30
0.0
  0
VERTEX
  5
F13
330
F0D
100
AcDbEntity
  8
0
370
     0
100
AcDbVertex
100
AcDb2dVertex
 10
23.48750924848911
 20
143.7346928500728
 30
0.0
  0
VERTEX
  5
F14
330
F0D
100
AcDbEntity
  8
0
370
     0
100
AcDbVertex
100
AcDb2dVertex
 10
23.48909624848906
 20
140.6037728500728
 30
0.0
  0
VERTEX
  5
F15
330
F0D
100
AcDbEntity
  8
0
370
     0
100
AcDbVertex
100
AcDb2dVertex
 10
23.47481424848908
 20
137.5429818500727
 30
0.0
  0
VERTEX
  5
F16
330
F0D
100
AcDbEntity
  8
0
370
     0
100
AcDbVertex
100
AcDb2dVertex
 10
23.46150824848914
 20
136.4194458500728
 30
0.0
  0
VERTEX
  5
F17
330
F0D
100
AcDbEntity
  8
0
370
     0
100
AcDbVertex
100
AcDb2dVertex
 10
23.44612724848921
 20
135.8256048500728
 30
0.0
  0
VERTEX
  5
F18
330
F0D
100
AcDbEntity
  8
0
370
     0
100
AcDbVertex
100
AcDb2dVertex
 10
23.4406342484891
 20
135.7486698500727
 30
0.0
  0
VERTEX
  5
F19
330
F0D
100
AcDbEntity
  8
0
370
     0
100
AcDbVertex
100
AcDb2dVertex
 10
23.43880324848915
 20
135.7375918500729
 30
0.0
  0
VERTEX
  5
F1A
330
F0D
100
AcDbEntity
  8
0
370
     0
100
AcDbVertex
100
AcDb2dVertex
 10
23.43788824848908
 20
135.7348148500729
 30
0.0
  0
SEQEND
  5
F1B
330
F0D
100
AcDbEntity
  8
0
370
     0
  0
POLYLINE
  5
F1C
330
1F
100
AcDbEntity
  8
0
 62
     7
370
    35
100
AcDb2dPolyline
 66
     1
 10
0.0
 20
0.0
 30
0.0
  0
VERTEX
  5
F1D
330
F1C
100
AcDbEntity
  8
0
370
     0
100
AcDbVertex
100
AcDb2dVertex
 10
23.49019524848914
 20
350.8339058500727
 30
0.0
  0
VERTEX
  5
F1E
330
F1C
100
AcDbEntity
  8
0
370
     0
100
AcDbVertex
100
AcDb2dVertex
 10
23.4847632484891
 20
348.1489688500727
 30
0.0
  0
VERTEX
  5
F1F
330
F1C
100
AcDbEntity
  8
0
370
     0
100
AcDbVertex
100
AcDb2dVertex
 10
23.46828324848908
 20
345.9016548500727
 30
0.0
  0
VERTEX
  5
F20
330
F1C
100
AcDbEntity
  8
0
370
     0
100
AcDbVertex
100
AcDb2dVertex
 10
23.45009524848919
 20
344.9218568500729
 30
0.0
  0
VERTEX
  5
F21
330
F1C
100
AcDbEntity
  8
0
370
     0
100
AcDbVertex
100
AcDb2dVertex
 10
23.43971924848913
 20
344.7419258500728
 30
0.0
  0
VERTEX
  5
F22
330
F1C
100
AcDbEntity
  8
0
370
     0
100
AcDbVertex
100
AcDb2dVertex
 10
23.43849824848915
 20
344.7363718500729
 30
0.0
  0
VERTEX
  5
F23
330
F1C
100
AcDbEntity
  8
0
370
     0
100
AcDbVertex
100
AcDb2dVertex
 10
23.43788824848908
 20
344.7347848500728
 30
0.0
  0
SEQEND
  5
F24
330
F1C
100
AcDbEntity
  8
0
370
     0
  0
POLYLINE
  5
F25
330
1F
100
AcDbEntity
  8
0
 62
     7
370
    35
100
AcDb2dPolyline
 66
     1
 10
0.0
 20
0.0
 30
0.0
  0
VERTEX
  5
F26
330
F25
100
AcDbEntity
  8
0
370
     0
100
AcDbVertex
100
AcDb2dVertex
 10
23.49019524848914
 20
-127.1661251499271
 30
0.0
  0
VERTEX
  5
F27
330
F25
100
AcDbEntity
  8
0
370
     0
100
AcDbVertex
100
AcDb2dVertex
 10
23.4847632484891
 20
-124.4812041499271
 30
0.0
  0
VERTEX
  5
F28
330
F25
100
AcDbEntity
  8
0
370
     0
100
AcDbVertex
100
AcDb2dVertex
 10
23.46828324848908
 20
-122.2338741499271
 30
0.0
  0
VERTEX
  5
F29
330
F25
100
AcDbEntity
  8
0
370
     0
100
AcDbVertex
100
AcDb2dVertex
 10
23.45009524848919
 20
-121.2541221499271
 30
0.0
  0
VERTEX
  5
F2A
330
F25
100
AcDbEntity
  8
0
370
     0
100
AcDbVertex
100
AcDb2dVertex
 10
23.43971924848913
 20
-121.0741751499271
 30
0.0
  0
VERTEX
  5
F2B
330
F25
100
AcDbEntity
  8
0
370
     0
100
AcDbVertex
100
AcDb2dVertex
 10
23.43849824848915
 20
-121.0686521499271
 30
0.0
  0
VERTEX
  5
F2C
330
F25
100
AcDbEntity
  8
0
370
     0
100
AcDbVertex
100
AcDb2dVertex
 10
23.43788824848908
 20
-121.0670501499271
 30
0.0
  0
SEQEND
  5
F2D
330
F25
100
AcDbEntity
  8
0
370
     0
  0
POLYLINE
  5
F2E
330
1F
100
AcDbEntity
  8
0
 62
     7
370
    35
100
AcDb2dPolyline
 66
     1
 10
0.0
 20
0.0
 30
0.0
  0
VERTEX
  5
F2F
330
F2E
100
AcDbEntity
  8
0
370
     0
100
AcDbVertex
100
AcDb2dVertex
 10
25.03615424848919
 20
356.932965850073
 30
0.0
  0
VERTEX
  5
F30
330
F2E
100
AcDbEntity
  8
0
370
     0
100
AcDbVertex
100
AcDb2dVertex
 10
25.03560524848908
 20
356.9297918500727
 30
0.0
  0
VERTEX
  5
F31
330
F2E
100
AcDbEntity
  8
0
370
     0
100
AcDbVertex
100
AcDb2dVertex
 10
25.0306002484891
 20
356.9168518500729
 30
0.0
  0
VERTEX
  5
F32
330
F2E
100
AcDbEntity
  8
0
370
     0
100
AcDbVertex
100
AcDb2dVertex
 10
24.98696024848911
 20
356.8258488500727
 30
0.0
  0
VERTEX
  5
F33
330
F2E
100
AcDbEntity
  8
0
370
     0
100
AcDbVertex
100
AcDb2dVertex
 10
24.65529524848918
 20
356.1412788500728
 30
0.0
  0
VERTEX
  5
F34
330
F2E
100
AcDbEntity
  8
0
370
     0
100
AcDbVertex
100
AcDb2dVertex
 10
24.34285624848904
 20
355.3986638500729
 30
0.0
  0
VERTEX
  5
F35
330
F2E
100
AcDbEntity
  8
0
370
     0
100
AcDbVertex
100
AcDb2dVertex
 10
24.03353024848911
 20
354.498211850073
 30
0.0
  0
VERTEX
  5
F36
330
F2E
100
AcDbEntity
  8
0
370
     0
100
AcDbVertex
100
AcDb2dVertex
 10
23.89400324848915
 20
354.0007758500729
 30
0.0
  0
VERTEX
  5
F37
330
F2E
100
AcDbEntity
  8
0
370
     0
100
AcDbVertex
100
AcDb2dVertex
 10
23.77028524848911
 20
353.4775818500726
 30
0.0
  0
VERTEX
  5
F38
330
F2E
100
AcDbEntity
  8
0
370
     0
100
AcDbVertex
100
AcDb2dVertex
 10
23.61812524848912
 20
352.6255928500729
 30
0.0
  0
VERTEX
  5
F39
330
F2E
100
AcDbEntity
  8
0
370
     0
100
AcDbVertex
100
AcDb2dVertex
 10
23.52266624848912
 20
351.7386298500729
 30
0.0
  0
VERTEX
  5
F3A
330
F2E
100
AcDbEntity
  8
0
370
     0
100
AcDbVertex
100
AcDb2dVertex
 10
23.49019524848914
 20
350.8339058500727
 30
0.0
  0
SEQEND
  5
F3B
330
F2E
100
AcDbEntity
  8
0
370
     0
  0
ARC
  5
F3C
330
1F
100
AcDbEntity
  8
0
 62
     7
370
    35
100
AcDbCircle
 10
35.86910124848905
 20
350.8340888500729
 30
0.0
 40
12.47262
100
AcDbArc
 50
89.97697799999862
 51
150.5110180000007
  0
LINE
  5
F3D
330
1F
100
AcDbEntity
  8
0
 62
     7
 48
0.036801
370
    35
100
AcDbLine
 10
36.87410624848904
 20
364.3064398500728
 30
0.0
 11
36.87410624848904
 21
365.7784858500729
 31
0.0
  0
LINE
  5
F3E
330
1F
100
AcDbEntity
  8
0
 62
     7
 48
0.024997
370
    35
100
AcDbLine
 10
36.87410624848904
 20
365.7784858500729
 30
0.0
 11
36.87410624848904
 21
366.7783638500729
 31
0.0
  0
LINE
  5
F3F
330
1F
100
AcDbEntity
  8
0
 62
     7
 48
0.024998
370
    35
100
AcDbLine
 10
36.87410624848904
 20
-142.1107201499271
 30
0.0
 11
36.87410624848904
 21
-143.1106441499271
 31
0.0
  0
LINE
  5
F40
330
1F
100
AcDbEntity
  8
0
 62
     7
 48
0.036801
370
    35
100
AcDbLine
 10
36.87410624848904
 20
-140.6386901499271
 30
0.0
 11
36.87410624848904
 21
-142.1107201499271
 31
0.0
  0
ARC
  5
F41
330
1F
100
AcDbEntity
  8
0
 62
     7
370
    35
100
AcDbCircle
 10
35.86910124848905
 20
-127.1663231499271
 30
0.0
 40
12.47262
100
AcDbArc
 50
209.4889679999976
 51
270.0230220000014
  0
POLYLINE
  5
F42
330
1F
100
AcDbEntity
  8
0
 62
     7
370
    35
100
AcDb2dPolyline
 66
     1
 10
0.0
 20
0.0
 30
0.0
  0
VERTEX
  5
F43
330
F42
100
AcDbEntity
  8
0
370
     0
100
AcDbVertex
100
AcDb2dVertex
 10
25.03615424848919
 20
-133.2652001499271
 30
0.0
  0
VERTEX
  5
F44
330
F42
100
AcDbEntity
  8
0
370
     0
100
AcDbVertex
100
AcDb2dVertex
 10
25.03560524848908
 20
-133.2620571499271
 30
0.0
  0
VERTEX
  5
F45
330
F42
100
AcDbEntity
  8
0
370
     0
100
AcDbVertex
100
AcDb2dVertex
 10
25.0306002484891
 20
-133.2491171499271
 30
0.0
  0
VERTEX
  5
F46
330
F42
100
AcDbEntity
  8
0
370
     0
100
AcDbVertex
100
AcDb2dVertex
 10
24.98696024848911
 20
-133.1581291499271
 30
0.0
  0
VERTEX
  5
F47
330
F42
100
AcDbEntity
  8
0
370
     0
100
AcDbVertex
100
AcDb2dVertex
 10
24.65529524848918
 20
-132.4735441499271
 30
0.0
  0
VERTEX
  5
F48
330
F42
100
AcDbEntity
  8
0
370
     0
100
AcDbVertex
100
AcDb2dVertex
 10
24.34285624848904
 20
-131.7309141499271
 30
0.0
  0
VERTEX
  5
F49
330
F42
100
AcDbEntity
  8
0
370
     0
100
AcDbVertex
100
AcDb2dVertex
 10
24.03353024848911
 20
-130.8304471499271
 30
0.0
  0
VERTEX
  5
F4A
330
F42
100
AcDbEntity
  8
0
370
     0
100
AcDbVertex
100
AcDb2dVertex
 10
23.89400324848915
 20
-130.3330561499271
 30
0.0
  0
VERTEX
  5
F4B
330
F42
100
AcDbEntity
  8
0
370
     0
100
AcDbVertex
100
AcDb2dVertex
 10
23.77028524848911
 20
-129.8098631499271
 30
0.0
  0
VERTEX
  5
F4C
330
F42
100
AcDbEntity
  8
0
370
     0
100
AcDbVertex
100
AcDb2dVertex
 10
23.61812524848912
 20
-128.9578271499271
 30
0.0
  0
VERTEX
  5
F4D
330
F42
100
AcDbEntity
  8
0
370
     0
100
AcDbVertex
100
AcDb2dVertex
 10
23.52266624848912
 20
-128.0708791499271
 30
0.0
  0
VERTEX
  5
F4E
330
F42
100
AcDbEntity
  8
0
370
     0
100
AcDbVertex
100
AcDb2dVertex
 10
23.49019524848914
 20
-127.1661251499271
 30
0.0
  0
SEQEND
  5
F4F
330
F42
100
AcDbEntity
  8
0
370
     0
  0
LINE
  5
F50
330
1F
100
AcDbEntity
  8
0
 62
     7
 48
0.025
370
    35
100
AcDbLine
 10
325.8741062484891
 20
-139.6389341499271
 30
0.0
 11
324.874106248489
 21
-139.6387511499271
 31
0.0
  0
LINE
  5
F51
330
1F
100
AcDbEntity
  8
0
 62
     7
370
    35
100
AcDbLine
 10
324.874106248489
 20
-139.6387511499271
 30
0.0
 11
36.87410624848904
 21
-139.6387511499271
 31
0.0
  0
LINE
  5
F52
330
1F
100
AcDbEntity
  8
0
 62
     7
 48
0.025
370
    35
100
AcDbLine
 10
36.87410624848904
 20
-139.6387511499271
 30
0.0
 11
35.87410624848903
 21
-139.6389341499271
 31
0.0
  0
LINE
  5
F53
330
1F
100
AcDbEntity
  8
0
 62
     7
 48
0.025
370
    35
100
AcDbLine
 10
36.87410624848904
 20
363.3065008500726
 30
0.0
 11
35.87410624848903
 21
363.3066838500729
 31
0.0
  0
LINE
  5
F54
330
1F
100
AcDbEntity
  8
0
 62
     7
370
    35
100
AcDbLine
 10
324.874106248489
 20
363.3065008500726
 30
0.0
 11
36.87410624848904
 21
363.3065008500726
 31
0.0
  0
LINE
  5
F55
330
1F
100
AcDbEntity
  8
0
 62
     7
 48
0.025
370
    35
100
AcDbLine
 10
325.8741062484891
 20
363.3066838500729
 30
0.0
 11
324.874106248489
 21
363.3065008500726
 31
0.0
  0
LINE
  5
F56
330
1F
100
AcDbEntity
  8
0
 62
     7
 48
0.024998
370
    35
100
AcDbLine
 10
324.874106248489
 20
-140.6386741499271
 30
0.0
 11
324.874106248489
 21
-139.6387511499271
 31
0.0
  0
LINE
  5
F57
330
1F
100
AcDbEntity
  8
0
 62
     7
 48
0.024998
370
    35
100
AcDbLine
 10
324.874106248489
 20
363.3065008500726
 30
0.0
 11
324.874106248489
 21
364.3064398500728
 31
0.0
  0
LINE
  5
F58
330
1F
100
AcDbEntity
  8
0
 62
     7
 48
0.024998
370
    35
100
AcDbLine
 10
36.87410624848904
 20
363.3065008500726
 30
0.0
 11
36.87410624848904
 21
364.3064398500728
 31
0.0
  0
LINE
  5
F59
330
1F
100
AcDbEntity
  8
0
 62
     7
 48
0.024998
370
    35
100
AcDbLine
 10
36.87410624848904
 20
-140.6386741499271
 30
0.0
 11
36.87410624848904
 21
-139.6387511499271
 31
0.0
  0
ARC
  5
F64
330
1F
100
AcDbEntity
  8
0
 62
   253
370
    35
100
AcDbCircle
 10
127.8836272484891
 20
203.8170598500728
 30
0.0
 40
2.509187999999999
100
AcDbArc
 50
118.2091819999984
 51
180.0944839999992
  0
LINE
  5
F65
330
1F
100
AcDbEntity
  8
0
 62
   253
 48
0.012489
370
    35
100
AcDbLine
 10
145.8741062484889
 20
210.330365850073
 30
0.0
 11
145.8741062484889
 21
210.829937850073
 31
0.0
  0
ARC
  5
F66
330
1F
100
AcDbEntity
  8
0
 62
   253
370
    35
100
AcDbCircle
 10
145.8692232484891
 20
170.1529668500729
 30
0.0
 40
40.676739
100
AcDbArc
 50
89.99309700000116
 51
118.1199800000024
  0
LINE
  5
F67
330
1F
100
AcDbEntity
  8
0
 62
   253
 48
0.012489
370
    35
100
AcDbLine
 10
215.8741062484891
 20
210.330365850073
 30
0.0
 11
215.8741062484891
 21
210.829937850073
 31
0.0
  0
LINE
  5
F68
330
1F
100
AcDbEntity
  8
0
 62
   253
370
    35
100
AcDbLine
 10
215.8741062484891
 20
210.829937850073
 30
0.0
 11
145.8741062484889
 21
210.829937850073
 31
0.0
  0
ARC
  5
F69
330
1F
100
AcDbEntity
  8
0
 62
   253
370
    35
100
AcDbCircle
 10
215.8790502484891
 20
170.1530588500728
 30
0.0
 40
40.676641
100
AcDbArc
 50
61.87997699999775
 51
90.0069280000015
  0
ARC
  5
F6A
330
1F
100
AcDbEntity
  8
0
 62
   253
370
    35
100
AcDbCircle
 10
233.8646462484891
 20
203.8171208500729
 30
0.0
 40
2.509184999999999
100
AcDbArc
 50
359.9050050000001
 51
61.79036499999981
  0
LINE
  5
F6E
330
1F
100
AcDbEntity
  8
0
 62
   253
 48
0.012172
370
    35
100
AcDbLine
 10
145.8741062484889
 20
199.6271798500727
 30
0.0
 11
145.8741062484889
 21
199.140301850073
 31
0.0
  0
LINE
  5
F6F
330
1F
100
AcDbEntity
  8
0
 62
   253
 48
0.012172
370
    35
100
AcDbLine
 10
215.8741062484891
 20
199.6271798500727
 30
0.0
 11
215.8741062484891
 21
199.140301850073
 31
0.0
  0
LINE
  5
F70
330
1F
100
AcDbEntity
  8
0
 62
   253
 48
0.2675800000000001
370
    35
100
AcDbLine
 10
145.8741062484889
 20
199.6271798500727
 30
0.0
 11
145.8741062484889
 21
210.330365850073
 31
0.0
  0
LINE
  5
F71
330
1F
100
AcDbEntity
  8
0
 62
   253
 48
0.2675800000000001
370
    35
100
AcDbLine
 10
215.8741062484891
 20
199.6271798500727
 30
0.0
 11
215.8741062484891
 21
210.330365850073
 31
0.0
  0
LINE
  5
F72
330
1F
100
AcDbEntity
  8
0
 62
   253
370
    35
100
AcDbLine
 10
320.681723248489
 20
296.9975408500729
 30
0.0
 11
41.06648924848909
 21
296.9975408500729
 31
0.0
  0
ARC
  5
F73
330
1F
100
AcDbEntity
  8
0
 62
   253
370
    35
100
AcDbCircle
 10
41.06313224848913
 20
295.0085878500729
 30
0.0
 40
1.988738999999999
100
AcDbArc
 50
89.90185300000177
 51
180.0981450000006
  0
ARC
  5
F74
330
1F
100
AcDbEntity
  8
0
 62
   253
370
    35
100
AcDbCircle
 10
320.6851412484891
 20
295.0085878500729
 30
0.0
 40
1.988738999999999
100
AcDbArc
 50
359.9018499999996
 51
90.09814499999901
  0
LINE
  5
F75
330
1F
100
AcDbEntity
  8
0
 62
   253
 48
0.099519
370
    35
100
AcDbLine
 10
125.3741062484889
 20
199.8321358500729
 30
0.0
 11
125.3741062484889
 21
203.8129098500729
 31
0.0
  0
LINE
  5
F76
330
1F
100
AcDbEntity
  8
0
 62
   253
 48
0.001737
370
    35
100
AcDbLine
 10
125.3741062484889
 20
199.3322268500729
 30
0.0
 11
125.3741062484889
 21
199.2627388500729
 31
0.0
  0
LINE
  5
F77
330
1F
100
AcDbEntity
  8
0
 62
   253
 48
0.050026
370
    35
100
AcDbLine
 10
39.07411824848905
 20
199.7964908500729
 30
0.0
 11
39.07411824848905
 21
201.7975288500729
 31
0.0
  0
LINE
  5
F78
330
1F
100
AcDbEntity
  8
0
 62
   253
 48
0.012283
370
    35
100
AcDbLine
 10
39.07411824848905
 20
201.7975288500729
 30
0.0
 11
39.07411824848905
 21
202.288861850073
 31
0.0
  0
LINE
  5
F79
330
1F
100
AcDbEntity
  8
0
 62
   253
370
    35
100
AcDbLine
 10
39.07411824848905
 20
202.288861850073
 30
0.0
 11
39.07411824848905
 21
295.0051698500729
 31
0.0
  0
LINE
  5
F7A
330
1F
100
AcDbEntity
  8
0
 62
   253
 48
0.012498
370
    35
100
AcDbLine
 10
125.3741062484889
 20
199.3322268500729
 30
0.0
 11
125.3741062484889
 21
199.8321358500729
 31
0.0
  0
LINE
  5
F7B
330
1F
100
AcDbEntity
  8
0
 62
   253
370
    35
100
AcDbLine
 10
41.12551024848912
 20
199.3322268500729
 30
0.0
 11
125.3741062484889
 21
199.3322268500729
 31
0.0
  0
POLYLINE
  5
F7C
330
1F
100
AcDbEntity
  8
0
 62
   253
370
    35
100
AcDb2dPolyline
 66
     1
 10
0.0
 20
0.0
 30
0.0
  0
VERTEX
  5
F7D
330
F7C
100
AcDbEntity
  8
0
 62
   253
370
     0
100
AcDbVertex
100
AcDb2dVertex
 10
41.12551024848912
 20
199.3322268500729
 30
0.0
  0
VERTEX
  5
F7E
330
F7C
100
AcDbEntity
  8
0
 62
   253
370
     0
100
AcDbVertex
100
AcDb2dVertex
 10
39.82857424848916
 20
199.3191958500729
 30
0.0
  0
VERTEX
  5
F7F
330
F7C
100
AcDbEntity
  8
0
 62
   253
370
     0
100
AcDbVertex
100
AcDb2dVertex
 10
39.66628124848907
 20
199.3121158500729
 30
0.0
  0
VERTEX
  5
F80
330
F7C
100
AcDbEntity
  8
0
 62
   253
370
     0
100
AcDbVertex
100
AcDb2dVertex
 10
39.63118624848911
 20
199.3083318500728
 30
0.0
  0
SEQEND
  5
F81
330
F7C
100
AcDbEntity
  8
0
 62
   253
370
     0
  0
LINE
  5
F82
330
1F
100
AcDbEntity
  8
0
 62
   253
 48
0.099519
370
    35
100
AcDbLine
 10
236.3741062484891
 20
199.8321358500729
 30
0.0
 11
236.3741062484891
 21
203.8129098500729
 31
0.0
  0
LINE
  5
F83
330
1F
100
AcDbEntity
  8
0
 62
   253
 48
0.001737
370
    35
100
AcDbLine
 10
236.3741062484891
 20
199.3322268500729
 30
0.0
 11
236.3741062484891
 21
199.2627388500729
 31
0.0
  0
LINE
  5
F84
330
1F
100
AcDbEntity
  8
0
 62
   253
370
    35
100
AcDbLine
 10
322.6741552484891
 20
295.0051698500729
 30
0.0
 11
322.6741552484891
 21
201.7975288500729
 31
0.0
  0
LINE
  5
F85
330
1F
100
AcDbEntity
  8
0
 62
   253
 48
0.050026
370
    35
100
AcDbLine
 10
322.6741552484891
 20
201.7975288500729
 30
0.0
 11
322.6741552484891
 21
199.7964908500729
 31
0.0
  0
LINE
  5
F86
330
1F
100
AcDbEntity
  8
0
 62
   253
 48
0.012498
370
    35
100
AcDbLine
 10
236.3741062484891
 20
199.8321358500729
 30
0.0
 11
236.3741062484891
 21
199.3322268500729
 31
0.0
  0
LINE
  5
F87
330
1F
100
AcDbEntity
  8
0
 62
   253
370
    35
100
AcDbLine
 10
236.3741062484891
 20
199.3322268500729
 30
0.0
 11
320.6227632484891
 21
199.3322268500729
 31
0.0
  0
POLYLINE
  5
F88
330
1F
100
AcDbEntity
  8
0
 62
   253
370
    35
100
AcDb2dPolyline
 66
     1
 10
0.0
 20
0.0
 30
0.0
  0
VERTEX
  5
F89
330
F88
100
AcDbEntity
  8
0
 62
   253
370
     0
100
AcDbVertex
100
AcDb2dVertex
 10
320.6227632484891
 20
199.3322268500729
 30
0.0
  0
VERTEX
  5
F8A
330
F88
100
AcDbEntity
  8
0
 62
   253
370
     0
100
AcDbVertex
100
AcDb2dVertex
 10
321.9197602484891
 20
199.3191958500729
 30
0.0
  0
VERTEX
  5
F8B
330
F88
100
AcDbEntity
  8
0
 62
   253
370
     0
100
AcDbVertex
100
AcDb2dVertex
 10
322.0819922484891
 20
199.3121158500729
 30
0.0
  0
VERTEX
  5
F8C
330
F88
100
AcDbEntity
  8
0
 62
   253
370
     0
100
AcDbVertex
100
AcDb2dVertex
 10
322.1170262484891
 20
199.3083318500728
 30
0.0
  0
SEQEND
  5
F8D
330
F88
100
AcDbEntity
  8
0
 62
   253
370
     0
  0
ARC
  5
F8E
330
1F
100
AcDbEntity
  8
0
 62
   253
370
    35
100
AcDbCircle
 10
42.1457732484891
 20
199.7962468500729
 30
0.0
 40
3.071624
100
AcDbArc
 50
179.9955379999998
 51
184.1382020000007
  0
LINE
  5
F8F
330
1F
100
AcDbEntity
  8
0
 62
   253
 48
0.001193
370
    35
100
AcDbLine
 10
39.08217524848916
 20
199.5745668500729
 30
0.0
 11
39.08608124848908
 21
199.5269898500728
 31
0.0
  0
LINE
  5
F90
330
1F
100
AcDbEntity
  8
0
 62
   253
 48
0.001589
370
    35
100
AcDbLine
 10
39.63118624848911
 20
199.3083318500728
 30
0.0
 11
39.5688692484891
 21
199.295880850073
 31
0.0
  0
POLYLINE
  5
F91
330
1F
100
AcDbEntity
  8
0
 62
   253
370
    35
100
AcDb2dPolyline
 66
     1
 10
0.0
 20
0.0
 30
0.0
  0
VERTEX
  5
F92
330
F91
100
AcDbEntity
  8
0
 62
   253
370
     0
100
AcDbVertex
100
AcDb2dVertex
 10
39.08608124848908
 20
199.5269898500728
 30
0.0
  0
VERTEX
  5
F93
330
F91
100
AcDbEntity
  8
0
 62
   253
370
     0
100
AcDbVertex
100
AcDb2dVertex
 10
39.21022724848917
 20
199.4167908500729
 30
0.0
  0
VERTEX
  5
F94
330
F91
100
AcDbEntity
  8
0
 62
   253
370
     0
100
AcDbVertex
100
AcDb2dVertex
 10
39.2987892484891
 20
199.3627138500729
 30
0.0
  0
VERTEX
  5
F95
330
F91
100
AcDbEntity
  8
0
 62
   253
370
     0
100
AcDbVertex
100
AcDb2dVertex
 10
39.4217132484891
 20
199.3153508500726
 30
0.0
  0
VERTEX
  5
F96
330
F91
100
AcDbEntity
  8
0
 62
   253
370
     0
100
AcDbVertex
100
AcDb2dVertex
 10
39.5688692484891
 20
199.295880850073
 30
0.0
  0
SEQEND
  5
F97
330
F91
100
AcDbEntity
  8
0
 62
   253
370
     0
  0
LINE
  5
F98
330
1F
100
AcDbEntity
  8
0
 62
   253
 48
0.000594
370
    35
100
AcDbLine
 10
39.59261224848918
 20
199.295880850073
 30
0.0
 11
39.5688692484891
 21
199.295880850073
 31
0.0
  0
ARC
  5
F99
330
1F
100
AcDbEntity
  8
0
 62
   253
370
    35
100
AcDbCircle
 10
319.660849248489
 20
199.7942018500728
 30
0.0
 40
3.013288
100
AcDbArc
 50
354.9125380000006
 51
0.0431890000000184
  0
LINE
  5
F9A
330
1F
100
AcDbEntity
  8
0
 62
   253
 48
0.00159
370
    35
100
AcDbLine
 10
322.1170262484891
 20
199.3083318500728
 30
0.0
 11
322.1794042484891
 21
199.295880850073
 31
0.0
  0
POLYLINE
  5
F9B
330
1F
100
AcDbEntity
  8
0
 62
   253
370
    35
100
AcDb2dPolyline
 66
     1
 10
0.0
 20
0.0
 30
0.0
  0
VERTEX
  5
F9C
330
F9B
100
AcDbEntity
  8
0
 62
   253
370
     0
100
AcDbVertex
100
AcDb2dVertex
 10
322.1794042484891
 20
199.295880850073
 30
0.0
  0
VERTEX
  5
F9D
330
F9B
100
AcDbEntity
  8
0
 62
   253
370
     0
100
AcDbVertex
100
AcDb2dVertex
 10
322.3269262484891
 20
199.3154728500729
 30
0.0
  0
VERTEX
  5
F9E
330
F9B
100
AcDbEntity
  8
0
 62
   253
370
     0
100
AcDbVertex
100
AcDb2dVertex
 10
322.4501562484891
 20
199.3630498500729
 30
0.0
  0
VERTEX
  5
F9F
330
F9B
100
AcDbEntity
  8
0
 62
   253
370
     0
100
AcDbVertex
100
AcDb2dVertex
 10
322.5264502484892
 20
199.408703850073
 30
0.0
  0
VERTEX
  5
FA0
330
F9B
100
AcDbEntity
  8
0
 62
   253
370
     0
100
AcDbVertex
100
AcDb2dVertex
 10
322.6621922484891
 20
199.5269898500728
 30
0.0
  0
SEQEND
  5
FA1
330
F9B
100
AcDbEntity
  8
0
 62
   253
370
     0
  0
LINE
  5
FA2
330
1F
100
AcDbEntity
  8
0
 62
   253
 48
0.000296
370
    35
100
AcDbLine
 10
322.1675022484891
 20
198.8655518500728
 30
0.0
 11
322.1556612484891
 21
198.8655518500728
 31
0.0
  0
LINE
  5
FA3
330
1F
100
AcDbEntity
  8
0
 62
   253
 48
0.000594
370
    35
100
AcDbLine
 10
322.1794042484891
 20
199.295880850073
 30
0.0
 11
322.1556612484891
 21
199.295880850073
 31
0.0
  0
LINE
  5
FA4
330
1F
100
AcDbEntity
  8
0
 62
   253
 48
0.004033
370
    35
100
AcDbLine
 10
236.3869232484892
 20
197.7526068500729
 30
0.0
 11
236.3869232484892
 21
197.9139228500726
 31
0.0
  0
LINE
  5
FA5
330
1F
100
AcDbEntity
  8
0
 62
   253
370
    35
100
AcDbLine
 10
236.3869232484892
 20
197.9139228500726
 30
0.0
 11
317.6645722484891
 21
197.9139228500726
 31
0.0
  0
LINE
  5
FA6
330
1F
100
AcDbEntity
  8
0
 62
   253
 48
0.024672
370
    35
100
AcDbLine
 10
318.6514502484893
 20
197.9139228500726
 30
0.0
 11
317.6645722484891
 21
197.9139228500726
 31
0.0
  0
LINE
  5
FA7
330
1F
100
AcDbEntity
  8
0
 62
   253
 48
0.013489
370
    35
100
AcDbLine
 10
318.6514502484893
 20
197.9139228500726
 30
0.0
 11
319.1910002484891
 21
197.9139228500726
 31
0.0
  0
LINE
  5
FA8
330
1F
100
AcDbEntity
  8
0
 62
   253
 48
0.067445
370
    35
100
AcDbLine
 10
321.8888152484891
 20
197.9139228500726
 30
0.0
 11
319.1910002484891
 21
197.9139228500726
 31
0.0
  0
LINE
  5
FA9
330
1F
100
AcDbEntity
  8
0
 62
   253
 48
0.004033
370
    35
100
AcDbLine
 10
125.3869232484891
 20
197.7526068500729
 30
0.0
 11
125.3869232484891
 21
197.9139228500726
 31
0.0
  0
LINE
  5
FAA
330
1F
100
AcDbEntity
  8
0
 62
   253
 48
0.067445
370
    35
100
AcDbLine
 10
39.88503124848907
 20
197.9139228500726
 30
0.0
 11
42.58284624848903
 21
197.9139228500726
 31
0.0
  0
LINE
  5
FAB
330
1F
100
AcDbEntity
  8
0
 62
   253
 48
0.013489
370
    35
100
AcDbLine
 10
42.58284624848903
 20
197.9139228500726
 30
0.0
 11
43.12239724848914
 21
197.9139228500726
 31
0.0
  0
LINE
  5
FAC
330
1F
100
AcDbEntity
  8
0
 62
   253
 48
0.024672
370
    35
100
AcDbLine
 10
44.10927424848916
 20
197.9139228500726
 30
0.0
 11
43.12239724848914
 21
197.9139228500726
 31
0.0
  0
LINE
  5
FAD
330
1F
100
AcDbEntity
  8
0
 62
   253
370
    35
100
AcDbLine
 10
44.10927424848916
 20
197.9139228500726
 30
0.0
 11
125.3869232484891
 21
197.9139228500726
 31
0.0
  0
ARC
  5
FAE
330
1F
100
AcDbEntity
  8
0
 62
   253
370
    35
100
AcDbCircle
 10
39.88417724848918
 20
197.4166688500727
 30
0.0
 40
0.4971850000000001
100
AcDbArc
 50
89.90185300000177
 51
180.0981450000006
  0
LINE
  5
FAF
330
1F
100
AcDbEntity
  8
0
 62
   253
 48
0.460811
370
    35
100
AcDbLine
 10
39.38692324848918
 20
178.9833808500729
 30
0.0
 11
39.38692324848918
 21
197.4158148500727
 31
0.0
  0
ARC
  5
FB0
330
1F
100
AcDbEntity
  8
0
 62
   253
370
    35
100
AcDbCircle
 10
41.37593724848918
 20
178.9799928500729
 30
0.0
 40
1.988738999999999
100
AcDbArc
 50
179.9018549999993
 51
270.0981399999977
  0
LINE
  5
FB1
330
1F
100
AcDbEntity
  8
0
 62
   253
370
    35
100
AcDbLine
 10
41.3792942484891
 20
176.9910098500726
 30
0.0
 11
320.3945532484891
 21
176.9910098500726
 31
0.0
  0
ARC
  5
FB2
330
1F
100
AcDbEntity
  8
0
 62
   253
370
    35
100
AcDbCircle
 10
320.3979102484891
 20
178.9799928500729
 30
0.0
 40
1.988738999999999
100
AcDbArc
 50
269.9018480000004
 51
0.0981429999997894
  0
LINE
  5
FB3
330
1F
100
AcDbEntity
  8
0
 62
   253
 48
0.460811
370
    35
100
AcDbLine
 10
322.3869232484891
 20
178.9833808500729
 30
0.0
 11
322.3869232484891
 21
197.4158148500727
 31
0.0
  0
ARC
  5
FB4
330
1F
100
AcDbEntity
  8
0
 62
   253
370
    35
100
AcDbCircle
 10
321.8896702484891
 20
197.4166688500727
 30
0.0
 40
0.4971850000000001
100
AcDbArc
 50
359.9018570000002
 51
90.09815199999955
  0
LINE
  5
FB5
330
1F
100
AcDbEntity
  8
0
 62
   253
 48
0.011659
370
    35
100
AcDbLine
 10
145.8869232484891
 20
197.2143678500729
 30
0.0
 11
145.8869232484891
 21
197.680737850073
 31
0.0
  0
LINE
  5
FB6
330
1F
100
AcDbEntity
  8
0
 62
   253
 48
0.011659
370
    35
100
AcDbLine
 10
215.8869232484891
 20
197.2143678500729
 30
0.0
 11
215.8869232484891
 21
197.680737850073
 31
0.0
  0
POLYLINE
  5
FB7
330
1F
100
AcDbEntity
  8
0
 62
   253
370
    35
100
AcDb2dPolyline
 66
     1
 10
0.0
 20
0.0
 30
0.0
  0
VERTEX
  5
FB8
330
FB7
100
AcDbEntity
  8
0
 62
   253
370
     0
100
AcDbVertex
100
AcDb2dVertex
 10
187.1588352484891
 20
179.0248848500729
 30
0.0
  0
VERTEX
  5
FB9
330
FB7
100
AcDbEntity
  8
0
 62
   253
370
     0
100
AcDbVertex
100
AcDb2dVertex
 10
186.550864248489
 20
178.7246528500728
 30
0.0
  0
VERTEX
  5
FBA
330
FB7
100
AcDbEntity
  8
0
 62
   253
370
     0
100
AcDbVertex
100
AcDb2dVertex
 10
185.913474248489
 20
178.4895148500729
 30
0.0
  0
VERTEX
  5
FBB
330
FB7
100
AcDbEntity
  8
0
 62
   253
370
     0
100
AcDbVertex
100
AcDb2dVertex
 10
185.254416248489
 20
178.3207828500728
 30
0.0
  0
VERTEX
  5
FBC
330
FB7
100
AcDbEntity
  8
0
 62
   253
370
     0
100
AcDbVertex
100
AcDb2dVertex
 10
184.580649248489
 20
178.2191598500728
 30
0.0
  0
VERTEX
  5
FBD
330
FB7
100
AcDbEntity
  8
0
 62
   253
370
     0
100
AcDbVertex
100
AcDb2dVertex
 10
183.897299248489
 20
178.1850708500728
 30
0.0
  0
SEQEND
  5
FBE
330
FB7
100
AcDbEntity
  8
0
 62
   253
370
     0
  0
LINE
  5
FBF
330
1F
100
AcDbEntity
  8
0
 62
   253
 48
0.150519
370
    35
100
AcDbLine
 10
183.897299248489
 20
178.1850708500728
 30
0.0
 11
177.876547248489
 21
178.1850708500728
 31
0.0
  0
POLYLINE
  5
FC0
330
1F
100
AcDbEntity
  8
0
 62
   253
370
    35
100
AcDb2dPolyline
 66
     1
 10
0.0
 20
0.0
 30
0.0
  0
VERTEX
  5
FC1
330
FC0
100
AcDbEntity
  8
0
 62
   253
370
     0
100
AcDbVertex
100
AcDb2dVertex
 10
177.876547248489
 20
178.1850708500728
 30
0.0
  0
VERTEX
  5
FC2
330
FC0
100
AcDbEntity
  8
0
 62
   253
370
     0
100
AcDbVertex
100
AcDb2dVertex
 10
177.2785252484891
 20
178.2111638500726
 30
0.0
  0
VERTEX
  5
FC3
330
FC0
100
AcDbEntity
  8
0
 62
   253
370
     0
100
AcDbVertex
100
AcDb2dVertex
 10
176.6859352484891
 20
178.2891968500726
 30
0.0
  0
VERTEX
  5
FC4
330
FC0
100
AcDbEntity
  8
0
 62
   253
370
     0
100
AcDbVertex
100
AcDb2dVertex
 10
176.1037202484891
 20
178.4188668500729
 30
0.0
  0
VERTEX
  5
FC5
330
FC0
100
AcDbEntity
  8
0
 62
   253
370
     0
100
AcDbVertex
100
AcDb2dVertex
 10
175.536398248489
 20
178.5996218500726
 30
0.0
  0
VERTEX
  5
FC6
330
FC0
100
AcDbEntity
  8
0
 62
   253
370
     0
100
AcDbVertex
100
AcDb2dVertex
 10
175.0670382484891
 20
178.7940498500728
 30
0.0
  0
VERTEX
  5
FC7
330
FC0
100
AcDbEntity
  8
0
 62
   253
370
     0
100
AcDbVertex
100
AcDb2dVertex
 10
174.615012248489
 20
179.0248848500729
 30
0.0
  0
SEQEND
  5
FC8
330
FC0
100
AcDbEntity
  8
0
 62
   253
370
     0
  0
LINE
  5
FC9
330
1F
100
AcDbEntity
  8
0
 62
   253
 48
0.220043
370
    35
100
AcDbLine
 10
145.8869232484891
 20
197.2143378500729
 30
0.0
 11
145.8869232484891
 21
188.4126108500728
 31
0.0
  0
LINE
  5
FCA
330
1F
100
AcDbEntity
  8
0
 62
   253
 48
0.220044
370
    35
100
AcDbLine
 10
215.8869232484891
 20
197.2143678500729
 30
0.0
 11
215.8869232484891
 21
188.4126108500728
 31
0.0
  0
LINE
  5
FCB
330
1F
100
AcDbEntity
  8
0
 62
   253
 48
0.000222
370
    35
100
AcDbLine
 10
170.7229832484891
 20
188.5877808500728
 30
0.0
 11
170.7215792484891
 21
188.5790228500729
 31
0.0
  0
ARC
  5
FCC
330
1F
100
AcDbEntity
  8
0
 62
   253
370
    35
100
AcDbCircle
 10
235.8424902484892
 20
188.1495178500727
 30
0.0
 40
3.607188999999998
100
AcDbArc
 50
103.9843639999994
 51
117.3690280000016
  0
LINE
  5
FCD
330
1F
100
AcDbEntity
  8
0
 62
   253
 48
0.000033
370
    35
100
AcDbLine
 10
234.1840422484892
 20
191.3532838500729
 30
0.0
 11
234.1828832484892
 21
191.3526738500728
 31
0.0
  0
LINE
  5
FCE
330
1F
100
AcDbEntity
  8
0
 62
   253
 48
0.067931
370
    35
100
AcDbLine
 10
215.8869232484891
 20
185.0065128500729
 30
0.0
 11
215.8869232484891
 21
187.7237678500726
 31
0.0
  0
POLYLINE
  5
FCF
330
1F
100
AcDbEntity
  8
0
 62
   253
370
    35
100
AcDb2dPolyline
 66
     1
 10
0.0
 20
0.0
 30
0.0
  0
VERTEX
  5
FD0
330
FCF
100
AcDbEntity
  8
0
 62
   253
370
     0
100
AcDbVertex
100
AcDb2dVertex
 10
235.0431732484892
 20
190.513928850073
 30
0.0
  0
VERTEX
  5
FD1
330
FCF
100
AcDbEntity
  8
0
 62
   253
370
     0
100
AcDbVertex
100
AcDb2dVertex
 10
233.9196992484893
 20
189.8458688500726
 30
0.0
  0
VERTEX
  5
FD2
330
FCF
100
AcDbEntity
  8
0
 62
   253
370
     0
100
AcDbVertex
100
AcDb2dVertex
 10
232.7713232484893
 20
189.2162598500729
 30
0.0
  0
VERTEX
  5
FD3
330
FCF
100
AcDbEntity
  8
0
 62
   253
370
     0
100
AcDbVertex
100
AcDb2dVertex
 10
231.4375212484891
 20
188.5487488500728
 30
0.0
  0
VERTEX
  5
FD4
330
FCF
100
AcDbEntity
  8
0
 62
   253
370
     0
100
AcDbVertex
100
AcDb2dVertex
 10
230.0742402484892
 20
187.9336978500726
 30
0.0
  0
VERTEX
  5
FD5
330
FCF
100
AcDbEntity
  8
0
 62
   253
370
     0
100
AcDbVertex
100
AcDb2dVertex
 10
228.684836248489
 20
187.373303850073
 30
0.0
  0
VERTEX
  5
FD6
330
FCF
100
AcDbEntity
  8
0
 62
   253
370
     0
100
AcDbVertex
100
AcDb2dVertex
 10
227.6231902484891
 20
186.9885688500729
 30
0.0
  0
VERTEX
  5
FD7
330
FCF
100
AcDbEntity
  8
0
 62
   253
370
     0
100
AcDbVertex
100
AcDb2dVertex
 10
226.5517792484891
 20
186.6371588500728
 30
0.0
  0
VERTEX
  5
FD8
330
FCF
100
AcDbEntity
  8
0
 62
   253
370
     0
100
AcDbVertex
100
AcDb2dVertex
 10
225.4767062484891
 20
186.3207828500728
 30
0.0
  0
VERTEX
  5
FD9
330
FCF
100
AcDbEntity
  8
0
 62
   253
370
     0
100
AcDbVertex
100
AcDb2dVertex
 10
224.1261202484892
 20
185.9735538500729
 30
0.0
  0
VERTEX
  5
FDA
330
FCF
100
AcDbEntity
  8
0
 62
   253
370
     0
100
AcDbVertex
100
AcDb2dVertex
 10
222.7633882484891
 20
185.6785408500728
 30
0.0
  0
VERTEX
  5
FDB
330
FCF
100
AcDbEntity
  8
0
 62
   253
370
     0
100
AcDbVertex
100
AcDb2dVertex
 10
221.3890602484891
 20
185.4360788500729
 30
0.0
  0
VERTEX
  5
FDC
330
FCF
100
AcDbEntity
  8
0
 62
   253
370
     0
100
AcDbVertex
100
AcDb2dVertex
 10
220.0049042484891
 20
185.2469608500726
 30
0.0
  0
VERTEX
  5
FDD
330
FCF
100
AcDbEntity
  8
0
 62
   253
370
     0
100
AcDbVertex
100
AcDb2dVertex
 10
218.6337502484891
 20
185.1134768500729
 30
0.0
  0
VERTEX
  5
FDE
330
FCF
100
AcDbEntity
  8
0
 62
   253
370
     0
100
AcDbVertex
100
AcDb2dVertex
 10
217.2595432484891
 20
185.0332158500729
 30
0.0
  0
VERTEX
  5
FDF
330
FCF
100
AcDbEntity
  8
0
 62
   253
370
     0
100
AcDbVertex
100
AcDb2dVertex
 10
215.8869232484891
 20
185.0065128500729
 30
0.0
  0
SEQEND
  5
FE0
330
FCF
100
AcDbEntity
  8
0
 62
   253
370
     0
  0
LINE
  5
FE1
330
1F
100
AcDbEntity
  8
0
 62
   253
370
    35
100
AcDbLine
 10
191.0824802484891
 20
185.0065128500729
 30
0.0
 11
215.8869232484891
 21
185.0065128500729
 31
0.0
  0
LINE
  5
FE2
330
1F
100
AcDbEntity
  8
0
 62
   253
 48
0.001198
370
    35
100
AcDbLine
 10
191.0824802484891
 20
185.0065128500729
 30
0.0
 11
191.0345672484891
 21
185.0065128500729
 31
0.0
  0
ARC
  5
FE3
330
1F
100
AcDbEntity
  8
0
 62
   253
370
    35
100
AcDbCircle
 10
180.884848248489
 20
187.2985968500729
 30
0.0
 40
10.452045
100
AcDbArc
 50
315.1042069999996
 51
347.3322150000003
  0
ARC
  5
FE4
330
1F
100
AcDbEntity
  8
0
 62
   253
370
    35
100
AcDbCircle
 10
183.896872248489
 20
184.2975898500729
 30
0.0
 40
6.200150999999999
100
AcDbArc
 50
301.7433429999995
 51
315.1036199999989
  0
LINE
  5
FE5
330
1F
100
AcDbEntity
  8
0
 62
   253
 48
0.067931
370
    35
100
AcDbLine
 10
145.8869232484891
 20
185.0065128500729
 30
0.0
 11
145.8869232484891
 21
187.7237678500726
 31
0.0
  0
LINE
  5
FE6
330
1F
100
AcDbEntity
  8
0
 62
   253
370
    35
100
AcDbLine
 10
145.8869232484891
 20
185.0065128500729
 30
0.0
 11
170.6913672484891
 21
185.0065128500729
 31
0.0
  0
LINE
  5
FE7
330
1F
100
AcDbEntity
  8
0
 62
   253
 48
0.001198
370
    35
100
AcDbLine
 10
170.6913672484891
 20
185.0065128500729
 30
0.0
 11
170.7392792484891
 21
185.0065128500729
 31
0.0
  0
POLYLINE
  5
FE8
330
1F
100
AcDbEntity
  8
0
 62
   253
370
    35
100
AcDb2dPolyline
 66
     1
 10
0.0
 20
0.0
 30
0.0
  0
VERTEX
  5
FE9
330
FE8
100
AcDbEntity
  8
0
 62
   253
370
     0
100
AcDbVertex
100
AcDb2dVertex
 10
126.7306732484891
 20
190.5139588500728
 30
0.0
  0
VERTEX
  5
FEA
330
FE8
100
AcDbEntity
  8
0
 62
   253
370
     0
100
AcDbVertex
100
AcDb2dVertex
 10
127.8541472484891
 20
189.8458988500728
 30
0.0
  0
VERTEX
  5
FEB
330
FE8
100
AcDbEntity
  8
0
 62
   253
370
     0
100
AcDbVertex
100
AcDb2dVertex
 10
129.0025242484891
 20
189.2162598500729
 30
0.0
  0
VERTEX
  5
FEC
330
FE8
100
AcDbEntity
  8
0
 62
   253
370
     0
100
AcDbVertex
100
AcDb2dVertex
 10
130.3363252484891
 20
188.5487488500728
 30
0.0
  0
VERTEX
  5
FED
330
FE8
100
AcDbEntity
  8
0
 62
   253
370
     0
100
AcDbVertex
100
AcDb2dVertex
 10
131.699606248489
 20
187.9336978500726
 30
0.0
  0
VERTEX
  5
FEE
330
FE8
100
AcDbEntity
  8
0
 62
   253
370
     0
100
AcDbVertex
100
AcDb2dVertex
 10
133.0890112484891
 20
187.3733338500728
 30
0.0
  0
VERTEX
  5
FEF
330
FE8
100
AcDbEntity
  8
0
 62
   253
370
     0
100
AcDbVertex
100
AcDb2dVertex
 10
134.150656248489
 20
186.9885688500729
 30
0.0
  0
VERTEX
  5
FF0
330
FE8
100
AcDbEntity
  8
0
 62
   253
370
     0
100
AcDbVertex
100
AcDb2dVertex
 10
135.2220672484891
 20
186.6371588500728
 30
0.0
  0
VERTEX
  5
FF1
330
FE8
100
AcDbEntity
  8
0
 62
   253
370
     0
100
AcDbVertex
100
AcDb2dVertex
 10
136.2971412484891
 20
186.3207828500728
 30
0.0
  0
VERTEX
  5
FF2
330
FE8
100
AcDbEntity
  8
0
 62
   253
370
     0
100
AcDbVertex
100
AcDb2dVertex
 10
137.6477272484891
 20
185.9735538500729
 30
0.0
  0
VERTEX
  5
FF3
330
FE8
100
AcDbEntity
  8
0
 62
   253
370
     0
100
AcDbVertex
100
AcDb2dVertex
 10
139.0104582484891
 20
185.6785408500728
 30
0.0
  0
VERTEX
  5
FF4
330
FE8
100
AcDbEntity
  8
0
 62
   253
370
     0
100
AcDbVertex
100
AcDb2dVertex
 10
140.3847262484891
 20
185.4360788500729
 30
0.0
  0
VERTEX
  5
FF5
330
FE8
100
AcDbEntity
  8
0
 62
   253
370
     0
100
AcDbVertex
100
AcDb2dVertex
 10
141.7689422484891
 20
185.2469608500726
 30
0.0
  0
VERTEX
  5
FF6
330
FE8
100
AcDbEntity
  8
0
 62
   253
370
     0
100
AcDbVertex
100
AcDb2dVertex
 10
143.140036248489
 20
185.1134768500729
 30
0.0
  0
VERTEX
  5
FF7
330
FE8
100
AcDbEntity
  8
0
 62
   253
370
     0
100
AcDbVertex
100
AcDb2dVertex
 10
144.5143042484891
 20
185.0332158500729
 30
0.0
  0
VERTEX
  5
FF8
330
FE8
100
AcDbEntity
  8
0
 62
   253
370
     0
100
AcDbVertex
100
AcDb2dVertex
 10
145.8869232484891
 20
185.0065128500729
 30
0.0
  0
SEQEND
  5
FF9
330
FE8
100
AcDbEntity
  8
0
 62
   253
370
     0
  0
LINE
  5
FFA
330
1F
100
AcDbEntity
  8
0
 62
   253
 48
0.000033
370
    35
100
AcDbLine
 10
127.589804248489
 20
191.3532838500729
 30
0.0
 11
127.5909642484891
 21
191.3526738500728
 31
0.0
  0
ARC
  5
FFB
330
1F
100
AcDbEntity
  8
0
 62
   253
370
    35
100
AcDbCircle
 10
125.9313572484891
 20
188.1495178500727
 30
0.0
 40
3.60719
100
AcDbArc
 50
62.63097000000136
 51
76.01564099999746
  0
ARC
  5
FFC
330
1F
100
AcDbEntity
  8
0
 62
   253
370
    35
100
AcDbCircle
 10
177.8769752484891
 20
184.2975898500729
 30
0.0
 40
6.200150999999999
100
AcDbArc
 50
224.8963859999978
 51
238.2566589999997
  0
ARC
  5
FFD
330
1F
100
AcDbEntity
  8
0
 62
   253
370
    35
100
AcDbCircle
 10
180.8889992484891
 20
187.2985968500729
 30
0.0
 40
10.452045
100
AcDbArc
 50
192.667783
 51
224.8957979999993
  0
LINE
  5
FFE
330
1F
100
AcDbEntity
  8
0
 62
   253
 48
0.001712
370
    35
100
AcDbLine
 10
191.2491672484891
 20
188.3946048500729
 30
0.0
 11
191.2603362484891
 21
188.3270388500729
 31
0.0
  0
LINE
  5
FFF
330
1F
100
AcDbEntity
  8
0
 62
   253
 48
0.000475
370
    35
100
AcDbLine
 10
191.2491672484891
 20
188.4135868500728
 30
0.0
 11
191.2491672484891
 21
188.3946048500729
 31
0.0
  0
LINE
  5
1000
330
1F
100
AcDbEntity
  8
0
 62
   253
 48
0.000035
370
    35
100
AcDbLine
 10
191.2491672484891
 20
188.4135868500728
 30
0.0
 11
191.247763248489
 21
188.4136788500729
 31
0.0
  0
LINE
  5
1001
330
1F
100
AcDbEntity
  8
0
 62
   253
 48
0.000447
370
    35
100
AcDbLine
 10
215.8869232484891
 20
188.4124878500728
 30
0.0
 11
215.8869232484891
 21
188.3946048500729
 31
0.0
  0
LINE
  5
1002
330
1F
100
AcDbEntity
  8
0
 62
   253
 48
0.001154
370
    35
100
AcDbLine
 10
235.3219822484893
 20
191.6892518500729
 30
0.0
 11
235.3681252484892
 21
191.6892518500729
 31
0.0
  0
LINE
  5
1003
330
1F
100
AcDbEntity
  8
0
 62
   253
 48
0.000822
370
    35
100
AcDbLine
 10
235.3219822484893
 20
191.6892518500729
 30
0.0
 11
235.2890842484891
 21
191.6889778500726
 31
0.0
  0
LINE
  5
1004
330
1F
100
AcDbEntity
  8
0
 62
   253
 48
0.016771
370
    35
100
AcDbLine
 10
215.8869232484891
 20
188.3946048500729
 30
0.0
 11
215.8869232484891
 21
187.7237678500726
 31
0.0
  0
LINE
  5
1005
330
1F
100
AcDbEntity
  8
0
 62
   253
 48
0.016769
370
    35
100
AcDbLine
 10
145.8869232484891
 20
188.3946048500729
 30
0.0
 11
145.8869232484891
 21
187.7238288500729
 31
0.0
  0
LINE
  5
1006
330
1F
100
AcDbEntity
  8
0
 62
   253
 48
0.000447
370
    35
100
AcDbLine
 10
145.8869232484891
 20
188.4124878500728
 30
0.0
 11
145.8869232484891
 21
188.3946048500729
 31
0.0
  0
LINE
  5
1007
330
1F
100
AcDbEntity
  8
0
 62
   253
 48
0.001154
370
    35
100
AcDbLine
 10
126.4518652484891
 20
191.6892518500729
 30
0.0
 11
126.405722248489
 21
191.6892518500729
 31
0.0
  0
LINE
  5
1008
330
1F
100
AcDbEntity
  8
0
 62
   253
 48
0.000822
370
    35
100
AcDbLine
 10
126.4518652484891
 20
191.6892518500729
 30
0.0
 11
126.484763248489
 21
191.6889778500726
 31
0.0
  0
LINE
  5
1009
330
1F
100
AcDbEntity
  8
0
 62
   253
370
    35
100
AcDbLine
 10
145.8869232484891
 20
188.4124878500728
 30
0.0
 11
170.192526248489
 21
188.4124878500728
 31
0.0
  0
LINE
  5
100A
330
1F
100
AcDbEntity
  8
0
 62
   253
 48
0.008304
370
    35
100
AcDbLine
 10
191.5813202484891
 20
188.4124878500728
 30
0.0
 11
191.2491672484891
 21
188.4135868500728
 31
0.0
  0
LINE
  5
100B
330
1F
100
AcDbEntity
  8
0
 62
   253
 48
0.008304
370
    35
100
AcDbLine
 10
170.192526248489
 20
188.4124878500728
 30
0.0
 11
170.5246802484891
 21
188.4135868500728
 31
0.0
  0
LINE
  5
100C
330
1F
100
AcDbEntity
  8
0
 62
   253
370
    35
100
AcDbLine
 10
191.5813202484891
 20
188.4124878500728
 30
0.0
 11
215.8869232484891
 21
188.4124878500728
 31
0.0
  0
LINE
  5
100D
330
1F
100
AcDbEntity
  8
0
 62
   253
 48
0.002676
370
    35
100
AcDbLine
 10
235.4751802484891
 20
191.6893438500729
 30
0.0
 11
235.3681252484892
 21
191.6892518500729
 31
0.0
  0
POLYLINE
  5
100E
330
1F
100
AcDbEntity
  8
0
 62
   253
370
    35
100
AcDb2dPolyline
 66
     1
 10
0.0
 20
0.0
 30
0.0
  0
VERTEX
  5
100F
330
100E
100
AcDbEntity
  8
0
 62
   253
370
     0
100
AcDbVertex
100
AcDb2dVertex
 10
235.0431732484892
 20
190.513928850073
 30
0.0
  0
VERTEX
  5
1010
330
100E
100
AcDbEntity
  8
0
 62
   253
370
     0
100
AcDbVertex
100
AcDb2dVertex
 10
235.2589942484891
 20
190.6843998500728
 30
0.0
  0
VERTEX
  5
1011
330
100E
100
AcDbEntity
  8
0
 62
   253
370
     0
100
AcDbVertex
100
AcDb2dVertex
 10
235.3911352484892
 20
190.8280768500729
 30
0.0
  0
VERTEX
  5
1012
330
100E
100
AcDbEntity
  8
0
 62
   253
370
     0
100
AcDbVertex
100
AcDb2dVertex
 10
235.5107642484891
 20
190.9914368500729
 30
0.0
  0
VERTEX
  5
1013
330
100E
100
AcDbEntity
  8
0
 62
   253
370
     0
100
AcDbVertex
100
AcDb2dVertex
 10
235.6047582484892
 20
191.1583378500727
 30
0.0
  0
VERTEX
  5
1014
330
100E
100
AcDbEntity
  8
0
 62
   253
370
     0
100
AcDbVertex
100
AcDb2dVertex
 10
235.6655492484891
 20
191.3209968500729
 30
0.0
  0
VERTEX
  5
1015
330
100E
100
AcDbEntity
  8
0
 62
   253
370
     0
100
AcDbVertex
100
AcDb2dVertex
 10
235.6802582484891
 20
191.3964058500727
 30
0.0
  0
VERTEX
  5
1016
330
100E
100
AcDbEntity
  8
0
 62
   253
370
     0
100
AcDbVertex
100
AcDb2dVertex
 10
235.6819062484891
 20
191.4812748500729
 30
0.0
  0
VERTEX
  5
1017
330
100E
100
AcDbEntity
  8
0
 62
   253
370
     0
100
AcDbVertex
100
AcDb2dVertex
 10
235.668173248489
 20
191.5442938500728
 30
0.0
  0
VERTEX
  5
1018
330
100E
100
AcDbEntity
  8
0
 62
   253
370
     0
100
AcDbVertex
100
AcDb2dVertex
 10
235.5909032484892
 20
191.6445138500727
 30
0.0
  0
SEQEND
  5
1019
330
100E
100
AcDbEntity
  8
0
 62
   253
370
     0
  0
LINE
  5
101A
330
1F
100
AcDbEntity
  8
0
 62
   253
 48
0.002024
370
    35
100
AcDbLine
 10
235.5909032484892
 20
191.6445138500727
 30
0.0
 11
235.5235812484891
 21
191.6894658500729
 31
0.0
  0
LINE
  5
101B
330
1F
100
AcDbEntity
  8
0
 62
   253
 48
0.00121
370
    35
100
AcDbLine
 10
235.4751802484891
 20
191.6893438500729
 30
0.0
 11
235.5235812484891
 21
191.6894658500729
 31
0.0
  0
LINE
  5
101C
330
1F
100
AcDbEntity
  8
0
 62
   253
 48
0.012452
370
    35
100
AcDbLine
 10
236.3869232484892
 20
197.7526068500729
 30
0.0
 11
236.3869232484892
 21
197.2545288500729
 31
0.0
  0
ARC
  5
101D
330
1F
100
AcDbEntity
  8
0
 62
   253
370
    35
100
AcDbCircle
 10
233.8735572484892
 20
193.4792608500726
 30
0.0
 40
2.513238
100
AcDbArc
 50
313.1076270000013
 51
0.0605569999994749
  0
LINE
  5
101E
330
1F
100
AcDbEntity
  8
0
 62
   253
 48
0.094332
370
    35
100
AcDbLine
 10
236.3869232484892
 20
193.4812448500727
 30
0.0
 11
236.3869232484892
 21
197.2545288500729
 31
0.0
  0
POLYLINE
  5
101F
330
1F
100
AcDbEntity
  8
0
 62
   253
370
    35
100
AcDb2dPolyline
 66
     1
 10
0.0
 20
0.0
 30
0.0
  0
VERTEX
  5
1020
330
101F
100
AcDbEntity
  8
0
 62
   253
370
     0
100
AcDbVertex
100
AcDb2dVertex
 10
126.7306732484891
 20
190.5139588500728
 30
0.0
  0
VERTEX
  5
1021
330
101F
100
AcDbEntity
  8
0
 62
   253
370
     0
100
AcDbVertex
100
AcDb2dVertex
 10
126.491171248489
 20
190.7077458500729
 30
0.0
  0
VERTEX
  5
1022
330
101F
100
AcDbEntity
  8
0
 62
   253
370
     0
100
AcDbVertex
100
AcDb2dVertex
 10
126.3603122484891
 20
190.8559088500728
 30
0.0
  0
VERTEX
  5
1023
330
101F
100
AcDbEntity
  8
0
 62
   253
370
     0
100
AcDbVertex
100
AcDb2dVertex
 10
126.2444672484891
 20
191.0207948500728
 30
0.0
  0
VERTEX
  5
1024
330
101F
100
AcDbEntity
  8
0
 62
   253
370
     0
100
AcDbVertex
100
AcDb2dVertex
 10
126.1558442484891
 20
191.1872378500729
 30
0.0
  0
VERTEX
  5
1025
330
101F
100
AcDbEntity
  8
0
 62
   253
370
     0
100
AcDbVertex
100
AcDb2dVertex
 10
126.101645248489
 20
191.3489808500729
 30
0.0
  0
VERTEX
  5
1026
330
101F
100
AcDbEntity
  8
0
 62
   253
370
     0
100
AcDbVertex
100
AcDb2dVertex
 10
126.0902922484891
 20
191.4500858500726
 30
0.0
  0
VERTEX
  5
1027
330
101F
100
AcDbEntity
  8
0
 62
   253
370
     0
100
AcDbVertex
100
AcDb2dVertex
 10
126.0936492484891
 20
191.4955878500729
 30
0.0
  0
VERTEX
  5
1028
330
101F
100
AcDbEntity
  8
0
 62
   253
370
     0
100
AcDbVertex
100
AcDb2dVertex
 10
126.1099462484891
 20
191.5551578500729
 30
0.0
  0
VERTEX
  5
1029
330
101F
100
AcDbEntity
  8
0
 62
   253
370
     0
100
AcDbVertex
100
AcDb2dVertex
 10
126.1829442484891
 20
191.6445138500727
 30
0.0
  0
SEQEND
  5
102A
330
101F
100
AcDbEntity
  8
0
 62
   253
370
     0
  0
LINE
  5
102B
330
1F
100
AcDbEntity
  8
0
 62
   253
 48
0.002678
370
    35
100
AcDbLine
 10
126.2986052484891
 20
191.6893438500729
 30
0.0
 11
126.405722248489
 21
191.6892518500729
 31
0.0
  0
LINE
  5
102C
330
1F
100
AcDbEntity
  8
0
 62
   253
 48
0.001208
370
    35
100
AcDbLine
 10
126.2986052484891
 20
191.6893438500729
 30
0.0
 11
126.2502662484891
 21
191.6894658500729
 31
0.0
  0
LINE
  5
102D
330
1F
100
AcDbEntity
  8
0
 62
   253
 48
0.002024
370
    35
100
AcDbLine
 10
126.1829442484891
 20
191.6445138500727
 30
0.0
 11
126.2502662484891
 21
191.6894658500729
 31
0.0
  0
LINE
  5
102E
330
1F
100
AcDbEntity
  8
0
 62
   253
 48
0.012452
370
    35
100
AcDbLine
 10
125.3869232484891
 20
197.2545288500729
 30
0.0
 11
125.3869232484891
 21
197.7526068500729
 31
0.0
  0
LINE
  5
102F
330
1F
100
AcDbEntity
  8
0
 62
   253
 48
0.094332
370
    35
100
AcDbLine
 10
125.3869232484891
 20
193.4812448500727
 30
0.0
 11
125.3869232484891
 21
197.2545288500729
 31
0.0
  0
ARC
  5
1030
330
1F
100
AcDbEntity
  8
0
 62
   253
370
    35
100
AcDbCircle
 10
127.9002902484891
 20
193.4792608500726
 30
0.0
 40
2.513238
100
AcDbArc
 50
179.9394489999993
 51
226.8922759999995
  0
LINE
  5
1031
330
1F
100
AcDbEntity
  8
0
 62
   253
 48
0.005013
370
    35
100
AcDbLine
 10
126.2502662484891
 20
191.6894658500729
 30
0.0
 11
126.450766248489
 21
191.6901678500729
 31
0.0
  0
LINE
  5
1032
330
1F
100
AcDbEntity
  8
0
 62
   253
 48
0.003484
370
    35
100
AcDbLine
 10
126.6665252484891
 20
191.6777778500729
 30
0.0
 11
126.8029392484891
 21
191.6493348500726
 31
0.0
  0
ARC
  5
1033
330
1F
100
AcDbEntity
  8
0
 62
   253
370
    35
100
AcDbCircle
 10
126.440146248489
 20
189.5147828500729
 30
0.0
 40
2.174854999999999
100
AcDbArc
 50
84.02470700000073
 51
88.82365999999695
  0
LINE
  5
1034
330
1F
100
AcDbEntity
  8
0
 62
   253
 48
0.000036
370
    35
100
AcDbLine
 10
126.450766248489
 20
191.6901678500729
 30
0.0
 11
126.4518652484891
 21
191.6892518500729
 31
0.0
  0
ARC
  5
1035
330
1F
100
AcDbEntity
  8
0
 62
   253
370
    35
100
AcDbCircle
 10
235.3337012484891
 20
189.5147528500728
 30
0.0
 40
2.174881999999999
100
AcDbArc
 50
91.17651599999822
 51
95.97558500000069
  0
LINE
  5
1036
330
1F
100
AcDbEntity
  8
0
 62
   253
 48
0.003484
370
    35
100
AcDbLine
 10
235.1073212484891
 20
191.6777778500729
 30
0.0
 11
234.9709082484892
 21
191.6493348500726
 31
0.0
  0
LINE
  5
1037
330
1F
100
AcDbEntity
  8
0
 62
   253
 48
0.000036
370
    35
100
AcDbLine
 10
235.3219822484893
 20
191.6892518500729
 30
0.0
 11
235.3230812484891
 21
191.6901678500729
 31
0.0
  0
ARC
  5
1038
330
1F
100
AcDbEntity
  8
0
 62
   253
370
    35
100
AcDbCircle
 10
144.2533172484891
 20
2117.105999850073
 30
0.0
 40
1919.348851
100
AcDbArc
 50
269.4764499999987
 51
269.7952350000003
  0
ARC
  5
1039
330
1F
100
AcDbEntity
  8
0
 62
   253
370
    35
100
AcDbCircle
 10
126.935935248489
 20
240.6108218500729
 30
0.0
 40
42.773528
100
AcDbArc
 50
268.2334029999989
 51
269.7042159999971
  0
POLYLINE
  5
103A
330
1F
100
AcDbEntity
  8
0
 62
   253
370
    35
100
AcDb2dPolyline
 66
     1
 10
0.0
 20
0.0
 30
0.0
  0
VERTEX
  5
103B
330
103A
100
AcDbEntity
  8
0
 62
   253
370
     0
100
AcDbVertex
100
AcDb2dVertex
 10
137.3939422484891
 20
197.7692688500729
 30
0.0
  0
VERTEX
  5
103C
330
103A
100
AcDbEntity
  8
0
 62
   253
370
     0
100
AcDbVertex
100
AcDb2dVertex
 10
140.5591652484891
 20
197.7327698500728
 30
0.0
  0
VERTEX
  5
103D
330
103A
100
AcDbEntity
  8
0
 62
   253
370
     0
100
AcDbVertex
100
AcDb2dVertex
 10
144.818930248489
 20
197.6832708500729
 30
0.0
  0
VERTEX
  5
103E
330
103A
100
AcDbEntity
  8
0
 62
   253
370
     0
100
AcDbVertex
100
AcDb2dVertex
 10
145.8869232484891
 20
197.6807678500725
 30
0.0
  0
SEQEND
  5
103F
330
103A
100
AcDbEntity
  8
0
 62
   253
370
     0
  0
LINE
  5
1040
330
1F
100
AcDbEntity
  8
0
 62
   253
370
    35
100
AcDbLine
 10
176.383444248489
 20
197.680737850073
 30
0.0
 11
145.8869232484891
 21
197.6807678500725
 31
0.0
  0
POLYLINE
  5
1041
330
1F
100
AcDbEntity
  8
0
 62
   253
370
    35
100
AcDb2dPolyline
 66
     1
 10
0.0
 20
0.0
 30
0.0
  0
VERTEX
  5
1042
330
1041
100
AcDbEntity
  8
0
 62
   253
370
     0
100
AcDbVertex
100
AcDb2dVertex
 10
176.383444248489
 20
197.680737850073
 30
0.0
  0
VERTEX
  5
1043
330
1041
100
AcDbEntity
  8
0
 62
   253
370
     0
100
AcDbVertex
100
AcDb2dVertex
 10
177.796408248489
 20
197.7050908500729
 30
0.0
  0
VERTEX
  5
1044
330
1041
100
AcDbEntity
  8
0
 62
   253
370
     0
100
AcDbVertex
100
AcDb2dVertex
 10
180.012106248489
 20
197.758770850073
 30
0.0
  0
VERTEX
  5
1045
330
1041
100
AcDbEntity
  8
0
 62
   253
370
     0
100
AcDbVertex
100
AcDb2dVertex
 10
182.1979582484891
 20
197.7516298500728
 30
0.0
  0
VERTEX
  5
1046
330
1041
100
AcDbEntity
  8
0
 62
   253
370
     0
100
AcDbVertex
100
AcDb2dVertex
 10
184.4383762484891
 20
197.6932808500727
 30
0.0
  0
VERTEX
  5
1047
330
1041
100
AcDbEntity
  8
0
 62
   253
370
     0
100
AcDbVertex
100
AcDb2dVertex
 10
185.390402248489
 20
197.680737850073
 30
0.0
  0
SEQEND
  5
1048
330
1041
100
AcDbEntity
  8
0
 62
   253
370
     0
  0
LINE
  5
1049
330
1F
100
AcDbEntity
  8
0
 62
   253
370
    35
100
AcDbLine
 10
215.8869232484891
 20
197.680737850073
 30
0.0
 11
185.390402248489
 21
197.680737850073
 31
0.0
  0
POLYLINE
  5
104A
330
1F
100
AcDbEntity
  8
0
 62
   253
370
    35
100
AcDb2dPolyline
 66
     1
 10
0.0
 20
0.0
 30
0.0
  0
VERTEX
  5
104B
330
104A
100
AcDbEntity
  8
0
 62
   253
370
     0
100
AcDbVertex
100
AcDb2dVertex
 10
215.8869232484891
 20
197.680737850073
 30
0.0
  0
VERTEX
  5
104C
330
104A
100
AcDbEntity
  8
0
 62
   253
370
     0
100
AcDbVertex
100
AcDb2dVertex
 10
219.798422248489
 20
197.7115298500729
 30
0.0
  0
VERTEX
  5
104D
330
104A
100
AcDbEntity
  8
0
 62
   253
370
     0
100
AcDbVertex
100
AcDb2dVertex
 10
223.3288792484891
 20
197.7616098500729
 30
0.0
  0
VERTEX
  5
104E
330
104A
100
AcDbEntity
  8
0
 62
   253
370
     0
100
AcDbVertex
100
AcDb2dVertex
 10
224.3799042484891
 20
197.7692688500729
 30
0.0
  0
SEQEND
  5
104F
330
104A
100
AcDbEntity
  8
0
 62
   253
370
     0
  0
ARC
  5
1050
330
1F
100
AcDbEntity
  8
0
 62
   253
370
    35
100
AcDbCircle
 10
234.8391332484891
 20
240.535565850073
 30
0.0
 40
42.698279
100
AcDbArc
 50
270.2946519999978
 51
271.7693030000012
  0
ARC
  5
1051
330
1F
100
AcDbEntity
  8
0
 62
   253
370
    35
100
AcDbCircle
 10
217.5190032484891
 20
2117.319134850073
 30
0.0
 40
1919.562071
100
AcDbArc
 50
270.2047870000016
 51
270.523537999998
  0
POLYLINE
  5
1052
330
1F
100
AcDbEntity
  8
0
 62
   253
370
    35
100
AcDb2dPolyline
 66
     1
 10
0.0
 20
0.0
 30
0.0
  0
VERTEX
  5
1053
330
1052
100
AcDbEntity
  8
0
 62
   253
370
     0
100
AcDbVertex
100
AcDb2dVertex
 10
215.8869232484891
 20
188.4125798500728
 30
0.0
  0
VERTEX
  5
1054
330
1052
100
AcDbEntity
  8
0
 62
   253
370
     0
100
AcDbVertex
100
AcDb2dVertex
 10
217.9775612484891
 20
188.449353850073
 30
0.0
  0
VERTEX
  5
1055
330
1052
100
AcDbEntity
  8
0
 62
   253
370
     0
100
AcDbVertex
100
AcDb2dVertex
 10
220.0457372484891
 20
188.5583928500729
 30
0.0
  0
VERTEX
  5
1056
330
1052
100
AcDbEntity
  8
0
 62
   253
370
     0
100
AcDbVertex
100
AcDb2dVertex
 10
222.0798552484891
 20
188.7360968500729
 30
0.0
  0
VERTEX
  5
1057
330
1052
100
AcDbEntity
  8
0
 62
   253
370
     0
100
AcDbVertex
100
AcDb2dVertex
 10
224.0833962484892
 20
188.9793218500729
 30
0.0
  0
VERTEX
  5
1058
330
1052
100
AcDbEntity
  8
0
 62
   253
370
     0
100
AcDbVertex
100
AcDb2dVertex
 10
226.0766822484892
 20
189.2880068500728
 30
0.0
  0
VERTEX
  5
1059
330
1052
100
AcDbEntity
  8
0
 62
   253
370
     0
100
AcDbVertex
100
AcDb2dVertex
 10
228.0724092484891
 20
189.6628548500729
 30
0.0
  0
VERTEX
  5
105A
330
1052
100
AcDbEntity
  8
0
 62
   253
370
     0
100
AcDbVertex
100
AcDb2dVertex
 10
230.213767248489
 20
190.1380128500728
 30
0.0
  0
VERTEX
  5
105B
330
1052
100
AcDbEntity
  8
0
 62
   253
370
     0
100
AcDbVertex
100
AcDb2dVertex
 10
231.5167452484891
 20
190.4672978500729
 30
0.0
  0
VERTEX
  5
105C
330
1052
100
AcDbEntity
  8
0
 62
   253
370
     0
100
AcDbVertex
100
AcDb2dVertex
 10
232.4263522484892
 20
190.7213568500728
 30
0.0
  0
VERTEX
  5
105D
330
1052
100
AcDbEntity
  8
0
 62
   253
370
     0
100
AcDbVertex
100
AcDb2dVertex
 10
233.2335422484891
 20
190.9742258500729
 30
0.0
  0
VERTEX
  5
105E
330
1052
100
AcDbEntity
  8
0
 62
   253
370
     0
100
AcDbVertex
100
AcDb2dVertex
 10
233.601218248489
 20
191.1044138500729
 30
0.0
  0
VERTEX
  5
105F
330
1052
100
AcDbEntity
  8
0
 62
   253
370
     0
100
AcDbVertex
100
AcDb2dVertex
 10
233.9211642484892
 20
191.2315498500729
 30
0.0
  0
VERTEX
  5
1060
330
1052
100
AcDbEntity
  8
0
 62
   253
370
     0
100
AcDbVertex
100
AcDb2dVertex
 10
234.1827002484891
 20
191.3525818500729
 30
0.0
  0
SEQEND
  5
1061
330
1052
100
AcDbEntity
  8
0
 62
   253
370
     0
  0
POLYLINE
  5
1062
330
1F
100
AcDbEntity
  8
0
 62
   253
370
    35
100
AcDb2dPolyline
 66
     1
 10
0.0
 20
0.0
 30
0.0
  0
VERTEX
  5
1063
330
1062
100
AcDbEntity
  8
0
 62
   253
370
     0
100
AcDbVertex
100
AcDb2dVertex
 10
127.5911472484891
 20
191.3525818500729
 30
0.0
  0
VERTEX
  5
1064
330
1062
100
AcDbEntity
  8
0
 62
   253
370
     0
100
AcDbVertex
100
AcDb2dVertex
 10
127.8526832484891
 20
191.2315498500729
 30
0.0
  0
VERTEX
  5
1065
330
1062
100
AcDbEntity
  8
0
 62
   253
370
     0
100
AcDbVertex
100
AcDb2dVertex
 10
128.172629248489
 20
191.1044138500729
 30
0.0
  0
VERTEX
  5
1066
330
1062
100
AcDbEntity
  8
0
 62
   253
370
     0
100
AcDbVertex
100
AcDb2dVertex
 10
128.9352022484891
 20
190.8461738500728
 30
0.0
  0
VERTEX
  5
1067
330
1062
100
AcDbEntity
  8
0
 62
   253
370
     0
100
AcDbVertex
100
AcDb2dVertex
 10
129.7710182484889
 20
190.5999578500729
 30
0.0
  0
VERTEX
  5
1068
330
1062
100
AcDbEntity
  8
0
 62
   253
370
     0
100
AcDbVertex
100
AcDb2dVertex
 10
131.153525248489
 20
190.2371338500729
 30
0.0
  0
VERTEX
  5
1069
330
1062
100
AcDbEntity
  8
0
 62
   253
370
     0
100
AcDbVertex
100
AcDb2dVertex
 10
133.0384742484891
 20
189.8018008500726
 30
0.0
  0
VERTEX
  5
106A
330
1062
100
AcDbEntity
  8
0
 62
   253
370
     0
100
AcDbVertex
100
AcDb2dVertex
 10
135.0318822484891
 20
189.405682850073
 30
0.0
  0
VERTEX
  5
106B
330
1062
100
AcDbEntity
  8
0
 62
   253
370
     0
100
AcDbVertex
100
AcDb2dVertex
 10
137.026816248489
 20
189.0747498500728
 30
0.0
  0
VERTEX
  5
106C
330
1062
100
AcDbEntity
  8
0
 62
   253
370
     0
100
AcDbVertex
100
AcDb2dVertex
 10
139.023947248489
 20
188.8099188500728
 30
0.0
  0
VERTEX
  5
106D
330
1062
100
AcDbEntity
  8
0
 62
   253
370
     0
100
AcDbVertex
100
AcDb2dVertex
 10
141.0467742484891
 20
188.6101198500726
 30
0.0
  0
VERTEX
  5
106E
330
1062
100
AcDbEntity
  8
0
 62
   253
370
     0
100
AcDbVertex
100
AcDb2dVertex
 10
143.104331248489
 20
188.4777958500729
 30
0.0
  0
VERTEX
  5
106F
330
1062
100
AcDbEntity
  8
0
 62
   253
370
     0
100
AcDbVertex
100
AcDb2dVertex
 10
145.1893532484891
 20
188.4166388500729
 30
0.0
  0
VERTEX
  5
1070
330
1062
100
AcDbEntity
  8
0
 62
   253
370
     0
100
AcDbVertex
100
AcDb2dVertex
 10
145.8869232484891
 20
188.4125798500728
 30
0.0
  0
SEQEND
  5
1071
330
1062
100
AcDbEntity
  8
0
 62
   253
370
     0
  0
LINE
  5
1072
330
1F
100
AcDbEntity
  8
0
 62
   253
370
    35
100
AcDbLine
 10
145.8869232484891
 20
188.4125798500728
 30
0.0
 11
170.192526248489
 21
188.4125798500728
 31
0.0
  0
LINE
  5
1073
330
1F
100
AcDbEntity
  8
0
 62
   253
 48
0.008339
370
    35
100
AcDbLine
 10
191.247763248489
 20
188.4136788500729
 30
0.0
 11
191.5813202484891
 21
188.4125798500728
 31
0.0
  0
LINE
  5
1074
330
1F
100
AcDbEntity
  8
0
 62
   253
 48
0.008339
370
    35
100
AcDbLine
 10
170.5260832484891
 20
188.4136788500729
 30
0.0
 11
170.192526248489
 21
188.4125798500728
 31
0.0
  0
LINE
  5
1075
330
1F
100
AcDbEntity
  8
0
 62
   253
370
    35
100
AcDbLine
 10
191.5813202484891
 20
188.4125798500728
 30
0.0
 11
215.8869232484891
 21
188.4125798500728
 31
0.0
  0
ARC
  5
1076
330
1F
100
AcDbEntity
  8
0
 62
     7
370
    35
100
AcDbCircle
 10
324.874106248489
 20
-127.1661251499271
 30
0.0
 40
16.0
100
AcDbArc
 50
269.9999970000023
 51
0.0
  0
LINE
  5
1077
330
1F
100
AcDbEntity
  8
0
 62
     7
370
    35
100
AcDbLine
 10
36.87410624848904
 20
-143.1661251499271
 30
0.0
 11
324.874106248489
 21
-143.1661251499271
 31
0.0
  0
ARC
  5
1078
330
1F
100
AcDbEntity
  8
0
 62
     7
370
    35
100
AcDbCircle
 10
36.87410624848904
 20
-127.1661251499271
 30
0.0
 40
16.0
100
AcDbArc
 50
179.9999949999995
 51
269.9999970000023
  0
LINE
  5
1079
330
1F
100
AcDbEntity
  8
0
 62
     7
370
    35
100
AcDbLine
 10
20.87410624848903
 20
350.8339058500727
 30
0.0
 11
20.87410624848903
 21
-127.1661251499271
 31
0.0
  0
ARC
  5
107A
330
1F
100
AcDbEntity
  8
0
 62
     7
370
    35
100
AcDbCircle
 10
36.87410624848904
 20
350.8339058500727
 30
0.0
 40
16.0
100
AcDbArc
 50
157.0910590000021
 51
180.0000050000005
  0
ARC
  5
107B
330
1F
100
AcDbEntity
  8
0
 62
     7
370
    35
100
AcDbCircle
 10
324.874106248489
 20
350.8339058500727
 30
0.0
 40
16.0
100
AcDbArc
 50
0.0
 51
22.90894799999975
  0
LINE
  5
107C
330
1F
100
AcDbEntity
  8
0
 62
     7
 48
0.155707
370
    35
100
AcDbLine
 10
340.8741062484889
 20
-120.9378381499271
 30
0.0
 11
340.8741062484889
 21
-127.1661251499271
 31
0.0
  0
LINE
  5
107D
330
1F
100
AcDbEntity
  8
0
 62
     7
 48
0.311414
370
    35
100
AcDbLine
 10
340.8741062484889
 20
148.0621768500729
 30
0.0
 11
340.8741062484889
 21
135.605603850073
 31
0.0
  0
LINE
  5
107E
330
1F
100
AcDbEntity
  8
0
 62
     7
 48
0.155708
370
    35
100
AcDbLine
 10
340.8741062484889
 20
350.8339058500727
 30
0.0
 11
340.8741062484889
 21
344.6055728500728
 31
0.0
  0
CIRCLE
  5
107F
330
1F
100
AcDbEntity
  8
0
 62
     7
370
    35
100
AcDbCircle
 10
36.87410624848904
 20
-127.1661251499271
 30
0.0
 40
4.883901999999999
  0
LINE
  5
1080
330
1F
100
AcDbEntity
  8
0
 62
     7
 48
0.05
370
    35
100
AcDbLine
 10
35.87410624848903
 20
-122.6661251499271
 30
0.0
 11
37.87410624848905
 21
-122.6661251499271
 31
0.0
  0
LINE
  5
1081
330
1F
100
AcDbEntity
  8
0
 62
     7
 48
0.225
370
    35
100
AcDbLine
 10
35.87410624848903
 20
-122.6661251499271
 30
0.0
 11
35.87410624848903
 21
-131.6661251499271
 31
0.0
  0
LINE
  5
1082
330
1F
100
AcDbEntity
  8
0
 62
     7
 48
0.05
370
    35
100
AcDbLine
 10
37.87410624848905
 20
-131.6661251499271
 30
0.0
 11
35.87410624848903
 21
-131.6661251499271
 31
0.0
  0
LINE
  5
1083
330
1F
100
AcDbEntity
  8
0
 62
     7
 48
0.225
370
    35
100
AcDbLine
 10
37.87410624848905
 20
-131.6661251499271
 30
0.0
 11
37.87410624848905
 21
-122.6661251499271
 31
0.0
  0
CIRCLE
  5
1084
330
1F
100
AcDbEntity
  8
0
 62
     7
370
    35
100
AcDbCircle
 10
324.874106248489
 20
-127.1661251499271
 30
0.0
 40
4.883901999999999
  0
LINE
  5
1085
330
1F
100
AcDbEntity
  8
0
 62
     7
 48
0.05
370
    35
100
AcDbLine
 10
323.8741062484891
 20
-122.6661251499271
 30
0.0
 11
325.8741062484891
 21
-122.6661251499271
 31
0.0
  0
LINE
  5
1086
330
1F
100
AcDbEntity
  8
0
 62
     7
 48
0.225
370
    35
100
AcDbLine
 10
323.8741062484891
 20
-122.6661251499271
 30
0.0
 11
323.8741062484891
 21
-131.6661251499271
 31
0.0
  0
LINE
  5
1087
330
1F
100
AcDbEntity
  8
0
 62
     7
 48
0.05
370
    35
100
AcDbLine
 10
325.8741062484891
 20
-131.6661251499271
 30
0.0
 11
323.8741062484891
 21
-131.6661251499271
 31
0.0
  0
LINE
  5
1088
330
1F
100
AcDbEntity
  8
0
 62
     7
 48
0.225
370
    35
100
AcDbLine
 10
325.8741062484891
 20
-131.6661251499271
 30
0.0
 11
325.8741062484891
 21
-122.6661251499271
 31
0.0
  0
CIRCLE
  5
1089
330
1F
100
AcDbEntity
  8
0
 62
     7
370
    35
100
AcDbCircle
 10
324.874106248489
 20
141.8338748500729
 30
0.0
 40
4.883901999999999
  0
LINE
  5
108A
330
1F
100
AcDbEntity
  8
0
 62
     7
 48
0.05
370
    35
100
AcDbLine
 10
323.8741062484891
 20
146.3338748500729
 30
0.0
 11
325.8741062484891
 21
146.3338748500729
 31
0.0
  0
LINE
  5
108B
330
1F
100
AcDbEntity
  8
0
 62
     7
 48
0.225
370
    35
100
AcDbLine
 10
323.8741062484891
 20
146.3338748500729
 30
0.0
 11
323.8741062484891
 21
137.3338748500729
 31
0.0
  0
LINE
  5
108C
330
1F
100
AcDbEntity
  8
0
 62
     7
 48
0.05
370
    35
100
AcDbLine
 10
325.8741062484891
 20
137.3338748500729
 30
0.0
 11
323.8741062484891
 21
137.3338748500729
 31
0.0
  0
LINE
  5
108D
330
1F
100
AcDbEntity
  8
0
 62
     7
 48
0.225
370
    35
100
AcDbLine
 10
325.8741062484891
 20
137.3338748500729
 30
0.0
 11
325.8741062484891
 21
146.3338748500729
 31
0.0
  0
CIRCLE
  5
108E
330
1F
100
AcDbEntity
  8
0
 62
     7
370
    35
100
AcDbCircle
 10
36.87410624848904
 20
141.8338748500729
 30
0.0
 40
4.883901999999999
  0
LINE
  5
108F
330
1F
100
AcDbEntity
  8
0
 62
     7
 48
0.05
370
    35
100
AcDbLine
 10
35.87410624848903
 20
146.3338748500729
 30
0.0
 11
37.87410624848905
 21
146.3338748500729
 31
0.0
  0
LINE
  5
1090
330
1F
100
AcDbEntity
  8
0
 62
     7
 48
0.225
370
    35
100
AcDbLine
 10
35.87410624848903
 20
146.3338748500729
 30
0.0
 11
35.87410624848903
 21
137.3338748500729
 31
0.0
  0
LINE
  5
1091
330
1F
100
AcDbEntity
  8
0
 62
     7
 48
0.05
370
    35
100
AcDbLine
 10
37.87410624848905
 20
137.3338748500729
 30
0.0
 11
35.87410624848903
 21
137.3338748500729
 31
0.0
  0
LINE
  5
1092
330
1F
100
AcDbEntity
  8
0
 62
     7
 48
0.225
370
    35
100
AcDbLine
 10
37.87410624848905
 20
137.3338748500729
 30
0.0
 11
37.87410624848905
 21
146.3338748500729
 31
0.0
  0
CIRCLE
  5
1093
330
1F
100
AcDbEntity
  8
0
 62
     7
370
    35
100
AcDbCircle
 10
36.87410624848904
 20
350.8339058500727
 30
0.0
 40
4.883901999999999
  0
LINE
  5
1094
330
1F
100
AcDbEntity
  8
0
 62
     7
 48
0.05
370
    35
100
AcDbLine
 10
35.87410624848903
 20
355.3339058500727
 30
0.0
 11
37.87410624848905
 21
355.3339058500727
 31
0.0
  0
LINE
  5
1095
330
1F
100
AcDbEntity
  8
0
 62
     7
 48
0.225
370
    35
100
AcDbLine
 10
35.87410624848903
 20
355.3339058500727
 30
0.0
 11
35.87410624848903
 21
346.3339058500727
 31
0.0
  0
LINE
  5
1096
330
1F
100
AcDbEntity
  8
0
 62
     7
 48
0.05
370
    35
100
AcDbLine
 10
37.87410624848905
 20
346.3339058500727
 30
0.0
 11
35.87410624848903
 21
346.3339058500727
 31
0.0
  0
LINE
  5
1097
330
1F
100
AcDbEntity
  8
0
 62
     7
 48
0.225
370
    35
100
AcDbLine
 10
37.87410624848905
 20
346.3339058500727
 30
0.0
 11
37.87410624848905
 21
355.3339058500727
 31
0.0
  0
CIRCLE
  5
1098
330
1F
100
AcDbEntity
  8
0
 62
     7
370
    35
100
AcDbCircle
 10
324.874106248489
 20
350.8339058500727
 30
0.0
 40
4.883901999999999
  0
LINE
  5
1099
330
1F
100
AcDbEntity
  8
0
 62
     7
 48
0.05
370
    35
100
AcDbLine
 10
323.8741062484891
 20
355.3339058500727
 30
0.0
 11
325.8741062484891
 21
355.3339058500727
 31
0.0
  0
LINE
  5
109A
330
1F
100
AcDbEntity
  8
0
 62
     7
 48
0.225
370
    35
100
AcDbLine
 10
323.8741062484891
 20
355.3339058500727
 30
0.0
 11
323.8741062484891
 21
346.3339058500727
 31
0.0
  0
LINE
  5
109B
330
1F
100
AcDbEntity
  8
0
 62
     7
 48
0.05
370
    35
100
AcDbLine
 10
325.8741062484891
 20
346.3339058500727
 30
0.0
 11
323.8741062484891
 21
346.3339058500727
 31
0.0
  0
LINE
  5
109C
330
1F
100
AcDbEntity
  8
0
 62
     7
 48
0.225
370
    35
100
AcDbLine
 10
325.8741062484891
 20
346.3339058500727
 30
0.0
 11
325.8741062484891
 21
355.3339058500727
 31
0.0
  0
LINE
  5
11F2
330
1F
100
AcDbEntity
  8
0
 62
     7
100
AcDbLine
 10
54.87410624848894
 20
274.3339058500727
 30
0.000000000000007
 11
306.8741062484889
 21
274.3339058500727
 31
0.000000000000007
  0
LINE
  5
11F3
330
1F
100
AcDbEntity
  8
0
 62
     7
100
AcDbLine
 10
306.8741062484889
 20
274.3339058500727
 30
0.000000000000007
 11
306.8741062484889
 21
229.333905850073
 31
0.000000000000007
  0
LINE
  5
11F4
330
1F
100
AcDbEntity
  8
0
 62
     7
100
AcDbLine
 10
306.8741062484889
 20
229.333905850073
 30
0.000000000000007
 11
54.87410624848894
 21
229.333905850073
 31
0.000000000000007
  0
LINE
  5
11F5
330
1F
100
AcDbEntity
  8
0
 62
     7
100
AcDbLine
 10
54.87410624848894
 20
229.333905850073
 30
0.000000000000007
 11
54.87410624848894
 21
274.3339058500727
 31
0.000000000000007
  0
LINE
  5
29EA
330
1F
100
AcDbEntity
  8
0
  6
Continuous
 62
     2
100
AcDbLine
 10
70.88302080295426
 20
-143.1661251499271
 30
-0.0000000000000034
 11
70.88302080295426
 21
-143.1661251499271
 31
-0.0000000000000034
  0
LINE
  5
2A11
330
1F
100
AcDbEntity
  8
0
 62
     2
100
AcDbLine
 10
70.88302080295426
 20
-143.1661251499271
 30
-0.0000000000000034
 11
70.88302080295426
 21
-143.1661251499271
 31
-0.0000000000000034
  0
DIMENSION
  5
2D21
330
1F
100
AcDbEntity
  8
QUOTE
 62
     7
100
AcDbDimension
  2
*D4
 10
-1.17673350028394
 20
-143.1661251499271
 30
0.0
 11
-1.176733500283902
 21
111.5008172360221
 31
0.0
 70
   160
 71
     5
 42
510.0000309999998
  3
Standard
100
AcDbAlignedDimension
 13
36.87410624848904
 23
366.8339058500728
 33
0.0
 14
36.93660624848905
 24
-143.1661251499271
 34
0.0
 50
90.0
100
AcDbRotatedDimension
1001
ACAD
1000
DSTYLE
1002
{
1070
    45
1040
1.0
1070
   178
1070
     7
1070
   177
1070
     7
1070
   176
1070
     7
1070
    78
1070
     8
1070
   285
1070
     8
1070
   148
1040
0.0
1070
   170
1070
     0
1070
    74
1070
     1
1070
    77
1070
     0
1070
   280
1070
     0
1070
   140
1040
10.0
1070
    41
1040
15.0
1002
}
  0
DIMENSION
  5
2D22
330
1F
100
AcDbEntity
  8
QUOTE
 62
     7
100
AcDbDimension
  2
*D5
 10
20.87410624848903
 20
-161.1258157480481
 30
0.0
 11
181.0591086141403
 21
-161.1258157480481
 31
0.0
 70
   160
 71
     5
 42
319.9999999999999
  3
Standard
100
AcDbAlignedDimension
 13
340.8741062484889
 23
-127.1684954822719
 33
0.0
 14
20.87410624848903
 24
-127.1036251499271
 34
0.0
100
AcDbRotatedDimension
1001
ACAD
1000
DSTYLE
1002
{
1070
   280
1070
     0
1070
    78
1070
     8
1070
    45
1040
1.0
1070
    74
1070
     0
1070
   140
1040
10.0
1070
   178
1070
     7
1070
   177
1070
     7
1070
   176
1070
     7
1070
    41
1040
15.0
1002
}
  0
TEXT
  5
2DAA
330
1F
100
AcDbEntity
  8
0
 62
     7
100
AcDbText
 10
49.83027407833699
 20
348.3201051106188
 30
0.0
 40
5.0
  1
GW68008N
 72
     1
 11
68.99694074500366
 21
348.3201051106188
 31
0.0
100
AcDbText
  0
ENDSEC
  0
SECTION
  2
OBJECTS
  0
DICTIONARY
  5
C
330
0
100
AcDbDictionary
281
     1
  3
ACAD_COLOR
350
73
  3
ACAD_GROUP
350
D
  3
ACAD_LAYOUT
350
1A
  3
ACAD_MATERIAL
350
72
  3
ACAD_MLEADERSTYLE
350
D7
  3
ACAD_MLINESTYLE
350
17
  3
ACAD_PLOTSETTINGS
350
19
  3
ACAD_PLOTSTYLENAME
350
E
  3
ACAD_SCALELIST
350
B6
  3
ACAD_TABLESTYLE
350
86
  3
ACAD_VISUALSTYLE
350
99
  3
ACDB_RECOMPOSE_DATA
350
FF
  3
AcDbVariableDictionary
350
66
  3
AEC_PROPERTY_SET_DEFS
350
8F6
  3
DWGPROPS
350
2DBD
  0
DICTIONARY
  5
11DD
330
2
100
AcDbDictionary
280
     1
281
     1
  3
ACAD_LAYERFILTERS
360
2CA8
  3
ACAD_LAYERSTATES
360
2D1A
  3
ACLYDICTIONARY
360
2CA7
  0
DICTIONARY
  5
E6
330
10
100
AcDbDictionary
280
     1
281
     1
  3
ADSK_XREC_LAYER_RECONCILED
360
135A
  0
DICTIONARY
  5
135B
330
11DB
100
AcDbDictionary
280
     1
281
     1
  3
ADSK_XREC_LAYER_RECONCILED
360
135C
  0
DICTIONARY
  5
120C
330
120B
100
AcDbDictionary
280
     1
281
     1
  3
ADSK_XREC_LAYER_RECONCILED
360
135D
  0
DICTIONARY
  5
1379
330
1378
100
AcDbDictionary
280
     1
281
     1
  0
DICTIONARY
  5
137B
330
137A
100
AcDbDictionary
280
     1
281
     1
  0
DICTIONARY
  5
73
102
{ACAD_REACTORS
330
C
102
}
330
C
100
AcDbDictionary
281
     1
  0
DICTIONARY
  5
D
102
{ACAD_REACTORS
330
C
102
}
330
C
100
AcDbDictionary
281
     1
  3
*A1
350
2108
  3
*A2
350
284D
  3
*A3
350
28B4
  0
DICTIONARY
  5
1A
102
{ACAD_REACTORS
330
C
102
}
330
C
100
AcDbDictionary
281
     1
  3
Layout1
350
59
  3
Layout2
350
5E
  3
Model
350
22
  0
DICTIONARY
  5
72
102
{ACAD_REACTORS
330
C
102
}
330
C
100
AcDbDictionary
281
     1
  3
ByBlock
350
97
  3
ByLayer
350
96
  3
Global
350
98
  0
DICTIONARY
  5
D7
102
{ACAD_REACTORS
330
C
102
}
330
C
100
AcDbDictionary
281
     1
  3
Annotativa
350
E5
  3
Standard
350
D8
  0
DICTIONARY
  5
17
102
{ACAD_REACTORS
330
C
102
}
330
C
100
AcDbDictionary
281
     1
  3
Standard
350
18
  0
DICTIONARY
  5
19
102
{ACAD_REACTORS
330
C
102
}
330
C
100
AcDbDictionary
281
     1
  0
ACDBDICTIONARYWDFLT
  5
E
102
{ACAD_REACTORS
330
C
102
}
330
C
100
AcDbDictionary
281
     1
  3
Normal
350
F
100
AcDbDictionaryWithDefault
340
F
  0
DICTIONARY
  5
B6
102
{ACAD_REACTORS
330
C
102
}
330
C
100
AcDbDictionary
281
     1
  3
A0
350
B7
  3
A1
350
124
  3
A2
350
125
  3
A3
350
126
  3
A4
350
127
  3
A5
350
128
  3
A6
350
129
  3
A7
350
12A
  3
A8
350
12B
  3
A9
350
12C
  3
B0
350
12D
  3
B1
350
12E
  3
B2
350
12F
  3
B3
350
130
  3
B4
350
131
  3
B5
350
132
  3
B6
350
133
  3
B7
350
134
  3
B8
350
135
  3
B9
350
136
  3
C0
350
137
  3
C1
350
138
  3
C2
350
139
  3
C3
350
13A
  3
C4
350
13B
  3
C5
350
13C
  3
C6
350
13D
  3
C7
350
13E
  3
C8
350
13F
  3
C9
350
140
  3
D0
350
141
  3
D1
350
142
  3
D2
350
143
  0
DICTIONARY
  5
86
102
{ACAD_REACTORS
330
C
102
}
330
C
100
AcDbDictionary
281
     1
  3
Standard
350
87
  0
DICTIONARY
  5
99
102
{ACAD_REACTORS
330
C
102
}
330
C
100
AcDbDictionary
281
     1
  3
2dWireframe
350
9F
  3
3D Hidden
350
A1
  3
3dWireframe
350
A0
  3
Basic
350
9E
  3
Brighten
350
A5
  3
ColorChange
350
A9
  3
Conceptual
350
A2
  3
Dim
350
A4
  3
Facepattern
350
A8
  3
Flat
350
9A
  3
FlatWithEdges
350
9B
  3
Gouraud
350
9C
  3
GouraudWithEdges
350
9D
  3
Linepattern
350
A7
  3
Realistic
350
A3
  3
Thicken
350
A6
  0
XRECORD
  5
FF
102
{ACAD_REACTORS
330
C
102
}
330
C
100
AcDbXrecord
280
     1
 90
        1
330
87
  0
DICTIONARY
  5
66
102
{ACAD_REACTORS
330
C
102
}
330
C
100
AcDbDictionary
281
     1
  3
CANNOSCALE
350
F0
  3
CMLEADERSTYLE
350
EF
  3
CTABLESTYLE
350
89
  3
DIMASSOC
350
67
  3
HIDETEXT
350
6B
  3
INDEXCTL
350
1361
  3
LIGHTINGUNITS
350
135F
  3
MSLTSCALE
350
135E
  3
SORTENTS
350
1360
  0
DICTIONARY
  5
8F6
102
{ACAD_REACTORS
330
C
102
}
330
C
100
AcDbDictionary
281
     1
  0
XRECORD
  5
2DBD
102
{ACAD_REACTORS
330
C
102
}
330
C
100
AcDbXrecord
280
     1
  1
DWGPROPS COOKIE
  2

  3

  4

  6

  7

  8
fontanaNZ
  9

300
=
301
=
302
=
303
=
304
=
305
=
306
=
307
=
308
=
309
=
 40
0.0981364699074074
 41
2455286.567286702
 42
2455510.728304132
  1

 90
        0
  0
DICTIONARY
  5
2CA8
102
{ACAD_REACTORS
330
11DD
102
}
330
11DD
100
AcDbDictionary
281
     1
  0
DICTIONARY
  5
2D1A
102
{ACAD_REACTORS
330
11DD
102
}
330
11DD
100
AcDbDictionary
281
     1
  0
DICTIONARY
  5
2CA7
102
{ACAD_REACTORS
330
11DD
102
}
330
11DD
100
AcDbDictionary
281
     1
1001
ACAD
1000
<All
  0
XRECORD
  5
135A
102
{ACAD_REACTORS
330
E6
102
}
330
E6
100
AcDbXrecord
280
     1
290
     1
  0
XRECORD
  5
135C
102
{ACAD_REACTORS
330
135B
102
}
330
135B
100
AcDbXrecord
280
     1
290
     1
  0
XRECORD
  5
135D
102
{ACAD_REACTORS
330
120C
102
}
330
120C
100
AcDbXrecord
280
     1
290
     1
  0
GROUP
  5
2108
102
{ACAD_REACTORS
330
D
102
}
330
D
100
AcDbGroup
300

 70
     1
 71
     1
  0
GROUP
  5
284D
102
{ACAD_REACTORS
330
D
102
}
330
D
100
AcDbGroup
300

 70
     1
 71
     1
  0
GROUP
  5
28B4
102
{ACAD_REACTORS
330
D
102
}
330
D
100
AcDbGroup
300

 70
     1
 71
     1
  0
LAYOUT
  5
59
102
{ACAD_XDICTIONARY
360
2DC0
102
}
102
{ACAD_REACTORS
330
1A
102
}
330
1A
100
AcDbPlotSettings
  1

  2
None
  4

  6

 40
0.0
 41
0.0
 42
0.0
 43
0.0
 44
0.0
 45
0.0
 46
0.0
 47
0.0
 48
0.0
 49
0.0
140
0.0
141
0.0
142
1.0
143
1.0
 70
   688
 72
     0
 73
     0
 74
     5
  7

 75
    16
147
1.0
148
0.0
149
0.0
100
AcDbLayout
  1
Layout1
 70
     1
 71
     1
 10
0.0
 20
0.0
 11
12.0
 21
9.0
 12
0.0
 22
0.0
 32
0.0
 14
0.0
 24
0.0
 34
0.0
 15
0.0
 25
0.0
 35
0.0
146
0.0
 13
0.0
 23
0.0
 33
0.0
 16
1.0
 26
0.0
 36
0.0
 17
0.0
 27
1.0
 37
0.0
 76
     0
330
58
  0
LAYOUT
  5
5E
102
{ACAD_XDICTIONARY
360
2DC2
102
}
102
{ACAD_REACTORS
330
1A
102
}
330
1A
100
AcDbPlotSettings
  1

  2
None
  4

  6

 40
0.0
 41
0.0
 42
0.0
 43
0.0
 44
0.0
 45
0.0
 46
0.0
 47
0.0
 48
0.0
 49
0.0
140
0.0
141
0.0
142
1.0
143
1.0
 70
   688
 72
     0
 73
     0
 74
     5
  7

 75
    16
147
1.0
148
0.0
149
0.0
100
AcDbLayout
  1
Layout2
 70
     1
 71
     2
 10
0.0
 20
0.0
 11
12.0
 21
9.0
 12
0.0
 22
0.0
 32
0.0
 14
0.0
 24
0.0
 34
0.0
 15
0.0
 25
0.0
 35
0.0
146
0.0
 13
0.0
 23
0.0
 33
0.0
 16
1.0
 26
0.0
 36
0.0
 17
0.0
 27
1.0
 37
0.0
 76
     0
330
5D
  0
LAYOUT
  5
22
102
{ACAD_XDICTIONARY
360
2DBE
102
}
102
{ACAD_REACTORS
330
1A
102
}
330
1A
100
AcDbPlotSettings
  1

  2
none_device
  4
ANSI_A_(8.50_x_11.00_Inches)
  6

 40
6.349999904632567
 41
19.04999923706055
 42
6.350006103515625
 43
19.04998779296875
 44
215.8999938964844
 45
279.3999938964844
 46
0.0
 47
0.0
 48
0.0
 49
0.0
140
0.0
141
0.0
142
1.0
143
2.584895464708373
 70
 11952
 72
     0
 73
     1
 74
     0
  7

 75
     0
147
0.3868628397755418
148
0.0
149
0.0
100
AcDbLayout
  1
Model
 70
     1
 71
     0
 10
0.0
 20
0.0
 11
12.0
 21
9.0
 12
0.0
 22
0.0
 32
0.0
 14
0.0
 24
0.0
 34
0.0
 15
0.0
 25
0.0
 35
0.0
146
0.0
 13
0.0
 23
0.0
 33
0.0
 16
1.0
 26
0.0
 36
0.0
 17
0.0
 27
1.0
 37
0.0
 76
     0
330
1F
331
94
  0
MATERIAL
  5
97
102
{ACAD_XDICTIONARY
360
136D
102
}
102
{ACAD_REACTORS
330
72
102
}
330
72
100
AcDbMaterial
  1
ByBlock
  0
MATERIAL
  5
96
102
{ACAD_XDICTIONARY
360
136B
102
}
102
{ACAD_REACTORS
330
72
102
}
330
72
100
AcDbMaterial
  1
ByLayer
  0
MATERIAL
  5
98
102
{ACAD_XDICTIONARY
360
110
102
}
102
{ACAD_REACTORS
330
72
102
}
330
72
100
AcDbMaterial
  1
Global
 43
0.0208000000566244
 43
0.0
 43
0.0
 43
0.0
 43
0.0
 43
0.0208000000566244
 43
0.0
 43
0.0
 43
0.0
 43
0.0
 43
1.0
 43
0.0
 43
0.0
 43
0.0
 43
0.0
 43
1.0
 49
0.0208000000566244
 49
0.0
 49
0.0
 49
0.0
 49
0.0
 49
0.0208000000566244
 49
0.0
 49
0.0
 49
0.0
 49
0.0
 49
1.0
 49
0.0
 49
0.0
 49
0.0
 49
0.0
 49
1.0
142
0.0208000000566244
142
0.0
142
0.0
142
0.0
142
0.0
142
0.0208000000566244
142
0.0
142
0.0
142
0.0
142
0.0
142
1.0
142
0.0
142
0.0
142
0.0
142
0.0
142
1.0
144
0.0208000000566244
144
0.0
144
0.0
144
0.0
144
0.0
144
0.0208000000566244
144
0.0
144
0.0
144
0.0
144
0.0
144
1.0
144
0.0
144
0.0
144
0.0
144
0.0
144
1.0
1001
ACAD
1070
    -1
1070
     3
1070
     0
1000

1071
        0
1070
     0
  0
MLEADERSTYLE
  5
E5
102
{ACAD_REACTORS
330
D7
102
}
330
D7
100
AcDbMLeaderStyle
170
     2
171
     1
172
     0
 90
        2
 40
0.0
 41
0.0
173
     1
 91
-1056964608
340
14
 92
       -2
290
     1
 42
0.09
291
     1
 43
0.36
  3
Standard
 44
0.18
300

342
11
174
     1
178
     1
175
     1
176
     0
 93
-1056964608
 45
0.18
292
     0
297
     0
 46
0.18
 94
-1056964608
 47
1.0
 49
1.0
140
1.0
293
     1
141
0.0
294
     1
177
     0
142
1.0
295
     0
296
     1
143
0.125
1001
ACAD_MLEADERVER
1070
     2
  0
MLEADERSTYLE
  5
D8
102
{ACAD_REACTORS
330
D7
102
}
330
D7
100
AcDbMLeaderStyle
170
     2
171
     1
172
     0
 90
        2
 40
0.0
 41
0.0
173
     1
 91
-1056964608
340
14
 92
       -2
290
     1
 42
0.09
291
     1
 43
0.36
  3
Standard
 44
0.18
300

342
11
174
     1
178
     1
175
     1
176
     0
 93
-1056964608
 45
0.18
292
     0
297
     0
 46
0.18
 94
-1056964608
 47
1.0
 49
1.0
140
1.0
293
     1
141
0.0
294
     1
177
     0
142
1.0
295
     0
296
     0
143
0.125
1001
ACAD_MLEADERVER
1070
     2
  0
MLINESTYLE
  5
18
102
{ACAD_REACTORS
330
17
102
}
330
17
100
AcDbMlineStyle
  2
STANDARD
 70
     0
  3

 62
   256
 51
90.0
 52
90.0
 71
     2
 49
0.5
 62
   256
  6
BYLAYER
 49
-0.5
 62
   256
  6
BYLAYER
  0
ACDBPLACEHOLDER
  5
F
102
{ACAD_REACTORS
330
E
102
}
330
E
  0
SCALE
  5
B7
102
{ACAD_REACTORS
330
B6
102
}
330
B6
100
AcDbScale
 70
     0
300
1:1
140
1.0
141
1.0
290
     1
  0
SCALE
  5
124
102
{ACAD_REACTORS
330
B6
102
}
330
B6
100
AcDbScale
 70
     0
300
1:2
140
1.0
141
2.0
290
     0
  0
SCALE
  5
125
102
{ACAD_REACTORS
330
B6
102
}
330
B6
100
AcDbScale
 70
     0
300
1:4
140
1.0
141
4.0
290
     0
  0
SCALE
  5
126
102
{ACAD_REACTORS
330
B6
102
}
330
B6
100
AcDbScale
 70
     0
300
1:5
140
1.0
141
5.0
290
     0
  0
SCALE
  5
127
102
{ACAD_REACTORS
330
B6
102
}
330
B6
100
AcDbScale
 70
     0
300
1:8
140
1.0
141
8.0
290
     0
  0
SCALE
  5
128
102
{ACAD_REACTORS
330
B6
102
}
330
B6
100
AcDbScale
 70
     0
300
1:10
140
1.0
141
10.0
290
     0
  0
SCALE
  5
129
102
{ACAD_REACTORS
330
B6
102
}
330
B6
100
AcDbScale
 70
     0
300
1:16
140
1.0
141
16.0
290
     0
  0
SCALE
  5
12A
102
{ACAD_REACTORS
330
B6
102
}
330
B6
100
AcDbScale
 70
     0
300
1:20
140
1.0
141
20.0
290
     0
  0
SCALE
  5
12B
102
{ACAD_REACTORS
330
B6
102
}
330
B6
100
AcDbScale
 70
     0
300
1:30
140
1.0
141
30.0
290
     0
  0
SCALE
  5
12C
102
{ACAD_REACTORS
330
B6
102
}
330
B6
100
AcDbScale
 70
     0
300
1:40
140
1.0
141
40.0
290
     0
  0
SCALE
  5
12D
102
{ACAD_REACTORS
330
B6
102
}
330
B6
100
AcDbScale
 70
     0
300
1:50
140
1.0
141
50.0
290
     0
  0
SCALE
  5
12E
102
{ACAD_REACTORS
330
B6
102
}
330
B6
100
AcDbScale
 70
     0
300
1:100
140
1.0
141
100.0
290
     0
  0
SCALE
  5
12F
102
{ACAD_REACTORS
330
B6
102
}
330
B6
100
AcDbScale
 70
     0
300
2:1
140
2.0
141
1.0
290
     0
  0
SCALE
  5
130
102
{ACAD_REACTORS
330
B6
102
}
330
B6
100
AcDbScale
 70
     0
300
4:1
140
4.0
141
1.0
290
     0
  0
SCALE
  5
131
102
{ACAD_REACTORS
330
B6
102
}
330
B6
100
AcDbScale
 70
     0
300
8:1
140
8.0
141
1.0
290
     0
  0
SCALE
  5
132
102
{ACAD_REACTORS
330
B6
102
}
330
B6
100
AcDbScale
 70
     0
300
10:1
140
10.0
141
1.0
290
     0
  0
SCALE
  5
133
102
{ACAD_REACTORS
330
B6
102
}
330
B6
100
AcDbScale
 70
     0
300
100:1
140
100.0
141
1.0
290
     0
  0
SCALE
  5
134
102
{ACAD_REACTORS
330
B6
102
}
330
B6
100
AcDbScale
 70
     0
300
1/128" = 1'-0"
140
0.0078125
141
12.0
290
     0
  0
SCALE
  5
135
102
{ACAD_REACTORS
330
B6
102
}
330
B6
100
AcDbScale
 70
     0
300
1/64" = 1'-0"
140
0.015625
141
12.0
290
     0
  0
SCALE
  5
136
102
{ACAD_REACTORS
330
B6
102
}
330
B6
100
AcDbScale
 70
     0
300
1/32" = 1'-0"
140
0.03125
141
12.0
290
     0
  0
SCALE
  5
137
102
{ACAD_REACTORS
330
B6
102
}
330
B6
100
AcDbScale
 70
     0
300
1/16" = 1'-0"
140
0.0625
141
12.0
290
     0
  0
SCALE
  5
138
102
{ACAD_REACTORS
330
B6
102
}
330
B6
100
AcDbScale
 70
     0
300
3/32" = 1'-0"
140
0.09375
141
12.0
290
     0
  0
SCALE
  5
139
102
{ACAD_REACTORS
330
B6
102
}
330
B6
100
AcDbScale
 70
     0
300
1/8" = 1'-0"
140
0.125
141
12.0
290
     0
  0
SCALE
  5
13A
102
{ACAD_REACTORS
330
B6
102
}
330
B6
100
AcDbScale
 70
     0
300
3/16" = 1'-0"
140
0.1875
141
12.0
290
     0
  0
SCALE
  5
13B
102
{ACAD_REACTORS
330
B6
102
}
330
B6
100
AcDbScale
 70
     0
300
1/4" = 1'-0"
140
0.25
141
12.0
290
     0
  0
SCALE
  5
13C
102
{ACAD_REACTORS
330
B6
102
}
330
B6
100
AcDbScale
 70
     0
300
3/8" = 1'-0"
140
0.375
141
12.0
290
     0
  0
SCALE
  5
13D
102
{ACAD_REACTORS
330
B6
102
}
330
B6
100
AcDbScale
 70
     0
300
1/2" = 1'-0"
140
0.5
141
12.0
290
     0
  0
SCALE
  5
13E
102
{ACAD_REACTORS
330
B6
102
}
330
B6
100
AcDbScale
 70
     0
300
3/4" = 1'-0"
140
0.75
141
12.0
290
     0
  0
SCALE
  5
13F
102
{ACAD_REACTORS
330
B6
102
}
330
B6
100
AcDbScale
 70
     0
300
1" = 1'-0"
140
1.0
141
12.0
290
     0
  0
SCALE
  5
140
102
{ACAD_REACTORS
330
B6
102
}
330
B6
100
AcDbScale
 70
     0
300
1-1/2" = 1'-0"
140
1.5
141
12.0
290
     0
  0
SCALE
  5
141
102
{ACAD_REACTORS
330
B6
102
}
330
B6
100
AcDbScale
 70
     0
300
3" = 1'-0"
140
3.0
141
12.0
290
     0
  0
SCALE
  5
142
102
{ACAD_REACTORS
330
B6
102
}
330
B6
100
AcDbScale
 70
     0
300
6" = 1'-0"
140
6.0
141
12.0
290
     0
  0
SCALE
  5
143
102
{ACAD_REACTORS
330
B6
102
}
330
B6
100
AcDbScale
 70
     0
300
1'-0" = 1'-0"
140
12.0
141
12.0
290
     0
  0
TABLESTYLE
  5
87
102
{ACAD_XDICTIONARY
360
104
102
}
102
{ACAD_REACTORS
330
86
102
}
330
86
100
AcDbTableStyle
  3
Standard
 70
     0
 71
     0
 40
0.06
 41
0.06
280
     0
281
     0
  7
Standard
140
0.18
170
     2
 62
     0
 63
     7
283
     0
274
    -2
284
     1
 64
     0
275
    -2
285
     1
 65
     0
276
    -2
286
     1
 66
     0
277
    -2
287
     1
 67
     0
278
    -2
288
     1
 68
     0
279
    -2
289
     1
 69
     0
  7
Standard
140
0.25
170
     5
 62
     0
 63
     7
283
     0
274
    -2
284
     1
 64
     0
275
    -2
285
     1
 65
     0
276
    -2
286
     1
 66
     0
277
    -2
287
     1
 67
     0
278
    -2
288
     1
 68
     0
279
    -2
289
     1
 69
     0
  7
Standard
140
0.18
170
     5
 62
     0
 63
     7
283
     0
274
    -2
284
     1
 64
     0
275
    -2
285
     1
 65
     0
276
    -2
286
     1
 66
     0
277
    -2
287
     1
 67
     0
278
    -2
288
     1
 68
     0
279
    -2
289
     1
 69
     0
  0
VISUALSTYLE
  5
9F
102
{ACAD_REACTORS
330
99
102
}
330
99
100
AcDbVisualStyle
  2
2dWireframe
 70
     4
 71
     0
 72
     2
 73
     1
 90
        0
 40
-0.6
 41
-30.0
 62
     5
 63
     7
 74
     1
 91
        4
 64
     7
 65
   257
 75
     1
175
     1
 42
1.0
 92
        0
 66
   257
 43
1.0
 76
     1
 77
     6
 78
     2
 67
     7
 79
     5
170
     0
171
     0
290
     0
174
     0
 93
        1
 44
0.0
173
     0
291
     0
 45
0.0
1001
ACAD
1000
AcDbSavedByObjectVersion
1070
     0
1000
AcDbSavedByObjectVersion
1070
     0
1000
AcDbSavedByObjectVersion
1070
     0
1000
AcDbSavedByObjectVersion
1070
     0
1000
AcDbSavedByObjectVersion
1070
     0
1000
AcDbSavedByObjectVersion
1070
     0
1000
AcDbSavedByObjectVersion
1070
     0
1000
AcDbSavedByObjectVersion
1070
     0
  0
VISUALSTYLE
  5
A1
102
{ACAD_REACTORS
330
99
102
}
330
99
100
AcDbVisualStyle
  2
3D Hidden
 70
     6
 71
     1
 72
     2
 73
     2
 90
        0
 40
-0.6
 41
-30.0
 62
     5
 63
     7
 74
     2
 91
        2
 64
     7
 65
   257
 75
     2
175
     1
 42
40.0
 92
        0
 66
   257
 43
1.0
 76
     1
 77
     6
 78
     2
 67
     7
 79
     3
170
     0
171
     0
290
     0
174
     0
 93
        1
 44
0.0
173
     0
291
     0
 45
0.0
1001
ACAD
1000
AcDbSavedByObjectVersion
1070
     0
1000
AcDbSavedByObjectVersion
1070
     0
1000
AcDbSavedByObjectVersion
1070
     0
1000
AcDbSavedByObjectVersion
1070
     0
1000
AcDbSavedByObjectVersion
1070
     0
1000
AcDbSavedByObjectVersion
1070
     0
1000
AcDbSavedByObjectVersion
1070
     0
1000
AcDbSavedByObjectVersion
1070
     0
  0
VISUALSTYLE
  5
A0
102
{ACAD_REACTORS
330
99
102
}
330
99
100
AcDbVisualStyle
  2
3dWireframe
 70
     5
 71
     0
 72
     2
 73
     1
 90
        0
 40
-0.6
 41
-30.0
 62
     5
 63
     7
 74
     1
 91
        4
 64
     7
 65
   257
 75
     1
175
     1
 42
1.0
 92
        0
 66
   257
 43
1.0
 76
     1
 77
     6
 78
     2
 67
     7
 79
     5
170
     0
171
     0
290
     0
174
     0
 93
        1
 44
0.0
173
     0
291
     0
 45
0.0
1001
ACAD
1000
AcDbSavedByObjectVersion
1070
     0
1000
AcDbSavedByObjectVersion
1070
     0
1000
AcDbSavedByObjectVersion
1070
     0
1000
AcDbSavedByObjectVersion
1070
     0
1000
AcDbSavedByObjectVersion
1070
     0
1000
AcDbSavedByObjectVersion
1070
     0
1000
AcDbSavedByObjectVersion
1070
     0
1000
AcDbSavedByObjectVersion
1070
     0
  0
VISUALSTYLE
  5
9E
102
{ACAD_REACTORS
330
99
102
}
330
99
100
AcDbVisualStyle
  2
Basic
 70
     7
 71
     1
 72
     0
 73
     1
 90
        0
 40
-0.6
 41
-30.0
 62
     5
 63
     7
 74
     0
 91
        4
 64
     7
 65
   257
 75
     1
175
     1
 42
1.0
 92
        8
 66
     7
 43
1.0
 76
     1
 77
     6
 78
     2
 67
     7
 79
     5
170
     0
171
     0
290
     0
174
     0
 93
        1
 44
0.0
173
     0
291
     1
 45
0.0
1001
ACAD
1000
AcDbSavedByObjectVersion
1070
     0
1000
AcDbSavedByObjectVersion
1070
     0
1000
AcDbSavedByObjectVersion
1070
     0
1000
AcDbSavedByObjectVersion
1070
     0
1000
AcDbSavedByObjectVersion
1070
     0
1000
AcDbSavedByObjectVersion
1070
     0
1000
AcDbSavedByObjectVersion
1070
     0
1000
AcDbSavedByObjectVersion
1070
     0
  0
VISUALSTYLE
  5
A5
102
{ACAD_REACTORS
330
99
102
}
330
99
100
AcDbVisualStyle
  2
Brighten
 70
    12
 71
     2
 72
     2
 73
     1
 90
        0
 40
-0.6
 41
-30.0
 62
     5
 63
     7
 74
     1
 91
        4
 64
     7
 65
   257
 75
     1
175
     1
 42
1.0
 92
        8
 66
     7
 43
1.0
 76
     1
 77
     6
 78
     2
 67
     7
 79
     5
170
     0
171
     0
290
     0
174
     0
 93
        1
 44
50.0
173
     0
291
     1
 45
0.0
1001
ACAD
1000
AcDbSavedByObjectVersion
1070
     0
1000
AcDbSavedByObjectVersion
1070
     0
1000
AcDbSavedByObjectVersion
1070
     0
1000
AcDbSavedByObjectVersion
1070
     0
1000
AcDbSavedByObjectVersion
1070
     0
1000
AcDbSavedByObjectVersion
1070
     0
1000
AcDbSavedByObjectVersion
1070
     0
1000
AcDbSavedByObjectVersion
1070
     0
  0
VISUALSTYLE
  5
A9
102
{ACAD_REACTORS
330
99
102
}
330
99
100
AcDbVisualStyle
  2
ColorChange
 70
    16
 71
     2
 72
     2
 73
     3
 90
        0
 40
-0.6
 41
-30.0
 62
     5
 63
     8
 74
     1
 91
        4
 64
     7
 65
   257
 75
     1
175
     1
 42
1.0
 92
        8
 66
     8
 43
1.0
 76
     1
 77
     6
 78
     2
 67
     7
 79
     5
170
     0
171
     0
290
     0
174
     0
 93
        1
 44
0.0
173
     0
291
     1
 45
0.0
1001
ACAD
1000
AcDbSavedByObjectVersion
1070
     0
1000
AcDbSavedByObjectVersion
1070
     0
1000
AcDbSavedByObjectVersion
1070
     0
1000
AcDbSavedByObjectVersion
1070
     0
1000
AcDbSavedByObjectVersion
1070
     0
1000
AcDbSavedByObjectVersion
1070
     0
1000
AcDbSavedByObjectVersion
1070
     0
1000
AcDbSavedByObjectVersion
1070
     0
  0
VISUALSTYLE
  5
A2
102
{ACAD_REACTORS
330
99
102
}
330
99
100
AcDbVisualStyle
  2
Conceptual
 70
     9
 71
     3
 72
     2
 73
     1
 90
        0
 40
-0.6
 41
-30.0
 62
     5
 63
     7
 74
     2
 91
        2
 64
     7
 65
   257
 75
     1
175
     1
 42
40.0
 92
        8
 66
     7
 43
1.0
 76
     1
 77
     6
 78
     2
 67
     7
 79
     3
170
     0
171
     0
290
     0
174
     0
 93
        1
 44
0.0
173
     0
291
     0
 45
0.0
1001
ACAD
1000
AcDbSavedByObjectVersion
1070
     0
1000
AcDbSavedByObjectVersion
1070
     0
1000
AcDbSavedByObjectVersion
1070
     0
1000
AcDbSavedByObjectVersion
1070
     0
1000
AcDbSavedByObjectVersion
1070
     0
1000
AcDbSavedByObjectVersion
1070
     0
1000
AcDbSavedByObjectVersion
1070
     0
1000
AcDbSavedByObjectVersion
1070
     0
  0
VISUALSTYLE
  5
A4
102
{ACAD_REACTORS
330
99
102
}
330
99
100
AcDbVisualStyle
  2
Dim
 70
    11
 71
     2
 72
     2
 73
     1
 90
        0
 40
-0.6
 41
-30.0
 62
     5
 63
     7
 74
     1
 91
        4
 64
     7
 65
   257
 75
     1
175
     1
 42
1.0
 92
        8
 66
     7
 43
1.0
 76
     1
 77
     6
 78
     2
 67
     7
 79
     5
170
     0
171
     0
290
     0
174
     0
 93
        1
 44
-50.0
173
     0
291
     1
 45
0.0
1001
ACAD
1000
AcDbSavedByObjectVersion
1070
     0
1000
AcDbSavedByObjectVersion
1070
     0
1000
AcDbSavedByObjectVersion
1070
     0
1000
AcDbSavedByObjectVersion
1070
     0
1000
AcDbSavedByObjectVersion
1070
     0
1000
AcDbSavedByObjectVersion
1070
     0
1000
AcDbSavedByObjectVersion
1070
     0
1000
AcDbSavedByObjectVersion
1070
     0
  0
VISUALSTYLE
  5
A8
102
{ACAD_REACTORS
330
99
102
}
330
99
100
AcDbVisualStyle
  2
Facepattern
 70
    15
 71
     2
 72
     2
 73
     1
 90
        0
 40
-0.6
 41
-30.0
 62
     5
 63
     7
 74
     1
 91
        4
 64
     7
 65
   257
 75
     1
175
     1
 42
1.0
 92
        8
 66
     7
 43
1.0
 76
     1
 77
     6
 78
     2
 67
     7
 79
     5
170
     0
171
     0
290
     0
174
     0
 93
        1
 44
0.0
173
     0
291
     1
 45
0.0
1001
ACAD
1000
AcDbSavedByObjectVersion
1070
     0
1000
AcDbSavedByObjectVersion
1070
     0
1000
AcDbSavedByObjectVersion
1070
     0
1000
AcDbSavedByObjectVersion
1070
     0
1000
AcDbSavedByObjectVersion
1070
     0
1000
AcDbSavedByObjectVersion
1070
     0
1000
AcDbSavedByObjectVersion
1070
     0
1000
AcDbSavedByObjectVersion
1070
     0
  0
VISUALSTYLE
  5
9A
102
{ACAD_REACTORS
330
99
102
}
330
99
100
AcDbVisualStyle
  2
Flat
 70
     0
 71
     2
 72
     1
 73
     1
 90
        2
 40
-0.6
 41
30.0
 62
     5
 63
     7
 74
     0
 91
        4
 64
     7
 65
   257
 75
     1
175
     1
 42
1.0
 92
        8
 66
     7
 43
1.0
 76
     1
 77
     6
 78
     2
 67
     7
 79
     5
170
     0
171
     0
290
     0
174
     0
 93
        1
 44
0.0
173
     0
291
     1
 45
0.0
1001
ACAD
1000
AcDbSavedByObjectVersion
1070
     0
1000
AcDbSavedByObjectVersion
1070
     0
1000
AcDbSavedByObjectVersion
1070
     0
1000
AcDbSavedByObjectVersion
1070
     0
1000
AcDbSavedByObjectVersion
1070
     0
1000
AcDbSavedByObjectVersion
1070
     0
1000
AcDbSavedByObjectVersion
1070
     0
1000
AcDbSavedByObjectVersion
1070
     0
  0
VISUALSTYLE
  5
9B
102
{ACAD_REACTORS
330
99
102
}
330
99
100
AcDbVisualStyle
  2
FlatWithEdges
 70
     1
 71
     2
 72
     1
 73
     1
 90
        2
 40
-0.6
 41
30.0
 62
     5
 63
     7
 74
     1
 91
        4
 64
     7
 65
   257
 75
     1
175
     1
 42
1.0
 92
        0
 66
   257
 43
1.0
 76
     1
 77
     6
 78
     2
 67
     7
 79
     5
170
     0
171
     0
290
     0
174
     0
 93
        1
 44
0.0
173
     0
291
     1
 45
0.0
1001
ACAD
1000
AcDbSavedByObjectVersion
1070
     0
1000
AcDbSavedByObjectVersion
1070
     0
1000
AcDbSavedByObjectVersion
1070
     0
1000
AcDbSavedByObjectVersion
1070
     0
1000
AcDbSavedByObjectVersion
1070
     0
1000
AcDbSavedByObjectVersion
1070
     0
1000
AcDbSavedByObjectVersion
1070
     0
1000
AcDbSavedByObjectVersion
1070
     0
  0
VISUALSTYLE
  5
9C
102
{ACAD_REACTORS
330
99
102
}
330
99
100
AcDbVisualStyle
  2
Gouraud
 70
     2
 71
     2
 72
     2
 73
     1
 90
        2
 40
-0.6
 41
30.0
 62
     5
 63
     7
 74
     0
 91
        4
 64
     7
 65
   257
 75
     1
175
     1
 42
1.0
 92
        0
 66
     7
 43
1.0
 76
     1
 77
     6
 78
     2
 67
     7
 79
     5
170
     0
171
     0
290
     0
174
     0
 93
        1
 44
0.0
173
     0
291
     1
 45
0.0
1001
ACAD
1000
AcDbSavedByObjectVersion
1070
     0
1000
AcDbSavedByObjectVersion
1070
     0
1000
AcDbSavedByObjectVersion
1070
     0
1000
AcDbSavedByObjectVersion
1070
     0
1000
AcDbSavedByObjectVersion
1070
     0
1000
AcDbSavedByObjectVersion
1070
     0
1000
AcDbSavedByObjectVersion
1070
     0
1000
AcDbSavedByObjectVersion
1070
     0
  0
VISUALSTYLE
  5
9D
102
{ACAD_REACTORS
330
99
102
}
330
99
100
AcDbVisualStyle
  2
GouraudWithEdges
 70
     3
 71
     2
 72
     2
 73
     1
 90
        2
 40
-0.6
 41
30.0
 62
     5
 63
     7
 74
     1
 91
        4
 64
     7
 65
   257
 75
     1
175
     1
 42
1.0
 92
        0
 66
   257
 43
1.0
 76
     1
 77
     6
 78
     2
 67
     7
 79
     5
170
     0
171
     0
290
     0
174
     0
 93
        1
 44
0.0
173
     0
291
     1
 45
0.0
1001
ACAD
1000
AcDbSavedByObjectVersion
1070
     0
1000
AcDbSavedByObjectVersion
1070
     0
1000
AcDbSavedByObjectVersion
1070
     0
1000
AcDbSavedByObjectVersion
1070
     0
1000
AcDbSavedByObjectVersion
1070
     0
1000
AcDbSavedByObjectVersion
1070
     0
1000
AcDbSavedByObjectVersion
1070
     0
1000
AcDbSavedByObjectVersion
1070
     0
  0
VISUALSTYLE
  5
A7
102
{ACAD_REACTORS
330
99
102
}
330
99
100
AcDbVisualStyle
  2
Linepattern
 70
    14
 71
     2
 72
     2
 73
     1
 90
        0
 40
-0.6
 41
-30.0
 62
     5
 63
     7
 74
     1
 91
        4
 64
     7
 65
   257
 75
     7
175
     7
 42
1.0
 92
        8
 66
     7
 43
1.0
 76
     1
 77
     6
 78
     2
 67
     7
 79
     5
170
     0
171
     0
290
     0
174
     0
 93
        1
 44
0.0
173
     0
291
     1
 45
0.0
1001
ACAD
1000
AcDbSavedByObjectVersion
1070
     0
1000
AcDbSavedByObjectVersion
1070
     0
1000
AcDbSavedByObjectVersion
1070
     0
1000
AcDbSavedByObjectVersion
1070
     0
1000
AcDbSavedByObjectVersion
1070
     0
1000
AcDbSavedByObjectVersion
1070
     0
1000
AcDbSavedByObjectVersion
1070
     0
1000
AcDbSavedByObjectVersion
1070
     0
  0
VISUALSTYLE
  5
A3
102
{ACAD_REACTORS
330
99
102
}
330
99
100
AcDbVisualStyle
  2
Realistic
 70
     8
 71
     2
 72
     2
 73
     1
 90
        0
 40
-0.6
 41
-30.0
 62
     5
 63
     7
 74
     1
 91
        0
 64
     7
 65
   257
 75
     1
175
     1
 42
1.0
 92
        8
 66
     8
 43
1.0
 76
     1
 77
     6
 78
     2
 67
     7
 79
     5
170
     0
171
     0
290
     0
174
     0
 93
       13
 44
0.0
173
     0
291
     0
 45
0.0
1001
ACAD
1000
AcDbSavedByObjectVersion
1070
     0
1000
AcDbSavedByObjectVersion
1070
     0
1000
AcDbSavedByObjectVersion
1070
     0
1000
AcDbSavedByObjectVersion
1070
     0
1000
AcDbSavedByObjectVersion
1070
     0
1000
AcDbSavedByObjectVersion
1070
     0
1000
AcDbSavedByObjectVersion
1070
     0
1000
AcDbSavedByObjectVersion
1070
     0
  0
VISUALSTYLE
  5
A6
102
{ACAD_REACTORS
330
99
102
}
330
99
100
AcDbVisualStyle
  2
Thicken
 70
    13
 71
     2
 72
     2
 73
     1
 90
        0
 40
-0.6
 41
-30.0
 62
     5
 63
     7
 74
     1
 91
        4
 64
     7
 65
   257
 75
     1
175
     1
 42
1.0
 92
       12
 66
     7
 43
1.0
 76
     1
 77
     6
 78
     2
 67
     7
 79
     5
170
     0
171
     0
290
     0
174
     0
 93
        1
 44
0.0
173
     0
291
     1
 45
0.0
1001
ACAD
1000
AcDbSavedByObjectVersion
1070
     0
1000
AcDbSavedByObjectVersion
1070
     0
1000
AcDbSavedByObjectVersion
1070
     0
1000
AcDbSavedByObjectVersion
1070
     0
1000
AcDbSavedByObjectVersion
1070
     0
1000
AcDbSavedByObjectVersion
1070
     0
1000
AcDbSavedByObjectVersion
1070
     0
1000
AcDbSavedByObjectVersion
1070
     0
  0
DICTIONARYVAR
  5
F0
102
{ACAD_REACTORS
330
66
102
}
330
66
100
DictionaryVariables
280
     0
  1
1:1
  0
DICTIONARYVAR
  5
EF
102
{ACAD_REACTORS
330
66
102
}
330
66
100
DictionaryVariables
280
     0
  1
STANDARD
  0
DICTIONARYVAR
  5
89
102
{ACAD_REACTORS
330
66
102
}
330
66
100
DictionaryVariables
280
     0
  1
STANDARD
  0
DICTIONARYVAR
  5
67
102
{ACAD_REACTORS
330
66
102
}
330
66
100
DictionaryVariables
280
     0
  1
2
  0
DICTIONARYVAR
  5
6B
102
{ACAD_REACTORS
330
66
102
}
330
66
100
DictionaryVariables
280
     0
  1
1
  0
DICTIONARYVAR
  5
1361
102
{ACAD_REACTORS
330
66
102
}
330
66
100
DictionaryVariables
280
     0
  1
0
  0
DICTIONARYVAR
  5
135F
102
{ACAD_REACTORS
330
66
102
}
330
66
100
DictionaryVariables
280
     0
  1
2
  0
DICTIONARYVAR
  5
135E
102
{ACAD_REACTORS
330
66
102
}
330
66
100
DictionaryVariables
280
     0
  1
1
  0
DICTIONARYVAR
  5
1360
102
{ACAD_REACTORS
330
66
102
}
330
66
100
DictionaryVariables
280
     0
  1
127
  0
DICTIONARY
  5
2DC0
330
59
100
AcDbDictionary
280
     1
281
     1
  3
ACAD_XREC_ROUNDTRIP
360
2DC1
  0
DICTIONARY
  5
2DC2
330
5E
100
AcDbDictionary
280
     1
281
     1
  3
ACAD_XREC_ROUNDTRIP
360
2DC3
  0
DICTIONARY
  5
2DBE
330
22
100
AcDbDictionary
280
     1
281
     1
  3
ACAD_XREC_ROUNDTRIP
360
2DBF
  0
DICTIONARY
  5
136D
330
97
100
AcDbDictionary
280
     1
281
     1
  3
ACAD_XREC_ROUNDTRIP
360
136E
  0
DICTIONARY
  5
136B
330
96
100
AcDbDictionary
280
     1
281
     1
  3
ACAD_XREC_ROUNDTRIP
360
136C
  0
DICTIONARY
  5
110
330
98
100
AcDbDictionary
280
     1
281
     1
  3
ACAD_XREC_ROUNDTRIP
360
136F
  3
BUMPTILE
360
112
  3
DIFFUSETILE
360
111
  3
OPACITYTILE
360
113
  3
REFLECTIONTILE
360
114
  0
DICTIONARY
  5
104
330
87
100
AcDbDictionary
280
     1
281
     1
  3
ACAD_ROUNDTRIP_2008_TABLESTYLE_CELLSTYLEMAP
360
2DBC
  3
ACAD_XREC_ROUNDTRIP
360
2DC4
  0
XRECORD
  5
2DC1
102
{ACAD_REACTORS
330
2DC0
102
}
330
2DC0
100
AcDbXrecord
280
     1
102
SHADEPLOT
 70
     0
102
SHADEPLOTRESLEVEL
 70
     2
102
SHADEPLOTCUSTOMDPI
 70
   300
  0
XRECORD
  5
2DC3
102
{ACAD_REACTORS
330
2DC2
102
}
330
2DC2
100
AcDbXrecord
280
     1
102
SHADEPLOT
 70
     0
102
SHADEPLOTRESLEVEL
 70
     2
102
SHADEPLOTCUSTOMDPI
 70
   300
  0
XRECORD
  5
2DBF
102
{ACAD_REACTORS
330
2DBE
102
}
330
2DBE
100
AcDbXrecord
280
     1
102
SHADEPLOT
 70
     0
102
SHADEPLOTRESLEVEL
 70
     2
102
SHADEPLOTCUSTOMDPI
 70
   300
  0
XRECORD
  5
136E
102
{ACAD_REACTORS
330
136D
102
}
330
136D
100
AcDbXrecord
280
     1
102
MATERIAL
148
0.0
149
0.0
149
0.0
 93
        0
 94
      127
282
     0
 72
     1
 77
     1
171
     1
175
     1
179
     1
273
     0
  0
XRECORD
  5
136C
102
{ACAD_REACTORS
330
136B
102
}
330
136B
100
AcDbXrecord
280
     1
102
MATERIAL
148
0.0
149
0.0
149
0.0
 93
        0
 94
      127
282
     0
 72
     1
 77
     1
171
     1
175
     1
179
     1
273
     0
  0
XRECORD
  5
136F
102
{ACAD_REACTORS
330
110
102
}
330
110
100
AcDbXrecord
280
     1
102
MATERIAL
148
0.0
149
0.0
149
0.0
 93
        0
 94
      127
282
     0
 72
     1
 77
     1
171
     1
175
     1
179
     1
273
     0
  0
XRECORD
  5
112
102
{ACAD_REACTORS
330
110
102
}
330
110
100
AcDbXrecord
280
     1
270
     1
271
     1
  0
XRECORD
  5
111
102
{ACAD_REACTORS
330
110
102
}
330
110
100
AcDbXrecord
280
     1
270
     1
271
     1
  0
XRECORD
  5
113
102
{ACAD_REACTORS
330
110
102
}
330
110
100
AcDbXrecord
280
     1
270
     1
271
     1
  0
XRECORD
  5
114
102
{ACAD_REACTORS
330
110
102
}
330
110
100
AcDbXrecord
280
     1
270
     1
271
     1
  0
CELLSTYLEMAP
  5
2DBC
102
{ACAD_REACTORS
330
104
102
}
330
104
100
AcDbCellStyleMap
 90
        3
300
CELLSTYLE
  1
TABLEFORMAT_BEGIN
 90
        5
170
     1
 91
        0
 92
    32768
 62
   257
 93
        1
300
CONTENTFORMAT
  1
CONTENTFORMAT_BEGIN
 90
        0
 91
        0
 92
      512
 93
        0
300

 40
0.0
140
1.0
 94
        5
 62
     0
340
11
144
0.25
309
CONTENTFORMAT_END
171
     1
301
MARGIN
  1
CELLMARGIN_BEGIN
 40
0.06
 40
0.06
 40
0.06
 40
0.06
 40
0.18
 40
0.18
309
CELLMARGIN_END
 94
        6
 95
        1
302
GRIDFORMAT
  1
GRIDFORMAT_BEGIN
 90
        0
 91
        1
 62
     0
 92
       -2
340
0
 93
        0
 40
0.045
309
GRIDFORMAT_END
 95
        2
302
GRIDFORMAT
  1
GRIDFORMAT_BEGIN
 90
        0
 91
        1
 62
     0
 92
       -2
340
0
 93
        0
 40
0.045
309
GRIDFORMAT_END
 95
        4
302
GRIDFORMAT
  1
GRIDFORMAT_BEGIN
 90
        0
 91
        1
 62
     0
 92
       -2
340
0
 93
        0
 40
0.045
309
GRIDFORMAT_END
 95
        8
302
GRIDFORMAT
  1
GRIDFORMAT_BEGIN
 90
        0
 91
        1
 62
     0
 92
       -2
340
0
 93
        0
 40
0.045
309
GRIDFORMAT_END
 95
       16
302
GRIDFORMAT
  1
GRIDFORMAT_BEGIN
 90
        0
 91
        1
 62
     0
 92
       -2
340
0
 93
        0
 40
0.045
309
GRIDFORMAT_END
 95
       32
302
GRIDFORMAT
  1
GRIDFORMAT_BEGIN
 90
        0
 91
        1
 62
     0
 92
       -2
340
0
 93
        0
 40
0.045
309
GRIDFORMAT_END
309
TABLEFORMAT_END
  1
CELLSTYLE_BEGIN
 90
        1
 91
        1
300
_TITLE
309
CELLSTYLE_END
300
CELLSTYLE
  1
TABLEFORMAT_BEGIN
 90
        5
170
     1
 91
        0
 92
        0
 62
   257
 93
        1
300
CONTENTFORMAT
  1
CONTENTFORMAT_BEGIN
 90
        0
 91
        0
 92
      512
 93
        0
300

 40
0.0
140
1.0
 94
        5
 62
     0
340
11
144
0.18
309
CONTENTFORMAT_END
171
     1
301
MARGIN
  1
CELLMARGIN_BEGIN
 40
0.06
 40
0.06
 40
0.06
 40
0.06
 40
0.18
 40
0.18
309
CELLMARGIN_END
 94
        6
 95
        1
302
GRIDFORMAT
  1
GRIDFORMAT_BEGIN
 90
        0
 91
        1
 62
     0
 92
       -2
340
0
 93
        0
 40
0.045
309
GRIDFORMAT_END
 95
        2
302
GRIDFORMAT
  1
GRIDFORMAT_BEGIN
 90
        0
 91
        1
 62
     0
 92
       -2
340
0
 93
        0
 40
0.045
309
GRIDFORMAT_END
 95
        4
302
GRIDFORMAT
  1
GRIDFORMAT_BEGIN
 90
        0
 91
        1
 62
     0
 92
       -2
340
0
 93
        0
 40
0.045
309
GRIDFORMAT_END
 95
        8
302
GRIDFORMAT
  1
GRIDFORMAT_BEGIN
 90
        0
 91
        1
 62
     0
 92
       -2
340
0
 93
        0
 40
0.045
309
GRIDFORMAT_END
 95
       16
302
GRIDFORMAT
  1
GRIDFORMAT_BEGIN
 90
        0
 91
        1
 62
     0
 92
       -2
340
0
 93
        0
 40
0.045
309
GRIDFORMAT_END
 95
       32
302
GRIDFORMAT
  1
GRIDFORMAT_BEGIN
 90
        0
 91
        1
 62
     0
 92
       -2
340
0
 93
        0
 40
0.045
309
GRIDFORMAT_END
309
TABLEFORMAT_END
  1
CELLSTYLE_BEGIN
 90
        2
 91
        1
300
_HEADER
309
CELLSTYLE_END
300
CELLSTYLE
  1
TABLEFORMAT_BEGIN
 90
        5
170
     1
 91
        0
 92
        0
 62
   257
 93
        1
300
CONTENTFORMAT
  1
CONTENTFORMAT_BEGIN
 90
        0
 91
        0
 92
      512
 93
        0
300

 40
0.0
140
1.0
 94
        2
 62
     0
340
11
144
0.18
309
CONTENTFORMAT_END
171
     1
301
MARGIN
  1
CELLMARGIN_BEGIN
 40
0.06
 40
0.06
 40
0.06
 40
0.06
 40
0.18
 40
0.18
309
CELLMARGIN_END
 94
        6
 95
        1
302
GRIDFORMAT
  1
GRIDFORMAT_BEGIN
 90
        0
 91
        1
 62
     0
 92
       -2
340
0
 93
        0
 40
0.045
309
GRIDFORMAT_END
 95
        2
302
GRIDFORMAT
  1
GRIDFORMAT_BEGIN
 90
        0
 91
        1
 62
     0
 92
       -2
340
0
 93
        0
 40
0.045
309
GRIDFORMAT_END
 95
        4
302
GRIDFORMAT
  1
GRIDFORMAT_BEGIN
 90
        0
 91
        1
 62
     0
 92
       -2
340
0
 93
        0
 40
0.045
309
GRIDFORMAT_END
 95
        8
302
GRIDFORMAT
  1
GRIDFORMAT_BEGIN
 90
        0
 91
        1
 62
     0
 92
       -2
340
0
 93
        0
 40
0.045
309
GRIDFORMAT_END
 95
       16
302
GRIDFORMAT
  1
GRIDFORMAT_BEGIN
 90
        0
 91
        1
 62
     0
 92
       -2
340
0
 93
        0
 40
0.045
309
GRIDFORMAT_END
 95
       32
302
GRIDFORMAT
  1
GRIDFORMAT_BEGIN
 90
        0
 91
        1
 62
     0
 92
       -2
340
0
 93
        0
 40
0.045
309
GRIDFORMAT_END
309
TABLEFORMAT_END
  1
CELLSTYLE_BEGIN
 90
        3
 91
        2
300
_DATA
309
CELLSTYLE_END
  0
XRECORD
  5
2DC4
102
{ACAD_REACTORS
330
104
102
}
330
104
100
AcDbXrecord
280
     1
102
ACAD_ROUNDTRIP_PRE2007_TABLESTYLE
 90
      512
 91
        0
  1

 92
      512
 93
        0
  2

 94
      512
 95
        0
  3

  0
ENDSEC
  0
EOF
