  0
SECTION
  2
HEADER
  9
$ACADVER
  1
AC1015
  9
$ACADMAINTVER
 70
    20
  9
$DWGCODEPAGE
  3
ANSI_1252
  9
$INSBASE
 10
0.0
 20
0.0
 30
0.0
  9
$EXTMIN
 10
-337.9337217809643
 20
-401.8810202078809
 30
-0.00000000000003
  9
$EXTMAX
 10
427.4064183933417
 20
597.0402774283094
 30
0.000000000000007
  9
$LIMMIN
 10
0.0
 20
0.0
  9
$LIMMAX
 10
12.0
 20
9.0
  9
$ORTHOMODE
 70
     1
  9
$REGENMODE
 70
     1
  9
$FILLMODE
 70
     1
  9
$QTEXTMODE
 70
     0
  9
$MIRRTEXT
 70
     0
  9
$LTSCALE
 40
1.0
  9
$ATTMODE
 70
     1
  9
$TEXTSIZE
 40
0.2
  9
$TRACEWID
 40
0.05
  9
$TEXTSTYLE
  7
Standard
  9
$CLAYER
  8
0
  9
$CELTYPE
  6
ByLayer
  9
$CECOLOR
 62
     1
  9
$CELTSCALE
 40
1.0
  9
$DISPSILH
 70
     0
  9
$DIMSCALE
 40
1.0
  9
$DIMASZ
 40
0.18
  9
$DIMEXO
 40
0.0625
  9
$DIMDLI
 40
0.38
  9
$DIMRND
 40
0.0
  9
$DIMDLE
 40
0.0
  9
$DIMEXE
 40
0.18
  9
$DIMTP
 40
0.0
  9
$DIMTM
 40
0.0
  9
$DIMTXT
 40
0.18
  9
$DIMCEN
 40
0.09
  9
$DIMTSZ
 40
0.0
  9
$DIMTOL
 70
     0
  9
$DIMLIM
 70
     0
  9
$DIMTIH
 70
     1
  9
$DIMTOH
 70
     1
  9
$DIMSE1
 70
     0
  9
$DIMSE2
 70
     0
  9
$DIMTAD
 70
     0
  9
$DIMZIN
 70
     0
  9
$DIMBLK
  1

  9
$DIMASO
 70
     1
  9
$DIMSHO
 70
     1
  9
$DIMPOST
  1

  9
$DIMAPOST
  1

  9
$DIMALT
 70
     0
  9
$DIMALTD
 70
     2
  9
$DIMALTF
 40
25.4
  9
$DIMLFAC
 40
1.0
  9
$DIMTOFL
 70
     0
  9
$DIMTVP
 40
0.0
  9
$DIMTIX
 70
     0
  9
$DIMSOXD
 70
     0
  9
$DIMSAH
 70
     0
  9
$DIMBLK1
  1

  9
$DIMBLK2
  1

  9
$DIMSTYLE
  2
Standard
  9
$DIMCLRD
 70
     0
  9
$DIMCLRE
 70
     0
  9
$DIMCLRT
 70
     0
  9
$DIMTFAC
 40
1.0
  9
$DIMGAP
 40
0.09
  9
$DIMJUST
 70
     0
  9
$DIMSD1
 70
     0
  9
$DIMSD2
 70
     0
  9
$DIMTOLJ
 70
     1
  9
$DIMTZIN
 70
     0
  9
$DIMALTZ
 70
     0
  9
$DIMALTTZ
 70
     0
  9
$DIMUPT
 70
     0
  9
$DIMDEC
 70
     4
  9
$DIMTDEC
 70
     4
  9
$DIMALTU
 70
     2
  9
$DIMALTTD
 70
     2
  9
$DIMTXSTY
  7
Standard
  9
$DIMAUNIT
 70
     0
  9
$DIMADEC
 70
     0
  9
$DIMALTRND
 40
0.0
  9
$DIMAZIN
 70
     0
  9
$DIMDSEP
 70
    46
  9
$DIMATFIT
 70
     3
  9
$DIMFRAC
 70
     0
  9
$DIMLDRBLK
  1

  9
$DIMLUNIT
 70
     2
  9
$DIMLWD
 70
    -2
  9
$DIMLWE
 70
    -2
  9
$DIMTMOVE
 70
     0
  9
$LUNITS
 70
     2
  9
$LUPREC
 70
     4
  9
$SKETCHINC
 40
0.1
  9
$FILLETRAD
 40
0.0
  9
$AUNITS
 70
     0
  9
$AUPREC
 70
     0
  9
$MENU
  1
.
  9
$ELEVATION
 40
0.0
  9
$PELEVATION
 40
0.0
  9
$THICKNESS
 40
0.0
  9
$LIMCHECK
 70
     0
  9
$CHAMFERA
 40
0.0
  9
$CHAMFERB
 40
0.0
  9
$CHAMFERC
 40
0.0
  9
$CHAMFERD
 40
0.0
  9
$SKPOLY
 70
     0
  9
$TDCREATE
 40
2455286.476757882
  9
$TDUCREATE
 40
2455286.435091216
  9
$TDUPDATE
 40
2455510.727824109
  9
$TDUUPDATE
 40
2455510.686157442
  9
$TDINDWG
 40
0.4221951273
  9
$TDUSRTIMER
 40
0.4221945602
  9
$USRTIMER
 70
     1
  9
$ANGBASE
 50
0.0
  9
$ANGDIR
 70
     0
  9
$PDMODE
 70
     0
  9
$PDSIZE
 40
0.0
  9
$PLINEWID
 40
0.0
  9
$SPLFRAME
 70
     0
  9
$SPLINETYPE
 70
     6
  9
$SPLINESEGS
 70
     8
  9
$HANDSEED
  5
308B
  9
$SURFTAB1
 70
     6
  9
$SURFTAB2
 70
     6
  9
$SURFTYPE
 70
     6
  9
$SURFU
 70
     6
  9
$SURFV
 70
     6
  9
$UCSBASE
  2

  9
$UCSNAME
  2

  9
$UCSORG
 10
0.0
 20
0.0
 30
0.0
  9
$UCSXDIR
 10
1.0
 20
0.0
 30
0.0
  9
$UCSYDIR
 10
0.0
 20
1.0
 30
0.0
  9
$UCSORTHOREF
  2

  9
$UCSORTHOVIEW
 70
     0
  9
$UCSORGTOP
 10
0.0
 20
0.0
 30
0.0
  9
$UCSORGBOTTOM
 10
0.0
 20
0.0
 30
0.0
  9
$UCSORGLEFT
 10
0.0
 20
0.0
 30
0.0
  9
$UCSORGRIGHT
 10
0.0
 20
0.0
 30
0.0
  9
$UCSORGFRONT
 10
0.0
 20
0.0
 30
0.0
  9
$UCSORGBACK
 10
0.0
 20
0.0
 30
0.0
  9
$PUCSBASE
  2

  9
$PUCSNAME
  2

  9
$PUCSORG
 10
0.0
 20
0.0
 30
0.0
  9
$PUCSXDIR
 10
1.0
 20
0.0
 30
0.0
  9
$PUCSYDIR
 10
0.0
 20
1.0
 30
0.0
  9
$PUCSORTHOREF
  2

  9
$PUCSORTHOVIEW
 70
     0
  9
$PUCSORGTOP
 10
0.0
 20
0.0
 30
0.0
  9
$PUCSORGBOTTOM
 10
0.0
 20
0.0
 30
0.0
  9
$PUCSORGLEFT
 10
0.0
 20
0.0
 30
0.0
  9
$PUCSORGRIGHT
 10
0.0
 20
0.0
 30
0.0
  9
$PUCSORGFRONT
 10
0.0
 20
0.0
 30
0.0
  9
$PUCSORGBACK
 10
0.0
 20
0.0
 30
0.0
  9
$USERI1
 70
     0
  9
$USERI2
 70
     0
  9
$USERI3
 70
     0
  9
$USERI4
 70
     0
  9
$USERI5
 70
     0
  9
$USERR1
 40
0.0
  9
$USERR2
 40
0.0
  9
$USERR3
 40
0.0
  9
$USERR4
 40
0.0
  9
$USERR5
 40
0.0
  9
$WORLDVIEW
 70
     1
  9
$SHADEDGE
 70
     3
  9
$SHADEDIF
 70
    70
  9
$TILEMODE
 70
     1
  9
$MAXACTVP
 70
    64
  9
$PINSBASE
 10
0.0
 20
0.0
 30
0.0
  9
$PLIMCHECK
 70
     0
  9
$PEXTMIN
 10
0.0
 20
0.0
 30
0.0
  9
$PEXTMAX
 10
0.0
 20
0.0
 30
0.0
  9
$PLIMMIN
 10
0.0
 20
0.0
  9
$PLIMMAX
 10
12.0
 20
9.0
  9
$UNITMODE
 70
     0
  9
$VISRETAIN
 70
     1
  9
$PLINEGEN
 70
     0
  9
$PSLTSCALE
 70
     1
  9
$TREEDEPTH
 70
  3020
  9
$CMLSTYLE
  2
Standard
  9
$CMLJUST
 70
     0
  9
$CMLSCALE
 40
1.0
  9
$PROXYGRAPHICS
 70
     1
  9
$MEASUREMENT
 70
     0
  9
$CELWEIGHT
370
    -1
  9
$ENDCAPS
280
     0
  9
$JOINSTYLE
280
     0
  9
$LWDISPLAY
290
     0
  9
$INSUNITS
 70
     1
  9
$HYPERLINKBASE
  1

  9
$STYLESHEET
  1

  9
$XEDIT
290
     1
  9
$CEPSNTYPE
380
     0
  9
$PSTYLEMODE
290
     1
  9
$FINGERPRINTGUID
  2
{D90A366A-9A42-4039-B368-6A243196A234}
  9
$VERSIONGUID
  2
{A7248A73-3896-4B12-909F-0EAB12B1535D}
  9
$EXTNAMES
290
     1
  9
$PSVPSCALE
 40
0.0
  9
$OLESTARTUP
290
     0
  0
ENDSEC
  0
SECTION
  2
CLASSES
  0
CLASS
  1
ACDBDICTIONARYWDFLT
  2
AcDbDictionaryWithDefault
  3
ObjectDBX Classes
 90
        0
280
     0
281
     0
  0
CLASS
  1
ACDBPLACEHOLDER
  2
AcDbPlaceHolder
  3
ObjectDBX Classes
 90
        0
280
     0
281
     0
  0
CLASS
  1
LAYOUT
  2
AcDbLayout
  3
ObjectDBX Classes
 90
        0
280
     0
281
     0
  0
CLASS
  1
DICTIONARYVAR
  2
AcDbDictionaryVar
  3
ObjectDBX Classes
 90
        0
280
     0
281
     0
  0
CLASS
  1
TABLESTYLE
  2
AcDbTableStyle
  3
ObjectDBX Classes
 90
     4095
280
     0
281
     0
  0
CLASS
  1
MATERIAL
  2
AcDbMaterial
  3
ObjectDBX Classes
 90
     1153
280
     0
281
     0
  0
CLASS
  1
VISUALSTYLE
  2
AcDbVisualStyle
  3
ObjectDBX Classes
 90
     4095
280
     0
281
     0
  0
CLASS
  1
SCALE
  2
AcDbScale
  3
ObjectDBX Classes
 90
     1153
280
     0
281
     0
  0
CLASS
  1
MLEADERSTYLE
  2
AcDbMLeaderStyle
  3
ACDB_MLEADERSTYLE_CLASS
 90
     4095
280
     0
281
     0
  0
CLASS
  1
CELLSTYLEMAP
  2
AcDbCellStyleMap
  3
ObjectDBX Classes
 90
     1152
280
     0
281
     0
  0
CLASS
  1
SORTENTSTABLE
  2
AcDbSortentsTable
  3
ObjectDBX Classes
 90
        0
280
     0
281
     0
  0
ENDSEC
  0
SECTION
  2
TABLES
  0
TABLE
  2
VPORT
  5
8
330
0
100
AcDbSymbolTable
 70
     1
  0
VPORT
  5
94
330
8
100
AcDbSymbolTableRecord
100
AcDbViewportTableRecord
  2
*Active
 70
     0
 10
0.0
 20
0.0
 11
1.0
 21
1.0
 12
126.2345231866497
 22
156.2262074443496
 13
0.0
 23
0.0
 14
0.5
 24
0.5
 15
0.5
 25
0.5
 16
0.0
 26
0.0
 36
1.0
 17
0.0
 27
0.0
 37
0.0
 40
617.762472098935
 41
1.148760330578512
 42
50.0
 43
0.0
 44
0.0
 50
0.0
 51
0.0
 71
     0
 72
  1000
 73
     1
 74
     3
 75
     0
 76
     0
 77
     0
 78
     0
281
     0
 65
     1
110
0.0
120
0.0
130
0.0
111
1.0
121
0.0
131
0.0
112
0.0
122
1.0
132
0.0
 79
     0
146
0.0
  0
ENDTAB
  0
TABLE
  2
LTYPE
  5
5
330
0
100
AcDbSymbolTable
 70
     2
  0
LTYPE
  5
14
330
5
100
AcDbSymbolTableRecord
100
AcDbLinetypeTableRecord
  2
ByBlock
 70
     0
  3

 72
    65
 73
     0
 40
0.0
  0
LTYPE
  5
15
330
5
100
AcDbSymbolTableRecord
100
AcDbLinetypeTableRecord
  2
ByLayer
 70
     0
  3

 72
    65
 73
     0
 40
0.0
  0
LTYPE
  5
16
330
5
100
AcDbSymbolTableRecord
100
AcDbLinetypeTableRecord
  2
Continuous
 70
     0
  3
Solid line
 72
    65
 73
     0
 40
0.0
  0
LTYPE
  5
14D
330
5
100
AcDbSymbolTableRecord
100
AcDbLinetypeTableRecord
  2
DASHDOT
 70
     0
  3
 __ . __ . __ . __ . __ . __ . __ . 
 72
    65
 73
     4
 40
18.5
 49
12.0
 74
     0
 49
-3.0
 74
     0
 49
0.5
 74
     0
 49
-3.0
 74
     0
  0
ENDTAB
  0
TABLE
  2
LAYER
  5
2
102
{ACAD_XDICTIONARY
360
E3C
102
}
330
0
100
AcDbSymbolTable
 70
    10
  0
LAYER
  5
10
102
{ACAD_XDICTIONARY
360
E6
102
}
330
2
100
AcDbSymbolTableRecord
100
AcDbLayerTableRecord
  2
0
 70
     0
 62
     7
  6
Continuous
370
    -3
390
F
  0
LAYER
  5
E3A
102
{ACAD_XDICTIONARY
360
FAB
102
}
330
2
100
AcDbSymbolTableRecord
100
AcDbLayerTableRecord
  2
Q
 70
     0
 62
     7
  6
Continuous
370
    -3
390
F
1001
AcAecLayerStandard
1000

1000

  0
LAYER
  5
E47
102
{ACAD_XDICTIONARY
360
FAD
102
}
330
2
100
AcDbSymbolTableRecord
100
AcDbLayerTableRecord
  2
C
 70
     0
 62
     7
  6
Continuous
370
    -3
390
F
1001
AcAecLayerStandard
1000

1000

  0
LAYER
  5
17CB
102
{ACAD_XDICTIONARY
360
17CC
102
}
330
2
100
AcDbSymbolTableRecord
100
AcDbLayerTableRecord
  2
S
 70
     0
 62
     7
  6
Continuous
370
    -3
390
F
1001
AcAecLayerStandard
1000

1000

  0
LAYER
  5
1A51
102
{ACAD_XDICTIONARY
360
1A52
102
}
330
2
100
AcDbSymbolTableRecord
100
AcDbLayerTableRecord
  2
T
 70
     0
 62
     7
  6
Continuous
370
    -3
390
F
1001
AcAecLayerStandard
1000

1000

  0
LAYER
  5
25E9
330
2
100
AcDbSymbolTableRecord
100
AcDbLayerTableRecord
  2
E
 70
     0
 62
     7
  6
Continuous
370
    -3
390
F
1001
AcAecLayerStandard
1000

1000

  0
LAYER
  5
2F7D
330
2
100
AcDbSymbolTableRecord
100
AcDbLayerTableRecord
  2
STM
 70
     0
 62
     7
  6
Continuous
370
    -3
390
F
1001
AcAecLayerStandard
1000

1000

  0
LAYER
  5
2F89
330
2
100
AcDbSymbolTableRecord
100
AcDbLayerTableRecord
  2
CTM
 70
     0
 62
     7
  6
Continuous
370
    -3
390
F
1001
AcAecLayerStandard
1000

1000

  0
LAYER
  5
2FC9
330
2
100
AcDbSymbolTableRecord
100
AcDbLayerTableRecord
  2
Defpoints
 70
     0
 62
     7
  6
Continuous
290
     0
370
    -3
390
F
  0
LAYER
  5
2FCA
330
2
100
AcDbSymbolTableRecord
100
AcDbLayerTableRecord
  2
QUOTE
 70
     0
 62
     7
  6
Continuous
370
    -3
390
F
1001
AcAecLayerStandard
1000

1000

  0
ENDTAB
  0
TABLE
  2
STYLE
  5
3
330
0
100
AcDbSymbolTable
 70
     4
  0
STYLE
  5
11
330
3
100
AcDbSymbolTableRecord
100
AcDbTextStyleTableRecord
  2
Standard
 70
     0
 40
0.0
 41
1.0
 50
0.0
 71
     0
 42
0.2
  3
txt.shx
  4

  0
STYLE
  5
DC
330
3
100
AcDbSymbolTableRecord
100
AcDbTextStyleTableRecord
  2
Annotativa
 70
     0
 40
0.0
 41
1.0
 50
0.0
 71
     0
 42
0.2
  3
txt.shx
  4

1001
AcadAnnotative
1000
AnnotativeData
1002
{
1070
     1
1070
     1
1002
}
  0
STYLE
  5
D9F
330
3
100
AcDbSymbolTableRecord
100
AcDbTextStyleTableRecord
  2
H
 70
     0
 40
0.0
 41
1.0
 50
0.0
 71
     0
 42
1.0
  3
ROMANS.SHX
  4

  0
STYLE
  5
280E
330
3
100
AcDbSymbolTableRecord
100
AcDbTextStyleTableRecord
  2
Roman
 70
     0
 40
0.0
 41
1.0
 50
0.0
 71
     0
 42
0.2
  3

  4

  0
ENDTAB
  0
TABLE
  2
VIEW
  5
6
330
0
100
AcDbSymbolTable
 70
     0
  0
ENDTAB
  0
TABLE
  2
UCS
  5
7
330
0
100
AcDbSymbolTable
 70
     0
  0
ENDTAB
  0
TABLE
  2
APPID
  5
9
330
0
100
AcDbSymbolTable
 70
     8
  0
APPID
  5
12
330
9
100
AcDbSymbolTableRecord
100
AcDbRegAppTableRecord
  2
ACAD
 70
     0
  0
APPID
  5
DD
330
9
100
AcDbSymbolTableRecord
100
AcDbRegAppTableRecord
  2
AcadAnnoPO
 70
     0
  0
APPID
  5
DE
330
9
100
AcDbSymbolTableRecord
100
AcDbRegAppTableRecord
  2
AcadAnnotative
 70
     0
  0
APPID
  5
DF
330
9
100
AcDbSymbolTableRecord
100
AcDbRegAppTableRecord
  2
ACAD_DSTYLE_DIMJAG
 70
     0
  0
APPID
  5
E0
330
9
100
AcDbSymbolTableRecord
100
AcDbRegAppTableRecord
  2
ACAD_DSTYLE_DIMTALN
 70
     0
  0
APPID
  5
107
330
9
100
AcDbSymbolTableRecord
100
AcDbRegAppTableRecord
  2
ACAD_MLEADERVER
 70
     0
  0
APPID
  5
D81
330
9
100
AcDbSymbolTableRecord
100
AcDbRegAppTableRecord
  2
ACAD_EXEMPT_FROM_CAD_STANDARDS
 70
     0
  0
APPID
  5
E3B
330
9
100
AcDbSymbolTableRecord
100
AcDbRegAppTableRecord
  2
AcAecLayerStandard
 70
     0
  0
ENDTAB
  0
TABLE
  2
DIMSTYLE
  5
A
330
0
100
AcDbSymbolTable
 70
     2
100
AcDbDimStyleTable
 71
     2
340
27
340
E1
  0
DIMSTYLE
105
27
102
{ACAD_REACTORS
330
2FD2
330
2FD3
102
}
330
A
100
AcDbSymbolTableRecord
100
AcDbDimStyleTableRecord
  2
Standard
 70
     0
340
11
  0
DIMSTYLE
105
E1
330
A
100
AcDbSymbolTableRecord
100
AcDbDimStyleTableRecord
  2
Annotativa
 70
     0
 40
0.0
340
11
1001
AcadAnnotative
1000
AnnotativeData
1002
{
1070
     1
1070
     1
1002
}
1001
ACAD_DSTYLE_DIMJAG
1070
   388
1040
1.5
1001
ACAD_DSTYLE_DIMTALN
1070
   392
1070
     0
  0
ENDTAB
  0
TABLE
  2
BLOCK_RECORD
  5
1
330
0
100
AcDbSymbolTable
 70
     5
  0
BLOCK_RECORD
  5
1F
102
{ACAD_XDICTIONARY
360
2D0C
102
}
330
1
100
AcDbSymbolTableRecord
100
AcDbBlockTableRecord
  2
*Model_Space
340
22
  0
BLOCK_RECORD
  5
58
330
1
100
AcDbSymbolTableRecord
100
AcDbBlockTableRecord
  2
*Paper_Space
340
59
  0
BLOCK_RECORD
  5
5D
330
1
100
AcDbSymbolTableRecord
100
AcDbBlockTableRecord
  2
*Paper_Space0
340
5E
  0
BLOCK_RECORD
  5
2FAF
330
1
100
AcDbSymbolTableRecord
100
AcDbBlockTableRecord
  2
*D1
340
0
  0
BLOCK_RECORD
  5
2FBC
330
1
100
AcDbSymbolTableRecord
100
AcDbBlockTableRecord
  2
*D2
340
0
  0
BLOCK_RECORD
  5
2FD4
330
1
100
AcDbSymbolTableRecord
100
AcDbBlockTableRecord
  2
*D3
340
0
  0
BLOCK_RECORD
  5
2FE1
330
1
100
AcDbSymbolTableRecord
100
AcDbBlockTableRecord
  2
*D4
340
0
  0
ENDTAB
  0
ENDSEC
  0
SECTION
  2
BLOCKS
  0
BLOCK
  5
20
330
1F
100
AcDbEntity
  8
0
100
AcDbBlockBegin
  2
*Model_Space
 70
     0
 10
0.0
 20
0.0
 30
0.0
  3
*Model_Space
  1

  0
ENDBLK
  5
21
330
1F
100
AcDbEntity
  8
0
100
AcDbBlockEnd
  0
BLOCK
  5
5A
330
58
100
AcDbEntity
 67
     1
  8
0
100
AcDbBlockBegin
  2
*Paper_Space
 70
     0
 10
0.0
 20
0.0
 30
0.0
  3
*Paper_Space
  1

  0
ENDBLK
  5
5B
330
58
100
AcDbEntity
 67
     1
  8
0
100
AcDbBlockEnd
  0
BLOCK
  5
5F
330
5D
100
AcDbEntity
 67
     1
  8
0
100
AcDbBlockBegin
  2
*Paper_Space0
 70
     0
 10
0.0
 20
0.0
 30
0.0
  3
*Paper_Space0
  1

  0
ENDBLK
  5
60
330
5D
100
AcDbEntity
 67
     1
  8
0
100
AcDbBlockEnd
  0
BLOCK
  5
2FB0
330
2FAF
100
AcDbEntity
  8
0
100
AcDbBlockBegin
  2
*D1
 70
     1
 10
0.0
 20
0.0
 30
0.0
  3
*D1
  1

  0
LINE
  5
2FB1
330
2FAF
100
AcDbEntity
  8
QUOTE
 62
     7
370
    -2
100
AcDbLine
 10
-107.0805200348571
 20
322.4648743244586
 30
0.0
 11
-147.7820873541619
 21
322.4648743244586
 31
0.0
  0
LINE
  5
2FB2
330
2FAF
100
AcDbEntity
  8
QUOTE
 62
     7
370
    -2
100
AcDbLine
 10
-109.551247605389
 20
-107.5351256755409
 30
0.0
 11
-147.782087354162
 21
-107.5351256755409
 31
0.0
  0
LINE
  5
2FB3
330
2FAF
100
AcDbEntity
  8
QUOTE
 62
     7
370
    -2
100
AcDbLine
 10
-147.6020873541619
 20
307.4648743244587
 30
0.0
 11
-147.6020873541619
 21
106.8956934585356
 31
0.0
  0
LINE
  5
2FB4
330
2FAF
100
AcDbEntity
  8
QUOTE
 62
     7
370
    -2
100
AcDbLine
 10
-147.602087354162
 20
-92.53512567554093
 30
0.0
 11
-147.6020873541619
 21
96.71569345853564
 31
0.0
  0
SOLID
  5
2FB5
330
2FAF
100
AcDbEntity
  8
QUOTE
 62
     7
100
AcDbTrace
 10
-150.1020873541619
 20
307.4648743244587
 30
0.0
 11
-145.1020873541619
 21
307.4648743244587
 31
0.0
 12
-147.6020873541619
 22
322.4648743244586
 32
0.0
 13
-147.6020873541619
 23
322.4648743244586
 33
0.0
  0
SOLID
  5
2FB6
330
2FAF
100
AcDbEntity
  8
QUOTE
 62
     7
100
AcDbTrace
 10
-150.102087354162
 20
-92.53512567554093
 30
0.0
 11
-145.102087354162
 21
-92.53512567554093
 31
0.0
 12
-147.602087354162
 22
-107.5351256755409
 32
0.0
 13
-147.602087354162
 23
-107.5351256755409
 33
0.0
  0
MTEXT
  5
2FB7
330
2FAF
100
AcDbEntity
  8
QUOTE
 62
     7
100
AcDbMText
 10
-147.6020873541619
 20
101.8056934585356
 30
0.0
 40
10.0
 41
0.0
 71
     5
 72
     1
  1
\A1;430
 73
     1
 44
1.0
1001
ACAD
1000
MTEXTBEGIN
1070
    73
1070
     1
1070
    44
1040
1.0
1070
    74
1070
     0
1000
MTEXTEND
  0
POINT
  5
2FB8
330
2FAF
100
AcDbEntity
  8
Defpoints
 62
     0
100
AcDbPoint
 10
-107.0180200348571
 20
322.4648743244586
 30
0.0
  0
POINT
  5
2FB9
330
2FAF
100
AcDbEntity
  8
Defpoints
 62
     0
100
AcDbPoint
 10
-109.488747605389
 20
-107.5351256755409
 30
0.0
  0
POINT
  5
2FBA
330
2FAF
100
AcDbEntity
  8
Defpoints
 62
     0
100
AcDbPoint
 10
-147.602087354162
 20
-107.5351256755409
 30
0.0
  0
ENDBLK
  5
2FBB
330
2FAF
100
AcDbEntity
  8
0
100
AcDbBlockEnd
  0
BLOCK
  5
2FBD
330
2FBC
100
AcDbEntity
  8
0
100
AcDbBlockBegin
  2
*D2
 70
     1
 10
0.0
 20
0.0
 30
0.0
  3
*D2
  1

  0
LINE
  5
2FBE
330
2FBC
100
AcDbEntity
  8
QUOTE
 62
     7
370
    -2
100
AcDbLine
 10
75.5183623946113
 20
-92.59941600788572
 30
0.0
 11
75.5183623946113
 21
-126.6742362736619
 31
0.0
  0
LINE
  5
2FBF
330
2FBC
100
AcDbEntity
  8
QUOTE
 62
     7
370
    -2
100
AcDbLine
 10
-124.489317605389
 20
-92.53454567554092
 30
0.0
 11
-124.489317605389
 21
-126.6742362736619
 31
0.0
  0
LINE
  5
2FC0
330
2FBC
100
AcDbEntity
  8
QUOTE
 62
     7
370
    -2
100
AcDbLine
 10
60.5183623946113
 20
-126.4942362736619
 30
0.0
 11
-11.26116932183178
 21
-126.4942362736619
 31
0.0
  0
LINE
  5
2FC1
330
2FBC
100
AcDbEntity
  8
QUOTE
 62
     7
370
    -2
100
AcDbLine
 10
-109.489317605389
 20
-126.4942362736619
 30
0.0
 11
-34.77450265516512
 21
-126.4942362736619
 31
0.0
  0
SOLID
  5
2FC2
330
2FBC
100
AcDbEntity
  8
QUOTE
 62
     7
100
AcDbTrace
 10
60.5183623946113
 20
-123.9942362736619
 30
0.0
 11
60.5183623946113
 21
-128.9942362736619
 31
0.0
 12
75.5183623946113
 22
-126.4942362736619
 32
0.0
 13
75.5183623946113
 23
-126.4942362736619
 33
0.0
  0
SOLID
  5
2FC3
330
2FBC
100
AcDbEntity
  8
QUOTE
 62
     7
100
AcDbTrace
 10
-109.489317605389
 20
-123.9942362736619
 30
0.0
 11
-109.489317605389
 21
-128.9942362736619
 31
0.0
 12
-124.489317605389
 22
-126.4942362736619
 32
0.0
 13
-124.489317605389
 23
-126.4942362736619
 33
0.0
  0
MTEXT
  5
2FC4
330
2FBC
100
AcDbEntity
  8
QUOTE
 62
     7
100
AcDbMText
 10
-23.01783598849845
 20
-126.4942362736619
 30
0.0
 40
10.0
 41
0.0
 71
     5
 72
     1
  1
\A1;200
 73
     1
 44
1.0
1001
ACAD
1000
MTEXTBEGIN
1070
    73
1070
     1
1070
    44
1040
1.0
1070
    74
1070
     0
1000
MTEXTEND
  0
POINT
  5
2FC5
330
2FBC
100
AcDbEntity
  8
Defpoints
 62
     0
100
AcDbPoint
 10
75.5183623946113
 20
-92.53691600788574
 30
0.0
  0
POINT
  5
2FC6
330
2FBC
100
AcDbEntity
  8
Defpoints
 62
     0
100
AcDbPoint
 10
-124.489317605389
 20
-92.47204567554092
 30
0.0
  0
POINT
  5
2FC7
330
2FBC
100
AcDbEntity
  8
Defpoints
 62
     0
100
AcDbPoint
 10
-124.489317605389
 20
-126.4942362736619
 30
0.0
  0
ENDBLK
  5
2FC8
330
2FBC
100
AcDbEntity
  8
0
100
AcDbBlockEnd
  0
BLOCK
  5
2FD5
330
2FD4
100
AcDbEntity
  8
0
 62
     1
100
AcDbBlockBegin
  2
*D3
 70
     1
 10
0.0
 20
0.0
 30
0.0
  3
*D3
  1

  0
LINE
  5
3048
330
2FD4
100
AcDbEntity
  8
QUOTE
 62
     7
370
    -2
100
AcDbLine
 10
39.28233381902087
 20
366.8339058500728
 30
0.0
 11
-1.419233500283825
 21
366.8339058500728
 31
0.0
  0
LINE
  5
3049
330
2FD4
100
AcDbEntity
  8
QUOTE
 62
     7
370
    -2
100
AcDbLine
 10
36.811606248489
 20
6.833874850072818
 30
0.0
 11
-1.419233500283907
 21
6.833874850072827
 31
0.0
  0
LINE
  5
304A
330
2FD4
100
AcDbEntity
  8
QUOTE
 62
     7
370
    -2
100
AcDbLine
 10
-1.239233500283833
 20
351.8339058500728
 30
0.0
 11
-1.23923350028387
 21
189.440480427214
 31
0.0
  0
LINE
  5
304B
330
2FD4
100
AcDbEntity
  8
QUOTE
 62
     7
370
    -2
100
AcDbLine
 10
-1.239233500283906
 20
21.83387485007283
 30
0.0
 11
-1.239233500283872
 21
179.2604804272139
 31
0.0
  0
SOLID
  5
304C
330
2FD4
100
AcDbEntity
  8
QUOTE
 62
     7
100
AcDbTrace
 10
-3.739233500283833
 20
351.8339058500728
 30
0.0
 11
1.260766499716166
 21
351.8339058500728
 31
0.0
 12
-1.239233500283829
 22
366.8339058500728
 32
0.0
 13
-1.239233500283829
 23
366.8339058500728
 33
0.0
  0
SOLID
  5
304D
330
2FD4
100
AcDbEntity
  8
QUOTE
 62
     7
100
AcDbTrace
 10
-3.739233500283906
 20
21.83387485007283
 30
0.0
 11
1.260766499716092
 21
21.83387485007283
 31
0.0
 12
-1.239233500283909
 22
6.833874850072827
 32
0.0
 13
-1.239233500283909
 23
6.833874850072827
 33
0.0
  0
MTEXT
  5
304E
330
2FD4
100
AcDbEntity
  8
QUOTE
 62
     7
100
AcDbMText
 10
-1.239233500283899
 20
184.3504804272139
 30
0.0
 40
10.0
 41
0.0
 71
     5
 72
     1
  1
\A1;360
 73
     1
 44
1.0
1001
ACAD
1000
MTEXTBEGIN
1070
    73
1070
     1
1070
    44
1040
1.0
1070
    74
1070
     0
1000
MTEXTEND
  0
POINT
  5
304F
330
2FD4
100
AcDbEntity
  8
Defpoints
 62
     0
100
AcDbPoint
 10
39.34483381902087
 20
366.8339058500728
 30
0.0
  0
POINT
  5
3050
330
2FD4
100
AcDbEntity
  8
Defpoints
 62
     0
100
AcDbPoint
 10
36.874106248489
 20
6.833874850072818
 30
0.0
  0
POINT
  5
3051
330
2FD4
100
AcDbEntity
  8
Defpoints
 62
     0
100
AcDbPoint
 10
-1.239233500283909
 20
6.833874850072827
 30
0.0
  0
ENDBLK
  5
2FD6
330
2FD4
100
AcDbEntity
  8
0
 62
     1
100
AcDbBlockEnd
  0
BLOCK
  5
2FE2
330
2FE1
100
AcDbEntity
  8
0
 62
     1
100
AcDbBlockBegin
  2
*D4
 70
     1
 10
0.0
 20
0.0
 30
0.0
  3
*D4
  1

  0
LINE
  5
302A
330
2FE1
100
AcDbEntity
  8
QUOTE
 62
     7
370
    -2
100
AcDbLine
 10
340.8741062484888
 20
22.76900591399156
 30
0.0
 11
340.8741062484888
 21
-11.30581435178466
 31
0.0
  0
LINE
  5
302B
330
2FE1
100
AcDbEntity
  8
QUOTE
 62
     7
370
    -2
100
AcDbLine
 10
20.87410624848906
 20
22.83387624633637
 30
0.0
 11
20.87410624848905
 21
-11.30581435178466
 31
0.0
  0
LINE
  5
302C
330
2FE1
100
AcDbEntity
  8
QUOTE
 62
     7
370
    -2
100
AcDbLine
 10
325.8741062484888
 20
-11.12581435178466
 30
0.0
 11
195.0857005367532
 21
-11.12581435178466
 31
0.0
  0
LINE
  5
302D
330
2FE1
100
AcDbEntity
  8
QUOTE
 62
     7
370
    -2
100
AcDbLine
 10
35.87410624848907
 20
-11.12581435178466
 30
0.0
 11
169.9057005367532
 21
-11.12581435178466
 31
0.0
  0
SOLID
  5
302E
330
2FE1
100
AcDbEntity
  8
QUOTE
 62
     7
100
AcDbTrace
 10
325.8741062484888
 20
-8.62581435178466
 30
0.0
 11
325.8741062484888
 21
-13.62581435178466
 31
0.0
 12
340.8741062484888
 22
-11.12581435178466
 32
0.0
 13
340.8741062484888
 23
-11.12581435178466
 33
0.0
  0
SOLID
  5
302F
330
2FE1
100
AcDbEntity
  8
QUOTE
 62
     7
100
AcDbTrace
 10
35.87410624848907
 20
-8.62581435178466
 30
0.0
 11
35.87410624848907
 21
-13.62581435178466
 31
0.0
 12
20.87410624848905
 22
-11.12581435178466
 32
0.0
 13
20.87410624848905
 23
-11.12581435178466
 33
0.0
  0
MTEXT
  5
3030
330
2FE1
100
AcDbEntity
  8
QUOTE
 62
     7
100
AcDbMText
 10
182.4957005367532
 20
-11.12581435178466
 30
0.0
 40
10.0
 41
0.0
 71
     5
 72
     1
  1
\A1;320
 73
     1
 44
1.0
1001
ACAD
1000
MTEXTBEGIN
1070
    73
1070
     1
1070
    44
1040
1.0
1070
    74
1070
     0
1000
MTEXTEND
  0
POINT
  5
3031
330
2FE1
100
AcDbEntity
  8
Defpoints
 62
     0
100
AcDbPoint
 10
340.8741062484888
 20
22.83150591399156
 30
0.0
  0
POINT
  5
3032
330
2FE1
100
AcDbEntity
  8
Defpoints
 62
     0
100
AcDbPoint
 10
20.87410624848906
 20
22.89637624633637
 30
0.0
  0
POINT
  5
3033
330
2FE1
100
AcDbEntity
  8
Defpoints
 62
     0
100
AcDbPoint
 10
20.87410624848905
 20
-11.12581435178466
 30
0.0
  0
ENDBLK
  5
2FE3
330
2FE1
100
AcDbEntity
  8
0
 62
     1
100
AcDbBlockEnd
  0
ENDSEC
  0
SECTION
  2
ENTITIES
  0
LINE
  5
ACF
330
1F
100
AcDbEntity
  8
0
 62
   253
370
    35
100
AcDbLine
 10
125.374106248489
 20
199.3322268500729
 30
0.0
 11
236.374106248489
 21
199.3322268500729
 31
0.0
  0
LINE
  5
AD0
330
1F
100
AcDbEntity
  8
0
 62
   253
370
    35
100
AcDbLine
 10
39.58290824848899
 20
199.3322268500729
 30
0.0
 11
125.710425248489
 21
199.3322268500729
 31
0.0
  0
LINE
  5
AD1
330
1F
100
AcDbEntity
  8
0
 62
   253
370
    35
100
AcDbLine
 10
236.374106248489
 20
199.3322268500729
 30
0.0
 11
322.165305248489
 21
199.3322268500729
 31
0.0
  0
ARC
  5
AD2
330
1F
100
AcDbEntity
  8
0
 62
   253
370
    35
100
AcDbCircle
 10
180.8741062484889
 20
187.4715398500728
 30
0.0
 40
10.25
100
AcDbArc
 50
0.0
 51
224.9008799999998
  0
ARC
  5
AD3
330
1F
100
AcDbEntity
  8
0
 62
   253
370
    35
100
AcDbCircle
 10
180.8741062484889
 20
187.4715398500728
 30
0.0
 40
10.25
100
AcDbArc
 50
315.0991389999995
 51
0.0000100000010064
  0
LINE
  5
AE8
330
1F
100
AcDbEntity
  8
0
 62
     7
370
    13
100
AcDbLine
 10
336.968253248489
 20
35.53117185007283
 30
0.0
 11
24.77994424848899
 21
35.53117185007283
 31
0.0
  0
LINE
  5
AE9
330
1F
100
AcDbEntity
  8
0
 62
     7
 48
0.025
370
    35
100
AcDbLine
 10
336.968253248489
 20
35.53117185007283
 30
0.0
 11
337.968253248489
 21
35.53117185007283
 31
0.0
  0
LINE
  5
AEA
330
1F
100
AcDbEntity
  8
0
 62
     7
 48
0.025
370
    35
100
AcDbLine
 10
336.968253248489
 20
338.1365788500727
 30
0.0
 11
337.968253248489
 21
338.1365788500727
 31
0.0
  0
LINE
  5
AEB
330
1F
100
AcDbEntity
  8
0
 62
     7
370
    13
100
AcDbLine
 10
336.968253248489
 20
338.1365788500727
 30
0.0
 11
24.77994424848899
 21
338.1365788500727
 31
0.0
  0
LINE
  5
AEC
330
1F
100
AcDbEntity
  8
0
 62
     7
 48
0.024999
370
    35
100
AcDbLine
 10
24.77994424848899
 20
338.1365788500727
 30
0.0
 11
23.779975248489
 21
338.1365788500727
 31
0.0
  0
LINE
  5
AED
330
1F
100
AcDbEntity
  8
0
 62
     7
 48
0.024999
370
    35
100
AcDbLine
 10
24.77994424848899
 20
35.53117185007283
 30
0.0
 11
23.779975248489
 21
35.53117185007283
 31
0.0
  0
ARC
  5
AEE
330
1F
100
AcDbEntity
  8
0
 62
     7
370
    35
100
AcDbCircle
 10
322.374106248489
 20
325.0398388500729
 30
0.0
 40
2.0
100
AcDbArc
 50
0.0
 51
90.00000300000015
  0
LINE
  5
AEF
330
1F
100
AcDbEntity
  8
0
 62
     7
 48
0.449998
370
    35
100
AcDbLine
 10
324.374106248489
 20
325.0398388500729
 30
0.0
 11
324.374106248489
 21
307.0398998500727
 31
0.0
  0
ARC
  5
AF0
330
1F
100
AcDbEntity
  8
0
 62
     7
370
    35
100
AcDbCircle
 10
322.374106248489
 20
307.0398998500727
 30
0.0
 40
2.0
100
AcDbArc
 50
269.9999969999999
 51
0.0
  0
LINE
  5
AF1
330
1F
100
AcDbEntity
  8
0
 62
     7
370
    35
100
AcDbLine
 10
277.3741062484889
 20
305.0398998500727
 30
0.0
 11
322.374106248489
 21
305.0398998500727
 31
0.0
  0
ARC
  5
AF2
330
1F
100
AcDbEntity
  8
0
 62
     7
370
    35
100
AcDbCircle
 10
277.3741062484889
 20
307.0398998500727
 30
0.0
 40
2.0
100
AcDbArc
 50
179.9999949999995
 51
269.9999969999999
  0
LINE
  5
AF3
330
1F
100
AcDbEntity
  8
0
 62
     7
 48
0.449998
370
    35
100
AcDbLine
 10
275.3741062484889
 20
307.0398998500727
 30
0.0
 11
275.3741062484889
 21
325.0398388500729
 31
0.0
  0
ARC
  5
AF4
330
1F
100
AcDbEntity
  8
0
 62
     7
370
    35
100
AcDbCircle
 10
277.3741062484889
 20
325.0398388500729
 30
0.0
 40
2.0
100
AcDbArc
 50
90.00000300000015
 51
180.0000050000005
  0
LINE
  5
AF5
330
1F
100
AcDbEntity
  8
0
 62
     7
370
    35
100
AcDbLine
 10
322.374106248489
 20
327.0398388500729
 30
0.0
 11
277.3741062484889
 21
327.0398388500729
 31
0.0
  0
LINE
  5
AF7
330
1F
100
AcDbEntity
  8
0
 62
     7
 48
0.025
370
    35
100
AcDbLine
 10
325.8741062484889
 20
10.36106685007283
 30
0.0
 11
324.874106248489
 21
10.36124985007282
 31
0.0
  0
LINE
  5
AF8
330
1F
100
AcDbEntity
  8
0
 62
     7
370
    35
100
AcDbLine
 10
324.874106248489
 20
10.36124985007282
 30
0.0
 11
36.874106248489
 21
10.36124985007282
 31
0.0
  0
LINE
  5
AF9
330
1F
100
AcDbEntity
  8
0
 62
     7
 48
0.025
370
    35
100
AcDbLine
 10
36.874106248489
 20
10.36124985007282
 30
0.0
 11
35.874106248489
 21
10.36106685007283
 31
0.0
  0
POLYLINE
  5
AFA
330
1F
100
AcDbEntity
  8
0
 62
     7
370
    35
100
AcDb2dPolyline
 66
     1
 10
0.0
 20
0.0
 30
0.0
  0
VERTEX
  5
AFB
330
AFA
100
AcDbEntity
  8
0
370
     0
100
AcDbVertex
100
AcDb2dVertex
 10
338.310172248489
 20
343.7349068500728
 30
0.0
  0
VERTEX
  5
AFC
330
AFA
100
AcDbEntity
  8
0
370
     0
100
AcDbVertex
100
AcDb2dVertex
 10
338.309012248489
 20
343.7383248500728
 30
0.0
  0
VERTEX
  5
AFD
330
AFA
100
AcDbEntity
  8
0
370
     0
100
AcDbVertex
100
AcDb2dVertex
 10
338.306693248489
 20
343.7527898500729
 30
0.0
  0
VERTEX
  5
AFE
330
AFA
100
AcDbEntity
  8
0
370
     0
100
AcDbVertex
100
AcDb2dVertex
 10
338.2997962484891
 20
343.8555118500728
 30
0.0
  0
VERTEX
  5
AFF
330
AFA
100
AcDbEntity
  8
0
370
     0
100
AcDbVertex
100
AcDb2dVertex
 10
338.2802652484889
 20
344.6809518500728
 30
0.0
  0
VERTEX
  5
B00
330
AFA
100
AcDbEntity
  8
0
370
     0
100
AcDbVertex
100
AcDb2dVertex
 10
338.257560248489
 20
347.2820258500727
 30
0.0
  0
VERTEX
  5
B01
330
AFA
100
AcDbEntity
  8
0
370
     0
100
AcDbVertex
100
AcDb2dVertex
 10
338.249229248489
 20
350.8339058500728
 30
0.0
  0
SEQEND
  5
B02
330
AFA
100
AcDbEntity
  8
0
370
     0
  0
LINE
  5
B03
330
1F
100
AcDbEntity
  8
0
 62
     7
 48
0.001473
370
    35
100
AcDbLine
 10
338.351798248489
 20
343.6932198500727
 30
0.0
 11
338.310172248489
 21
343.7349068500728
 31
0.0
  0
LINE
  5
B04
330
1F
100
AcDbEntity
  8
0
 62
     7
370
    35
100
AcDbLine
 10
338.351798248489
 20
29.97453085007279
 30
0.0
 11
338.351798248489
 21
343.6932198500727
 31
0.0
  0
POLYLINE
  5
B05
330
1F
100
AcDbEntity
  8
0
 62
     7
370
    35
100
AcDb2dPolyline
 66
     1
 10
0.0
 20
0.0
 30
0.0
  0
VERTEX
  5
B06
330
B05
100
AcDbEntity
  8
0
370
     0
100
AcDbVertex
100
AcDb2dVertex
 10
338.249229248489
 20
22.83387485007282
 30
0.0
  0
VERTEX
  5
B07
330
B05
100
AcDbEntity
  8
0
370
     0
100
AcDbVertex
100
AcDb2dVertex
 10
338.262992248489
 20
27.29697985007286
 30
0.0
  0
VERTEX
  5
B08
330
B05
100
AcDbEntity
  8
0
370
     0
100
AcDbVertex
100
AcDb2dVertex
 10
338.288993248489
 20
29.46220185007283
 30
0.0
  0
VERTEX
  5
B09
330
B05
100
AcDbEntity
  8
0
370
     0
100
AcDbVertex
100
AcDb2dVertex
 10
338.3029702484888
 20
29.87080185007281
 30
0.0
  0
VERTEX
  5
B0A
330
B05
100
AcDbEntity
  8
0
370
     0
100
AcDbVertex
100
AcDb2dVertex
 10
338.307731248489
 20
29.92289485007282
 30
0.0
  0
VERTEX
  5
B0B
330
B05
100
AcDbEntity
  8
0
370
     0
100
AcDbVertex
100
AcDb2dVertex
 10
338.3093482484889
 20
29.93070785007282
 30
0.0
  0
VERTEX
  5
B0C
330
B05
100
AcDbEntity
  8
0
370
     0
100
AcDbVertex
100
AcDb2dVertex
 10
338.310172248489
 20
29.93287385007281
 30
0.0
  0
SEQEND
  5
B0D
330
B05
100
AcDbEntity
  8
0
370
     0
  0
LINE
  5
B0E
330
1F
100
AcDbEntity
  8
0
 62
     7
 48
0.025
370
    35
100
AcDbLine
 10
36.874106248489
 20
363.3065008500728
 30
0.0
 11
35.874106248489
 21
363.3066838500728
 31
0.0
  0
LINE
  5
B0F
330
1F
100
AcDbEntity
  8
0
 62
     7
370
    35
100
AcDbLine
 10
324.874106248489
 20
363.3065008500728
 30
0.0
 11
36.874106248489
 21
363.3065008500728
 31
0.0
  0
LINE
  5
B10
330
1F
100
AcDbEntity
  8
0
 62
     7
 48
0.025
370
    35
100
AcDbLine
 10
325.8741062484889
 20
363.3066838500728
 30
0.0
 11
324.874106248489
 21
363.3065008500728
 31
0.0
  0
POLYLINE
  5
B12
330
1F
100
AcDbEntity
  8
0
 62
     7
370
    35
100
AcDb2dPolyline
 66
     1
 10
0.0
 20
0.0
 30
0.0
  0
VERTEX
  5
B13
330
B12
100
AcDbEntity
  8
0
370
     0
100
AcDbVertex
100
AcDb2dVertex
 10
23.498984248489
 20
350.8339058500728
 30
0.0
  0
VERTEX
  5
B14
330
B12
100
AcDbEntity
  8
0
370
     0
100
AcDbVertex
100
AcDb2dVertex
 10
23.49066824848899
 20
347.2820258500727
 30
0.0
  0
VERTEX
  5
B15
330
B12
100
AcDbEntity
  8
0
370
     0
100
AcDbVertex
100
AcDb2dVertex
 10
23.46793324848901
 20
344.6809518500728
 30
0.0
  0
VERTEX
  5
B16
330
B12
100
AcDbEntity
  8
0
370
     0
100
AcDbVertex
100
AcDb2dVertex
 10
23.45537755558584
 20
344.0315481325928
 30
0.0
  0
VERTEX
  5
B17
330
B12
100
AcDbEntity
  8
0
370
     0
100
AcDbVertex
100
AcDb2dVertex
 10
23.45537755558584
 20
344.0315481325928
 30
0.0
  0
VERTEX
  5
B18
330
B12
100
AcDbEntity
  8
0
370
     0
100
AcDbVertex
100
AcDb2dVertex
 10
23.45537755558584
 20
344.0315481325928
 30
0.0
  0
VERTEX
  5
B19
330
B12
100
AcDbEntity
  8
0
370
     0
100
AcDbVertex
100
AcDb2dVertex
 10
23.45537755558584
 20
344.0315481325928
 30
0.0
  0
SEQEND
  5
B1A
330
B12
100
AcDbEntity
  8
0
370
     0
  0
POLYLINE
  5
B1B
330
1F
100
AcDbEntity
  8
0
 62
     7
370
    35
100
AcDb2dPolyline
 66
     1
 10
0.0
 20
0.0
 30
0.0
  0
VERTEX
  5
B1C
330
B1B
100
AcDbEntity
  8
0
370
     0
100
AcDbVertex
100
AcDb2dVertex
 10
23.43805624848901
 20
29.93287385007281
 30
0.0
  0
VERTEX
  5
B1D
330
B1B
100
AcDbEntity
  8
0
370
     0
100
AcDbVertex
100
AcDb2dVertex
 10
23.439261248489
 20
29.92921185007285
 30
0.0
  0
VERTEX
  5
B1E
330
B1B
100
AcDbEntity
  8
0
370
     0
100
AcDbVertex
100
AcDb2dVertex
 10
23.441672248489
 20
29.91386185007284
 30
0.0
  0
VERTEX
  5
B1F
330
B1B
100
AcDbEntity
  8
0
370
     0
100
AcDbVertex
100
AcDb2dVertex
 10
23.44881324848902
 20
29.80387685007285
 30
0.0
  0
VERTEX
  5
B20
330
B1B
100
AcDbEntity
  8
0
370
     0
100
AcDbVertex
100
AcDb2dVertex
 10
23.46894024848899
 20
28.91856185007285
 30
0.0
  0
VERTEX
  5
B21
330
B1B
100
AcDbEntity
  8
0
370
     0
100
AcDbVertex
100
AcDb2dVertex
 10
23.491248248489
 20
26.26850685007284
 30
0.0
  0
VERTEX
  5
B22
330
B1B
100
AcDbEntity
  8
0
370
     0
100
AcDbVertex
100
AcDb2dVertex
 10
23.498984248489
 20
22.83387485007282
 30
0.0
  0
SEQEND
  5
B23
330
B1B
100
AcDbEntity
  8
0
370
     0
  0
LINE
  5
B24
330
1F
100
AcDbEntity
  8
0
 62
     7
 48
0.001473
370
    35
100
AcDbLine
 10
23.39641524848898
 20
29.97453085007279
 30
0.0
 11
23.43805624848901
 21
29.93287385007281
 31
0.0
  0
LINE
  5
B25
330
1F
100
AcDbEntity
  8
0
 62
     7
370
    35
100
AcDbLine
 10
23.39641524848898
 20
343.6932198500727
 30
0.0
 11
23.39641524848898
 21
29.97453085007279
 31
0.0
  0
ARC
  5
B26
330
1F
100
AcDbEntity
  8
0
 62
     7
370
    35
100
AcDbCircle
 10
35.869086248489
 20
22.83366185007285
 30
0.0
 40
12.472586
100
AcDbArc
 50
218.482919999999
 51
270.0230839999997
  0
POLYLINE
  5
B28
330
1F
100
AcDbEntity
  8
0
 62
     7
370
    35
100
AcDb2dPolyline
 66
     1
 10
0.0
 20
0.0
 30
0.0
  0
VERTEX
  5
B29
330
B28
100
AcDbEntity
  8
0
370
     0
100
AcDbVertex
100
AcDb2dVertex
 10
25.93935202110156
 20
15.37957405493328
 30
0.0
  0
VERTEX
  5
B2A
330
B28
100
AcDbEntity
  8
0
370
     0
100
AcDbVertex
100
AcDb2dVertex
 10
25.93935202110156
 20
15.37957405493328
 30
0.0
  0
VERTEX
  5
B2B
330
B28
100
AcDbEntity
  8
0
370
     0
100
AcDbVertex
100
AcDb2dVertex
 10
25.93935202110156
 20
15.37957405493328
 30
0.0
  0
VERTEX
  5
B2C
330
B28
100
AcDbEntity
  8
0
370
     0
100
AcDbVertex
100
AcDb2dVertex
 10
25.93935202110156
 20
15.37957405493328
 30
0.0
  0
VERTEX
  5
B2D
330
B28
100
AcDbEntity
  8
0
370
     0
100
AcDbVertex
100
AcDb2dVertex
 10
25.78607824848899
 20
15.59678385007285
 30
0.0
  0
VERTEX
  5
B2E
330
B28
100
AcDbEntity
  8
0
370
     0
100
AcDbVertex
100
AcDb2dVertex
 10
25.318473248489
 20
16.31980685007286
 30
0.0
  0
VERTEX
  5
B2F
330
B28
100
AcDbEntity
  8
0
370
     0
100
AcDbVertex
100
AcDb2dVertex
 10
25.06287324848898
 20
16.76365385007281
 30
0.0
  0
VERTEX
  5
B30
330
B28
100
AcDbEntity
  8
0
370
     0
100
AcDbVertex
100
AcDb2dVertex
 10
24.68267024848899
 20
17.51240285007284
 30
0.0
  0
VERTEX
  5
B31
330
B28
100
AcDbEntity
  8
0
370
     0
100
AcDbVertex
100
AcDb2dVertex
 10
24.485023248489
 20
17.95768485007281
 30
0.0
  0
VERTEX
  5
B32
330
B28
100
AcDbEntity
  8
0
370
     0
100
AcDbVertex
100
AcDb2dVertex
 10
24.29882024848899
 20
18.42573285007282
 30
0.0
  0
VERTEX
  5
B33
330
B28
100
AcDbEntity
  8
0
370
     0
100
AcDbVertex
100
AcDb2dVertex
 10
24.073279248489
 20
19.08173885007281
 30
0.0
  0
VERTEX
  5
B34
330
B28
100
AcDbEntity
  8
0
370
     0
100
AcDbVertex
100
AcDb2dVertex
 10
23.879005248489
 20
19.76997185007283
 30
0.0
  0
VERTEX
  5
B35
330
B28
100
AcDbEntity
  8
0
370
     0
100
AcDbVertex
100
AcDb2dVertex
 10
23.72089324848898
 20
20.48533385007286
 30
0.0
  0
VERTEX
  5
B36
330
B28
100
AcDbEntity
  8
0
370
     0
100
AcDbVertex
100
AcDb2dVertex
 10
23.59883824848902
 20
21.25477385007284
 30
0.0
  0
VERTEX
  5
B37
330
B28
100
AcDbEntity
  8
0
370
     0
100
AcDbVertex
100
AcDb2dVertex
 10
23.52411624848898
 20
22.04050985007282
 30
0.0
  0
VERTEX
  5
B38
330
B28
100
AcDbEntity
  8
0
370
     0
100
AcDbVertex
100
AcDb2dVertex
 10
23.498984248489
 20
22.83387485007282
 30
0.0
  0
SEQEND
  5
B39
330
B28
100
AcDbEntity
  8
0
370
     0
  0
ARC
  5
B3A
330
1F
100
AcDbEntity
  8
0
 62
     7
370
    35
100
AcDbCircle
 10
325.8791422484891
 20
22.83366185007285
 30
0.0
 40
12.472586
100
AcDbArc
 50
269.9769179999999
 51
321.5170850000011
  0
POLYLINE
  5
B3B
330
1F
100
AcDbEntity
  8
0
 62
     7
370
    35
100
AcDb2dPolyline
 66
     1
 10
0.0
 20
0.0
 30
0.0
  0
VERTEX
  5
B3C
330
B3B
100
AcDbEntity
  8
0
370
     0
100
AcDbVertex
100
AcDb2dVertex
 10
338.249229248489
 20
22.83387485007282
 30
0.0
  0
VERTEX
  5
B3D
330
B3B
100
AcDbEntity
  8
0
370
     0
100
AcDbVertex
100
AcDb2dVertex
 10
338.223502248489
 20
22.03114085007283
 30
0.0
  0
VERTEX
  5
B3E
330
B3B
100
AcDbEntity
  8
0
370
     0
100
AcDbVertex
100
AcDb2dVertex
 10
338.147086248489
 20
21.23676785007282
 30
0.0
  0
VERTEX
  5
B3F
330
B3B
100
AcDbEntity
  8
0
370
     0
100
AcDbVertex
100
AcDb2dVertex
 10
338.0222082484889
 20
20.45853985007287
 30
0.0
  0
VERTEX
  5
B40
330
B3B
100
AcDbEntity
  8
0
370
     0
100
AcDbVertex
100
AcDb2dVertex
 10
337.8587562484891
 20
19.72883385007284
 30
0.0
  0
VERTEX
  5
B41
330
B3B
100
AcDbEntity
  8
0
370
     0
100
AcDbVertex
100
AcDb2dVertex
 10
337.657920248489
 20
19.02781485007287
 30
0.0
  0
VERTEX
  5
B42
330
B3B
100
AcDbEntity
  8
0
370
     0
100
AcDbVertex
100
AcDb2dVertex
 10
337.4248572484889
 20
18.36082185007282
 30
0.0
  0
VERTEX
  5
B43
330
B3B
100
AcDbEntity
  8
0
370
     0
100
AcDbVertex
100
AcDb2dVertex
 10
337.2327192484889
 20
17.88590785007281
 30
0.0
  0
VERTEX
  5
B44
330
B3B
100
AcDbEntity
  8
0
370
     0
100
AcDbVertex
100
AcDb2dVertex
 10
337.029166248489
 20
17.43522385007284
 30
0.0
  0
VERTEX
  5
B45
330
B3B
100
AcDbEntity
  8
0
370
     0
100
AcDbVertex
100
AcDb2dVertex
 10
336.6369542484889
 20
16.67655685007284
 30
0.0
  0
VERTEX
  5
B46
330
B3B
100
AcDbEntity
  8
0
370
     0
100
AcDbVertex
100
AcDb2dVertex
 10
336.374991248489
 20
16.22987185007284
 30
0.0
  0
VERTEX
  5
B47
330
B3B
100
AcDbEntity
  8
0
370
     0
100
AcDbVertex
100
AcDb2dVertex
 10
335.9076452484889
 20
15.51835385007283
 30
0.0
  0
VERTEX
  5
B48
330
B3B
100
AcDbEntity
  8
0
370
     0
100
AcDbVertex
100
AcDb2dVertex
 10
335.6601782484889
 20
15.1706058500728
 30
0.0
  0
VERTEX
  5
B49
330
B3B
100
AcDbEntity
  8
0
370
     0
100
AcDbVertex
100
AcDb2dVertex
 10
335.628593248489
 20
15.12345685007287
 30
0.0
  0
VERTEX
  5
B4A
330
B3B
100
AcDbEntity
  8
0
370
     0
100
AcDbVertex
100
AcDb2dVertex
 10
335.624717248489
 20
15.11619385007285
 30
0.0
  0
VERTEX
  5
B4B
330
B3B
100
AcDbEntity
  8
0
370
     0
100
AcDbVertex
100
AcDb2dVertex
 10
335.624015248489
 20
15.11414885007283
 30
0.0
  0
SEQEND
  5
B4C
330
B3B
100
AcDbEntity
  8
0
370
     0
  0
LINE
  5
B4D
330
1F
100
AcDbEntity
  8
0
 62
     7
 48
0.001147
370
    35
100
AcDbLine
 10
335.6426002484891
 20
15.07218685007282
 30
0.0
 11
335.624015248489
 21
15.11414885007283
 31
0.0
  0
LINE
  5
B4E
330
1F
100
AcDbEntity
  8
0
 62
     7
 48
0.024998
370
    35
100
AcDbLine
 10
36.874106248489
 20
9.36131085007284
 30
0.0
 11
36.874106248489
 21
10.36124985007282
 31
0.0
  0
LINE
  5
B50
330
1F
100
AcDbEntity
  8
0
 62
     7
 48
0.000043
370
    35
100
AcDbLine
 10
331.4919962484891
 20
28.93388185007282
 30
0.0
 11
331.4904092484891
 21
28.93455285007283
 31
0.0
  0
LINE
  5
B51
330
1F
100
AcDbEntity
  8
0
 62
     7
 48
0.000029
370
    35
100
AcDbLine
 10
30.257178248489
 20
28.93455285007283
 30
0.0
 11
30.256232248489
 21
28.93388185007282
 31
0.0
  0
LINE
  5
B52
330
1F
100
AcDbEntity
  8
0
 62
     7
 48
0.000043
370
    35
100
AcDbLine
 10
30.256232248489
 20
16.73386885007287
 30
0.0
 11
30.25780424848901
 21
16.7331978500728
 31
0.0
  0
ARC
  5
B53
330
1F
100
AcDbEntity
  8
0
 62
     7
370
    35
100
AcDbCircle
 10
325.8791422484891
 20
350.8340888500728
 30
0.0
 40
12.472586
100
AcDbArc
 50
38.48289799999988
 51
90.02308200000006
  0
LINE
  5
B54
330
1F
100
AcDbEntity
  8
0
 62
     7
 48
0.001147
370
    35
100
AcDbLine
 10
335.6426002484891
 20
358.5955638500728
 30
0.0
 11
335.624015248489
 21
358.5536328500727
 31
0.0
  0
POLYLINE
  5
B55
330
1F
100
AcDbEntity
  8
0
 62
     7
370
    35
100
AcDb2dPolyline
 66
     1
 10
0.0
 20
0.0
 30
0.0
  0
VERTEX
  5
B56
330
B55
100
AcDbEntity
  8
0
370
     0
100
AcDbVertex
100
AcDb2dVertex
 10
335.624015248489
 20
358.5536328500727
 30
0.0
  0
VERTEX
  5
B57
330
B55
100
AcDbEntity
  8
0
370
     0
100
AcDbVertex
100
AcDb2dVertex
 10
335.624808248489
 20
358.5513128500728
 30
0.0
  0
VERTEX
  5
B58
330
B55
100
AcDbEntity
  8
0
370
     0
100
AcDbVertex
100
AcDb2dVertex
 10
335.6295082484889
 20
358.5427678500729
 30
0.0
  0
VERTEX
  5
B59
330
B55
100
AcDbEntity
  8
0
370
     0
100
AcDbVertex
100
AcDb2dVertex
 10
335.667716248489
 20
358.4864328500728
 30
0.0
  0
VERTEX
  5
B5A
330
B55
100
AcDbEntity
  8
0
370
     0
100
AcDbVertex
100
AcDb2dVertex
 10
335.962119248489
 20
358.0710278500728
 30
0.0
  0
VERTEX
  5
B5B
330
B55
100
AcDbEntity
  8
0
370
     0
100
AcDbVertex
100
AcDb2dVertex
 10
336.444907248489
 20
357.3226748500728
 30
0.0
  0
VERTEX
  5
B5C
330
B55
100
AcDbEntity
  8
0
370
     0
100
AcDbVertex
100
AcDb2dVertex
 10
336.708610248489
 20
356.8616158500728
 30
0.0
  0
VERTEX
  5
B5D
330
B55
100
AcDbEntity
  8
0
370
     0
100
AcDbVertex
100
AcDb2dVertex
 10
337.088431248489
 20
356.1061228500728
 30
0.0
  0
VERTEX
  5
B5E
330
B55
100
AcDbEntity
  8
0
370
     0
100
AcDbVertex
100
AcDb2dVertex
 10
337.440024248489
 20
355.2668888500729
 30
0.0
  0
VERTEX
  5
B5F
330
B55
100
AcDbEntity
  8
0
370
     0
100
AcDbVertex
100
AcDb2dVertex
 10
337.698264248489
 20
354.5106028500728
 30
0.0
  0
VERTEX
  5
B60
330
B55
100
AcDbEntity
  8
0
370
     0
100
AcDbVertex
100
AcDb2dVertex
 10
337.914359248489
 20
353.7125678500729
 30
0.0
  0
VERTEX
  5
B61
330
B55
100
AcDbEntity
  8
0
370
     0
100
AcDbVertex
100
AcDb2dVertex
 10
338.080985248489
 20
352.8810248500728
 30
0.0
  0
VERTEX
  5
B62
330
B55
100
AcDbEntity
  8
0
370
     0
100
AcDbVertex
100
AcDb2dVertex
 10
338.192527248489
 20
352.0249458500728
 30
0.0
  0
VERTEX
  5
B63
330
B55
100
AcDbEntity
  8
0
370
     0
100
AcDbVertex
100
AcDb2dVertex
 10
338.235007248489
 20
351.4311348500728
 30
0.0
  0
VERTEX
  5
B64
330
B55
100
AcDbEntity
  8
0
370
     0
100
AcDbVertex
100
AcDb2dVertex
 10
338.249229248489
 20
350.8339058500728
 30
0.0
  0
SEQEND
  5
B65
330
B55
100
AcDbEntity
  8
0
370
     0
  0
ARC
  5
B66
330
1F
100
AcDbEntity
  8
0
 62
     7
370
    35
100
AcDbCircle
 10
337.3102942484889
 20
29.93278285007281
 30
0.0
 40
0.9998799999999999
100
AcDbArc
 50
351.918168000001
 51
0.006355000001238
  0
ELLIPSE
  5
B67
330
1F
100
AcDbEntity
  8
0
 62
     7
370
    35
100
AcDbEllipse
 10
337.3518592484891
 20
29.97453085007279
 30
0.0
 11
-0.70709228515625
 21
0.70709228515625
 31
0.0
210
0.0
220
0.0
230
1.0
 40
0.9999239999999998
 41
3.581878775333234
 42
3.927028893198062
  0
ELLIPSE
  5
B68
330
1F
100
AcDbEntity
  8
0
 62
     7
370
    35
100
AcDbEllipse
 10
337.3518592484891
 20
343.6932198500727
 30
0.0
 11
-0.70709228515625
 21
-0.70709228515625
 31
0.0
210
0.0
220
0.0
230
1.0
 40
0.9999239999999998
 41
2.356156413981699
 42
2.70397722598783
  0
ARC
  5
B69
330
1F
100
AcDbEntity
  8
0
 62
     7
370
    35
100
AcDbCircle
 10
337.3102942484889
 20
343.7350288500728
 30
0.0
 40
0.999862
100
AcDbArc
 50
359.9935130000016
 51
8.186006000000942
  0
ARC
  5
B6A
330
1F
100
AcDbEntity
  8
0
 62
     7
370
    35
100
AcDbCircle
 10
35.869086248489
 20
350.8340888500728
 30
0.0
 40
12.472586
100
AcDbArc
 50
89.97691600000022
 51
141.5171210000007
  0
POLYLINE
  5
B6B
330
1F
100
AcDbEntity
  8
0
 62
     7
370
    35
100
AcDb2dPolyline
 66
     1
 10
0.0
 20
0.0
 30
0.0
  0
VERTEX
  5
B6C
330
B6B
100
AcDbEntity
  8
0
370
     0
100
AcDbVertex
100
AcDb2dVertex
 10
23.498984248489
 20
350.8339058500728
 30
0.0
  0
VERTEX
  5
B6D
330
B6B
100
AcDbEntity
  8
0
370
     0
100
AcDbVertex
100
AcDb2dVertex
 10
23.531211248489
 20
351.7324658500728
 30
0.0
  0
VERTEX
  5
B6E
330
B6B
100
AcDbEntity
  8
0
370
     0
100
AcDbVertex
100
AcDb2dVertex
 10
23.62671624848898
 20
352.6191228500727
 30
0.0
  0
VERTEX
  5
B6F
330
B6B
100
AcDbEntity
  8
0
370
     0
100
AcDbVertex
100
AcDb2dVertex
 10
23.78202024848897
 20
353.4831368500728
 30
0.0
  0
VERTEX
  5
B70
330
B6B
100
AcDbEntity
  8
0
370
     0
100
AcDbVertex
100
AcDb2dVertex
 10
23.991599248489
 20
354.3144968500727
 30
0.0
  0
VERTEX
  5
B71
330
B6B
100
AcDbEntity
  8
0
370
     0
100
AcDbVertex
100
AcDb2dVertex
 10
24.14884124848899
 20
354.8191348500728
 30
0.0
  0
VERTEX
  5
B72
330
B6B
100
AcDbEntity
  8
0
370
     0
100
AcDbVertex
100
AcDb2dVertex
 10
24.32245524848902
 20
355.3046088500728
 30
0.0
  0
VERTEX
  5
B73
330
B6B
100
AcDbEntity
  8
0
370
     0
100
AcDbVertex
100
AcDb2dVertex
 10
24.50991024848902
 20
355.7689028500728
 30
0.0
  0
VERTEX
  5
B74
330
B6B
100
AcDbEntity
  8
0
370
     0
100
AcDbVertex
100
AcDb2dVertex
 10
24.70833524848899
 20
356.2100658500729
 30
0.0
  0
VERTEX
  5
B75
330
B6B
100
AcDbEntity
  8
0
370
     0
100
AcDbVertex
100
AcDb2dVertex
 10
25.12404524848899
 20
357.0140208500728
 30
0.0
  0
VERTEX
  5
B76
330
B6B
100
AcDbEntity
  8
0
370
     0
100
AcDbVertex
100
AcDb2dVertex
 10
25.381232248489
 20
357.4510928500729
 30
0.0
  0
VERTEX
  5
B77
330
B6B
100
AcDbEntity
  8
0
370
     0
100
AcDbVertex
100
AcDb2dVertex
 10
25.84052224848898
 20
358.1492748500727
 30
0.0
  0
VERTEX
  5
B78
330
B6B
100
AcDbEntity
  8
0
370
     0
100
AcDbVertex
100
AcDb2dVertex
 10
26.03425468538907
 20
358.4932549896913
 30
0.0
  0
VERTEX
  5
B79
330
B6B
100
AcDbEntity
  8
0
370
     0
100
AcDbVertex
100
AcDb2dVertex
 10
26.10561901234452
 20
358.5955390403483
 30
0.0
  0
VERTEX
  5
B7A
330
B6B
100
AcDbEntity
  8
0
370
     0
100
AcDbVertex
100
AcDb2dVertex
 10
26.10561901234452
 20
358.5955390403483
 30
0.0
  0
VERTEX
  5
B7B
330
B6B
100
AcDbEntity
  8
0
370
     0
100
AcDbVertex
100
AcDb2dVertex
 10
26.10561901234452
 20
358.5955390403483
 30
0.0
  0
SEQEND
  5
B7C
330
B6B
100
AcDbEntity
  8
0
370
     0
  0
LINE
  5
B7E
330
1F
100
AcDbEntity
  8
0
 62
     7
 48
0.024998
370
    35
100
AcDbLine
 10
36.874106248489
 20
363.3065008500728
 30
0.0
 11
36.874106248489
 21
364.3064398500728
 31
0.0
  0
LINE
  5
B7F
330
1F
100
AcDbEntity
  8
0
 62
     7
 48
0.024998
370
    35
100
AcDbLine
 10
324.874106248489
 20
363.3065008500728
 30
0.0
 11
324.874106248489
 21
364.3064398500728
 31
0.0
  0
LINE
  5
B80
330
1F
100
AcDbEntity
  8
0
 62
     7
 48
0.00003
370
    35
100
AcDbLine
 10
331.491019248489
 20
344.7331978500729
 30
0.0
 11
331.4919962484891
 21
344.7338688500728
 31
0.0
  0
LINE
  5
B81
330
1F
100
AcDbEntity
  8
0
 62
     7
 48
0.000043
370
    35
100
AcDbLine
 10
331.4919962484891
 20
356.9338818500728
 30
0.0
 11
331.4904092484891
 21
356.9345528500728
 31
0.0
  0
LINE
  5
B82
330
1F
100
AcDbEntity
  8
0
 62
     7
 48
0.000029
370
    35
100
AcDbLine
 10
30.257178248489
 20
356.9345528500728
 30
0.0
 11
30.256232248489
 21
356.9338818500728
 31
0.0
  0
LINE
  5
B83
330
1F
100
AcDbEntity
  8
0
 62
     7
 48
0.000043
370
    35
100
AcDbLine
 10
30.256232248489
 20
344.7338688500728
 30
0.0
 11
30.25780424848901
 21
344.7331978500729
 31
0.0
  0
ELLIPSE
  5
B84
330
1F
100
AcDbEntity
  8
0
 62
     7
370
    35
100
AcDbEllipse
 10
24.39636924848898
 20
29.97453085007279
 30
0.0
 11
0.70709228515625
 21
0.70709228515625
 31
0.0
210
0.0
220
0.0
230
1.0
 40
0.9999239999999998
 41
2.35615641439591
 42
2.703978292004093
  0
ARC
  5
B85
330
1F
100
AcDbEntity
  8
0
 62
     7
370
    35
100
AcDbCircle
 10
24.43791924848898
 20
29.93275185007283
 30
0.0
 40
0.999862
100
AcDbArc
 50
179.9935159999993
 51
188.1869599999989
  0
ELLIPSE
  5
B87
330
1F
100
AcDbEntity
  8
0
 62
     7
370
    35
100
AcDbEllipse
 10
24.39636924848898
 20
343.6932198500727
 30
0.0
 11
0.70709228515625
 21
-0.70709228515625
 31
0.0
210
0.0
220
0.0
230
1.0
 40
0.9999239999999998
 41
3.581867935829142
 42
3.927028893198256
  0
ARC
  5
B89
330
1F
100
AcDbEntity
  8
0
 62
     7
370
    35
100
AcDbCircle
 10
26.888526248489
 20
15.69431885007285
 30
0.0
 40
0.9999979999999998
100
AcDbArc
 50
198.3454460000006
 51
218.4715410000004
  0
ARC
  5
B8A
330
1F
100
AcDbEntity
  8
0
 62
     7
370
    35
100
AcDbCircle
 10
334.840140248489
 20
15.73493685007284
 30
0.0
 40
0.9999539999999999
100
AcDbArc
 50
321.6239979999989
 51
329.4905390000003
  0
ARC
  5
B8B
330
1F
100
AcDbEntity
  8
0
 62
     7
370
    35
100
AcDbCircle
 10
334.859672248489
 20
15.69431885007285
 30
0.0
 40
0.9999979999999998
100
AcDbArc
 50
321.5285220000003
 51
341.6411310000002
  0
LINE
  5
B8C
330
1F
100
AcDbEntity
  8
0
 62
     7
 48
0.036801
370
    35
100
AcDbLine
 10
36.874106248489
 20
9.36131085007284
 30
0.0
 11
36.874106248489
 21
7.889264850072861
 31
0.0
  0
ARC
  5
B8D
330
1F
100
AcDbEntity
  8
0
 62
     7
370
    35
100
AcDbCircle
 10
30.33789724848899
 20
17.18104285007283
 30
0.0
 40
0.455216
100
AcDbArc
 50
259.8609910000003
 51
269.3932100000002
  0
ARC
  5
B8E
330
1F
100
AcDbEntity
  8
0
 62
     7
370
    35
100
AcDbCircle
 10
334.8401102484891
 20
357.9327828500729
 30
0.0
 40
0.999971
100
AcDbArc
 50
30.50255899999967
 51
38.37588599999968
  0
ARC
  5
B8F
330
1F
100
AcDbEntity
  8
0
 62
     7
370
    35
100
AcDbCircle
 10
334.859672248489
 20
357.9734318500729
 30
0.0
 40
0.9999979999999998
100
AcDbArc
 50
18.3468120000001
 51
38.47154600000106
  0
LINE
  5
B92
330
1F
100
AcDbEntity
  8
0
 62
     7
 48
0.036801
370
    35
100
AcDbLine
 10
36.874106248489
 20
364.3064398500728
 30
0.0
 11
36.874106248489
 21
365.7784858500728
 31
0.0
  0
LINE
  5
B93
330
1F
100
AcDbEntity
  8
0
 62
     7
 48
0.036801
370
    35
100
AcDbLine
 10
324.874106248489
 20
364.3064398500728
 30
0.0
 11
324.874106248489
 21
365.7784858500728
 31
0.0
  0
ARC
  5
B94
330
1F
100
AcDbEntity
  8
0
 62
     7
370
    35
100
AcDbCircle
 10
331.410331248489
 20
356.4867378500728
 30
0.0
 40
0.455216
100
AcDbArc
 50
79.86098999999963
 51
89.39320800000004
  0
ARC
  5
B95
330
1F
100
AcDbEntity
  8
0
 62
     7
370
    35
100
AcDbCircle
 10
30.33789724848899
 20
345.1810738500729
 30
0.0
 40
0.455216
100
AcDbArc
 50
259.8609910000003
 51
269.3932100000002
  0
LINE
  5
B96
330
1F
100
AcDbEntity
  8
0
 62
     7
 48
0.024998
370
    35
100
AcDbLine
 10
36.874106248489
 20
7.889264850072861
 30
0.0
 11
36.874106248489
 21
6.889355850072802
 31
0.0
  0
ARC
  5
B97
330
1F
100
AcDbEntity
  8
0
 62
     7
370
    35
100
AcDbCircle
 10
338.017509248489
 20
15.60551185007281
 30
0.0
 40
1.000061
100
AcDbArc
 50
331.1917749999991
 51
30.47239399999986
  0
ARC
  5
B98
330
1F
100
AcDbEntity
  8
0
 62
     7
370
    35
100
AcDbCircle
 10
339.874015248489
 20
343.6054508500728
 30
0.0
 40
1.000114999999994
100
AcDbArc
 50
0.0005999999985158
 51
45.00238200000043
  0
LINE
  5
B99
330
1F
100
AcDbEntity
  8
0
 62
     7
370
    35
100
AcDbLine
 10
340.8741062484889
 20
343.6055118500728
 30
0.0
 11
340.8741062484889
 21
30.06226885007285
 31
0.0
  0
ARC
  5
B9A
330
1F
100
AcDbEntity
  8
0
 62
     7
370
    35
100
AcDbCircle
 10
339.874015248489
 20
30.06229885007285
 30
0.0
 40
1.000114999999994
100
AcDbArc
 50
314.9976179999995
 51
359.9994000000015
  0
ARC
  5
B9B
330
1F
100
AcDbEntity
  8
0
 62
     7
370
    35
100
AcDbCircle
 10
23.73070424848899
 20
15.60551185007281
 30
0.0
 40
1.000062
100
AcDbArc
 50
149.2800409999986
 51
208.8082170000005
  0
ARC
  5
B9C
330
1F
100
AcDbEntity
  8
0
 62
     7
370
    35
100
AcDbCircle
 10
21.87421324848902
 20
343.6054508500728
 30
0.0
 40
1.000114999999994
100
AcDbArc
 50
134.9976230000002
 51
179.9994040000006
  0
ARC
  5
B9D
330
1F
100
AcDbEntity
  8
0
 62
     7
370
    35
100
AcDbCircle
 10
21.87421324848902
 20
30.06229885007285
 30
0.0
 40
1.000114999999994
100
AcDbArc
 50
180.0005959999993
 51
225.0023769999998
  0
LINE
  5
B9E
330
1F
100
AcDbEntity
  8
0
 62
     7
370
    35
100
AcDbLine
 10
20.874106248489
 20
30.06226885007285
 30
0.0
 11
20.874106248489
 21
343.6055118500728
 31
0.0
  0
ELLIPSE
  5
B9F
330
1F
100
AcDbEntity
  8
0
 62
     7
370
    35
100
AcDbEllipse
 10
21.92954224848898
 20
30.00681885007285
 30
0.0
 11
0.70709228515625
 21
0.70709228515625
 31
0.0
210
0.0
220
0.0
230
1.0
 40
0.9999239999999998
 41
2.356156413981441
 42
3.141592653589828
  0
LINE
  5
BA0
330
1F
100
AcDbEntity
  8
0
 62
     7
 48
0.001961
370
    35
100
AcDbLine
 10
20.92958724848902
 20
30.00681885007285
 30
0.0
 11
20.874106248489
 21
30.06226885007285
 31
0.0
  0
ELLIPSE
  5
BA1
330
1F
100
AcDbEntity
  8
0
 62
     7
370
    35
100
AcDbEllipse
 10
339.818656248489
 20
343.6609318500729
 30
0.0
 11
-0.70709228515625
 21
-0.70709228515625
 31
0.0
210
0.0
220
0.0
230
1.0
 40
0.9999239999999998
 41
2.35615641398152
 42
3.141592653589936
  0
LINE
  5
BA2
330
1F
100
AcDbEntity
  8
0
 62
     7
 48
0.00196
370
    35
100
AcDbLine
 10
340.8741062484889
 20
343.6055118500728
 30
0.0
 11
340.8186252484891
 21
343.6609318500729
 31
0.0
  0
LINE
  5
BA3
330
1F
100
AcDbEntity
  8
0
 62
     7
 48
0.024997
370
    35
100
AcDbLine
 10
36.874106248489
 20
365.7784858500728
 30
0.0
 11
36.874106248489
 21
366.7783638500729
 31
0.0
  0
LINE
  5
BA4
330
1F
100
AcDbEntity
  8
0
 62
     7
 48
0.024997
370
    35
100
AcDbLine
 10
324.874106248489
 20
365.7784858500728
 30
0.0
 11
324.874106248489
 21
366.7783638500729
 31
0.0
  0
LINE
  5
BA5
330
1F
100
AcDbEntity
  8
0
 62
     7
 48
0.000299
370
    35
100
AcDbLine
 10
338.839896248489
 20
357.4884468500727
 30
0.0
 11
338.8460612484889
 21
357.4987008500727
 31
0.0
  0
ARC
  5
BA6
330
1F
100
AcDbEntity
  8
0
 62
     7
370
    35
100
AcDbCircle
 10
338.017509248489
 20
358.0622378500728
 30
0.0
 40
1.000061
100
AcDbArc
 50
329.5276060000002
 51
28.80822500000089
  0
LINE
  5
BA7
330
1F
100
AcDbEntity
  8
0
 62
     7
 48
0.000299
370
    35
100
AcDbLine
 10
22.90830124848898
 20
357.4884468500727
 30
0.0
 11
22.902137248489
 21
357.4987008500727
 31
0.0
  0
ARC
  5
BA8
330
1F
100
AcDbEntity
  8
0
 62
     7
370
    35
100
AcDbCircle
 10
23.73070424848899
 20
358.0622378500728
 30
0.0
 40
1.000061
100
AcDbArc
 50
151.1917700000008
 51
210.472392
  0
ARC
  5
BA9
330
1F
100
AcDbEntity
  8
0
 62
     7
370
    35
100
AcDbCircle
 10
324.874106248489
 20
22.83387485007282
 30
0.0
 40
16.0
100
AcDbArc
 50
269.9999969999999
 51
331.1909519999995
  0
LINE
  5
BAA
330
1F
100
AcDbEntity
  8
0
 62
     7
370
    35
100
AcDbLine
 10
36.874106248489
 20
6.833874850072818
 30
0.0
 11
324.874106248489
 21
6.833874850072818
 31
0.0
  0
LINE
  5
BAB
330
1F
100
AcDbEntity
  8
0
 62
     7
 48
0.001387
370
    35
100
AcDbLine
 10
36.874106248489
 20
6.889355850072802
 30
0.0
 11
36.874106248489
 21
6.833874850072818
 31
0.0
  0
ARC
  5
BAC
330
1F
100
AcDbEntity
  8
0
 62
     7
370
    35
100
AcDbCircle
 10
36.874106248489
 20
22.83387485007282
 30
0.0
 40
16.0
100
AcDbArc
 50
208.8090499999993
 51
269.9999969999999
  0
ARC
  5
BAD
330
1F
100
AcDbEntity
  8
0
 62
     7
370
    35
100
AcDbCircle
 10
36.874106248489
 20
350.8339058500728
 30
0.0
 40
16.0
100
AcDbArc
 50
90.00000300000015
 51
151.1909500000007
  0
LINE
  5
BAE
330
1F
100
AcDbEntity
  8
0
 62
     7
 48
0.001389
370
    35
100
AcDbLine
 10
36.874106248489
 20
366.7783638500729
 30
0.0
 11
36.874106248489
 21
366.8339058500728
 31
0.0
  0
LINE
  5
BAF
330
1F
100
AcDbEntity
  8
0
 62
     7
370
    35
100
AcDbLine
 10
324.874106248489
 20
366.8339058500728
 30
0.0
 11
36.874106248489
 21
366.8339058500728
 31
0.0
  0
LINE
  5
BB0
330
1F
100
AcDbEntity
  8
0
 62
     7
 48
0.001389
370
    35
100
AcDbLine
 10
324.874106248489
 20
366.7783638500729
 30
0.0
 11
324.874106248489
 21
366.8339058500728
 31
0.0
  0
ARC
  5
BB1
330
1F
100
AcDbEntity
  8
0
 62
     7
370
    35
100
AcDbCircle
 10
324.874106248489
 20
350.8339058500728
 30
0.0
 40
16.0
100
AcDbArc
 50
28.80904800000057
 51
90.00000300000015
  0
LINE
  5
BB3
330
1F
100
AcDbEntity
  8
0
 62
   253
370
    35
100
AcDbLine
 10
36.582801248489
 20
298.0313548500727
 30
0.0
 11
36.582801248489
 21
177.1424388500728
 31
0.0
  0
ARC
  5
BB4
330
1F
100
AcDbEntity
  8
0
 62
   253
370
    35
100
AcDbCircle
 10
39.582633248489
 20
298.0314158500728
 30
0.0
 40
2.999829999999997
100
AcDbArc
 50
89.99901200000001
 51
180.0009920000015
  0
LINE
  5
BB5
330
1F
100
AcDbEntity
  8
0
 62
   253
370
    35
100
AcDbLine
 10
39.582679248489
 20
301.0312328500728
 30
0.0
 11
322.165519248489
 21
301.0312328500728
 31
0.0
  0
ARC
  5
BB6
330
1F
100
AcDbEntity
  8
0
 62
   253
370
    35
100
AcDbCircle
 10
322.1655802484891
 20
298.0314158500728
 30
0.0
 40
2.999829999999997
100
AcDbArc
 50
359.9990140000004
 51
90.00098599999962
  0
LINE
  5
BB7
330
1F
100
AcDbEntity
  8
0
 62
   253
370
    35
100
AcDbLine
 10
325.165397248489
 20
298.0313548500727
 30
0.0
 11
325.165397248489
 21
177.1424388500728
 31
0.0
  0
ARC
  5
BB8
330
1F
100
AcDbEntity
  8
0
 62
   253
370
    35
100
AcDbCircle
 10
322.1655802484891
 20
177.1424078500728
 30
0.0
 40
2.999829999999997
100
AcDbArc
 50
269.9990139999995
 51
0.0009859999996218
  0
LINE
  5
BB9
330
1F
100
AcDbEntity
  8
0
 62
   253
370
    35
100
AcDbLine
 10
39.582679248489
 20
174.1425608500728
 30
0.0
 11
322.165519248489
 21
174.1425608500728
 31
0.0
  0
ARC
  5
BBA
330
1F
100
AcDbEntity
  8
0
 62
   253
370
    35
100
AcDbCircle
 10
39.582633248489
 20
177.1424078500728
 30
0.0
 40
2.999829999999997
100
AcDbArc
 50
179.9990079999984
 51
270.000988
  0
POLYLINE
  5
BBD
330
1F
100
AcDbEntity
  8
0
 62
     7
370
    35
100
AcDb2dPolyline
 66
     1
 10
0.0
 20
0.0
 30
0.0
  0
VERTEX
  5
BBE
330
BBD
100
AcDbEntity
  8
0
370
     0
100
AcDbVertex
100
AcDb2dVertex
 10
338.304923248489
 20
29.84321385007283
 30
0.0
  0
VERTEX
  5
BBF
330
BBD
100
AcDbEntity
  8
0
370
     0
100
AcDbVertex
100
AcDb2dVertex
 10
338.277701248489
 20
28.79630785007279
 30
0.0
  0
VERTEX
  5
BC0
330
BBD
100
AcDbEntity
  8
0
370
     0
100
AcDbVertex
100
AcDb2dVertex
 10
338.2559122484888
 20
26.02509885007285
 30
0.0
  0
VERTEX
  5
BC1
330
BBD
100
AcDbEntity
  8
0
370
     0
100
AcDbVertex
100
AcDb2dVertex
 10
338.249259248489
 20
22.83387485007282
 30
0.0
  0
SEQEND
  5
BC2
330
BBD
100
AcDbEntity
  8
0
370
     0
  0
POLYLINE
  5
BC3
330
1F
100
AcDbEntity
  8
0
 62
     7
370
    35
100
AcDb2dPolyline
 66
     1
 10
0.0
 20
0.0
 30
0.0
  0
VERTEX
  5
BC4
330
BC3
100
AcDbEntity
  8
0
370
     0
100
AcDbVertex
100
AcDb2dVertex
 10
338.249259248489
 20
350.8339058500728
 30
0.0
  0
VERTEX
  5
BC5
330
BC3
100
AcDbEntity
  8
0
370
     0
100
AcDbVertex
100
AcDb2dVertex
 10
338.265159248489
 20
346.0911078500728
 30
0.0
  0
VERTEX
  5
BC6
330
BC3
100
AcDbEntity
  8
0
370
     0
100
AcDbVertex
100
AcDb2dVertex
 10
338.2885052484891
 20
344.2402168500728
 30
0.0
  0
VERTEX
  5
BC7
330
BC3
100
AcDbEntity
  8
0
370
     0
100
AcDbVertex
100
AcDb2dVertex
 10
338.3050452484889
 20
343.8220648500728
 30
0.0
  0
SEQEND
  5
BC8
330
BC3
100
AcDbEntity
  8
0
370
     0
  0
POLYLINE
  5
BC9
330
1F
100
AcDbEntity
  8
0
 62
     7
370
    35
100
AcDb2dPolyline
 66
     1
 10
0.0
 20
0.0
 30
0.0
  0
VERTEX
  5
BCA
330
BC9
100
AcDbEntity
  8
0
370
     0
100
AcDbVertex
100
AcDb2dVertex
 10
23.49893924848899
 20
22.83387485007282
 30
0.0
  0
VERTEX
  5
BCB
330
BC9
100
AcDbEntity
  8
0
370
     0
100
AcDbVertex
100
AcDb2dVertex
 10
23.483054248489
 20
27.57664285007283
 30
0.0
  0
VERTEX
  5
BCC
330
BC9
100
AcDbEntity
  8
0
370
     0
100
AcDbVertex
100
AcDb2dVertex
 10
23.45970824848899
 20
29.42753385007283
 30
0.0
  0
VERTEX
  5
BCD
330
BC9
100
AcDbEntity
  8
0
370
     0
100
AcDbVertex
100
AcDb2dVertex
 10
23.44315224848898
 20
29.84568585007284
 30
0.0
  0
SEQEND
  5
BCE
330
BC9
100
AcDbEntity
  8
0
370
     0
  0
POLYLINE
  5
BE5
330
1F
100
AcDbEntity
  8
0
 62
     7
370
    35
100
AcDb2dPolyline
 66
     1
 10
0.0
 20
0.0
 30
0.0
  0
VERTEX
  5
BE6
330
BE5
100
AcDbEntity
  8
0
370
     0
100
AcDbVertex
100
AcDb2dVertex
 10
335.683463248489
 20
15.1985908500728
 30
0.0
  0
VERTEX
  5
BE7
330
BE5
100
AcDbEntity
  8
0
370
     0
100
AcDbVertex
100
AcDb2dVertex
 10
336.2095252484891
 20
15.9666268500728
 30
0.0
  0
VERTEX
  5
BE8
330
BE5
100
AcDbEntity
  8
0
370
     0
100
AcDbVertex
100
AcDb2dVertex
 10
336.593497248489
 20
16.59928685007284
 30
0.0
  0
VERTEX
  5
BE9
330
BE5
100
AcDbEntity
  8
0
370
     0
100
AcDbVertex
100
AcDb2dVertex
 10
337.000236248489
 20
17.37461585007284
 30
0.0
  0
VERTEX
  5
BEA
330
BE5
100
AcDbEntity
  8
0
370
     0
100
AcDbVertex
100
AcDb2dVertex
 10
337.392997248489
 20
18.27802785007284
 30
0.0
  0
VERTEX
  5
BEB
330
BE5
100
AcDbEntity
  8
0
370
     0
100
AcDbVertex
100
AcDb2dVertex
 10
337.574088248489
 20
18.77378585007287
 30
0.0
  0
VERTEX
  5
BEC
330
BE5
100
AcDbEntity
  8
0
370
     0
100
AcDbVertex
100
AcDb2dVertex
 10
337.7401042484889
 20
19.29649085007284
 30
0.0
  0
VERTEX
  5
BED
330
BE5
100
AcDbEntity
  8
0
370
     0
100
AcDbVertex
100
AcDb2dVertex
 10
337.887595248489
 20
19.84382385007282
 30
0.0
  0
VERTEX
  5
BEE
330
BE5
100
AcDbEntity
  8
0
370
     0
100
AcDbVertex
100
AcDb2dVertex
 10
338.013358248489
 20
20.41306885007285
 30
0.0
  0
VERTEX
  5
BEF
330
BE5
100
AcDbEntity
  8
0
370
     0
100
AcDbVertex
100
AcDb2dVertex
 10
338.1145542484889
 20
21.00095885007286
 30
0.0
  0
VERTEX
  5
BF0
330
BE5
100
AcDbEntity
  8
0
370
     0
100
AcDbVertex
100
AcDb2dVertex
 10
338.188773248489
 20
21.60352885007283
 30
0.0
  0
VERTEX
  5
BF1
330
BE5
100
AcDbEntity
  8
0
370
     0
100
AcDbVertex
100
AcDb2dVertex
 10
338.234061248489
 20
22.21616885007287
 30
0.0
  0
VERTEX
  5
BF2
330
BE5
100
AcDbEntity
  8
0
370
     0
100
AcDbVertex
100
AcDb2dVertex
 10
338.249259248489
 20
22.83387485007282
 30
0.0
  0
SEQEND
  5
BF3
330
BE5
100
AcDbEntity
  8
0
370
     0
  0
POLYLINE
  5
BF4
330
1F
100
AcDbEntity
  8
0
 62
     7
370
    35
100
AcDb2dPolyline
 66
     1
 10
0.0
 20
0.0
 30
0.0
  0
VERTEX
  5
BF5
330
BF4
100
AcDbEntity
  8
0
370
     0
100
AcDbVertex
100
AcDb2dVertex
 10
338.249259248489
 20
350.8339058500728
 30
0.0
  0
VERTEX
  5
BF6
330
BF4
100
AcDbEntity
  8
0
370
     0
100
AcDbVertex
100
AcDb2dVertex
 10
338.234092248489
 20
351.4507268500728
 30
0.0
  0
VERTEX
  5
BF7
330
BF4
100
AcDbEntity
  8
0
370
     0
100
AcDbVertex
100
AcDb2dVertex
 10
338.188956248489
 20
352.0623608500728
 30
0.0
  0
VERTEX
  5
BF8
330
BF4
100
AcDbEntity
  8
0
370
     0
100
AcDbVertex
100
AcDb2dVertex
 10
338.114982248489
 20
352.6638618500728
 30
0.0
  0
VERTEX
  5
BF9
330
BF4
100
AcDbEntity
  8
0
370
     0
100
AcDbVertex
100
AcDb2dVertex
 10
338.014152248489
 20
353.2508368500728
 30
0.0
  0
VERTEX
  5
BFA
330
BF4
100
AcDbEntity
  8
0
370
     0
100
AcDbVertex
100
AcDb2dVertex
 10
337.888724248489
 20
353.8192578500727
 30
0.0
  0
VERTEX
  5
BFB
330
BF4
100
AcDbEntity
  8
0
370
     0
100
AcDbVertex
100
AcDb2dVertex
 10
337.7416912484889
 20
354.3658878500728
 30
0.0
  0
VERTEX
  5
BFC
330
BF4
100
AcDbEntity
  8
0
370
     0
100
AcDbVertex
100
AcDb2dVertex
 10
337.576163248489
 20
354.8879218500728
 30
0.0
  0
VERTEX
  5
BFD
330
BF4
100
AcDbEntity
  8
0
370
     0
100
AcDbVertex
100
AcDb2dVertex
 10
337.395560248489
 20
355.3831608500729
 30
0.0
  0
VERTEX
  5
BFE
330
BF4
100
AcDbEntity
  8
0
370
     0
100
AcDbVertex
100
AcDb2dVertex
 10
337.003715248489
 20
356.2859318500729
 30
0.0
  0
VERTEX
  5
BFF
330
BF4
100
AcDbEntity
  8
0
370
     0
100
AcDbVertex
100
AcDb2dVertex
 10
336.5976172484891
 20
357.0612008500727
 30
0.0
  0
VERTEX
  5
C00
330
BF4
100
AcDbEntity
  8
0
370
     0
100
AcDbVertex
100
AcDb2dVertex
 10
336.213828248489
 20
357.6945018500728
 30
0.0
  0
VERTEX
  5
C01
330
BF4
100
AcDbEntity
  8
0
370
     0
100
AcDbVertex
100
AcDb2dVertex
 10
335.752494248489
 20
358.3688178500728
 30
0.0
  0
VERTEX
  5
C02
330
BF4
100
AcDbEntity
  8
0
370
     0
100
AcDbVertex
100
AcDb2dVertex
 10
335.6811132484891
 20
358.4725778500729
 30
0.0
  0
SEQEND
  5
C03
330
BF4
100
AcDbEntity
  8
0
370
     0
  0
LINE
  5
C04
330
1F
100
AcDbEntity
  8
0
 62
     7
 48
0.014389
370
    35
100
AcDbLine
 10
338.281241248489
 20
28.99320785007282
 30
0.0
 11
338.8567722484891
 21
28.99699185007288
 31
0.0
  0
LINE
  5
C05
330
1F
100
AcDbEntity
  8
0
 62
     7
 48
0.014388
370
    35
100
AcDbLine
 10
338.856742248489
 20
344.6707588500727
 30
0.0
 11
338.281241248489
 21
344.6745428500729
 31
0.0
  0
LINE
  5
C15
330
1F
100
AcDbEntity
  8
0
 62
     7
 48
0.014388
370
    35
100
AcDbLine
 10
22.89144024848898
 20
28.99699185007288
 30
0.0
 11
23.466956248489
 21
28.99320785007282
 31
0.0
  0
LINE
  5
C16
330
1F
100
AcDbEntity
  8
0
 62
     7
 48
0.014388
370
    35
100
AcDbLine
 10
22.89145624848899
 20
344.6707588500727
 30
0.0
 11
23.466956248489
 21
344.6745428500729
 31
0.0
  0
LINE
  5
C17
330
1F
100
AcDbEntity
  8
0
 62
     7
 48
0.00168
370
    35
100
AcDbLine
 10
25.047233248489
 20
16.6715518500728
 30
0.0
 11
25.11443224848902
 21
16.67185785007282
 31
0.0
  0
LINE
  5
C18
330
1F
100
AcDbEntity
  8
0
 62
     7
 48
0.00168
370
    35
100
AcDbLine
 10
336.633781248489
 20
16.67185785007282
 30
0.0
 11
336.700980248489
 21
16.6715518500728
 31
0.0
  0
LINE
  5
C19
330
1F
100
AcDbEntity
  8
0
 62
     7
 48
0.017989
370
    35
100
AcDbLine
 10
337.420524248489
 20
16.66843985007287
 30
0.0
 11
336.700980248489
 21
16.6715518500728
 31
0.0
  0
LINE
  5
C1A
330
1F
100
AcDbEntity
  8
0
 62
     7
 48
0.017989
370
    35
100
AcDbLine
 10
25.047233248489
 20
16.6715518500728
 30
0.0
 11
24.32767424848899
 21
16.66843985007287
 31
0.0
  0
POLYLINE
  5
C1B
330
1F
100
AcDbEntity
  8
0
 62
     7
370
    35
100
AcDb2dPolyline
 66
     1
 10
0.0
 20
0.0
 30
0.0
  0
VERTEX
  5
C1C
330
C1B
100
AcDbEntity
  8
0
370
     0
100
AcDbVertex
100
AcDb2dVertex
 10
338.844962248489
 20
16.17088085007279
 30
0.0
  0
VERTEX
  5
C1D
330
C1B
100
AcDbEntity
  8
0
370
     0
100
AcDbVertex
100
AcDb2dVertex
 10
338.685416248489
 20
16.37446385007283
 30
0.0
  0
VERTEX
  5
C1E
330
C1B
100
AcDbEntity
  8
0
370
     0
100
AcDbVertex
100
AcDb2dVertex
 10
338.479636248489
 20
16.52995085007282
 30
0.0
  0
VERTEX
  5
C1F
330
C1B
100
AcDbEntity
  8
0
370
     0
100
AcDbVertex
100
AcDb2dVertex
 10
338.2726662484889
 20
16.61869585007278
 30
0.0
  0
VERTEX
  5
C20
330
C1B
100
AcDbEntity
  8
0
370
     0
100
AcDbVertex
100
AcDb2dVertex
 10
338.002738248489
 20
16.66181685007282
 30
0.0
  0
VERTEX
  5
C21
330
C1B
100
AcDbEntity
  8
0
370
     0
100
AcDbVertex
100
AcDb2dVertex
 10
337.6241982484889
 20
16.66727985007284
 30
0.0
  0
VERTEX
  5
C22
330
C1B
100
AcDbEntity
  8
0
370
     0
100
AcDbVertex
100
AcDb2dVertex
 10
337.420524248489
 20
16.66843985007287
 30
0.0
  0
SEQEND
  5
C23
330
C1B
100
AcDbEntity
  8
0
370
     0
  0
LINE
  5
C24
330
1F
100
AcDbEntity
  8
0
 62
     7
 48
0.001638
370
    35
100
AcDbLine
 10
338.8460612484889
 20
16.16901885007283
 30
0.0
 11
338.879447248489
 21
16.11265285007286
 31
0.0
  0
LINE
  5
C25
330
1F
100
AcDbEntity
  8
0
 62
     7
 48
0.011675
370
    35
100
AcDbLine
 10
338.8567722484891
 20
28.99699185007288
 30
0.0
 11
339.323752248489
 21
28.99931085007287
 31
0.0
  0
POLYLINE
  5
C26
330
1F
100
AcDbEntity
  8
0
 62
     7
370
    35
100
AcDb2dPolyline
 66
     1
 10
0.0
 20
0.0
 30
0.0
  0
VERTEX
  5
C27
330
C26
100
AcDbEntity
  8
0
370
     0
100
AcDbVertex
100
AcDb2dVertex
 10
340.5257792484889
 20
29.29969585007282
 30
0.0
  0
VERTEX
  5
C28
330
C26
100
AcDbEntity
  8
0
370
     0
100
AcDbVertex
100
AcDb2dVertex
 10
340.3185952484889
 20
29.14069885007283
 30
0.0
  0
VERTEX
  5
C29
330
C26
100
AcDbEntity
  8
0
370
     0
100
AcDbVertex
100
AcDb2dVertex
 10
340.0939862484889
 20
29.04539285007283
 30
0.0
  0
VERTEX
  5
C2A
330
C26
100
AcDbEntity
  8
0
370
     0
100
AcDbVertex
100
AcDb2dVertex
 10
339.824760248489
 20
29.00541485007287
 30
0.0
  0
VERTEX
  5
C2B
330
C26
100
AcDbEntity
  8
0
370
     0
100
AcDbVertex
100
AcDb2dVertex
 10
339.390555248489
 20
28.9996768500728
 30
0.0
  0
VERTEX
  5
C2C
330
C26
100
AcDbEntity
  8
0
370
     0
100
AcDbVertex
100
AcDb2dVertex
 10
339.323752248489
 20
28.99931085007287
 30
0.0
  0
SEQEND
  5
C2D
330
C26
100
AcDbEntity
  8
0
370
     0
  0
LINE
  5
C2E
330
1F
100
AcDbEntity
  8
0
 62
     7
 48
0.001958
370
    35
100
AcDbLine
 10
340.5257792484889
 20
29.29969585007282
 30
0.0
 11
340.581168248489
 21
29.35508485007281
 31
0.0
  0
LINE
  5
C2F
330
1F
100
AcDbEntity
  8
0
 62
     7
 48
0.001637
370
    35
100
AcDbLine
 10
22.870978248489
 20
16.11637685007284
 30
0.0
 11
22.90433424848899
 21
16.17271185007283
 31
0.0
  0
POLYLINE
  5
C30
330
1F
100
AcDbEntity
  8
0
 62
     7
370
    35
100
AcDb2dPolyline
 66
     1
 10
0.0
 20
0.0
 30
0.0
  0
VERTEX
  5
C31
330
C30
100
AcDbEntity
  8
0
370
     0
100
AcDbVertex
100
AcDb2dVertex
 10
24.32767424848899
 20
16.66843985007287
 30
0.0
  0
VERTEX
  5
C32
330
C30
100
AcDbEntity
  8
0
370
     0
100
AcDbVertex
100
AcDb2dVertex
 10
23.776404248489
 20
16.66282385007284
 30
0.0
  0
VERTEX
  5
C33
330
C30
100
AcDbEntity
  8
0
370
     0
100
AcDbVertex
100
AcDb2dVertex
 10
23.57266924848898
 20
16.64271285007284
 30
0.0
  0
VERTEX
  5
C34
330
C30
100
AcDbEntity
  8
0
370
     0
100
AcDbVertex
100
AcDb2dVertex
 10
23.371055248489
 20
16.58079285007281
 30
0.0
  0
VERTEX
  5
C35
330
C30
100
AcDbEntity
  8
0
370
     0
100
AcDbVertex
100
AcDb2dVertex
 10
23.16281824848898
 20
16.46049285007282
 30
0.0
  0
VERTEX
  5
C36
330
C30
100
AcDbEntity
  8
0
370
     0
100
AcDbVertex
100
AcDb2dVertex
 10
22.98101024848901
 20
16.28367385007286
 30
0.0
  0
VERTEX
  5
C37
330
C30
100
AcDbEntity
  8
0
370
     0
100
AcDbVertex
100
AcDb2dVertex
 10
22.90830124848898
 20
16.17930385007284
 30
0.0
  0
SEQEND
  5
C38
330
C30
100
AcDbEntity
  8
0
370
     0
  0
LINE
  5
C39
330
1F
100
AcDbEntity
  8
0
 62
     7
 48
0.001958
370
    35
100
AcDbLine
 10
21.22243424848901
 20
29.29969585007282
 30
0.0
 11
21.16706024848901
 21
29.35508485007281
 31
0.0
  0
POLYLINE
  5
C3A
330
1F
100
AcDbEntity
  8
0
 62
     7
370
    35
100
AcDb2dPolyline
 66
     1
 10
0.0
 20
0.0
 30
0.0
  0
VERTEX
  5
C3B
330
C3A
100
AcDbEntity
  8
0
370
     0
100
AcDbVertex
100
AcDb2dVertex
 10
22.424460248489
 20
28.99931085007287
 30
0.0
  0
VERTEX
  5
C3C
330
C3A
100
AcDbEntity
  8
0
370
     0
100
AcDbVertex
100
AcDb2dVertex
 10
21.93357024848899
 20
29.00504885007283
 30
0.0
  0
VERTEX
  5
C3D
330
C3A
100
AcDbEntity
  8
0
370
     0
100
AcDbVertex
100
AcDb2dVertex
 10
21.75994024848899
 20
29.02113085007281
 30
0.0
  0
VERTEX
  5
C3E
330
C3A
100
AcDbEntity
  8
0
370
     0
100
AcDbVertex
100
AcDb2dVertex
 10
21.54042724848898
 20
29.08558385007282
 30
0.0
  0
VERTEX
  5
C3F
330
C3A
100
AcDbEntity
  8
0
370
     0
100
AcDbVertex
100
AcDb2dVertex
 10
21.320960248489
 20
29.21329985007279
 30
0.0
  0
VERTEX
  5
C40
330
C3A
100
AcDbEntity
  8
0
370
     0
100
AcDbVertex
100
AcDb2dVertex
 10
21.22243424848901
 20
29.29969585007282
 30
0.0
  0
SEQEND
  5
C41
330
C3A
100
AcDbEntity
  8
0
370
     0
  0
LINE
  5
C42
330
1F
100
AcDbEntity
  8
0
 62
     7
 48
0.011675
370
    35
100
AcDbLine
 10
22.424460248489
 20
28.99931085007287
 30
0.0
 11
22.89144024848898
 21
28.99699185007288
 31
0.0
  0
LINE
  5
C43
330
1F
100
AcDbEntity
  8
0
 62
     7
 48
0.00168
370
    35
100
AcDbLine
 10
336.633781248489
 20
356.9958928500728
 30
0.0
 11
336.700980248489
 21
356.9961978500728
 31
0.0
  0
LINE
  5
C44
330
1F
100
AcDbEntity
  8
0
 62
     7
 48
0.011675
370
    35
100
AcDbLine
 10
339.323752248489
 20
344.6684398500728
 30
0.0
 11
338.856742248489
 21
344.6707588500727
 31
0.0
  0
LINE
  5
C45
330
1F
100
AcDbEntity
  8
0
 62
     7
 48
0.001959
370
    35
100
AcDbLine
 10
340.581168248489
 20
344.3126658500728
 30
0.0
 11
340.5257792484889
 21
344.3680858500727
 31
0.0
  0
POLYLINE
  5
C46
330
1F
100
AcDbEntity
  8
0
 62
     7
370
    35
100
AcDb2dPolyline
 66
     1
 10
0.0
 20
0.0
 30
0.0
  0
VERTEX
  5
C47
330
C46
100
AcDbEntity
  8
0
370
     0
100
AcDbVertex
100
AcDb2dVertex
 10
339.323752248489
 20
344.6684398500728
 30
0.0
  0
VERTEX
  5
C48
330
C46
100
AcDbEntity
  8
0
370
     0
100
AcDbVertex
100
AcDb2dVertex
 10
339.814658248489
 20
344.6627018500728
 30
0.0
  0
VERTEX
  5
C49
330
C46
100
AcDbEntity
  8
0
370
     0
100
AcDbVertex
100
AcDb2dVertex
 10
339.988273248489
 20
344.6466498500728
 30
0.0
  0
VERTEX
  5
C4A
330
C46
100
AcDbEntity
  8
0
370
     0
100
AcDbVertex
100
AcDb2dVertex
 10
340.207786248489
 20
344.5821968500727
 30
0.0
  0
VERTEX
  5
C4B
330
C46
100
AcDbEntity
  8
0
370
     0
100
AcDbVertex
100
AcDb2dVertex
 10
340.4272382484891
 20
344.4544498500728
 30
0.0
  0
VERTEX
  5
C4C
330
C46
100
AcDbEntity
  8
0
370
     0
100
AcDbVertex
100
AcDb2dVertex
 10
340.5257792484889
 20
344.3680858500727
 30
0.0
  0
SEQEND
  5
C4D
330
C46
100
AcDbEntity
  8
0
370
     0
  0
LINE
  5
C4E
330
1F
100
AcDbEntity
  8
0
 62
     7
 48
0.00168
370
    35
100
AcDbLine
 10
25.11443224848902
 20
356.9958928500728
 30
0.0
 11
25.047233248489
 21
356.9961978500728
 31
0.0
  0
LINE
  5
C4F
330
1F
100
AcDbEntity
  8
0
 62
     7
 48
0.017989
370
    35
100
AcDbLine
 10
24.32767424848899
 20
356.9993108500728
 30
0.0
 11
25.047233248489
 21
356.9961978500728
 31
0.0
  0
LINE
  5
C50
330
1F
100
AcDbEntity
  8
0
 62
     7
 48
0.017989
370
    35
100
AcDbLine
 10
337.420524248489
 20
356.9993108500728
 30
0.0
 11
336.700980248489
 21
356.9961978500728
 31
0.0
  0
POLYLINE
  5
C51
330
1F
100
AcDbEntity
  8
0
 62
     7
370
    35
100
AcDb2dPolyline
 66
     1
 10
0.0
 20
0.0
 30
0.0
  0
VERTEX
  5
C52
330
C51
100
AcDbEntity
  8
0
370
     0
100
AcDbVertex
100
AcDb2dVertex
 10
338.839896248489
 20
357.4884468500727
 30
0.0
  0
VERTEX
  5
C53
330
C51
100
AcDbEntity
  8
0
370
     0
100
AcDbVertex
100
AcDb2dVertex
 10
338.6818762484891
 20
357.2898388500728
 30
0.0
  0
VERTEX
  5
C54
330
C51
100
AcDbEntity
  8
0
370
     0
100
AcDbVertex
100
AcDb2dVertex
 10
338.479636248489
 20
357.1377998500728
 30
0.0
  0
VERTEX
  5
C55
330
C51
100
AcDbEntity
  8
0
370
     0
100
AcDbVertex
100
AcDb2dVertex
 10
338.272635248489
 20
357.0490548500728
 30
0.0
  0
VERTEX
  5
C56
330
C51
100
AcDbEntity
  8
0
370
     0
100
AcDbVertex
100
AcDb2dVertex
 10
338.002738248489
 20
357.0059028500728
 30
0.0
  0
VERTEX
  5
C57
330
C51
100
AcDbEntity
  8
0
370
     0
100
AcDbVertex
100
AcDb2dVertex
 10
337.6241982484889
 20
357.0004708500728
 30
0.0
  0
VERTEX
  5
C58
330
C51
100
AcDbEntity
  8
0
370
     0
100
AcDbVertex
100
AcDb2dVertex
 10
337.420524248489
 20
356.9993108500728
 30
0.0
  0
SEQEND
  5
C59
330
C51
100
AcDbEntity
  8
0
370
     0
  0
LINE
  5
C5A
330
1F
100
AcDbEntity
  8
0
 62
     7
 48
0.001638
370
    35
100
AcDbLine
 10
338.8460612484889
 20
357.4987008500727
 30
0.0
 11
338.879447248489
 21
357.5550968500728
 31
0.0
  0
POLYLINE
  5
C5B
330
1F
100
AcDbEntity
  8
0
 62
     7
370
    35
100
AcDb2dPolyline
 66
     1
 10
0.0
 20
0.0
 30
0.0
  0
VERTEX
  5
C5C
330
C5B
100
AcDbEntity
  8
0
370
     0
100
AcDbVertex
100
AcDb2dVertex
 10
22.90830124848898
 20
357.4884468500727
 30
0.0
  0
VERTEX
  5
C5D
330
C5B
100
AcDbEntity
  8
0
370
     0
100
AcDbVertex
100
AcDb2dVertex
 10
23.06632124848897
 20
357.2898388500728
 30
0.0
  0
VERTEX
  5
C5E
330
C5B
100
AcDbEntity
  8
0
370
     0
100
AcDbVertex
100
AcDb2dVertex
 10
23.26857724848898
 20
357.1377998500728
 30
0.0
  0
VERTEX
  5
C5F
330
C5B
100
AcDbEntity
  8
0
370
     0
100
AcDbVertex
100
AcDb2dVertex
 10
23.47556224848901
 20
357.0490548500728
 30
0.0
  0
VERTEX
  5
C60
330
C5B
100
AcDbEntity
  8
0
370
     0
100
AcDbVertex
100
AcDb2dVertex
 10
23.74549024848898
 20
357.0059028500728
 30
0.0
  0
VERTEX
  5
C61
330
C5B
100
AcDbEntity
  8
0
370
     0
100
AcDbVertex
100
AcDb2dVertex
 10
24.12401524848898
 20
357.0004708500728
 30
0.0
  0
VERTEX
  5
C62
330
C5B
100
AcDbEntity
  8
0
370
     0
100
AcDbVertex
100
AcDb2dVertex
 10
24.32767424848899
 20
356.9993108500728
 30
0.0
  0
SEQEND
  5
C63
330
C5B
100
AcDbEntity
  8
0
370
     0
  0
LINE
  5
C64
330
1F
100
AcDbEntity
  8
0
 62
     7
 48
0.001638
370
    35
100
AcDbLine
 10
22.902137248489
 20
357.4987008500727
 30
0.0
 11
22.868781248489
 21
357.5550968500728
 31
0.0
  0
LINE
  5
C65
330
1F
100
AcDbEntity
  8
0
 62
     7
 48
0.001959
370
    35
100
AcDbLine
 10
21.16706024848901
 20
344.3126658500728
 30
0.0
 11
21.22243424848901
 21
344.3680858500727
 31
0.0
  0
POLYLINE
  5
C66
330
1F
100
AcDbEntity
  8
0
 62
     7
370
    35
100
AcDb2dPolyline
 66
     1
 10
0.0
 20
0.0
 30
0.0
  0
VERTEX
  5
C67
330
C66
100
AcDbEntity
  8
0
370
     0
100
AcDbVertex
100
AcDb2dVertex
 10
22.42447624848899
 20
344.6684398500728
 30
0.0
  0
VERTEX
  5
C68
330
C66
100
AcDbEntity
  8
0
370
     0
100
AcDbVertex
100
AcDb2dVertex
 10
21.933555248489
 20
344.6627018500728
 30
0.0
  0
VERTEX
  5
C69
330
C66
100
AcDbEntity
  8
0
370
     0
100
AcDbVertex
100
AcDb2dVertex
 10
21.75994024848899
 20
344.6466498500728
 30
0.0
  0
VERTEX
  5
C6A
330
C66
100
AcDbEntity
  8
0
370
     0
100
AcDbVertex
100
AcDb2dVertex
 10
21.54042724848898
 20
344.5821968500727
 30
0.0
  0
VERTEX
  5
C6B
330
C66
100
AcDbEntity
  8
0
370
     0
100
AcDbVertex
100
AcDb2dVertex
 10
21.320960248489
 20
344.4544498500728
 30
0.0
  0
VERTEX
  5
C6C
330
C66
100
AcDbEntity
  8
0
370
     0
100
AcDbVertex
100
AcDb2dVertex
 10
21.22243424848901
 20
344.3680858500727
 30
0.0
  0
SEQEND
  5
C6D
330
C66
100
AcDbEntity
  8
0
370
     0
  0
LINE
  5
C6E
330
1F
100
AcDbEntity
  8
0
 62
     7
 48
0.011675
370
    35
100
AcDbLine
 10
22.42447624848899
 20
344.6684398500728
 30
0.0
 11
22.89145624848899
 21
344.6707588500727
 31
0.0
  0
ELLIPSE
  5
C6F
330
1F
100
AcDbEntity
  8
0
 62
   253
370
    35
100
AcDbEllipse
 10
322.165305248489
 20
199.8321358500729
 30
0.0
 11
-0.353546142578125
 21
0.353546142578125
 31
0.0
210
0.0
220
0.0
230
1.0
 40
0.9996950000000001
 41
2.356042196944766
 42
3.141592653589794
  0
ELLIPSE
  5
C70
330
1F
100
AcDbEntity
  8
0
 62
   253
370
    35
100
AcDbEllipse
 10
39.58290824848899
 20
199.8321358500729
 30
0.0
 11
0.353546142578125
 21
0.353546142578125
 31
0.0
210
0.0
220
0.0
230
1.0
 40
0.9996950000000001
 41
3.141592653589711
 42
3.927143110234741
  0
LINE
  5
C71
330
1F
100
AcDbEntity
  8
0
 62
   253
 48
0.001736
370
    35
100
AcDbLine
 10
125.874106248489
 20
199.7626778500728
 30
0.0
 11
125.874106248489
 21
199.8321358500729
 31
0.0
  0
ELLIPSE
  5
C72
330
1F
100
AcDbEntity
  8
0
 62
   253
370
    35
100
AcDbEllipse
 10
125.374106248489
 20
199.8321358500729
 30
0.0
 11
-0.5
 21
0.0
 31
0.0
210
0.0
220
0.0
230
1.0
 40
0.9998479999999998
 41
1.570796326794896
 42
3.141592653589792
  0
LINE
  5
C73
330
1F
100
AcDbEntity
  8
0
 62
   253
 48
0.012173
370
    35
100
AcDbLine
 10
145.8741062484889
 20
199.1402718500727
 30
0.0
 11
145.8741062484889
 21
199.6271798500728
 31
0.0
  0
LINE
  5
C74
330
1F
100
AcDbEntity
  8
0
 62
   253
 48
0.012173
370
    35
100
AcDbLine
 10
215.874106248489
 20
199.1402718500727
 30
0.0
 11
215.874106248489
 21
199.6271798500728
 31
0.0
  0
ELLIPSE
  5
C75
330
1F
100
AcDbEntity
  8
0
 62
   253
370
    35
100
AcDbEllipse
 10
236.374106248489
 20
199.8321358500729
 30
0.0
 11
0.5
 21
0.0
 31
0.0
210
0.0
220
0.0
230
1.0
 40
0.9998479999999998
 41
3.141592653589837
 42
4.71238898038475
  0
LINE
  5
C76
330
1F
100
AcDbEntity
  8
0
 62
   253
 48
0.001736
370
    35
100
AcDbLine
 10
235.874106248489
 20
199.7626778500728
 30
0.0
 11
235.874106248489
 21
199.8321358500729
 31
0.0
  0
LINE
  5
C77
330
1F
100
AcDbEntity
  8
0
 62
   253
 48
0.099519
370
    35
100
AcDbLine
 10
125.874106248489
 20
199.8321358500729
 30
0.0
 11
125.874106248489
 21
203.8129098500729
 31
0.0
  0
ARC
  5
C78
330
1F
100
AcDbEntity
  8
0
 62
   253
370
    35
100
AcDbCircle
 10
127.884452248489
 20
203.8179148500729
 30
0.0
 40
2.009984
100
AcDbArc
 50
118.2594389999994
 51
180.1417620000012
  0
ARC
  5
C79
330
1F
100
AcDbEntity
  8
0
 62
   253
370
    35
100
AcDbCircle
 10
145.869895248489
 20
170.1460088500728
 30
0.0
 40
40.184224
100
AcDbArc
 50
89.99399200000004
 51
118.1159230000005
  0
LINE
  5
C7A
330
1F
100
AcDbEntity
  8
0
 62
   253
 48
0.2675800000000001
370
    35
100
AcDbLine
 10
145.8741062484889
 20
199.6271798500728
 30
0.0
 11
145.8741062484889
 21
210.3303658500728
 31
0.0
  0
LINE
  5
C7B
330
1F
100
AcDbEntity
  8
0
 62
   253
370
    35
100
AcDbLine
 10
215.874106248489
 20
210.3303658500728
 30
0.0
 11
145.8741062484889
 21
210.3303658500728
 31
0.0
  0
LINE
  5
C7C
330
1F
100
AcDbEntity
  8
0
 62
   253
 48
0.2675800000000001
370
    35
100
AcDbLine
 10
215.874106248489
 20
199.6271798500728
 30
0.0
 11
215.874106248489
 21
210.3303658500728
 31
0.0
  0
ARC
  5
C7D
330
1F
100
AcDbEntity
  8
0
 62
   253
370
    35
100
AcDbCircle
 10
215.878287248489
 20
170.1456428500729
 30
0.0
 40
40.184573
100
AcDbArc
 50
61.8842659999995
 51
90.00595200000004
  0
ARC
  5
C7E
330
1F
100
AcDbEntity
  8
0
 62
   253
370
    35
100
AcDbCircle
 10
233.863761248489
 20
203.8179148500729
 30
0.0
 40
2.009984
100
AcDbArc
 50
359.8582329999992
 51
61.74056599999978
  0
LINE
  5
C7F
330
1F
100
AcDbEntity
  8
0
 62
   253
 48
0.099519
370
    35
100
AcDbLine
 10
235.874106248489
 20
199.8321358500729
 30
0.0
 11
235.874106248489
 21
203.8129098500729
 31
0.0
  0
LINE
  5
C80
330
1F
100
AcDbEntity
  8
0
 62
   253
370
    35
100
AcDbLine
 10
125.374106248489
 20
199.3322268500729
 30
0.0
 11
81.03136424848901
 21
199.3322268500729
 31
0.0
  0
LINE
  5
C81
330
1F
100
AcDbEntity
  8
0
 62
   253
370
    35
100
AcDbLine
 10
64.71684924848898
 20
199.3322268500729
 30
0.0
 11
39.58290824848899
 21
199.3322268500729
 31
0.0
  0
LINE
  5
C82
330
1F
100
AcDbEntity
  8
0
 62
   253
 48
0.001304
370
    35
100
AcDbLine
 10
291.365592248489
 20
199.1663948500728
 30
0.0
 11
291.328727248489
 21
199.1294988500728
 31
0.0
  0
LINE
  5
C83
330
1F
100
AcDbEntity
  8
0
 62
   253
 48
0.001304
370
    35
100
AcDbLine
 10
82.382606248489
 20
199.1663948500728
 30
0.0
 11
82.419486248489
 21
199.1294988500728
 31
0.0
  0
ELLIPSE
  5
C84
330
1F
100
AcDbEntity
  8
0
 62
   253
370
    35
100
AcDbEllipse
 10
322.063193248489
 20
179.0448738500728
 30
0.0
 11
0.5
 21
-0.001220703125
 31
0.0
210
0.0
220
0.0
230
1.0
 40
0.139173
 41
5.383801797062321
 42
6.300810139846293
  0
LINE
  5
C85
330
1F
100
AcDbEntity
  8
0
 62
   253
 48
0.001248
370
    35
100
AcDbLine
 10
322.518851248489
 20
199.4785898500728
 30
0.0
 11
322.483542248489
 21
199.4432808500728
 31
0.0
  0
LINE
  5
C86
330
1F
100
AcDbEntity
  8
0
 62
   253
 48
0.001248
370
    35
100
AcDbLine
 10
39.264670248489
 20
199.4432808500728
 30
0.0
 11
39.229362248489
 21
199.4785898500728
 31
0.0
  0
LINE
  5
C87
330
1F
100
AcDbEntity
  8
0
 62
   253
370
    35
100
AcDbLine
 10
322.6653052484891
 20
294.9623238500728
 30
0.0
 11
322.6653052484891
 21
199.8321358500729
 31
0.0
  0
POLYLINE
  5
C88
330
1F
100
AcDbEntity
  8
0
 62
   253
370
    35
100
AcDb2dPolyline
 66
     1
 10
0.0
 20
0.0
 30
0.0
  0
VERTEX
  5
C89
330
C88
100
AcDbEntity
  8
0
 62
   253
370
     0
100
AcDbVertex
100
AcDb2dVertex
 10
322.139121248489
 20
296.9623238500728
 30
0.0
  0
VERTEX
  5
C8A
330
C88
100
AcDbEntity
  8
0
 62
   253
370
     0
100
AcDbVertex
100
AcDb2dVertex
 10
322.2688822484889
 20
296.9452338500728
 30
0.0
  0
VERTEX
  5
C8B
330
C88
100
AcDbEntity
  8
0
 62
   253
370
     0
100
AcDbVertex
100
AcDb2dVertex
 10
322.389396248489
 20
296.8952458500728
 30
0.0
  0
VERTEX
  5
C8C
330
C88
100
AcDbEntity
  8
0
 62
   253
370
     0
100
AcDbVertex
100
AcDb2dVertex
 10
322.495353248489
 20
296.8133978500729
 30
0.0
  0
VERTEX
  5
C8D
330
C88
100
AcDbEntity
  8
0
 62
   253
370
     0
100
AcDbVertex
100
AcDb2dVertex
 10
322.572928248489
 20
296.7115908500728
 30
0.0
  0
VERTEX
  5
C8E
330
C88
100
AcDbEntity
  8
0
 62
   253
370
     0
100
AcDbVertex
100
AcDb2dVertex
 10
322.6320722484891
 20
296.5527778500728
 30
0.0
  0
VERTEX
  5
C8F
330
C88
100
AcDbEntity
  8
0
 62
   253
370
     0
100
AcDbVertex
100
AcDb2dVertex
 10
322.649528248489
 20
296.3490428500728
 30
0.0
  0
VERTEX
  5
C90
330
C88
100
AcDbEntity
  8
0
 62
   253
370
     0
100
AcDbVertex
100
AcDb2dVertex
 10
322.662528248489
 20
295.6370068500728
 30
0.0
  0
VERTEX
  5
C91
330
C88
100
AcDbEntity
  8
0
 62
   253
370
     0
100
AcDbVertex
100
AcDb2dVertex
 10
322.6653052484891
 20
294.9623238500728
 30
0.0
  0
SEQEND
  5
C92
330
C88
100
AcDbEntity
  8
0
 62
   253
370
     0
  0
ARC
  5
C93
330
1F
100
AcDbEntity
  8
0
 62
   253
370
    35
100
AcDbCircle
 10
322.165305248489
 20
199.8321358500729
 30
0.0
 40
0.5
100
AcDbArc
 50
314.9999990000002
 51
0.0
  0
ARC
  5
C94
330
1F
100
AcDbEntity
  8
0
 62
   253
370
    35
100
AcDbCircle
 10
39.58290824848899
 20
199.8321358500729
 30
0.0
 40
0.5
100
AcDbArc
 50
179.9999949999995
 51
225.0000000000001
  0
POLYLINE
  5
C95
330
1F
100
AcDbEntity
  8
0
 62
   253
370
    35
100
AcDb2dPolyline
 66
     1
 10
0.0
 20
0.0
 30
0.0
  0
VERTEX
  5
C96
330
C95
100
AcDbEntity
  8
0
 62
   253
370
     0
100
AcDbVertex
100
AcDb2dVertex
 10
39.08290824848899
 20
294.9623238500728
 30
0.0
  0
VERTEX
  5
C97
330
C95
100
AcDbEntity
  8
0
 62
   253
370
     0
100
AcDbVertex
100
AcDb2dVertex
 10
39.093497248489
 20
296.1732608500728
 30
0.0
  0
VERTEX
  5
C98
330
C95
100
AcDbEntity
  8
0
 62
   253
370
     0
100
AcDbVertex
100
AcDb2dVertex
 10
39.10559824848899
 20
296.4737368500728
 30
0.0
  0
VERTEX
  5
C99
330
C95
100
AcDbEntity
  8
0
 62
   253
370
     0
100
AcDbVertex
100
AcDb2dVertex
 10
39.13121724848897
 20
296.6117378500728
 30
0.0
  0
VERTEX
  5
C9A
330
C95
100
AcDbEntity
  8
0
 62
   253
370
     0
100
AcDbVertex
100
AcDb2dVertex
 10
39.17526924848898
 20
296.7115908500728
 30
0.0
  0
VERTEX
  5
C9B
330
C95
100
AcDbEntity
  8
0
 62
   253
370
     0
100
AcDbVertex
100
AcDb2dVertex
 10
39.252845248489
 20
296.8133978500729
 30
0.0
  0
VERTEX
  5
C9C
330
C95
100
AcDbEntity
  8
0
 62
   253
370
     0
100
AcDbVertex
100
AcDb2dVertex
 10
39.35883224848899
 20
296.8952458500728
 30
0.0
  0
VERTEX
  5
C9D
330
C95
100
AcDbEntity
  8
0
 62
   253
370
     0
100
AcDbVertex
100
AcDb2dVertex
 10
39.479331248489
 20
296.9452338500728
 30
0.0
  0
VERTEX
  5
C9E
330
C95
100
AcDbEntity
  8
0
 62
   253
370
     0
100
AcDbVertex
100
AcDb2dVertex
 10
39.60909224848899
 20
296.9623238500728
 30
0.0
  0
SEQEND
  5
C9F
330
C95
100
AcDbEntity
  8
0
 62
   253
370
     0
  0
LINE
  5
CA0
330
1F
100
AcDbEntity
  8
0
 62
   253
370
    35
100
AcDbLine
 10
39.08290824848899
 20
294.9623238500728
 30
0.0
 11
39.08290824848899
 21
199.8321358500729
 31
0.0
  0
LINE
  5
CA1
330
1F
100
AcDbEntity
  8
0
 62
   253
370
    35
100
AcDbLine
 10
39.60909224848899
 20
296.9623238500728
 30
0.0
 11
322.139121248489
 21
296.9623238500728
 31
0.0
  0
LINE
  5
CA2
330
1F
100
AcDbEntity
  8
0
 62
   253
 48
0.000625
370
    35
100
AcDbLine
 10
39.25638524848901
 20
199.4521918500728
 30
0.0
 11
39.27405524848899
 21
199.4344918500728
 31
0.0
  0
LINE
  5
CA3
330
1F
100
AcDbEntity
  8
0
 62
   253
 48
0.000626
370
    35
100
AcDbLine
 10
322.4918132484891
 20
199.4521918500728
 30
0.0
 11
322.474113248489
 21
199.4344608500728
 31
0.0
  0
LINE
  5
CA4
330
1F
100
AcDbEntity
  8
0
 62
   253
 48
0.011442
370
    35
100
AcDbLine
 10
145.8741062484889
 20
197.6481148500728
 30
0.0
 11
145.8741062484889
 21
197.1904428500728
 31
0.0
  0
LINE
  5
CA5
330
1F
100
AcDbEntity
  8
0
 62
   253
 48
0.011443
370
    35
100
AcDbLine
 10
215.874106248489
 20
197.6481148500728
 30
0.0
 11
215.874106248489
 21
197.1904118500728
 31
0.0
  0
LINE
  5
CA6
330
1F
100
AcDbEntity
  8
0
 62
   253
 48
0.499564
370
    35
100
AcDbLine
 10
39.374106248489
 20
197.6040778500728
 30
0.0
 11
39.374106248489
 21
177.6215338500725
 31
0.0
  0
ARC
  5
CA7
330
1F
100
AcDbEntity
  8
0
 62
   253
370
    35
100
AcDbCircle
 10
39.874106248489
 20
177.6215338500725
 30
0.0
 40
0.5
100
AcDbArc
 50
180.0000050000005
 51
269.9999969999999
  0
LINE
  5
CA8
330
1F
100
AcDbEntity
  8
0
 62
   253
370
    35
100
AcDbLine
 10
39.874106248489
 20
177.1215338500728
 30
0.0
 11
321.8741062484889
 21
177.1215338500728
 31
0.0
  0
ARC
  5
CA9
330
1F
100
AcDbEntity
  8
0
 62
   253
370
    35
100
AcDbCircle
 10
321.8741062484889
 20
177.6215338500725
 30
0.0
 40
0.5
100
AcDbArc
 50
269.9999969999999
 51
0.0
  0
LINE
  5
CAA
330
1F
100
AcDbEntity
  8
0
 62
   253
 48
0.499564
370
    35
100
AcDbLine
 10
322.374106248489
 20
177.6215338500725
 30
0.0
 11
322.374106248489
 21
197.6040778500728
 31
0.0
  0
LINE
  5
CAB
330
1F
100
AcDbEntity
  8
0
 62
   253
 48
0.2141739999999999
370
    35
100
AcDbLine
 10
145.8741062484889
 20
197.1904118500728
 30
0.0
 11
145.8741062484889
 21
188.6234568500728
 31
0.0
  0
LINE
  5
CAC
330
1F
100
AcDbEntity
  8
0
 62
   253
 48
0.2141739999999999
370
    35
100
AcDbLine
 10
215.874106248489
 20
197.1904118500728
 30
0.0
 11
215.874106248489
 21
188.6234568500728
 31
0.0
  0
LINE
  5
CAD
330
1F
100
AcDbEntity
  8
0
 62
   253
 48
0.099085
370
    35
100
AcDbLine
 10
235.874106248489
 20
197.6040778500728
 30
0.0
 11
235.874106248489
 21
193.6406688500728
 31
0.0
  0
LINE
  5
CAE
330
1F
100
AcDbEntity
  8
0
 62
   253
 48
0.099085
370
    35
100
AcDbLine
 10
125.874106248489
 20
197.6040778500728
 30
0.0
 11
125.874106248489
 21
193.6406688500728
 31
0.0
  0
LINE
  5
CAF
330
1F
100
AcDbEntity
  8
0
 62
   253
 48
0.00038
370
    35
100
AcDbLine
 10
126.935126248489
 20
191.8578008500728
 30
0.0
 11
126.9503092484889
 21
191.8578008500728
 31
0.0
  0
LINE
  5
CB0
330
1F
100
AcDbEntity
  8
0
 62
   253
 48
0.000493
370
    35
100
AcDbLine
 10
126.9503092484889
 20
191.8578008500728
 30
0.0
 11
126.932929248489
 21
191.8670788500728
 31
0.0
  0
ARC
  5
CB1
330
1F
100
AcDbEntity
  8
0
 62
   253
370
    35
100
AcDbCircle
 10
137.696494248489
 20
211.6269358500729
 30
0.0
 40
22.508355
100
AcDbArc
 50
241.4382300000008
 51
242.5411960000007
  0
LINE
  5
CB2
330
1F
100
AcDbEntity
  8
0
 62
   253
 48
0.000493
370
    35
100
AcDbLine
 10
234.815299248489
 20
191.8670788500728
 30
0.0
 11
234.797904248489
 21
191.8578008500728
 31
0.0
  0
LINE
  5
CB3
330
1F
100
AcDbEntity
  8
0
 62
   253
 48
0.00038
370
    35
100
AcDbLine
 10
234.813102248489
 20
191.8578008500728
 30
0.0
 11
234.797904248489
 21
191.8578008500728
 31
0.0
  0
ARC
  5
CB4
330
1F
100
AcDbEntity
  8
0
 62
   253
370
    35
100
AcDbCircle
 10
224.051719248489
 20
211.6269358500729
 30
0.0
 40
22.508351
100
AcDbArc
 50
297.4587990000001
 51
298.561772
  0
LINE
  5
CB5
330
1F
100
AcDbEntity
  8
0
 62
   253
 48
0.002541
370
    35
100
AcDbLine
 10
145.8741062484889
 20
185.0771618500728
 30
0.0
 11
145.8741062484889
 21
185.1788158500728
 31
0.0
  0
POLYLINE
  5
CB6
330
1F
100
AcDbEntity
  8
0
 62
   253
370
    35
100
AcDb2dPolyline
 66
     1
 10
0.0
 20
0.0
 30
0.0
  0
VERTEX
  5
CB7
330
CB6
100
AcDbEntity
  8
0
 62
   253
370
     0
100
AcDbVertex
100
AcDb2dVertex
 10
126.710181248489
 20
190.5775578500728
 30
0.0
  0
VERTEX
  5
CB8
330
CB6
100
AcDbEntity
  8
0
 62
   253
370
     0
100
AcDbVertex
100
AcDb2dVertex
 10
127.427543248489
 20
190.1443918500728
 30
0.0
  0
VERTEX
  5
CB9
330
CB6
100
AcDbEntity
  8
0
 62
   253
370
     0
100
AcDbVertex
100
AcDb2dVertex
 10
128.183295248489
 20
189.7119578500728
 30
0.0
  0
VERTEX
  5
CBA
330
CB6
100
AcDbEntity
  8
0
 62
   253
370
     0
100
AcDbVertex
100
AcDb2dVertex
 10
129.408912248489
 20
189.0594918500728
 30
0.0
  0
VERTEX
  5
CBB
330
CB6
100
AcDbEntity
  8
0
 62
   253
370
     0
100
AcDbVertex
100
AcDb2dVertex
 10
130.662147248489
 20
188.4514598500729
 30
0.0
  0
VERTEX
  5
CBC
330
CB6
100
AcDbEntity
  8
0
 62
   253
370
     0
100
AcDbVertex
100
AcDb2dVertex
 10
131.941260248489
 20
187.8892648500728
 30
0.0
  0
VERTEX
  5
CBD
330
CB6
100
AcDbEntity
  8
0
 62
   253
370
     0
100
AcDbVertex
100
AcDb2dVertex
 10
133.242545248489
 20
187.3750738500728
 30
0.0
  0
VERTEX
  5
CBE
330
CB6
100
AcDbEntity
  8
0
 62
   253
370
     0
100
AcDbVertex
100
AcDb2dVertex
 10
134.561942248489
 20
186.9108098500728
 30
0.0
  0
VERTEX
  5
CBF
330
CB6
100
AcDbEntity
  8
0
 62
   253
370
     0
100
AcDbVertex
100
AcDb2dVertex
 10
135.894614248489
 20
186.4981818500728
 30
0.0
  0
VERTEX
  5
CC0
330
CB6
100
AcDbEntity
  8
0
 62
   253
370
     0
100
AcDbVertex
100
AcDb2dVertex
 10
137.261802248489
 20
186.1318188500728
 30
0.0
  0
VERTEX
  5
CC1
330
CB6
100
AcDbEntity
  8
0
 62
   253
370
     0
100
AcDbVertex
100
AcDb2dVertex
 10
138.641410248489
 20
185.8190438500728
 30
0.0
  0
VERTEX
  5
CC2
330
CB6
100
AcDbEntity
  8
0
 62
   253
370
     0
100
AcDbVertex
100
AcDb2dVertex
 10
140.032218248489
 20
185.5602848500728
 30
0.0
  0
VERTEX
  5
CC3
330
CB6
100
AcDbEntity
  8
0
 62
   253
370
     0
100
AcDbVertex
100
AcDb2dVertex
 10
141.433692248489
 20
185.3560308500729
 30
0.0
  0
VERTEX
  5
CC4
330
CB6
100
AcDbEntity
  8
0
 62
   253
370
     0
100
AcDbVertex
100
AcDb2dVertex
 10
142.911429248489
 20
185.2012458500728
 30
0.0
  0
VERTEX
  5
CC5
330
CB6
100
AcDbEntity
  8
0
 62
   253
370
     0
100
AcDbVertex
100
AcDb2dVertex
 10
144.393485248489
 20
185.1081368500728
 30
0.0
  0
VERTEX
  5
CC6
330
CB6
100
AcDbEntity
  8
0
 62
   253
370
     0
100
AcDbVertex
100
AcDb2dVertex
 10
145.8741062484889
 20
185.0771308500728
 30
0.0
  0
SEQEND
  5
CC7
330
CB6
100
AcDbEntity
  8
0
 62
   253
370
     0
  0
POLYLINE
  5
CC8
330
1F
100
AcDbEntity
  8
0
 62
   253
370
    35
100
AcDb2dPolyline
 66
     1
 10
0.0
 20
0.0
 30
0.0
  0
VERTEX
  5
CC9
330
CC8
100
AcDbEntity
  8
0
 62
   253
370
     0
100
AcDbVertex
100
AcDb2dVertex
 10
126.710181248489
 20
190.5775578500728
 30
0.0
  0
VERTEX
  5
CCA
330
CC8
100
AcDbEntity
  8
0
 62
   253
370
     0
100
AcDbVertex
100
AcDb2dVertex
 10
126.4910802484889
 20
190.7524848500728
 30
0.0
  0
VERTEX
  5
CCB
330
CC8
100
AcDbEntity
  8
0
 62
   253
370
     0
100
AcDbVertex
100
AcDb2dVertex
 10
126.287177248489
 20
191.0001658500728
 30
0.0
  0
VERTEX
  5
CCC
330
CC8
100
AcDbEntity
  8
0
 62
   253
370
     0
100
AcDbVertex
100
AcDb2dVertex
 10
126.127326248489
 20
191.2861758500728
 30
0.0
  0
VERTEX
  5
CCD
330
CC8
100
AcDbEntity
  8
0
 62
   253
370
     0
100
AcDbVertex
100
AcDb2dVertex
 10
126.065101248489
 20
191.4753238500728
 30
0.0
  0
VERTEX
  5
CCE
330
CC8
100
AcDbEntity
  8
0
 62
   253
370
     0
100
AcDbVertex
100
AcDb2dVertex
 10
126.051566248489
 20
191.6104558500728
 30
0.0
  0
VERTEX
  5
CCF
330
CC8
100
AcDbEntity
  8
0
 62
   253
370
     0
100
AcDbVertex
100
AcDb2dVertex
 10
126.0647802484889
 20
191.6973088500728
 30
0.0
  0
VERTEX
  5
CD0
330
CC8
100
AcDbEntity
  8
0
 62
   253
370
     0
100
AcDbVertex
100
AcDb2dVertex
 10
126.154197248489
 20
191.8279858500728
 30
0.0
  0
SEQEND
  5
CD1
330
CC8
100
AcDbEntity
  8
0
 62
   253
370
     0
  0
LINE
  5
CD2
330
1F
100
AcDbEntity
  8
0
 62
   253
 48
0.000273
370
    35
100
AcDbLine
 10
126.932929248489
 20
191.8670788500728
 30
0.0
 11
126.927207248489
 21
191.8578008500728
 31
0.0
  0
ARC
  5
CD3
330
1F
100
AcDbEntity
  8
0
 62
   253
370
    35
100
AcDbCircle
 10
127.883506248489
 20
193.6367318500728
 30
0.0
 40
2.009075
100
AcDbArc
 50
179.8683599999997
 51
241.7577729999992
  0
LINE
  5
CD4
330
1F
100
AcDbEntity
  8
0
 62
   253
 48
0.001318
370
    35
100
AcDbLine
 10
126.154197248489
 20
191.8279858500728
 30
0.0
 11
126.197654248489
 21
191.8578008500728
 31
0.0
  0
ARC
  5
CD5
330
1F
100
AcDbEntity
  8
0
 62
   253
370
    35
100
AcDbCircle
 10
233.864738248489
 20
193.6367008500728
 30
0.0
 40
2.009049999999998
100
AcDbArc
 50
298.2425020000006
 51
0.1326529999994954
  0
LINE
  5
CD6
330
1F
100
AcDbEntity
  8
0
 62
   253
 48
0.000272
370
    35
100
AcDbLine
 10
234.815299248489
 20
191.8670788500728
 30
0.0
 11
234.821006248489
 21
191.8578008500728
 31
0.0
  0
LINE
  5
CD7
330
1F
100
AcDbEntity
  8
0
 62
   253
 48
0.001318
370
    35
100
AcDbLine
 10
235.5505592484889
 20
191.8578008500728
 30
0.0
 11
235.594016248489
 21
191.8279858500728
 31
0.0
  0
LINE
  5
CD8
330
1F
100
AcDbEntity
  8
0
 62
   253
 48
0.001022
370
    35
100
AcDbLine
 10
235.594016248489
 20
191.8279858500728
 30
0.0
 11
235.569388248489
 21
191.7953318500728
 31
0.0
  0
POLYLINE
  5
CD9
330
1F
100
AcDbEntity
  8
0
 62
   253
370
    35
100
AcDb2dPolyline
 66
     1
 10
0.0
 20
0.0
 30
0.0
  0
VERTEX
  5
CDA
330
CD9
100
AcDbEntity
  8
0
 62
   253
370
     0
100
AcDbVertex
100
AcDb2dVertex
 10
235.038016248489
 20
190.5775578500728
 30
0.0
  0
VERTEX
  5
CDB
330
CD9
100
AcDbEntity
  8
0
 62
   253
370
     0
100
AcDbVertex
100
AcDb2dVertex
 10
235.259666248489
 20
190.7550178500729
 30
0.0
  0
VERTEX
  5
CDC
330
CD9
100
AcDbEntity
  8
0
 62
   253
370
     0
100
AcDbVertex
100
AcDb2dVertex
 10
235.463462248489
 20
191.0037058500728
 30
0.0
  0
VERTEX
  5
CDD
330
CD9
100
AcDbEntity
  8
0
 62
   253
370
     0
100
AcDbVertex
100
AcDb2dVertex
 10
235.622489248489
 20
191.2898998500728
 30
0.0
  0
VERTEX
  5
CDE
330
CD9
100
AcDbEntity
  8
0
 62
   253
370
     0
100
AcDbVertex
100
AcDb2dVertex
 10
235.683860248489
 20
191.4789248500728
 30
0.0
  0
VERTEX
  5
CDF
330
CD9
100
AcDbEntity
  8
0
 62
   253
370
     0
100
AcDbVertex
100
AcDb2dVertex
 10
235.696525248489
 20
191.6140268500728
 30
0.0
  0
VERTEX
  5
CE0
330
CD9
100
AcDbEntity
  8
0
 62
   253
370
     0
100
AcDbVertex
100
AcDb2dVertex
 10
235.6822422484889
 20
191.7012458500728
 30
0.0
  0
VERTEX
  5
CE1
330
CD9
100
AcDbEntity
  8
0
 62
   253
370
     0
100
AcDbVertex
100
AcDb2dVertex
 10
235.594016248489
 20
191.8279858500728
 30
0.0
  0
SEQEND
  5
CE2
330
CD9
100
AcDbEntity
  8
0
 62
   253
370
     0
  0
POLYLINE
  5
CE3
330
1F
100
AcDbEntity
  8
0
 62
   253
370
    35
100
AcDb2dPolyline
 66
     1
 10
0.0
 20
0.0
 30
0.0
  0
VERTEX
  5
CE4
330
CE3
100
AcDbEntity
  8
0
 62
   253
370
     0
100
AcDbVertex
100
AcDb2dVertex
 10
235.038016248489
 20
190.5775578500728
 30
0.0
  0
VERTEX
  5
CE5
330
CE3
100
AcDbEntity
  8
0
 62
   253
370
     0
100
AcDbVertex
100
AcDb2dVertex
 10
234.343864248489
 20
190.1580638500728
 30
0.0
  0
VERTEX
  5
CE6
330
CE3
100
AcDbEntity
  8
0
 62
   253
370
     0
100
AcDbVertex
100
AcDb2dVertex
 10
233.143394248489
 20
189.4808788500728
 30
0.0
  0
VERTEX
  5
CE7
330
CE3
100
AcDbEntity
  8
0
 62
   253
370
     0
100
AcDbVertex
100
AcDb2dVertex
 10
231.913932248489
 20
188.8466008500728
 30
0.0
  0
VERTEX
  5
CE8
330
CE3
100
AcDbEntity
  8
0
 62
   253
370
     0
100
AcDbVertex
100
AcDb2dVertex
 10
230.649741248489
 20
188.2532168500728
 30
0.0
  0
VERTEX
  5
CE9
330
CE3
100
AcDbEntity
  8
0
 62
   253
370
     0
100
AcDbVertex
100
AcDb2dVertex
 10
229.361259248489
 20
187.7067088500726
 30
0.0
  0
VERTEX
  5
CEA
330
CE3
100
AcDbEntity
  8
0
 62
   253
370
     0
100
AcDbVertex
100
AcDb2dVertex
 10
228.051505248489
 20
187.2088748500728
 30
0.0
  0
VERTEX
  5
CEB
330
CE3
100
AcDbEntity
  8
0
 62
   253
370
     0
100
AcDbVertex
100
AcDb2dVertex
 10
226.725181248489
 20
186.7617318500728
 30
0.0
  0
VERTEX
  5
CEC
330
CE3
100
AcDbEntity
  8
0
 62
   253
370
     0
100
AcDbVertex
100
AcDb2dVertex
 10
225.390098248489
 20
186.3675968500728
 30
0.0
  0
VERTEX
  5
CED
330
CE3
100
AcDbEntity
  8
0
 62
   253
370
     0
100
AcDbVertex
100
AcDb2dVertex
 10
224.043571248489
 20
186.0252508500728
 30
0.0
  0
VERTEX
  5
CEE
330
CE3
100
AcDbEntity
  8
0
 62
   253
370
     0
100
AcDbVertex
100
AcDb2dVertex
 10
222.694510248489
 20
185.7364628500728
 30
0.0
  0
VERTEX
  5
CEF
330
CE3
100
AcDbEntity
  8
0
 62
   253
370
     0
100
AcDbVertex
100
AcDb2dVertex
 10
221.3341282484889
 20
185.4990668500728
 30
0.0
  0
VERTEX
  5
CF0
330
CE3
100
AcDbEntity
  8
0
 62
   253
370
     0
100
AcDbVertex
100
AcDb2dVertex
 10
219.964194248489
 20
185.3137338500728
 30
0.0
  0
VERTEX
  5
CF1
330
CE3
100
AcDbEntity
  8
0
 62
   253
370
     0
100
AcDbVertex
100
AcDb2dVertex
 10
218.943198248489
 20
185.2103398500728
 30
0.0
  0
VERTEX
  5
CF2
330
CE3
100
AcDbEntity
  8
0
 62
   253
370
     0
100
AcDbVertex
100
AcDb2dVertex
 10
217.919944248489
 20
185.1363348500728
 30
0.0
  0
VERTEX
  5
CF3
330
CE3
100
AcDbEntity
  8
0
 62
   253
370
     0
100
AcDbVertex
100
AcDb2dVertex
 10
216.896201248489
 20
185.0919318500728
 30
0.0
  0
VERTEX
  5
CF4
330
CE3
100
AcDbEntity
  8
0
 62
   253
370
     0
100
AcDbVertex
100
AcDb2dVertex
 10
215.874106248489
 20
185.0771308500728
 30
0.0
  0
SEQEND
  5
CF5
330
CE3
100
AcDbEntity
  8
0
 62
   253
370
     0
  0
LINE
  5
CF6
330
1F
100
AcDbEntity
  8
0
 62
   253
 48
0.002542
370
    35
100
AcDbLine
 10
215.874106248489
 20
185.0771308500728
 30
0.0
 11
215.874106248489
 21
185.1788158500728
 31
0.0
  0
LINE
  5
CF7
330
1F
100
AcDbEntity
  8
0
 62
   253
 48
0.001897
370
    35
100
AcDbLine
 10
126.273521248489
 20
191.8578008500728
 30
0.0
 11
126.197654248489
 21
191.8578008500728
 31
0.0
  0
LINE
  5
CF8
330
1F
100
AcDbEntity
  8
0
 62
   253
 48
0.012196
370
    35
100
AcDbLine
 10
126.935126248489
 20
191.8578008500728
 30
0.0
 11
126.447288248489
 21
191.8578008500728
 31
0.0
  0
LINE
  5
CF9
330
1F
100
AcDbEntity
  8
0
 62
   253
 48
0.00136
370
    35
100
AcDbLine
 10
126.447288248489
 20
191.8578008500728
 30
0.0
 11
126.392875248489
 21
191.8578008500728
 31
0.0
  0
LINE
  5
CFA
330
1F
100
AcDbEntity
  8
0
 62
   253
 48
0.002984
370
    35
100
AcDbLine
 10
126.273521248489
 20
191.8578008500728
 30
0.0
 11
126.392875248489
 21
191.8578008500728
 31
0.0
  0
LINE
  5
CFB
330
1F
100
AcDbEntity
  8
0
 62
   253
 48
0.069543
370
    35
100
AcDbLine
 10
215.874106248489
 20
185.1788158500728
 30
0.0
 11
215.874106248489
 21
187.9605228500729
 31
0.0
  0
LINE
  5
CFC
330
1F
100
AcDbEntity
  8
0
 62
   253
 48
0.002984
370
    35
100
AcDbLine
 10
235.474692248489
 20
191.8578008500728
 30
0.0
 11
235.355338248489
 21
191.8578008500728
 31
0.0
  0
LINE
  5
CFD
330
1F
100
AcDbEntity
  8
0
 62
   253
 48
0.016567
370
    35
100
AcDbLine
 10
215.874106248489
 20
188.6232128500728
 30
0.0
 11
215.874106248489
 21
187.9605228500729
 31
0.0
  0
LINE
  5
CFE
330
1F
100
AcDbEntity
  8
0
 62
   253
 48
0.00136
370
    35
100
AcDbLine
 10
235.300925248489
 20
191.8578008500728
 30
0.0
 11
235.355338248489
 21
191.8578008500728
 31
0.0
  0
LINE
  5
CFF
330
1F
100
AcDbEntity
  8
0
 62
   253
 48
0.016566
370
    35
100
AcDbLine
 10
145.8741062484889
 20
188.6232128500728
 30
0.0
 11
145.8741062484889
 21
187.9605838500728
 31
0.0
  0
LINE
  5
D00
330
1F
100
AcDbEntity
  8
0
 62
   253
 48
0.069543
370
    35
100
AcDbLine
 10
145.8741062484889
 20
185.1788158500728
 30
0.0
 11
145.8741062484889
 21
187.9605228500729
 31
0.0
  0
LINE
  5
D01
330
1F
100
AcDbEntity
  8
0
 62
   253
 48
0.001897
370
    35
100
AcDbLine
 10
235.474692248489
 20
191.8578008500728
 30
0.0
 11
235.5505592484889
 21
191.8578008500728
 31
0.0
  0
LINE
  5
D02
330
1F
100
AcDbEntity
  8
0
 62
   253
 48
0.012196
370
    35
100
AcDbLine
 10
234.813102248489
 20
191.8578008500728
 30
0.0
 11
235.300925248489
 21
191.8578008500728
 31
0.0
  0
LINE
  5
D03
330
1F
100
AcDbEntity
  8
0
 62
   253
370
    35
100
AcDbLine
 10
191.1500162484889
 20
185.0771618500728
 30
0.0
 11
215.874106248489
 21
185.0771618500728
 31
0.0
  0
LINE
  5
D04
330
1F
100
AcDbEntity
  8
0
 62
   253
370
    35
100
AcDbLine
 10
145.8741062484889
 20
185.0771618500728
 30
0.0
 11
170.598197248489
 21
185.0771618500728
 31
0.0
  0
LINE
  5
D05
330
1F
100
AcDbEntity
  8
0
 62
   253
370
    35
100
AcDbLine
 10
215.874106248489
 20
188.6232128500728
 30
0.0
 11
191.323752248489
 21
188.6232128500728
 31
0.0
  0
LINE
  5
D06
330
1F
100
AcDbEntity
  8
0
 62
   253
370
    35
100
AcDbLine
 10
170.424460248489
 20
188.6232128500728
 30
0.0
 11
145.8741062484889
 21
188.6232128500728
 31
0.0
  0
LINE
  5
D07
330
1F
100
AcDbEntity
  8
0
 62
   253
 48
0.001824
370
    35
100
AcDbLine
 10
170.670951248489
 20
185.0828988500728
 30
0.0
 11
170.598197248489
 21
185.0771618500728
 31
0.0
  0
POLYLINE
  5
D08
330
1F
100
AcDbEntity
  8
0
 62
   253
370
    35
100
AcDb2dPolyline
 66
     1
 10
0.0
 20
0.0
 30
0.0
  0
VERTEX
  5
D09
330
D08
100
AcDbEntity
  8
0
 62
   253
370
     0
100
AcDbVertex
100
AcDb2dVertex
 10
170.9353552484889
 20
184.9647648500728
 30
0.0
  0
VERTEX
  5
D0A
330
D08
100
AcDbEntity
  8
0
 62
   253
370
     0
100
AcDbVertex
100
AcDb2dVertex
 10
170.910789248489
 20
185.0114268500728
 30
0.0
  0
VERTEX
  5
D0B
330
D08
100
AcDbEntity
  8
0
 62
   253
370
     0
100
AcDbVertex
100
AcDb2dVertex
 10
170.8630292484889
 20
185.0493908500728
 30
0.0
  0
VERTEX
  5
D0C
330
D08
100
AcDbEntity
  8
0
 62
   253
370
     0
100
AcDbVertex
100
AcDb2dVertex
 10
170.710166248489
 20
185.0844858500728
 30
0.0
  0
VERTEX
  5
D0D
330
D08
100
AcDbEntity
  8
0
 62
   253
370
     0
100
AcDbVertex
100
AcDb2dVertex
 10
170.670951248489
 20
185.0828988500728
 30
0.0
  0
SEQEND
  5
D0E
330
D08
100
AcDbEntity
  8
0
 62
   253
370
     0
  0
POLYLINE
  5
D0F
330
1F
100
AcDbEntity
  8
0
 62
   253
370
    35
100
AcDb2dPolyline
 66
     1
 10
0.0
 20
0.0
 30
0.0
  0
VERTEX
  5
D10
330
D0F
100
AcDbEntity
  8
0
 62
   253
370
     0
100
AcDbVertex
100
AcDb2dVertex
 10
190.812858248489
 20
184.9647648500728
 30
0.0
  0
VERTEX
  5
D11
330
D0F
100
AcDbEntity
  8
0
 62
   253
370
     0
100
AcDbVertex
100
AcDb2dVertex
 10
190.837424248489
 20
185.0114268500728
 30
0.0
  0
VERTEX
  5
D12
330
D0F
100
AcDbEntity
  8
0
 62
   253
370
     0
100
AcDbVertex
100
AcDb2dVertex
 10
190.885154248489
 20
185.0493908500728
 30
0.0
  0
VERTEX
  5
D13
330
D0F
100
AcDbEntity
  8
0
 62
   253
370
     0
100
AcDbVertex
100
AcDb2dVertex
 10
191.038047248489
 20
185.0844858500728
 30
0.0
  0
VERTEX
  5
D14
330
D0F
100
AcDbEntity
  8
0
 62
   253
370
     0
100
AcDbVertex
100
AcDb2dVertex
 10
191.077262248489
 20
185.0828988500728
 30
0.0
  0
SEQEND
  5
D15
330
D0F
100
AcDbEntity
  8
0
 62
   253
370
     0
  0
LINE
  5
D16
330
1F
100
AcDbEntity
  8
0
 62
   253
 48
0.001824
370
    35
100
AcDbLine
 10
191.077262248489
 20
185.0828988500728
 30
0.0
 11
191.1500162484889
 21
185.0771618500728
 31
0.0
  0
ARC
  5
D17
330
1F
100
AcDbEntity
  8
0
 62
   253
370
    35
100
AcDbCircle
 10
191.323752248489
 20
188.9232308500728
 30
0.0
 40
0.3
100
AcDbArc
 50
187.908972000001
 51
269.9999969999999
  0
ARC
  5
D18
330
1F
100
AcDbEntity
  8
0
 62
   253
370
    35
100
AcDbCircle
 10
170.424460248489
 20
188.9232308500728
 30
0.0
 40
0.3
100
AcDbArc
 50
269.9999969999999
 51
352.0910399999999
  0
ARC
  5
D19
330
1F
100
AcDbEntity
  8
0
 62
   253
370
    35
100
AcDbCircle
 10
180.8741062484889
 20
187.4715398500728
 30
0.0
 40
10.25
100
AcDbArc
 50
7.490843999999705
 51
172.5091589999985
  0
ARC
  5
D1A
330
1F
100
AcDbEntity
  8
0
 62
   253
370
    35
100
AcDbCircle
 10
180.8741062484889
 20
187.4715398500728
 30
0.0
 40
10.25
100
AcDbArc
 50
315.0991249999997
 51
357.3491010000001
  0
ARC
  5
D1B
330
1F
100
AcDbEntity
  8
0
 62
   253
370
    35
100
AcDbCircle
 10
180.8741062484889
 20
187.4715398500728
 30
0.0
 40
10.25
100
AcDbArc
 50
182.6509009999999
 51
224.9008799999998
  0
ARC
  5
D1C
330
1F
100
AcDbEntity
  8
0
 62
   253
370
    35
100
AcDbCircle
 10
177.863700248489
 20
184.4715398500728
 30
0.0
 40
6.0
100
AcDbArc
 50
224.9008799999998
 51
269.9999969999999
  0
ARC
  5
D1D
330
1F
100
AcDbEntity
  8
0
 62
   253
370
    35
100
AcDbCircle
 10
183.8845132484889
 20
184.4715398500728
 30
0.0
 40
6.0
100
AcDbArc
 50
269.9999969999999
 51
315.0991249999997
  0
LINE
  5
D1E
330
1F
100
AcDbEntity
  8
0
 62
   253
 48
0.15052
370
    35
100
AcDbLine
 10
183.8845132484889
 20
178.4715398500728
 30
0.0
 11
177.863700248489
 21
178.4715398500728
 31
0.0
  0
POLYLINE
  5
D1F
330
1F
100
AcDbEntity
  8
0
 62
   253
370
    35
100
AcDb2dPolyline
 66
     1
 10
0.0
 20
0.0
 30
0.0
  0
VERTEX
  5
D20
330
D1F
100
AcDbEntity
  8
0
 62
   253
370
     0
100
AcDbVertex
100
AcDb2dVertex
 10
145.8741062484889
 20
197.6481148500728
 30
0.0
  0
VERTEX
  5
D21
330
D1F
100
AcDbEntity
  8
0
 62
   253
370
     0
100
AcDbVertex
100
AcDb2dVertex
 10
141.963431248489
 20
197.6821418500728
 30
0.0
  0
VERTEX
  5
D22
330
D1F
100
AcDbEntity
  8
0
 62
   253
370
     0
100
AcDbVertex
100
AcDb2dVertex
 10
138.082999248489
 20
197.7453128500728
 30
0.0
  0
VERTEX
  5
D23
330
D1F
100
AcDbEntity
  8
0
 62
   253
370
     0
100
AcDbVertex
100
AcDb2dVertex
 10
137.382987248489
 20
197.7521488500728
 30
0.0
  0
SEQEND
  5
D24
330
D1F
100
AcDbEntity
  8
0
 62
   253
370
     0
  0
LINE
  5
D25
330
1F
100
AcDbEntity
  8
0
 62
   253
370
    35
100
AcDbLine
 10
145.8741062484889
 20
197.6481148500728
 30
0.0
 11
179.619681248489
 21
197.6481148500728
 31
0.0
  0
LINE
  5
D26
330
1F
100
AcDbEntity
  8
0
 62
   253
370
    35
100
AcDbLine
 10
182.128531248489
 20
197.6481148500728
 30
0.0
 11
215.874106248489
 21
197.6481148500728
 31
0.0
  0
POLYLINE
  5
D27
330
1F
100
AcDbEntity
  8
0
 62
   253
370
    35
100
AcDb2dPolyline
 66
     1
 10
0.0
 20
0.0
 30
0.0
  0
VERTEX
  5
D28
330
D27
100
AcDbEntity
  8
0
 62
   253
370
     0
100
AcDbVertex
100
AcDb2dVertex
 10
224.365226248489
 20
197.7521488500728
 30
0.0
  0
VERTEX
  5
D29
330
D27
100
AcDbEntity
  8
0
 62
   253
370
     0
100
AcDbVertex
100
AcDb2dVertex
 10
221.200736248489
 20
197.7061588500728
 30
0.0
  0
VERTEX
  5
D2A
330
D27
100
AcDbEntity
  8
0
 62
   253
370
     0
100
AcDbVertex
100
AcDb2dVertex
 10
217.297721248489
 20
197.6529978500728
 30
0.0
  0
VERTEX
  5
D2B
330
D27
100
AcDbEntity
  8
0
 62
   253
370
     0
100
AcDbVertex
100
AcDb2dVertex
 10
215.874106248489
 20
197.6481148500728
 30
0.0
  0
SEQEND
  5
D2C
330
D27
100
AcDbEntity
  8
0
 62
   253
370
     0
  0
LINE
  5
D2D
330
1F
100
AcDbEntity
  8
0
 62
   253
370
    35
100
AcDbLine
 10
236.374106248489
 20
198.1040778500728
 30
0.0
 11
321.8741062484889
 21
198.1040778500728
 31
0.0
  0
ARC
  5
D2E
330
1F
100
AcDbEntity
  8
0
 62
   253
370
    35
100
AcDbCircle
 10
234.667106248489
 20
224.0735298500728
 30
0.0
 40
26.187453
100
AcDbArc
 50
270.818623
 51
272.8890580000002
  0
ARC
  5
D2F
330
1F
100
AcDbEntity
  8
0
 62
   253
370
    35
100
AcDbCircle
 10
217.506370248489
 20
1157.469037850073
 30
0.0
 40
959.741097
100
AcDbArc
 50
270.409474
 51
271.046874
  0
ARC
  5
D30
330
1F
100
AcDbEntity
  8
0
 62
   253
370
    35
100
AcDbCircle
 10
144.242637248489
 20
1157.524823850073
 30
0.0
 40
959.7969449999999
100
AcDbArc
 50
268.9531339999998
 51
269.5905070000003
  0
ARC
  5
D31
330
1F
100
AcDbEntity
  8
0
 62
   253
370
    35
100
AcDbCircle
 10
127.0811382484889
 20
224.0743838500728
 30
0.0
 40
26.188336
100
AcDbArc
 50
267.1109909999998
 51
269.181352
  0
LINE
  5
D32
330
1F
100
AcDbEntity
  8
0
 62
   253
370
    35
100
AcDbLine
 10
39.874106248489
 20
198.1040778500728
 30
0.0
 11
125.374106248489
 21
198.1040778500728
 31
0.0
  0
LINE
  5
D33
330
1F
100
AcDbEntity
  8
0
 62
   253
 48
0.001461
370
    35
100
AcDbLine
 10
179.678031248489
 20
197.6515328500728
 30
0.0
 11
179.619681248489
 21
197.6481148500728
 31
0.0
  0
LINE
  5
D34
330
1F
100
AcDbEntity
  8
0
 62
   253
 48
0.001461
370
    35
100
AcDbLine
 10
182.128531248489
 20
197.6481148500728
 30
0.0
 11
182.070182248489
 21
197.6515328500728
 31
0.0
  0
ARC
  5
D35
330
1F
100
AcDbEntity
  8
0
 62
   253
370
    35
100
AcDbCircle
 10
39.874106248489
 20
197.6040778500728
 30
0.0
 40
0.5
100
AcDbArc
 50
90.00000300000015
 51
179.9999949999995
  0
ARC
  5
D36
330
1F
100
AcDbEntity
  8
0
 62
   253
370
    35
100
AcDbCircle
 10
321.8741062484889
 20
197.6040778500728
 30
0.0
 40
0.5
100
AcDbArc
 50
0.0
 51
90.00000300000015
  0
ARC
  5
D37
330
1F
100
AcDbEntity
  8
0
 62
   253
370
    35
100
AcDbCircle
 10
236.374106248489
 20
197.6040778500728
 30
0.0
 40
0.5
100
AcDbArc
 50
90.00000300000015
 51
180.0000050000005
  0
ARC
  5
D38
330
1F
100
AcDbEntity
  8
0
 62
   253
370
    35
100
AcDbCircle
 10
125.374106248489
 20
197.6040778500728
 30
0.0
 40
0.5
100
AcDbArc
 50
0.0
 51
90.00000300000015
  0
LINE
  5
D39
330
1F
100
AcDbEntity
  8
0
 62
   253
 48
0.007236
370
    35
100
AcDbLine
 10
127.575416248489
 20
191.5226268500728
 30
0.0
 11
127.317664248489
 21
191.6543098500728
 31
0.0
  0
LINE
  5
D3A
330
1F
100
AcDbEntity
  8
0
 62
   253
 48
0.007237
370
    35
100
AcDbLine
 10
234.172782248489
 20
191.5226268500728
 30
0.0
 11
234.430564248489
 21
191.6543098500728
 31
0.0
  0
POLYLINE
  5
D3B
330
1F
100
AcDbEntity
  8
0
 62
   253
370
    35
100
AcDb2dPolyline
 66
     1
 10
0.0
 20
0.0
 30
0.0
  0
VERTEX
  5
D3C
330
D3B
100
AcDbEntity
  8
0
 62
   253
370
     0
100
AcDbVertex
100
AcDb2dVertex
 10
127.575416248489
 20
191.5226268500728
 30
0.0
  0
VERTEX
  5
D3D
330
D3B
100
AcDbEntity
  8
0
 62
   253
370
     0
100
AcDbVertex
100
AcDb2dVertex
 10
127.814750248489
 20
191.4129158500728
 30
0.0
  0
VERTEX
  5
D3E
330
D3B
100
AcDbEntity
  8
0
 62
   253
370
     0
100
AcDbVertex
100
AcDb2dVertex
 10
128.105094248489
 20
191.2977118500728
 30
0.0
  0
VERTEX
  5
D3F
330
D3B
100
AcDbEntity
  8
0
 62
   253
370
     0
100
AcDbVertex
100
AcDb2dVertex
 10
128.889792248489
 20
191.0335518500729
 30
0.0
  0
VERTEX
  5
D40
330
D3B
100
AcDbEntity
  8
0
 62
   253
370
     0
100
AcDbVertex
100
AcDb2dVertex
 10
130.136085248489
 20
190.6791508500728
 30
0.0
  0
VERTEX
  5
D41
330
D3B
100
AcDbEntity
  8
0
 62
   253
370
     0
100
AcDbVertex
100
AcDb2dVertex
 10
131.899390248489
 20
190.2438488500728
 30
0.0
  0
VERTEX
  5
D42
330
D3B
100
AcDbEntity
  8
0
 62
   253
370
     0
100
AcDbVertex
100
AcDb2dVertex
 10
134.019843248489
 20
189.7916698500728
 30
0.0
  0
VERTEX
  5
D43
330
D3B
100
AcDbEntity
  8
0
 62
   253
370
     0
100
AcDbVertex
100
AcDb2dVertex
 10
136.016425248489
 20
189.4322948500728
 30
0.0
  0
VERTEX
  5
D44
330
D3B
100
AcDbEntity
  8
0
 62
   253
370
     0
100
AcDbVertex
100
AcDb2dVertex
 10
138.0097882484889
 20
189.1384098500728
 30
0.0
  0
VERTEX
  5
D45
330
D3B
100
AcDbEntity
  8
0
 62
   253
370
     0
100
AcDbVertex
100
AcDb2dVertex
 10
140.017783248489
 20
188.9088878500728
 30
0.0
  0
VERTEX
  5
D46
330
D3B
100
AcDbEntity
  8
0
 62
   253
370
     0
100
AcDbVertex
100
AcDb2dVertex
 10
142.058097248489
 20
188.7444278500728
 30
0.0
  0
VERTEX
  5
D47
330
D3B
100
AcDbEntity
  8
0
 62
   253
370
     0
100
AcDbVertex
100
AcDb2dVertex
 10
144.131492248489
 20
188.6484508500728
 30
0.0
  0
VERTEX
  5
D48
330
D3B
100
AcDbEntity
  8
0
 62
   253
370
     0
100
AcDbVertex
100
AcDb2dVertex
 10
145.8741062484889
 20
188.6232128500728
 30
0.0
  0
SEQEND
  5
D49
330
D3B
100
AcDbEntity
  8
0
 62
   253
370
     0
  0
POLYLINE
  5
D4A
330
1F
100
AcDbEntity
  8
0
 62
   253
370
    35
100
AcDb2dPolyline
 66
     1
 10
0.0
 20
0.0
 30
0.0
  0
VERTEX
  5
D4B
330
D4A
100
AcDbEntity
  8
0
 62
   253
370
     0
100
AcDbVertex
100
AcDb2dVertex
 10
215.874106248489
 20
188.6232128500728
 30
0.0
  0
VERTEX
  5
D4C
330
D4A
100
AcDbEntity
  8
0
 62
   253
370
     0
100
AcDbVertex
100
AcDb2dVertex
 10
217.964957248489
 20
188.6595588500728
 30
0.0
  0
VERTEX
  5
D4D
330
D4A
100
AcDbEntity
  8
0
 62
   253
370
     0
100
AcDbVertex
100
AcDb2dVertex
 10
220.033347248489
 20
188.7672248500728
 30
0.0
  0
VERTEX
  5
D4E
330
D4A
100
AcDbEntity
  8
0
 62
   253
370
     0
100
AcDbVertex
100
AcDb2dVertex
 10
222.067679248489
 20
188.9427618500728
 30
0.0
  0
VERTEX
  5
D4F
330
D4A
100
AcDbEntity
  8
0
 62
   253
370
     0
100
AcDbVertex
100
AcDb2dVertex
 10
224.0714032484889
 20
189.1829658500728
 30
0.0
  0
VERTEX
  5
D50
330
D4A
100
AcDbEntity
  8
0
 62
   253
370
     0
100
AcDbVertex
100
AcDb2dVertex
 10
226.064902248489
 20
189.4877448500728
 30
0.0
  0
VERTEX
  5
D51
330
D4A
100
AcDbEntity
  8
0
 62
   253
370
     0
100
AcDbVertex
100
AcDb2dVertex
 10
228.060874248489
 20
189.8577708500728
 30
0.0
  0
VERTEX
  5
D52
330
D4A
100
AcDbEntity
  8
0
 62
   253
370
     0
100
AcDbVertex
100
AcDb2dVertex
 10
229.848960248489
 20
190.2438788500728
 30
0.0
  0
VERTEX
  5
D53
330
D4A
100
AcDbEntity
  8
0
 62
   253
370
     0
100
AcDbVertex
100
AcDb2dVertex
 10
231.612144248489
 20
190.6791508500728
 30
0.0
  0
VERTEX
  5
D54
330
D4A
100
AcDbEntity
  8
0
 62
   253
370
     0
100
AcDbVertex
100
AcDb2dVertex
 10
232.858451248489
 20
191.0335518500729
 30
0.0
  0
VERTEX
  5
D55
330
D4A
100
AcDbEntity
  8
0
 62
   253
370
     0
100
AcDbVertex
100
AcDb2dVertex
 10
233.643119248489
 20
191.2977118500728
 30
0.0
  0
VERTEX
  5
D56
330
D4A
100
AcDbEntity
  8
0
 62
   253
370
     0
100
AcDbVertex
100
AcDb2dVertex
 10
233.933463248489
 20
191.4129158500728
 30
0.0
  0
VERTEX
  5
D57
330
D4A
100
AcDbEntity
  8
0
 62
   253
370
     0
100
AcDbVertex
100
AcDb2dVertex
 10
234.172782248489
 20
191.5226268500728
 30
0.0
  0
SEQEND
  5
D58
330
D4A
100
AcDbEntity
  8
0
 62
   253
370
     0
  0
ARC
  5
D59
330
1F
100
AcDbEntity
  8
0
 62
     7
370
    35
100
AcDbCircle
 10
36.874106248489
 20
350.8339058500728
 30
0.0
 40
16.0
100
AcDbArc
 50
151.1909359999995
 51
180.0000050000005
  0
LINE
  5
D5A
330
1F
100
AcDbEntity
  8
0
 62
     7
370
    35
100
AcDbLine
 10
20.874106248489
 20
350.8339058500728
 30
0.0
 11
20.874106248489
 21
22.83387485007282
 31
0.0
  0
ARC
  5
D5B
330
1F
100
AcDbEntity
  8
0
 62
     7
370
    35
100
AcDbCircle
 10
36.874106248489
 20
22.83387485007282
 30
0.0
 40
16.0
100
AcDbArc
 50
179.9999949999995
 51
269.9999969999999
  0
LINE
  5
D5C
330
1F
100
AcDbEntity
  8
0
 62
     7
370
    35
100
AcDbLine
 10
36.874106248489
 20
6.833874850072818
 30
0.0
 11
324.874106248489
 21
6.833874850072818
 31
0.0
  0
ARC
  5
D5D
330
1F
100
AcDbEntity
  8
0
 62
     7
370
    35
100
AcDbCircle
 10
324.874106248489
 20
22.83387485007282
 30
0.0
 40
16.0
100
AcDbArc
 50
269.9999969999999
 51
0.0
  0
LINE
  5
D5E
330
1F
100
AcDbEntity
  8
0
 62
     7
 48
0.180701
370
    35
100
AcDbLine
 10
340.8741062484889
 20
30.0619328500728
 30
0.0
 11
340.8741062484889
 21
22.83387485007282
 31
0.0
  0
LINE
  5
D5F
330
1F
100
AcDbEntity
  8
0
 62
     7
 48
0.180702
370
    35
100
AcDbLine
 10
340.8741062484889
 20
350.8339058500728
 30
0.0
 11
340.8741062484889
 21
343.6058178500729
 31
0.0
  0
ARC
  5
D60
330
1F
100
AcDbEntity
  8
0
 62
     7
370
    35
100
AcDbCircle
 10
324.874106248489
 20
350.8339058500728
 30
0.0
 40
16.0
100
AcDbArc
 50
0.0
 51
28.80765099999889
  0
CIRCLE
  5
D61
330
1F
100
AcDbEntity
  8
0
 62
     7
370
    35
100
AcDbCircle
 10
36.874106248489
 20
22.83387485007282
 30
0.0
 40
4.883901999999999
  0
LINE
  5
D62
330
1F
100
AcDbEntity
  8
0
 62
     7
 48
0.05
370
    35
100
AcDbLine
 10
35.874106248489
 20
27.33387485007282
 30
0.0
 11
37.874106248489
 21
27.33387485007282
 31
0.0
  0
LINE
  5
D63
330
1F
100
AcDbEntity
  8
0
 62
     7
 48
0.225
370
    35
100
AcDbLine
 10
35.874106248489
 20
27.33387485007282
 30
0.0
 11
35.874106248489
 21
18.33387485007282
 31
0.0
  0
LINE
  5
D64
330
1F
100
AcDbEntity
  8
0
 62
     7
 48
0.05
370
    35
100
AcDbLine
 10
37.874106248489
 20
18.33387485007282
 30
0.0
 11
35.874106248489
 21
18.33387485007282
 31
0.0
  0
LINE
  5
D65
330
1F
100
AcDbEntity
  8
0
 62
     7
 48
0.225
370
    35
100
AcDbLine
 10
37.874106248489
 20
18.33387485007282
 30
0.0
 11
37.874106248489
 21
27.33387485007282
 31
0.0
  0
ARC
  5
D66
330
1F
100
AcDbEntity
  8
0
 62
     7
370
    35
100
AcDbCircle
 10
36.874106248489
 20
22.83387485007282
 30
0.0
 40
8.949999999999997
100
AcDbArc
 50
208.6478850000003
 51
28.64789000000115
  0
ARC
  5
D67
330
1F
100
AcDbEntity
  8
0
 62
     7
370
    35
100
AcDbCircle
 10
36.874106248489
 20
22.83387485007282
 30
0.0
 40
8.949999999999997
100
AcDbArc
 50
28.64789000000115
 51
208.6478850000003
  0
CIRCLE
  5
D68
330
1F
100
AcDbEntity
  8
0
 62
     7
370
    35
100
AcDbCircle
 10
324.874106248489
 20
22.83387485007282
 30
0.0
 40
4.883901999999999
  0
LINE
  5
D69
330
1F
100
AcDbEntity
  8
0
 62
     7
 48
0.05
370
    35
100
AcDbLine
 10
323.8741062484889
 20
27.33387485007282
 30
0.0
 11
325.8741062484889
 21
27.33387485007282
 31
0.0
  0
LINE
  5
D6A
330
1F
100
AcDbEntity
  8
0
 62
     7
 48
0.225
370
    35
100
AcDbLine
 10
323.8741062484889
 20
27.33387485007282
 30
0.0
 11
323.8741062484889
 21
18.33387485007282
 31
0.0
  0
LINE
  5
D6B
330
1F
100
AcDbEntity
  8
0
 62
     7
 48
0.05
370
    35
100
AcDbLine
 10
325.8741062484889
 20
18.33387485007282
 30
0.0
 11
323.8741062484889
 21
18.33387485007282
 31
0.0
  0
LINE
  5
D6C
330
1F
100
AcDbEntity
  8
0
 62
     7
 48
0.225
370
    35
100
AcDbLine
 10
325.8741062484889
 20
18.33387485007282
 30
0.0
 11
325.8741062484889
 21
27.33387485007282
 31
0.0
  0
ARC
  5
D6D
330
1F
100
AcDbEntity
  8
0
 62
     7
370
    35
100
AcDbCircle
 10
324.874106248489
 20
22.83387485007282
 30
0.0
 40
8.949999999999997
100
AcDbArc
 50
208.6478850000003
 51
28.64789000000115
  0
ARC
  5
D6E
330
1F
100
AcDbEntity
  8
0
 62
     7
370
    35
100
AcDbCircle
 10
324.874106248489
 20
22.83387485007282
 30
0.0
 40
8.949999999999997
100
AcDbArc
 50
28.64789000000115
 51
208.6478850000003
  0
CIRCLE
  5
D6F
330
1F
100
AcDbEntity
  8
0
 62
     7
370
    35
100
AcDbCircle
 10
324.874106248489
 20
350.8339058500728
 30
0.0
 40
4.883901999999999
  0
LINE
  5
D70
330
1F
100
AcDbEntity
  8
0
 62
     7
 48
0.05
370
    35
100
AcDbLine
 10
323.8741062484889
 20
355.3339058500728
 30
0.0
 11
325.8741062484889
 21
355.3339058500728
 31
0.0
  0
LINE
  5
D71
330
1F
100
AcDbEntity
  8
0
 62
     7
 48
0.225
370
    35
100
AcDbLine
 10
323.8741062484889
 20
355.3339058500728
 30
0.0
 11
323.8741062484889
 21
346.3339058500728
 31
0.0
  0
LINE
  5
D72
330
1F
100
AcDbEntity
  8
0
 62
     7
 48
0.05
370
    35
100
AcDbLine
 10
325.8741062484889
 20
346.3339058500728
 30
0.0
 11
323.8741062484889
 21
346.3339058500728
 31
0.0
  0
LINE
  5
D73
330
1F
100
AcDbEntity
  8
0
 62
     7
 48
0.225
370
    35
100
AcDbLine
 10
325.8741062484889
 20
346.3339058500728
 30
0.0
 11
325.8741062484889
 21
355.3339058500728
 31
0.0
  0
ARC
  5
D74
330
1F
100
AcDbEntity
  8
0
 62
     7
370
    35
100
AcDbCircle
 10
324.874106248489
 20
350.8339058500728
 30
0.0
 40
8.949999999999997
100
AcDbArc
 50
208.6478850000003
 51
28.64789000000115
  0
ARC
  5
D75
330
1F
100
AcDbEntity
  8
0
 62
     7
370
    35
100
AcDbCircle
 10
324.874106248489
 20
350.8339058500728
 30
0.0
 40
8.949999999999997
100
AcDbArc
 50
28.64789000000115
 51
208.6478850000003
  0
CIRCLE
  5
D76
330
1F
100
AcDbEntity
  8
0
 62
     7
370
    35
100
AcDbCircle
 10
36.874106248489
 20
350.8339058500728
 30
0.0
 40
4.883901999999999
  0
LINE
  5
D77
330
1F
100
AcDbEntity
  8
0
 62
     7
 48
0.05
370
    35
100
AcDbLine
 10
35.874106248489
 20
355.3339058500728
 30
0.0
 11
37.874106248489
 21
355.3339058500728
 31
0.0
  0
LINE
  5
D78
330
1F
100
AcDbEntity
  8
0
 62
     7
 48
0.225
370
    35
100
AcDbLine
 10
35.874106248489
 20
355.3339058500728
 30
0.0
 11
35.874106248489
 21
346.3339058500728
 31
0.0
  0
LINE
  5
D79
330
1F
100
AcDbEntity
  8
0
 62
     7
 48
0.05
370
    35
100
AcDbLine
 10
37.874106248489
 20
346.3339058500728
 30
0.0
 11
35.874106248489
 21
346.3339058500728
 31
0.0
  0
LINE
  5
D7A
330
1F
100
AcDbEntity
  8
0
 62
     7
 48
0.225
370
    35
100
AcDbLine
 10
37.874106248489
 20
346.3339058500728
 30
0.0
 11
37.874106248489
 21
355.3339058500728
 31
0.0
  0
ARC
  5
D7B
330
1F
100
AcDbEntity
  8
0
 62
     7
370
    35
100
AcDbCircle
 10
36.874106248489
 20
350.8339058500728
 30
0.0
 40
8.949999999999997
100
AcDbArc
 50
208.6478850000003
 51
28.64789000000115
  0
ARC
  5
D7C
330
1F
100
AcDbEntity
  8
0
 62
     7
370
    35
100
AcDbCircle
 10
36.874106248489
 20
350.8339058500728
 30
0.0
 40
8.949999999999997
100
AcDbArc
 50
28.64789000000115
 51
208.6478850000003
  0
LINE
  5
D98
330
1F
100
AcDbEntity
  8
0
 62
     7
 48
0.024998
370
    35
100
AcDbLine
 10
324.874106248489
 20
9.36131085007284
 30
0.0
 11
324.874106248489
 21
10.36124985007282
 31
0.0
  0
LINE
  5
D99
330
1F
100
AcDbEntity
  8
0
 62
     7
 48
0.036801
370
    35
100
AcDbLine
 10
324.874106248489
 20
9.36131085007284
 30
0.0
 11
324.874106248489
 21
7.889264850072861
 31
0.0
  0
LINE
  5
D9A
330
1F
100
AcDbEntity
  8
0
 62
     7
 48
0.024998
370
    35
100
AcDbLine
 10
324.874106248489
 20
7.889264850072861
 30
0.0
 11
324.874106248489
 21
6.889355850072802
 31
0.0
  0
LINE
  5
D9B
330
1F
100
AcDbEntity
  8
0
 62
     7
 48
0.001387
370
    35
100
AcDbLine
 10
324.874106248489
 20
6.889355850072802
 30
0.0
 11
324.874106248489
 21
6.833874850072818
 31
0.0
  0
LINE
  5
F98
330
1F
100
AcDbEntity
  8
0
 62
     7
100
AcDbLine
 10
54.87410624848894
 20
274.3339058500728
 30
0.000000000000007
 11
306.8741062484889
 21
274.3339058500728
 31
0.000000000000007
  0
LINE
  5
F99
330
1F
100
AcDbEntity
  8
0
 62
     7
100
AcDbLine
 10
306.8741062484889
 20
274.3339058500728
 30
0.000000000000007
 11
306.8741062484889
 21
229.3339058500728
 31
0.000000000000007
  0
LINE
  5
F9A
330
1F
100
AcDbEntity
  8
0
 62
     7
100
AcDbLine
 10
306.8741062484889
 20
229.3339058500728
 30
0.000000000000007
 11
54.87410624848894
 21
229.3339058500728
 31
0.000000000000007
  0
LINE
  5
F9B
330
1F
100
AcDbEntity
  8
0
 62
     7
100
AcDbLine
 10
54.87410624848894
 20
229.3339058500728
 30
0.000000000000007
 11
54.87410624848894
 21
274.3339058500728
 31
0.000000000000007
  0
DIMENSION
  5
2FD2
330
1F
100
AcDbEntity
  8
QUOTE
 62
     7
100
AcDbDimension
  2
*D3
 10
-1.239233500283909
 20
6.833874850072827
 30
0.0
 11
-1.239233500283899
 21
184.3504804272139
 31
0.0
 70
   160
 71
     5
 42
360.0000309999999
  3
Standard
100
AcDbAlignedDimension
 13
39.34483381902087
 23
366.8339058500728
 33
0.0
 14
36.874106248489
 24
6.833874850072818
 34
0.0
 50
90.0
100
AcDbRotatedDimension
1001
ACAD
1000
DSTYLE
1002
{
1070
    45
1040
1.0
1070
   178
1070
     7
1070
   177
1070
     7
1070
   176
1070
     7
1070
    78
1070
     8
1070
   285
1070
     8
1070
   148
1040
0.0
1070
   170
1070
     0
1070
    74
1070
     1
1070
    77
1070
     0
1070
   280
1070
     0
1070
   140
1040
10.0
1070
    41
1040
15.0
1002
}
  0
DIMENSION
  5
2FD3
330
1F
100
AcDbEntity
  8
QUOTE
 62
     7
100
AcDbDimension
  2
*D4
 10
20.87410624848905
 20
-11.12581435178466
 30
0.0
 11
182.4957005367532
 21
-11.12581435178466
 31
0.0
 70
   160
 71
     5
 42
319.9999999999998
  3
Standard
100
AcDbAlignedDimension
 13
340.8741062484888
 23
22.83150591399156
 33
0.0
 14
20.87410624848906
 24
22.89637624633637
 34
0.0
100
AcDbRotatedDimension
1001
ACAD
1000
DSTYLE
1002
{
1070
   280
1070
     0
1070
    78
1070
     8
1070
    45
1040
1.0
1070
    74
1070
     0
1070
   140
1040
10.0
1070
   178
1070
     7
1070
   177
1070
     7
1070
   176
1070
     7
1070
    41
1040
15.0
1002
}
  0
TEXT
  5
3065
330
1F
100
AcDbEntity
  8
0
 62
     7
100
AcDbText
 10
49.46156737060077
 20
348.8414831080485
 30
0.0
 40
5.0
  1
GW68005N
 72
     1
 11
68.62823403726743
 21
348.8414831080485
 31
0.0
100
AcDbText
  0
ENDSEC
  0
SECTION
  2
OBJECTS
  0
DICTIONARY
  5
C
330
0
100
AcDbDictionary
281
     1
  3
ACAD_COLOR
350
73
  3
ACAD_GROUP
350
D
  3
ACAD_LAYOUT
350
1A
  3
ACAD_MATERIAL
350
72
  3
ACAD_MLEADERSTYLE
350
D7
  3
ACAD_MLINESTYLE
350
17
  3
ACAD_PLOTSETTINGS
350
19
  3
ACAD_PLOTSTYLENAME
350
E
  3
ACAD_SCALELIST
350
B6
  3
ACAD_TABLESTYLE
350
86
  3
ACAD_VISUALSTYLE
350
99
  3
ACDB_RECOMPOSE_DATA
350
FF
  3
AcDbVariableDictionary
350
66
  3
AEC_PROPERTY_SET_DEFS
350
766
  3
DWGPROPS
350
3083
  0
DICTIONARY
  5
E3C
330
2
100
AcDbDictionary
280
     1
281
     1
  3
ACAD_LAYERFILTERS
360
2FA0
  3
ACAD_LAYERSTATES
360
2FCB
  3
ACLYDICTIONARY
360
2F9F
  0
DICTIONARY
  5
E6
330
10
100
AcDbDictionary
280
     1
281
     1
  3
ADSK_XREC_LAYER_RECONCILED
360
FAA
  0
DICTIONARY
  5
FAB
330
E3A
100
AcDbDictionary
280
     1
281
     1
  3
ADSK_XREC_LAYER_RECONCILED
360
FAC
  0
DICTIONARY
  5
FAD
330
E47
100
AcDbDictionary
280
     1
281
     1
  3
ADSK_XREC_LAYER_RECONCILED
360
FAE
  0
DICTIONARY
  5
17CC
330
17CB
100
AcDbDictionary
280
     1
281
     1
  0
DICTIONARY
  5
1A52
330
1A51
100
AcDbDictionary
280
     1
281
     1
  0
DICTIONARY
  5
2D0C
330
1F
100
AcDbDictionary
280
     1
281
     1
  3
ACAD_SORTENTS
360
2D0D
  0
DICTIONARY
  5
73
102
{ACAD_REACTORS
330
C
102
}
330
C
100
AcDbDictionary
281
     1
  0
DICTIONARY
  5
D
102
{ACAD_REACTORS
330
C
102
}
330
C
100
AcDbDictionary
281
     1
  3
*A1
350
17CA
  3
*A2
350
2D1D
  0
DICTIONARY
  5
1A
102
{ACAD_REACTORS
330
C
102
}
330
C
100
AcDbDictionary
281
     1
  3
Layout1
350
59
  3
Layout2
350
5E
  3
Model
350
22
  0
DICTIONARY
  5
72
102
{ACAD_REACTORS
330
C
102
}
330
C
100
AcDbDictionary
281
     1
  3
ByBlock
350
97
  3
ByLayer
350
96
  3
Global
350
98
  0
DICTIONARY
  5
D7
102
{ACAD_REACTORS
330
C
102
}
330
C
100
AcDbDictionary
281
     1
  3
Annotativa
350
E5
  3
Standard
350
D8
  0
DICTIONARY
  5
17
102
{ACAD_REACTORS
330
C
102
}
330
C
100
AcDbDictionary
281
     1
  3
Standard
350
18
  0
DICTIONARY
  5
19
102
{ACAD_REACTORS
330
C
102
}
330
C
100
AcDbDictionary
281
     1
  0
ACDBDICTIONARYWDFLT
  5
E
102
{ACAD_REACTORS
330
C
102
}
330
C
100
AcDbDictionary
281
     1
  3
Normal
350
F
100
AcDbDictionaryWithDefault
340
F
  0
DICTIONARY
  5
B6
102
{ACAD_REACTORS
330
C
102
}
330
C
100
AcDbDictionary
281
     1
  3
A0
350
B7
  3
A1
350
124
  3
A2
350
125
  3
A3
350
126
  3
A4
350
127
  3
A5
350
128
  3
A6
350
129
  3
A7
350
12A
  3
A8
350
12B
  3
A9
350
12C
  3
B0
350
12D
  3
B1
350
12E
  3
B2
350
12F
  3
B3
350
130
  3
B4
350
131
  3
B5
350
132
  3
B6
350
133
  3
B7
350
134
  3
B8
350
135
  3
B9
350
136
  3
C0
350
137
  3
C1
350
138
  3
C2
350
139
  3
C3
350
13A
  3
C4
350
13B
  3
C5
350
13C
  3
C6
350
13D
  3
C7
350
13E
  3
C8
350
13F
  3
C9
350
140
  3
D0
350
141
  3
D1
350
142
  3
D2
350
143
  0
DICTIONARY
  5
86
102
{ACAD_REACTORS
330
C
102
}
330
C
100
AcDbDictionary
281
     1
  3
Standard
350
87
  0
DICTIONARY
  5
99
102
{ACAD_REACTORS
330
C
102
}
330
C
100
AcDbDictionary
281
     1
  3
2dWireframe
350
9F
  3
3D Hidden
350
A1
  3
3dWireframe
350
A0
  3
Basic
350
9E
  3
Brighten
350
A5
  3
ColorChange
350
A9
  3
Conceptual
350
A2
  3
Dim
350
A4
  3
Facepattern
350
A8
  3
Flat
350
9A
  3
FlatWithEdges
350
9B
  3
Gouraud
350
9C
  3
GouraudWithEdges
350
9D
  3
Linepattern
350
A7
  3
Realistic
350
A3
  3
Thicken
350
A6
  0
XRECORD
  5
FF
102
{ACAD_REACTORS
330
C
102
}
330
C
100
AcDbXrecord
280
     1
 90
        1
330
87
  0
DICTIONARY
  5
66
102
{ACAD_REACTORS
330
C
102
}
330
C
100
AcDbDictionary
281
     1
  3
CANNOSCALE
350
F0
  3
CMLEADERSTYLE
350
EF
  3
CTABLESTYLE
350
89
  3
DIMASSOC
350
67
  3
HIDETEXT
350
6B
  3
INDEXCTL
350
FB2
  3
LIGHTINGUNITS
350
FB0
  3
MSLTSCALE
350
FAF
  3
SORTENTS
350
FB1
  0
DICTIONARY
  5
766
102
{ACAD_REACTORS
330
C
102
}
330
C
100
AcDbDictionary
281
     1
  0
XRECORD
  5
3083
102
{ACAD_REACTORS
330
C
102
}
330
C
100
AcDbXrecord
280
     1
  1
DWGPROPS COOKIE
  2

  3

  4

  6

  7

  8
fontanaNZ
  9

300
=
301
=
302
=
303
=
304
=
305
=
306
=
307
=
308
=
309
=
 40
0.4221951273148149
 41
2455286.476757882
 42
2455510.727824109
  1

 90
        0
  0
DICTIONARY
  5
2FA0
102
{ACAD_REACTORS
330
E3C
102
}
330
E3C
100
AcDbDictionary
281
     1
  0
DICTIONARY
  5
2FCB
102
{ACAD_REACTORS
330
E3C
102
}
330
E3C
100
AcDbDictionary
281
     1
  0
DICTIONARY
  5
2F9F
102
{ACAD_REACTORS
330
E3C
102
}
330
E3C
100
AcDbDictionary
281
     1
1001
ACAD
1000
<All
  0
XRECORD
  5
FAA
102
{ACAD_REACTORS
330
E6
102
}
330
E6
100
AcDbXrecord
280
     1
290
     1
  0
XRECORD
  5
FAC
102
{ACAD_REACTORS
330
FAB
102
}
330
FAB
100
AcDbXrecord
280
     1
290
     1
  0
XRECORD
  5
FAE
102
{ACAD_REACTORS
330
FAD
102
}
330
FAD
100
AcDbXrecord
280
     1
290
     1
  0
SORTENTSTABLE
  5
2D0D
102
{ACAD_REACTORS
330
2D0C
102
}
330
2D0C
100
AcDbSortentsTable
330
1F
331
AEF
  5
AEF
331
B0E
  5
B0E
331
D64
  5
D64
331
B4D
  5
B4D
331
B0F
  5
B0F
331
AF0
  5
AF0
331
D65
  5
D65
331
B4E
  5
B4E
331
AF1
  5
AF1
331
B10
  5
B10
331
D66
  5
D66
331
AF2
  5
AF2
331
D67
  5
D67
331
AF3
  5
AF3
331
B12
  5
B12
331
AF4
  5
AF4
331
AF5
  5
AF5
331
AF7
  5
AF7
331
B50
  5
B50
331
B51
  5
B51
331
B52
  5
B52
331
B53
  5
B53
331
BB0
  5
BB0
331
B92
  5
B92
331
B54
  5
B54
331
BB1
  5
BB1
331
B93
  5
B93
331
B55
  5
B55
331
BC9
  5
BC9
331
BB3
  5
BB3
331
B94
  5
B94
331
B95
  5
B95
331
BB4
  5
BB4
331
BB5
  5
BB5
331
B96
  5
B96
331
C78
  5
C78
331
C42
  5
C42
331
B97
  5
B97
331
BB6
  5
BB6
331
C5A
  5
C5A
331
C79
  5
C79
331
BB7
  5
BB7
331
C24
  5
C24
331
B98
  5
B98
331
C43
  5
C43
331
C7A
  5
C7A
331
C44
  5
C44
331
C5B
  5
C5B
331
B99
  5
B99
331
BB8
  5
BB8
331
C25
  5
C25
331
C7B
  5
C7B
331
BB9
  5
BB9
331
C26
  5
C26
331
B9A
  5
B9A
331
C45
  5
C45
331
C7C
  5
C7C
331
C46
  5
C46
331
B9B
  5
B9B
331
BBA
  5
BBA
331
C7D
  5
C7D
331
B9C
  5
B9C
331
CD2
  5
CD2
331
C7E
  5
C7E
331
B9D
  5
B9D
331
CD3
  5
CD3
331
D30
  5
D30
331
B7E
  5
B7E
331
CD4
  5
CD4
331
D31
  5
D31
331
BBD
  5
BBD
331
C7F
  5
C7F
331
B7F
  5
B7F
331
B9E
  5
B9E
331
C80
  5
C80
331
CD5
  5
CD5
331
BE5
  5
BE5
331
B80
  5
B80
331
B9F
  5
B9F
331
C04
  5
C04
331
D32
  5
D32
331
CD6
  5
CD6
331
CA0
  5
CA0
331
D33
  5
D33
331
C05
  5
C05
331
C81
  5
C81
331
B81
  5
B81
331
BA0
  5
BA0
331
CF6
  5
CF6
331
CD7
  5
CD7
331
C82
  5
C82
331
B82
  5
B82
331
BA1
  5
BA1
331
CA1
  5
CA1
331
D34
  5
D34
331
D35
  5
D35
331
CD8
  5
CD8
331
CA2
  5
CA2
331
CF7
  5
CF7
331
C64
  5
C64
331
BA2
  5
BA2
331
B83
  5
B83
331
C2E
  5
C2E
331
C83
  5
C83
331
D16
  5
D16
331
CF8
  5
CF8
331
D17
  5
D17
331
CD9
  5
CD9
331
C65
  5
C65
331
C84
  5
C84
331
C2F
  5
C2F
331
B84
  5
B84
331
BA3
  5
BA3
331
C4E
  5
C4E
331
CA3
  5
CA3
331
D36
  5
D36
331
D18
  5
D18
331
D37
  5
D37
331
CA4
  5
CA4
331
CF9
  5
CF9
331
C4F
  5
C4F
331
C66
  5
C66
331
BA4
  5
BA4
331
BC3
  5
BC3
331
B66
  5
B66
331
B85
  5
B85
331
C30
  5
C30
331
C85
  5
C85
331
CFA
  5
CFA
331
D19
  5
D19
331
C86
  5
C86
331
BA5
  5
BA5
331
C50
  5
C50
331
B67
  5
B67
331
CA5
  5
CA5
331
D38
  5
D38
331
D1A
  5
D1A
331
D39
  5
D39
331
C87
  5
C87
331
BA6
  5
BA6
331
C51
  5
C51
331
CA6
  5
CA6
331
CFB
  5
CFB
331
B68
  5
B68
331
B87
  5
B87
331
D68
  5
D68
331
D3A
  5
D3A
331
CFC
  5
CFC
331
D1B
  5
D1B
331
C88
  5
C88
331
BA7
  5
BA7
331
B69
  5
B69
331
CA7
  5
CA7
331
D4A
  5
D4A
331
D69
  5
D69
331
D1C
  5
D1C
331
D3B
  5
D3B
331
BA8
  5
BA8
331
C15
  5
C15
331
CA8
  5
CA8
331
CFD
  5
CFD
331
B6A
  5
B6A
331
B89
  5
B89
331
D6A
  5
D6A
331
CFE
  5
CFE
331
CA9
  5
CA9
331
CC8
  5
CC8
331
D1D
  5
D1D
331
B8A
  5
B8A
331
BA9
  5
BA9
331
B6B
  5
B6B
331
C16
  5
C16
331
D6B
  5
D6B
331
D1E
  5
D1E
331
BAA
  5
BAA
331
C17
  5
C17
331
CAA
  5
CAA
331
CFF
  5
CFF
331
B8B
  5
B8B
331
D6C
  5
D6C
331
C18
  5
C18
331
CAB
  5
CAB
331
D00
  5
D00
331
D1F
  5
D1F
331
B8C
  5
B8C
331
BAB
  5
BAB
331
AF8
  5
AF8
331
D6D
  5
D6D
331
CAC
  5
CAC
331
BAC
  5
BAC
331
C19
  5
C19
331
C6E
  5
C6E
331
D01
  5
D01
331
B8D
  5
B8D
331
AF9
  5
AF9
331
D6E
  5
D6E
331
D02
  5
D02
331
CAD
  5
CAD
331
C6F
  5
C6F
331
C1A
  5
C1A
331
C39
  5
C39
331
B8E
  5
B8E
331
BAD
  5
BAD
331
CE3
  5
CE3
331
AFA
  5
AFA
331
D6F
  5
D6F
331
CAE
  5
CAE
331
C3A
  5
C3A
331
BF4
  5
BF4
331
BAE
  5
BAE
331
C1B
  5
C1B
331
C70
  5
C70
331
D03
  5
D03
331
B8F
  5
B8F
331
D70
  5
D70
331
CAF
  5
CAF
331
C71
  5
C71
331
D04
  5
D04
331
BAF
  5
BAF
331
B3A
  5
B3A
331
B1B
  5
B1B
331
D71
  5
D71
331
CB0
  5
CB0
331
C72
  5
C72
331
D05
  5
D05
331
B3B
  5
B3B
331
D72
  5
D72
331
CB1
  5
CB1
331
C73
  5
C73
331
D06
  5
D06
331
D25
  5
D25
331
ACF
  5
ACF
331
D73
  5
D73
331
D07
  5
D07
331
D26
  5
D26
331
C93
  5
C93
331
CB2
  5
CB2
331
C74
  5
C74
331
AD0
  5
AD0
331
D74
  5
D74
331
CB3
  5
CB3
331
D08
  5
D08
331
C75
  5
C75
331
C94
  5
C94
331
D27
  5
D27
331
AD1
  5
AD1
331
D75
  5
D75
331
C76
  5
C76
331
C95
  5
C95
331
CB4
  5
CB4
331
AD2
  5
AD2
331
D76
  5
D76
331
CB5
  5
CB5
331
C77
  5
C77
331
AD3
  5
AD3
331
D77
  5
D77
331
CB6
  5
CB6
331
D98
  5
D98
331
B03
  5
B03
331
D78
  5
D78
331
D59
  5
D59
331
D99
  5
D99
331
B04
  5
B04
331
F98
  5
F98
331
D5A
  5
D5A
331
D79
  5
D79
331
B05
  5
B05
331
B24
  5
B24
331
D9A
  5
D9A
331
D5B
  5
D5B
331
D7A
  5
D7A
331
F99
  5
F99
331
D2D
  5
D2D
331
D9B
  5
D9B
331
B25
  5
B25
331
F9A
  5
F9A
331
D5C
  5
D5C
331
D7B
  5
D7B
331
D0F
  5
D0F
331
D2E
  5
D2E
331
B26
  5
B26
331
AE8
  5
AE8
331
D5D
  5
D5D
331
D7C
  5
D7C
331
F9B
  5
F9B
331
D2F
  5
D2F
331
AE9
  5
AE9
331
D5E
  5
D5E
331
B28
  5
B28
331
AEA
  5
AEA
331
D5F
  5
D5F
331
AEB
  5
AEB
331
D60
  5
D60
331
AEC
  5
AEC
331
D61
  5
D61
331
AED
  5
AED
331
D62
  5
D62
331
AEE
  5
AEE
331
D63
  5
D63
  0
GROUP
  5
17CA
102
{ACAD_REACTORS
330
D
102
}
330
D
100
AcDbGroup
300

 70
     1
 71
     1
  0
GROUP
  5
2D1D
102
{ACAD_REACTORS
330
D
102
}
330
D
100
AcDbGroup
300

 70
     1
 71
     1
  0
LAYOUT
  5
59
102
{ACAD_XDICTIONARY
360
3086
102
}
102
{ACAD_REACTORS
330
1A
102
}
330
1A
100
AcDbPlotSettings
  1

  2
None
  4

  6

 40
0.0
 41
0.0
 42
0.0
 43
0.0
 44
0.0
 45
0.0
 46
0.0
 47
0.0
 48
0.0
 49
0.0
140
0.0
141
0.0
142
1.0
143
1.0
 70
   688
 72
     0
 73
     0
 74
     5
  7

 75
    16
147
1.0
148
0.0
149
0.0
100
AcDbLayout
  1
Layout1
 70
     1
 71
     1
 10
0.0
 20
0.0
 11
12.0
 21
9.0
 12
0.0
 22
0.0
 32
0.0
 14
0.0
 24
0.0
 34
0.0
 15
0.0
 25
0.0
 35
0.0
146
0.0
 13
0.0
 23
0.0
 33
0.0
 16
1.0
 26
0.0
 36
0.0
 17
0.0
 27
1.0
 37
0.0
 76
     0
330
58
  0
LAYOUT
  5
5E
102
{ACAD_XDICTIONARY
360
3088
102
}
102
{ACAD_REACTORS
330
1A
102
}
330
1A
100
AcDbPlotSettings
  1

  2
None
  4

  6

 40
0.0
 41
0.0
 42
0.0
 43
0.0
 44
0.0
 45
0.0
 46
0.0
 47
0.0
 48
0.0
 49
0.0
140
0.0
141
0.0
142
1.0
143
1.0
 70
   688
 72
     0
 73
     0
 74
     5
  7

 75
    16
147
1.0
148
0.0
149
0.0
100
AcDbLayout
  1
Layout2
 70
     1
 71
     2
 10
0.0
 20
0.0
 11
12.0
 21
9.0
 12
0.0
 22
0.0
 32
0.0
 14
0.0
 24
0.0
 34
0.0
 15
0.0
 25
0.0
 35
0.0
146
0.0
 13
0.0
 23
0.0
 33
0.0
 16
1.0
 26
0.0
 36
0.0
 17
0.0
 27
1.0
 37
0.0
 76
     0
330
5D
  0
LAYOUT
  5
22
102
{ACAD_XDICTIONARY
360
3084
102
}
102
{ACAD_REACTORS
330
1A
102
}
330
1A
100
AcDbPlotSettings
  1

  2
none_device
  4
ANSI_A_(8.50_x_11.00_Inches)
  6

 40
6.349999904632567
 41
19.04999923706055
 42
6.350006103515625
 43
19.04998779296875
 44
215.8999938964844
 45
279.3999938964844
 46
0.0
 47
0.0
 48
0.0
 49
0.0
140
0.0
141
0.0
142
1.0
143
2.584895464708373
 70
 11952
 72
     0
 73
     1
 74
     0
  7

 75
     0
147
0.3868628397755418
148
0.0
149
0.0
100
AcDbLayout
  1
Model
 70
     1
 71
     0
 10
0.0
 20
0.0
 11
12.0
 21
9.0
 12
0.0
 22
0.0
 32
0.0
 14
0.0
 24
0.0
 34
0.0
 15
0.0
 25
0.0
 35
0.0
146
0.0
 13
0.0
 23
0.0
 33
0.0
 16
1.0
 26
0.0
 36
0.0
 17
0.0
 27
1.0
 37
0.0
 76
     0
330
1F
331
94
  0
MATERIAL
  5
97
102
{ACAD_XDICTIONARY
360
FBE
102
}
102
{ACAD_REACTORS
330
72
102
}
330
72
100
AcDbMaterial
  1
ByBlock
  0
MATERIAL
  5
96
102
{ACAD_XDICTIONARY
360
FBC
102
}
102
{ACAD_REACTORS
330
72
102
}
330
72
100
AcDbMaterial
  1
ByLayer
  0
MATERIAL
  5
98
102
{ACAD_XDICTIONARY
360
110
102
}
102
{ACAD_REACTORS
330
72
102
}
330
72
100
AcDbMaterial
  1
Global
 43
0.0208000000566244
 43
0.0
 43
0.0
 43
0.0
 43
0.0
 43
0.0208000000566244
 43
0.0
 43
0.0
 43
0.0
 43
0.0
 43
1.0
 43
0.0
 43
0.0
 43
0.0
 43
0.0
 43
1.0
 49
0.0208000000566244
 49
0.0
 49
0.0
 49
0.0
 49
0.0
 49
0.0208000000566244
 49
0.0
 49
0.0
 49
0.0
 49
0.0
 49
1.0
 49
0.0
 49
0.0
 49
0.0
 49
0.0
 49
1.0
142
0.0208000000566244
142
0.0
142
0.0
142
0.0
142
0.0
142
0.0208000000566244
142
0.0
142
0.0
142
0.0
142
0.0
142
1.0
142
0.0
142
0.0
142
0.0
142
0.0
142
1.0
144
0.0208000000566244
144
0.0
144
0.0
144
0.0
144
0.0
144
0.0208000000566244
144
0.0
144
0.0
144
0.0
144
0.0
144
1.0
144
0.0
144
0.0
144
0.0
144
0.0
144
1.0
1001
ACAD
1070
    -1
1070
     3
1070
     0
1000

1071
        0
1070
     0
  0
MLEADERSTYLE
  5
E5
102
{ACAD_REACTORS
330
D7
102
}
330
D7
100
AcDbMLeaderStyle
170
     2
171
     1
172
     0
 90
        2
 40
0.0
 41
0.0
173
     1
 91
-1056964608
340
14
 92
       -2
290
     1
 42
0.09
291
     1
 43
0.36
  3
Standard
 44
0.18
300

342
11
174
     1
178
     1
175
     1
176
     0
 93
-1056964608
 45
0.18
292
     0
297
     0
 46
0.18
 94
-1056964608
 47
1.0
 49
1.0
140
1.0
293
     1
141
0.0
294
     1
177
     0
142
1.0
295
     0
296
     1
143
0.125
1001
ACAD_MLEADERVER
1070
     2
  0
MLEADERSTYLE
  5
D8
102
{ACAD_REACTORS
330
D7
102
}
330
D7
100
AcDbMLeaderStyle
170
     2
171
     1
172
     0
 90
        2
 40
0.0
 41
0.0
173
     1
 91
-1056964608
340
14
 92
       -2
290
     1
 42
0.09
291
     1
 43
0.36
  3
Standard
 44
0.18
300

342
11
174
     1
178
     1
175
     1
176
     0
 93
-1056964608
 45
0.18
292
     0
297
     0
 46
0.18
 94
-1056964608
 47
1.0
 49
1.0
140
1.0
293
     1
141
0.0
294
     1
177
     0
142
1.0
295
     0
296
     0
143
0.125
1001
ACAD_MLEADERVER
1070
     2
  0
MLINESTYLE
  5
18
102
{ACAD_REACTORS
330
17
102
}
330
17
100
AcDbMlineStyle
  2
STANDARD
 70
     0
  3

 62
   256
 51
90.0
 52
90.0
 71
     2
 49
0.5
 62
   256
  6
BYLAYER
 49
-0.5
 62
   256
  6
BYLAYER
  0
ACDBPLACEHOLDER
  5
F
102
{ACAD_REACTORS
330
E
102
}
330
E
  0
SCALE
  5
B7
102
{ACAD_REACTORS
330
B6
102
}
330
B6
100
AcDbScale
 70
     0
300
1:1
140
1.0
141
1.0
290
     1
  0
SCALE
  5
124
102
{ACAD_REACTORS
330
B6
102
}
330
B6
100
AcDbScale
 70
     0
300
1:2
140
1.0
141
2.0
290
     0
  0
SCALE
  5
125
102
{ACAD_REACTORS
330
B6
102
}
330
B6
100
AcDbScale
 70
     0
300
1:4
140
1.0
141
4.0
290
     0
  0
SCALE
  5
126
102
{ACAD_REACTORS
330
B6
102
}
330
B6
100
AcDbScale
 70
     0
300
1:5
140
1.0
141
5.0
290
     0
  0
SCALE
  5
127
102
{ACAD_REACTORS
330
B6
102
}
330
B6
100
AcDbScale
 70
     0
300
1:8
140
1.0
141
8.0
290
     0
  0
SCALE
  5
128
102
{ACAD_REACTORS
330
B6
102
}
330
B6
100
AcDbScale
 70
     0
300
1:10
140
1.0
141
10.0
290
     0
  0
SCALE
  5
129
102
{ACAD_REACTORS
330
B6
102
}
330
B6
100
AcDbScale
 70
     0
300
1:16
140
1.0
141
16.0
290
     0
  0
SCALE
  5
12A
102
{ACAD_REACTORS
330
B6
102
}
330
B6
100
AcDbScale
 70
     0
300
1:20
140
1.0
141
20.0
290
     0
  0
SCALE
  5
12B
102
{ACAD_REACTORS
330
B6
102
}
330
B6
100
AcDbScale
 70
     0
300
1:30
140
1.0
141
30.0
290
     0
  0
SCALE
  5
12C
102
{ACAD_REACTORS
330
B6
102
}
330
B6
100
AcDbScale
 70
     0
300
1:40
140
1.0
141
40.0
290
     0
  0
SCALE
  5
12D
102
{ACAD_REACTORS
330
B6
102
}
330
B6
100
AcDbScale
 70
     0
300
1:50
140
1.0
141
50.0
290
     0
  0
SCALE
  5
12E
102
{ACAD_REACTORS
330
B6
102
}
330
B6
100
AcDbScale
 70
     0
300
1:100
140
1.0
141
100.0
290
     0
  0
SCALE
  5
12F
102
{ACAD_REACTORS
330
B6
102
}
330
B6
100
AcDbScale
 70
     0
300
2:1
140
2.0
141
1.0
290
     0
  0
SCALE
  5
130
102
{ACAD_REACTORS
330
B6
102
}
330
B6
100
AcDbScale
 70
     0
300
4:1
140
4.0
141
1.0
290
     0
  0
SCALE
  5
131
102
{ACAD_REACTORS
330
B6
102
}
330
B6
100
AcDbScale
 70
     0
300
8:1
140
8.0
141
1.0
290
     0
  0
SCALE
  5
132
102
{ACAD_REACTORS
330
B6
102
}
330
B6
100
AcDbScale
 70
     0
300
10:1
140
10.0
141
1.0
290
     0
  0
SCALE
  5
133
102
{ACAD_REACTORS
330
B6
102
}
330
B6
100
AcDbScale
 70
     0
300
100:1
140
100.0
141
1.0
290
     0
  0
SCALE
  5
134
102
{ACAD_REACTORS
330
B6
102
}
330
B6
100
AcDbScale
 70
     0
300
1/128" = 1'-0"
140
0.0078125
141
12.0
290
     0
  0
SCALE
  5
135
102
{ACAD_REACTORS
330
B6
102
}
330
B6
100
AcDbScale
 70
     0
300
1/64" = 1'-0"
140
0.015625
141
12.0
290
     0
  0
SCALE
  5
136
102
{ACAD_REACTORS
330
B6
102
}
330
B6
100
AcDbScale
 70
     0
300
1/32" = 1'-0"
140
0.03125
141
12.0
290
     0
  0
SCALE
  5
137
102
{ACAD_REACTORS
330
B6
102
}
330
B6
100
AcDbScale
 70
     0
300
1/16" = 1'-0"
140
0.0625
141
12.0
290
     0
  0
SCALE
  5
138
102
{ACAD_REACTORS
330
B6
102
}
330
B6
100
AcDbScale
 70
     0
300
3/32" = 1'-0"
140
0.09375
141
12.0
290
     0
  0
SCALE
  5
139
102
{ACAD_REACTORS
330
B6
102
}
330
B6
100
AcDbScale
 70
     0
300
1/8" = 1'-0"
140
0.125
141
12.0
290
     0
  0
SCALE
  5
13A
102
{ACAD_REACTORS
330
B6
102
}
330
B6
100
AcDbScale
 70
     0
300
3/16" = 1'-0"
140
0.1875
141
12.0
290
     0
  0
SCALE
  5
13B
102
{ACAD_REACTORS
330
B6
102
}
330
B6
100
AcDbScale
 70
     0
300
1/4" = 1'-0"
140
0.25
141
12.0
290
     0
  0
SCALE
  5
13C
102
{ACAD_REACTORS
330
B6
102
}
330
B6
100
AcDbScale
 70
     0
300
3/8" = 1'-0"
140
0.375
141
12.0
290
     0
  0
SCALE
  5
13D
102
{ACAD_REACTORS
330
B6
102
}
330
B6
100
AcDbScale
 70
     0
300
1/2" = 1'-0"
140
0.5
141
12.0
290
     0
  0
SCALE
  5
13E
102
{ACAD_REACTORS
330
B6
102
}
330
B6
100
AcDbScale
 70
     0
300
3/4" = 1'-0"
140
0.75
141
12.0
290
     0
  0
SCALE
  5
13F
102
{ACAD_REACTORS
330
B6
102
}
330
B6
100
AcDbScale
 70
     0
300
1" = 1'-0"
140
1.0
141
12.0
290
     0
  0
SCALE
  5
140
102
{ACAD_REACTORS
330
B6
102
}
330
B6
100
AcDbScale
 70
     0
300
1-1/2" = 1'-0"
140
1.5
141
12.0
290
     0
  0
SCALE
  5
141
102
{ACAD_REACTORS
330
B6
102
}
330
B6
100
AcDbScale
 70
     0
300
3" = 1'-0"
140
3.0
141
12.0
290
     0
  0
SCALE
  5
142
102
{ACAD_REACTORS
330
B6
102
}
330
B6
100
AcDbScale
 70
     0
300
6" = 1'-0"
140
6.0
141
12.0
290
     0
  0
SCALE
  5
143
102
{ACAD_REACTORS
330
B6
102
}
330
B6
100
AcDbScale
 70
     0
300
1'-0" = 1'-0"
140
12.0
141
12.0
290
     0
  0
TABLESTYLE
  5
87
102
{ACAD_XDICTIONARY
360
104
102
}
102
{ACAD_REACTORS
330
86
102
}
330
86
100
AcDbTableStyle
  3
Standard
 70
     0
 71
     0
 40
0.06
 41
0.06
280
     0
281
     0
  7
Standard
140
0.18
170
     2
 62
     0
 63
     7
283
     0
274
    -2
284
     1
 64
     0
275
    -2
285
     1
 65
     0
276
    -2
286
     1
 66
     0
277
    -2
287
     1
 67
     0
278
    -2
288
     1
 68
     0
279
    -2
289
     1
 69
     0
  7
Standard
140
0.25
170
     5
 62
     0
 63
     7
283
     0
274
    -2
284
     1
 64
     0
275
    -2
285
     1
 65
     0
276
    -2
286
     1
 66
     0
277
    -2
287
     1
 67
     0
278
    -2
288
     1
 68
     0
279
    -2
289
     1
 69
     0
  7
Standard
140
0.18
170
     5
 62
     0
 63
     7
283
     0
274
    -2
284
     1
 64
     0
275
    -2
285
     1
 65
     0
276
    -2
286
     1
 66
     0
277
    -2
287
     1
 67
     0
278
    -2
288
     1
 68
     0
279
    -2
289
     1
 69
     0
  0
VISUALSTYLE
  5
9F
102
{ACAD_REACTORS
330
99
102
}
330
99
100
AcDbVisualStyle
  2
2dWireframe
 70
     4
 71
     0
 72
     2
 73
     1
 90
        0
 40
-0.6
 41
-30.0
 62
     5
 63
     7
 74
     1
 91
        4
 64
     7
 65
   257
 75
     1
175
     1
 42
1.0
 92
        0
 66
   257
 43
1.0
 76
     1
 77
     6
 78
     2
 67
     7
 79
     5
170
     0
171
     0
290
     0
174
     0
 93
        1
 44
0.0
173
     0
291
     0
 45
0.0
1001
ACAD
1000
AcDbSavedByObjectVersion
1070
     0
1000
AcDbSavedByObjectVersion
1070
     0
1000
AcDbSavedByObjectVersion
1070
     0
1000
AcDbSavedByObjectVersion
1070
     0
1000
AcDbSavedByObjectVersion
1070
     0
1000
AcDbSavedByObjectVersion
1070
     0
1000
AcDbSavedByObjectVersion
1070
     0
  0
VISUALSTYLE
  5
A1
102
{ACAD_REACTORS
330
99
102
}
330
99
100
AcDbVisualStyle
  2
3D Hidden
 70
     6
 71
     1
 72
     2
 73
     2
 90
        0
 40
-0.6
 41
-30.0
 62
     5
 63
     7
 74
     2
 91
        2
 64
     7
 65
   257
 75
     2
175
     1
 42
40.0
 92
        0
 66
   257
 43
1.0
 76
     1
 77
     6
 78
     2
 67
     7
 79
     3
170
     0
171
     0
290
     0
174
     0
 93
        1
 44
0.0
173
     0
291
     0
 45
0.0
1001
ACAD
1000
AcDbSavedByObjectVersion
1070
     0
1000
AcDbSavedByObjectVersion
1070
     0
1000
AcDbSavedByObjectVersion
1070
     0
1000
AcDbSavedByObjectVersion
1070
     0
1000
AcDbSavedByObjectVersion
1070
     0
1000
AcDbSavedByObjectVersion
1070
     0
1000
AcDbSavedByObjectVersion
1070
     0
  0
VISUALSTYLE
  5
A0
102
{ACAD_REACTORS
330
99
102
}
330
99
100
AcDbVisualStyle
  2
3dWireframe
 70
     5
 71
     0
 72
     2
 73
     1
 90
        0
 40
-0.6
 41
-30.0
 62
     5
 63
     7
 74
     1
 91
        4
 64
     7
 65
   257
 75
     1
175
     1
 42
1.0
 92
        0
 66
   257
 43
1.0
 76
     1
 77
     6
 78
     2
 67
     7
 79
     5
170
     0
171
     0
290
     0
174
     0
 93
        1
 44
0.0
173
     0
291
     0
 45
0.0
1001
ACAD
1000
AcDbSavedByObjectVersion
1070
     0
1000
AcDbSavedByObjectVersion
1070
     0
1000
AcDbSavedByObjectVersion
1070
     0
1000
AcDbSavedByObjectVersion
1070
     0
1000
AcDbSavedByObjectVersion
1070
     0
1000
AcDbSavedByObjectVersion
1070
     0
1000
AcDbSavedByObjectVersion
1070
     0
  0
VISUALSTYLE
  5
9E
102
{ACAD_REACTORS
330
99
102
}
330
99
100
AcDbVisualStyle
  2
Basic
 70
     7
 71
     1
 72
     0
 73
     1
 90
        0
 40
-0.6
 41
-30.0
 62
     5
 63
     7
 74
     0
 91
        4
 64
     7
 65
   257
 75
     1
175
     1
 42
1.0
 92
        8
 66
     7
 43
1.0
 76
     1
 77
     6
 78
     2
 67
     7
 79
     5
170
     0
171
     0
290
     0
174
     0
 93
        1
 44
0.0
173
     0
291
     1
 45
0.0
1001
ACAD
1000
AcDbSavedByObjectVersion
1070
     0
1000
AcDbSavedByObjectVersion
1070
     0
1000
AcDbSavedByObjectVersion
1070
     0
1000
AcDbSavedByObjectVersion
1070
     0
1000
AcDbSavedByObjectVersion
1070
     0
1000
AcDbSavedByObjectVersion
1070
     0
1000
AcDbSavedByObjectVersion
1070
     0
  0
VISUALSTYLE
  5
A5
102
{ACAD_REACTORS
330
99
102
}
330
99
100
AcDbVisualStyle
  2
Brighten
 70
    12
 71
     2
 72
     2
 73
     1
 90
        0
 40
-0.6
 41
-30.0
 62
     5
 63
     7
 74
     1
 91
        4
 64
     7
 65
   257
 75
     1
175
     1
 42
1.0
 92
        8
 66
     7
 43
1.0
 76
     1
 77
     6
 78
     2
 67
     7
 79
     5
170
     0
171
     0
290
     0
174
     0
 93
        1
 44
50.0
173
     0
291
     1
 45
0.0
1001
ACAD
1000
AcDbSavedByObjectVersion
1070
     0
1000
AcDbSavedByObjectVersion
1070
     0
1000
AcDbSavedByObjectVersion
1070
     0
1000
AcDbSavedByObjectVersion
1070
     0
1000
AcDbSavedByObjectVersion
1070
     0
1000
AcDbSavedByObjectVersion
1070
     0
1000
AcDbSavedByObjectVersion
1070
     0
  0
VISUALSTYLE
  5
A9
102
{ACAD_REACTORS
330
99
102
}
330
99
100
AcDbVisualStyle
  2
ColorChange
 70
    16
 71
     2
 72
     2
 73
     3
 90
        0
 40
-0.6
 41
-30.0
 62
     5
 63
     8
 74
     1
 91
        4
 64
     7
 65
   257
 75
     1
175
     1
 42
1.0
 92
        8
 66
     8
 43
1.0
 76
     1
 77
     6
 78
     2
 67
     7
 79
     5
170
     0
171
     0
290
     0
174
     0
 93
        1
 44
0.0
173
     0
291
     1
 45
0.0
1001
ACAD
1000
AcDbSavedByObjectVersion
1070
     0
1000
AcDbSavedByObjectVersion
1070
     0
1000
AcDbSavedByObjectVersion
1070
     0
1000
AcDbSavedByObjectVersion
1070
     0
1000
AcDbSavedByObjectVersion
1070
     0
1000
AcDbSavedByObjectVersion
1070
     0
1000
AcDbSavedByObjectVersion
1070
     0
  0
VISUALSTYLE
  5
A2
102
{ACAD_REACTORS
330
99
102
}
330
99
100
AcDbVisualStyle
  2
Conceptual
 70
     9
 71
     3
 72
     2
 73
     1
 90
        0
 40
-0.6
 41
-30.0
 62
     5
 63
     7
 74
     2
 91
        2
 64
     7
 65
   257
 75
     1
175
     1
 42
40.0
 92
        8
 66
     7
 43
1.0
 76
     1
 77
     6
 78
     2
 67
     7
 79
     3
170
     0
171
     0
290
     0
174
     0
 93
        1
 44
0.0
173
     0
291
     0
 45
0.0
1001
ACAD
1000
AcDbSavedByObjectVersion
1070
     0
1000
AcDbSavedByObjectVersion
1070
     0
1000
AcDbSavedByObjectVersion
1070
     0
1000
AcDbSavedByObjectVersion
1070
     0
1000
AcDbSavedByObjectVersion
1070
     0
1000
AcDbSavedByObjectVersion
1070
     0
1000
AcDbSavedByObjectVersion
1070
     0
  0
VISUALSTYLE
  5
A4
102
{ACAD_REACTORS
330
99
102
}
330
99
100
AcDbVisualStyle
  2
Dim
 70
    11
 71
     2
 72
     2
 73
     1
 90
        0
 40
-0.6
 41
-30.0
 62
     5
 63
     7
 74
     1
 91
        4
 64
     7
 65
   257
 75
     1
175
     1
 42
1.0
 92
        8
 66
     7
 43
1.0
 76
     1
 77
     6
 78
     2
 67
     7
 79
     5
170
     0
171
     0
290
     0
174
     0
 93
        1
 44
-50.0
173
     0
291
     1
 45
0.0
1001
ACAD
1000
AcDbSavedByObjectVersion
1070
     0
1000
AcDbSavedByObjectVersion
1070
     0
1000
AcDbSavedByObjectVersion
1070
     0
1000
AcDbSavedByObjectVersion
1070
     0
1000
AcDbSavedByObjectVersion
1070
     0
1000
AcDbSavedByObjectVersion
1070
     0
1000
AcDbSavedByObjectVersion
1070
     0
  0
VISUALSTYLE
  5
A8
102
{ACAD_REACTORS
330
99
102
}
330
99
100
AcDbVisualStyle
  2
Facepattern
 70
    15
 71
     2
 72
     2
 73
     1
 90
        0
 40
-0.6
 41
-30.0
 62
     5
 63
     7
 74
     1
 91
        4
 64
     7
 65
   257
 75
     1
175
     1
 42
1.0
 92
        8
 66
     7
 43
1.0
 76
     1
 77
     6
 78
     2
 67
     7
 79
     5
170
     0
171
     0
290
     0
174
     0
 93
        1
 44
0.0
173
     0
291
     1
 45
0.0
1001
ACAD
1000
AcDbSavedByObjectVersion
1070
     0
1000
AcDbSavedByObjectVersion
1070
     0
1000
AcDbSavedByObjectVersion
1070
     0
1000
AcDbSavedByObjectVersion
1070
     0
1000
AcDbSavedByObjectVersion
1070
     0
1000
AcDbSavedByObjectVersion
1070
     0
1000
AcDbSavedByObjectVersion
1070
     0
  0
VISUALSTYLE
  5
9A
102
{ACAD_REACTORS
330
99
102
}
330
99
100
AcDbVisualStyle
  2
Flat
 70
     0
 71
     2
 72
     1
 73
     1
 90
        2
 40
-0.6
 41
30.0
 62
     5
 63
     7
 74
     0
 91
        4
 64
     7
 65
   257
 75
     1
175
     1
 42
1.0
 92
        8
 66
     7
 43
1.0
 76
     1
 77
     6
 78
     2
 67
     7
 79
     5
170
     0
171
     0
290
     0
174
     0
 93
        1
 44
0.0
173
     0
291
     1
 45
0.0
1001
ACAD
1000
AcDbSavedByObjectVersion
1070
     0
1000
AcDbSavedByObjectVersion
1070
     0
1000
AcDbSavedByObjectVersion
1070
     0
1000
AcDbSavedByObjectVersion
1070
     0
1000
AcDbSavedByObjectVersion
1070
     0
1000
AcDbSavedByObjectVersion
1070
     0
1000
AcDbSavedByObjectVersion
1070
     0
  0
VISUALSTYLE
  5
9B
102
{ACAD_REACTORS
330
99
102
}
330
99
100
AcDbVisualStyle
  2
FlatWithEdges
 70
     1
 71
     2
 72
     1
 73
     1
 90
        2
 40
-0.6
 41
30.0
 62
     5
 63
     7
 74
     1
 91
        4
 64
     7
 65
   257
 75
     1
175
     1
 42
1.0
 92
        0
 66
   257
 43
1.0
 76
     1
 77
     6
 78
     2
 67
     7
 79
     5
170
     0
171
     0
290
     0
174
     0
 93
        1
 44
0.0
173
     0
291
     1
 45
0.0
1001
ACAD
1000
AcDbSavedByObjectVersion
1070
     0
1000
AcDbSavedByObjectVersion
1070
     0
1000
AcDbSavedByObjectVersion
1070
     0
1000
AcDbSavedByObjectVersion
1070
     0
1000
AcDbSavedByObjectVersion
1070
     0
1000
AcDbSavedByObjectVersion
1070
     0
1000
AcDbSavedByObjectVersion
1070
     0
  0
VISUALSTYLE
  5
9C
102
{ACAD_REACTORS
330
99
102
}
330
99
100
AcDbVisualStyle
  2
Gouraud
 70
     2
 71
     2
 72
     2
 73
     1
 90
        2
 40
-0.6
 41
30.0
 62
     5
 63
     7
 74
     0
 91
        4
 64
     7
 65
   257
 75
     1
175
     1
 42
1.0
 92
        0
 66
     7
 43
1.0
 76
     1
 77
     6
 78
     2
 67
     7
 79
     5
170
     0
171
     0
290
     0
174
     0
 93
        1
 44
0.0
173
     0
291
     1
 45
0.0
1001
ACAD
1000
AcDbSavedByObjectVersion
1070
     0
1000
AcDbSavedByObjectVersion
1070
     0
1000
AcDbSavedByObjectVersion
1070
     0
1000
AcDbSavedByObjectVersion
1070
     0
1000
AcDbSavedByObjectVersion
1070
     0
1000
AcDbSavedByObjectVersion
1070
     0
1000
AcDbSavedByObjectVersion
1070
     0
  0
VISUALSTYLE
  5
9D
102
{ACAD_REACTORS
330
99
102
}
330
99
100
AcDbVisualStyle
  2
GouraudWithEdges
 70
     3
 71
     2
 72
     2
 73
     1
 90
        2
 40
-0.6
 41
30.0
 62
     5
 63
     7
 74
     1
 91
        4
 64
     7
 65
   257
 75
     1
175
     1
 42
1.0
 92
        0
 66
   257
 43
1.0
 76
     1
 77
     6
 78
     2
 67
     7
 79
     5
170
     0
171
     0
290
     0
174
     0
 93
        1
 44
0.0
173
     0
291
     1
 45
0.0
1001
ACAD
1000
AcDbSavedByObjectVersion
1070
     0
1000
AcDbSavedByObjectVersion
1070
     0
1000
AcDbSavedByObjectVersion
1070
     0
1000
AcDbSavedByObjectVersion
1070
     0
1000
AcDbSavedByObjectVersion
1070
     0
1000
AcDbSavedByObjectVersion
1070
     0
1000
AcDbSavedByObjectVersion
1070
     0
  0
VISUALSTYLE
  5
A7
102
{ACAD_REACTORS
330
99
102
}
330
99
100
AcDbVisualStyle
  2
Linepattern
 70
    14
 71
     2
 72
     2
 73
     1
 90
        0
 40
-0.6
 41
-30.0
 62
     5
 63
     7
 74
     1
 91
        4
 64
     7
 65
   257
 75
     7
175
     7
 42
1.0
 92
        8
 66
     7
 43
1.0
 76
     1
 77
     6
 78
     2
 67
     7
 79
     5
170
     0
171
     0
290
     0
174
     0
 93
        1
 44
0.0
173
     0
291
     1
 45
0.0
1001
ACAD
1000
AcDbSavedByObjectVersion
1070
     0
1000
AcDbSavedByObjectVersion
1070
     0
1000
AcDbSavedByObjectVersion
1070
     0
1000
AcDbSavedByObjectVersion
1070
     0
1000
AcDbSavedByObjectVersion
1070
     0
1000
AcDbSavedByObjectVersion
1070
     0
1000
AcDbSavedByObjectVersion
1070
     0
  0
VISUALSTYLE
  5
A3
102
{ACAD_REACTORS
330
99
102
}
330
99
100
AcDbVisualStyle
  2
Realistic
 70
     8
 71
     2
 72
     2
 73
     1
 90
        0
 40
-0.6
 41
-30.0
 62
     5
 63
     7
 74
     1
 91
        0
 64
     7
 65
   257
 75
     1
175
     1
 42
1.0
 92
        8
 66
     8
 43
1.0
 76
     1
 77
     6
 78
     2
 67
     7
 79
     5
170
     0
171
     0
290
     0
174
     0
 93
       13
 44
0.0
173
     0
291
     0
 45
0.0
1001
ACAD
1000
AcDbSavedByObjectVersion
1070
     0
1000
AcDbSavedByObjectVersion
1070
     0
1000
AcDbSavedByObjectVersion
1070
     0
1000
AcDbSavedByObjectVersion
1070
     0
1000
AcDbSavedByObjectVersion
1070
     0
1000
AcDbSavedByObjectVersion
1070
     0
1000
AcDbSavedByObjectVersion
1070
     0
  0
VISUALSTYLE
  5
A6
102
{ACAD_REACTORS
330
99
102
}
330
99
100
AcDbVisualStyle
  2
Thicken
 70
    13
 71
     2
 72
     2
 73
     1
 90
        0
 40
-0.6
 41
-30.0
 62
     5
 63
     7
 74
     1
 91
        4
 64
     7
 65
   257
 75
     1
175
     1
 42
1.0
 92
       12
 66
     7
 43
1.0
 76
     1
 77
     6
 78
     2
 67
     7
 79
     5
170
     0
171
     0
290
     0
174
     0
 93
        1
 44
0.0
173
     0
291
     1
 45
0.0
1001
ACAD
1000
AcDbSavedByObjectVersion
1070
     0
1000
AcDbSavedByObjectVersion
1070
     0
1000
AcDbSavedByObjectVersion
1070
     0
1000
AcDbSavedByObjectVersion
1070
     0
1000
AcDbSavedByObjectVersion
1070
     0
1000
AcDbSavedByObjectVersion
1070
     0
1000
AcDbSavedByObjectVersion
1070
     0
  0
DICTIONARYVAR
  5
F0
102
{ACAD_REACTORS
330
66
102
}
330
66
100
DictionaryVariables
280
     0
  1
1:1
  0
DICTIONARYVAR
  5
EF
102
{ACAD_REACTORS
330
66
102
}
330
66
100
DictionaryVariables
280
     0
  1
STANDARD
  0
DICTIONARYVAR
  5
89
102
{ACAD_REACTORS
330
66
102
}
330
66
100
DictionaryVariables
280
     0
  1
STANDARD
  0
DICTIONARYVAR
  5
67
102
{ACAD_REACTORS
330
66
102
}
330
66
100
DictionaryVariables
280
     0
  1
2
  0
DICTIONARYVAR
  5
6B
102
{ACAD_REACTORS
330
66
102
}
330
66
100
DictionaryVariables
280
     0
  1
1
  0
DICTIONARYVAR
  5
FB2
102
{ACAD_REACTORS
330
66
102
}
330
66
100
DictionaryVariables
280
     0
  1
0
  0
DICTIONARYVAR
  5
FB0
102
{ACAD_REACTORS
330
66
102
}
330
66
100
DictionaryVariables
280
     0
  1
2
  0
DICTIONARYVAR
  5
FAF
102
{ACAD_REACTORS
330
66
102
}
330
66
100
DictionaryVariables
280
     0
  1
1
  0
DICTIONARYVAR
  5
FB1
102
{ACAD_REACTORS
330
66
102
}
330
66
100
DictionaryVariables
280
     0
  1
127
  0
DICTIONARY
  5
3086
330
59
100
AcDbDictionary
280
     1
281
     1
  3
ACAD_XREC_ROUNDTRIP
360
3087
  0
DICTIONARY
  5
3088
330
5E
100
AcDbDictionary
280
     1
281
     1
  3
ACAD_XREC_ROUNDTRIP
360
3089
  0
DICTIONARY
  5
3084
330
22
100
AcDbDictionary
280
     1
281
     1
  3
ACAD_XREC_ROUNDTRIP
360
3085
  0
DICTIONARY
  5
FBE
330
97
100
AcDbDictionary
280
     1
281
     1
  3
ACAD_XREC_ROUNDTRIP
360
FBF
  0
DICTIONARY
  5
FBC
330
96
100
AcDbDictionary
280
     1
281
     1
  3
ACAD_XREC_ROUNDTRIP
360
FBD
  0
DICTIONARY
  5
110
330
98
100
AcDbDictionary
280
     1
281
     1
  3
ACAD_XREC_ROUNDTRIP
360
FC0
  3
BUMPTILE
360
112
  3
DIFFUSETILE
360
111
  3
OPACITYTILE
360
113
  3
REFLECTIONTILE
360
114
  0
DICTIONARY
  5
104
330
87
100
AcDbDictionary
280
     1
281
     1
  3
ACAD_ROUNDTRIP_2008_TABLESTYLE_CELLSTYLEMAP
360
3082
  3
ACAD_XREC_ROUNDTRIP
360
308A
  0
XRECORD
  5
3087
102
{ACAD_REACTORS
330
3086
102
}
330
3086
100
AcDbXrecord
280
     1
102
SHADEPLOT
 70
     0
102
SHADEPLOTRESLEVEL
 70
     2
102
SHADEPLOTCUSTOMDPI
 70
   300
  0
XRECORD
  5
3089
102
{ACAD_REACTORS
330
3088
102
}
330
3088
100
AcDbXrecord
280
     1
102
SHADEPLOT
 70
     0
102
SHADEPLOTRESLEVEL
 70
     2
102
SHADEPLOTCUSTOMDPI
 70
   300
  0
XRECORD
  5
3085
102
{ACAD_REACTORS
330
3084
102
}
330
3084
100
AcDbXrecord
280
     1
102
SHADEPLOT
 70
     0
102
SHADEPLOTRESLEVEL
 70
     2
102
SHADEPLOTCUSTOMDPI
 70
   300
  0
XRECORD
  5
FBF
102
{ACAD_REACTORS
330
FBE
102
}
330
FBE
100
AcDbXrecord
280
     1
102
MATERIAL
148
0.0
149
0.0
149
0.0
 93
        0
 94
      127
282
     0
 72
     1
 77
     1
171
     1
175
     1
179
     1
273
     0
  0
XRECORD
  5
FBD
102
{ACAD_REACTORS
330
FBC
102
}
330
FBC
100
AcDbXrecord
280
     1
102
MATERIAL
148
0.0
149
0.0
149
0.0
 93
        0
 94
      127
282
     0
 72
     1
 77
     1
171
     1
175
     1
179
     1
273
     0
  0
XRECORD
  5
FC0
102
{ACAD_REACTORS
330
110
102
}
330
110
100
AcDbXrecord
280
     1
102
MATERIAL
148
0.0
149
0.0
149
0.0
 93
        0
 94
      127
282
     0
 72
     1
 77
     1
171
     1
175
     1
179
     1
273
     0
  0
XRECORD
  5
112
102
{ACAD_REACTORS
330
110
102
}
330
110
100
AcDbXrecord
280
     1
270
     1
271
     1
  0
XRECORD
  5
111
102
{ACAD_REACTORS
330
110
102
}
330
110
100
AcDbXrecord
280
     1
270
     1
271
     1
  0
XRECORD
  5
113
102
{ACAD_REACTORS
330
110
102
}
330
110
100
AcDbXrecord
280
     1
270
     1
271
     1
  0
XRECORD
  5
114
102
{ACAD_REACTORS
330
110
102
}
330
110
100
AcDbXrecord
280
     1
270
     1
271
     1
  0
CELLSTYLEMAP
  5
3082
102
{ACAD_REACTORS
330
104
102
}
330
104
100
AcDbCellStyleMap
 90
        3
300
CELLSTYLE
  1
TABLEFORMAT_BEGIN
 90
        5
170
     1
 91
        0
 92
    32768
 62
   257
 93
        1
300
CONTENTFORMAT
  1
CONTENTFORMAT_BEGIN
 90
        0
 91
        0
 92
      512
 93
        0
300

 40
0.0
140
1.0
 94
        5
 62
     0
340
11
144
0.25
309
CONTENTFORMAT_END
171
     1
301
MARGIN
  1
CELLMARGIN_BEGIN
 40
0.06
 40
0.06
 40
0.06
 40
0.06
 40
0.18
 40
0.18
309
CELLMARGIN_END
 94
        6
 95
        1
302
GRIDFORMAT
  1
GRIDFORMAT_BEGIN
 90
        0
 91
        1
 62
     0
 92
       -2
340
0
 93
        0
 40
0.045
309
GRIDFORMAT_END
 95
        2
302
GRIDFORMAT
  1
GRIDFORMAT_BEGIN
 90
        0
 91
        1
 62
     0
 92
       -2
340
0
 93
        0
 40
0.045
309
GRIDFORMAT_END
 95
        4
302
GRIDFORMAT
  1
GRIDFORMAT_BEGIN
 90
        0
 91
        1
 62
     0
 92
       -2
340
0
 93
        0
 40
0.045
309
GRIDFORMAT_END
 95
        8
302
GRIDFORMAT
  1
GRIDFORMAT_BEGIN
 90
        0
 91
        1
 62
     0
 92
       -2
340
0
 93
        0
 40
0.045
309
GRIDFORMAT_END
 95
       16
302
GRIDFORMAT
  1
GRIDFORMAT_BEGIN
 90
        0
 91
        1
 62
     0
 92
       -2
340
0
 93
        0
 40
0.045
309
GRIDFORMAT_END
 95
       32
302
GRIDFORMAT
  1
GRIDFORMAT_BEGIN
 90
        0
 91
        1
 62
     0
 92
       -2
340
0
 93
        0
 40
0.045
309
GRIDFORMAT_END
309
TABLEFORMAT_END
  1
CELLSTYLE_BEGIN
 90
        1
 91
        1
300
_TITLE
309
CELLSTYLE_END
300
CELLSTYLE
  1
TABLEFORMAT_BEGIN
 90
        5
170
     1
 91
        0
 92
        0
 62
   257
 93
        1
300
CONTENTFORMAT
  1
CONTENTFORMAT_BEGIN
 90
        0
 91
        0
 92
      512
 93
        0
300

 40
0.0
140
1.0
 94
        5
 62
     0
340
11
144
0.18
309
CONTENTFORMAT_END
171
     1
301
MARGIN
  1
CELLMARGIN_BEGIN
 40
0.06
 40
0.06
 40
0.06
 40
0.06
 40
0.18
 40
0.18
309
CELLMARGIN_END
 94
        6
 95
        1
302
GRIDFORMAT
  1
GRIDFORMAT_BEGIN
 90
        0
 91
        1
 62
     0
 92
       -2
340
0
 93
        0
 40
0.045
309
GRIDFORMAT_END
 95
        2
302
GRIDFORMAT
  1
GRIDFORMAT_BEGIN
 90
        0
 91
        1
 62
     0
 92
       -2
340
0
 93
        0
 40
0.045
309
GRIDFORMAT_END
 95
        4
302
GRIDFORMAT
  1
GRIDFORMAT_BEGIN
 90
        0
 91
        1
 62
     0
 92
       -2
340
0
 93
        0
 40
0.045
309
GRIDFORMAT_END
 95
        8
302
GRIDFORMAT
  1
GRIDFORMAT_BEGIN
 90
        0
 91
        1
 62
     0
 92
       -2
340
0
 93
        0
 40
0.045
309
GRIDFORMAT_END
 95
       16
302
GRIDFORMAT
  1
GRIDFORMAT_BEGIN
 90
        0
 91
        1
 62
     0
 92
       -2
340
0
 93
        0
 40
0.045
309
GRIDFORMAT_END
 95
       32
302
GRIDFORMAT
  1
GRIDFORMAT_BEGIN
 90
        0
 91
        1
 62
     0
 92
       -2
340
0
 93
        0
 40
0.045
309
GRIDFORMAT_END
309
TABLEFORMAT_END
  1
CELLSTYLE_BEGIN
 90
        2
 91
        1
300
_HEADER
309
CELLSTYLE_END
300
CELLSTYLE
  1
TABLEFORMAT_BEGIN
 90
        5
170
     1
 91
        0
 92
        0
 62
   257
 93
        1
300
CONTENTFORMAT
  1
CONTENTFORMAT_BEGIN
 90
        0
 91
        0
 92
      512
 93
        0
300

 40
0.0
140
1.0
 94
        2
 62
     0
340
11
144
0.18
309
CONTENTFORMAT_END
171
     1
301
MARGIN
  1
CELLMARGIN_BEGIN
 40
0.06
 40
0.06
 40
0.06
 40
0.06
 40
0.18
 40
0.18
309
CELLMARGIN_END
 94
        6
 95
        1
302
GRIDFORMAT
  1
GRIDFORMAT_BEGIN
 90
        0
 91
        1
 62
     0
 92
       -2
340
0
 93
        0
 40
0.045
309
GRIDFORMAT_END
 95
        2
302
GRIDFORMAT
  1
GRIDFORMAT_BEGIN
 90
        0
 91
        1
 62
     0
 92
       -2
340
0
 93
        0
 40
0.045
309
GRIDFORMAT_END
 95
        4
302
GRIDFORMAT
  1
GRIDFORMAT_BEGIN
 90
        0
 91
        1
 62
     0
 92
       -2
340
0
 93
        0
 40
0.045
309
GRIDFORMAT_END
 95
        8
302
GRIDFORMAT
  1
GRIDFORMAT_BEGIN
 90
        0
 91
        1
 62
     0
 92
       -2
340
0
 93
        0
 40
0.045
309
GRIDFORMAT_END
 95
       16
302
GRIDFORMAT
  1
GRIDFORMAT_BEGIN
 90
        0
 91
        1
 62
     0
 92
       -2
340
0
 93
        0
 40
0.045
309
GRIDFORMAT_END
 95
       32
302
GRIDFORMAT
  1
GRIDFORMAT_BEGIN
 90
        0
 91
        1
 62
     0
 92
       -2
340
0
 93
        0
 40
0.045
309
GRIDFORMAT_END
309
TABLEFORMAT_END
  1
CELLSTYLE_BEGIN
 90
        3
 91
        2
300
_DATA
309
CELLSTYLE_END
  0
XRECORD
  5
308A
102
{ACAD_REACTORS
330
104
102
}
330
104
100
AcDbXrecord
280
     1
102
ACAD_ROUNDTRIP_PRE2007_TABLESTYLE
 90
      512
 91
        0
  1

 92
      512
 93
        0
  2

 94
      512
 95
        0
  3

  0
ENDSEC
  0
EOF
