  0
SECTION
  2
HEADER
  9
$ACADVER
  1
AC1015
  9
$ACADMAINTVER
 70
    20
  9
$DWGCODEPAGE
  3
ANSI_1252
  9
$INSBASE
 10
0.0
 20
0.0
 30
0.0
  9
$EXTMIN
 10
369.3459154814395
 20
40.11946884846004
 30
-5.000346429999998
  9
$EXTMAX
 10
1038.968530325162
 20
598.7253300548733
 30
0.0000000000000238
  9
$LIMMIN
 10
0.0
 20
0.0
  9
$LIMMAX
 10
12.0
 20
9.0
  9
$ORTHOMODE
 70
     1
  9
$REGENMODE
 70
     1
  9
$FILLMODE
 70
     0
  9
$QTEXTMODE
 70
     0
  9
$MIRRTEXT
 70
     0
  9
$LTSCALE
 40
1.0
  9
$ATTMODE
 70
     1
  9
$TEXTSIZE
 40
0.2
  9
$TRACEWID
 40
0.05
  9
$TEXTSTYLE
  7
Standard
  9
$CLAYER
  8
0
  9
$CELTYPE
  6
Continuous
  9
$CECOLOR
 62
   256
  9
$CELTSCALE
 40
1.0
  9
$DISPSILH
 70
     0
  9
$DIMSCALE
 40
1.0
  9
$DIMASZ
 40
0.18
  9
$DIMEXO
 40
0.0625
  9
$DIMDLI
 40
0.38
  9
$DIMRND
 40
0.0
  9
$DIMDLE
 40
0.0
  9
$DIMEXE
 40
0.18
  9
$DIMTP
 40
0.0
  9
$DIMTM
 40
0.0
  9
$DIMTXT
 40
0.18
  9
$DIMCEN
 40
0.09
  9
$DIMTSZ
 40
0.0
  9
$DIMTOL
 70
     0
  9
$DIMLIM
 70
     0
  9
$DIMTIH
 70
     1
  9
$DIMTOH
 70
     1
  9
$DIMSE1
 70
     0
  9
$DIMSE2
 70
     0
  9
$DIMTAD
 70
     0
  9
$DIMZIN
 70
     0
  9
$DIMBLK
  1

  9
$DIMASO
 70
     1
  9
$DIMSHO
 70
     1
  9
$DIMPOST
  1

  9
$DIMAPOST
  1

  9
$DIMALT
 70
     0
  9
$DIMALTD
 70
     2
  9
$DIMALTF
 40
25.4
  9
$DIMLFAC
 40
1.0
  9
$DIMTOFL
 70
     0
  9
$DIMTVP
 40
0.0
  9
$DIMTIX
 70
     0
  9
$DIMSOXD
 70
     0
  9
$DIMSAH
 70
     0
  9
$DIMBLK1
  1

  9
$DIMBLK2
  1

  9
$DIMSTYLE
  2
Standard
  9
$DIMCLRD
 70
     0
  9
$DIMCLRE
 70
     0
  9
$DIMCLRT
 70
     0
  9
$DIMTFAC
 40
1.0
  9
$DIMGAP
 40
0.09
  9
$DIMJUST
 70
     0
  9
$DIMSD1
 70
     0
  9
$DIMSD2
 70
     0
  9
$DIMTOLJ
 70
     1
  9
$DIMTZIN
 70
     0
  9
$DIMALTZ
 70
     0
  9
$DIMALTTZ
 70
     0
  9
$DIMUPT
 70
     0
  9
$DIMDEC
 70
     4
  9
$DIMTDEC
 70
     4
  9
$DIMALTU
 70
     2
  9
$DIMALTTD
 70
     2
  9
$DIMTXSTY
  7
Standard
  9
$DIMAUNIT
 70
     0
  9
$DIMADEC
 70
     0
  9
$DIMALTRND
 40
0.0
  9
$DIMAZIN
 70
     0
  9
$DIMDSEP
 70
    46
  9
$DIMATFIT
 70
     3
  9
$DIMFRAC
 70
     0
  9
$DIMLDRBLK
  1

  9
$DIMLUNIT
 70
     2
  9
$DIMLWD
 70
    -2
  9
$DIMLWE
 70
    -2
  9
$DIMTMOVE
 70
     0
  9
$LUNITS
 70
     2
  9
$LUPREC
 70
     4
  9
$SKETCHINC
 40
0.1
  9
$FILLETRAD
 40
0.0
  9
$AUNITS
 70
     0
  9
$AUPREC
 70
     0
  9
$MENU
  1
.
  9
$ELEVATION
 40
0.0
  9
$PELEVATION
 40
0.0
  9
$THICKNESS
 40
0.0
  9
$LIMCHECK
 70
     0
  9
$CHAMFERA
 40
0.0
  9
$CHAMFERB
 40
0.0
  9
$CHAMFERC
 40
0.0
  9
$CHAMFERD
 40
0.0
  9
$SKPOLY
 70
     0
  9
$TDCREATE
 40
2457183.632612037
  9
$TDUCREATE
 40
2457183.549278703
  9
$TDUPDATE
 40
2457183.685146886
  9
$TDUUPDATE
 40
2457183.601813553
  9
$TDINDWG
 40
0.0185613773
  9
$TDUSRTIMER
 40
0.0185612500
  9
$USRTIMER
 70
     1
  9
$ANGBASE
 50
0.0
  9
$ANGDIR
 70
     0
  9
$PDMODE
 70
     0
  9
$PDSIZE
 40
0.0
  9
$PLINEWID
 40
0.0
  9
$SPLFRAME
 70
     1
  9
$SPLINETYPE
 70
     6
  9
$SPLINESEGS
 70
     8
  9
$HANDSEED
  5
1213
  9
$SURFTAB1
 70
     6
  9
$SURFTAB2
 70
     6
  9
$SURFTYPE
 70
     6
  9
$SURFU
 70
     6
  9
$SURFV
 70
     6
  9
$UCSBASE
  2

  9
$UCSNAME
  2

  9
$UCSORG
 10
0.0
 20
0.0
 30
0.0
  9
$UCSXDIR
 10
1.0
 20
0.0
 30
0.0
  9
$UCSYDIR
 10
0.0
 20
1.0
 30
0.0
  9
$UCSORTHOREF
  2

  9
$UCSORTHOVIEW
 70
     0
  9
$UCSORGTOP
 10
0.0
 20
0.0
 30
0.0
  9
$UCSORGBOTTOM
 10
0.0
 20
0.0
 30
0.0
  9
$UCSORGLEFT
 10
0.0
 20
0.0
 30
0.0
  9
$UCSORGRIGHT
 10
0.0
 20
0.0
 30
0.0
  9
$UCSORGFRONT
 10
0.0
 20
0.0
 30
0.0
  9
$UCSORGBACK
 10
0.0
 20
0.0
 30
0.0
  9
$PUCSBASE
  2

  9
$PUCSNAME
  2

  9
$PUCSORG
 10
0.0
 20
0.0
 30
0.0
  9
$PUCSXDIR
 10
1.0
 20
0.0
 30
0.0
  9
$PUCSYDIR
 10
0.0
 20
1.0
 30
0.0
  9
$PUCSORTHOREF
  2

  9
$PUCSORTHOVIEW
 70
     0
  9
$PUCSORGTOP
 10
0.0
 20
0.0
 30
0.0
  9
$PUCSORGBOTTOM
 10
0.0
 20
0.0
 30
0.0
  9
$PUCSORGLEFT
 10
0.0
 20
0.0
 30
0.0
  9
$PUCSORGRIGHT
 10
0.0
 20
0.0
 30
0.0
  9
$PUCSORGFRONT
 10
0.0
 20
0.0
 30
0.0
  9
$PUCSORGBACK
 10
0.0
 20
0.0
 30
0.0
  9
$USERI1
 70
     0
  9
$USERI2
 70
     0
  9
$USERI3
 70
     0
  9
$USERI4
 70
     0
  9
$USERI5
 70
     0
  9
$USERR1
 40
0.0
  9
$USERR2
 40
0.0
  9
$USERR3
 40
0.0
  9
$USERR4
 40
0.0
  9
$USERR5
 40
0.0
  9
$WORLDVIEW
 70
     1
  9
$SHADEDGE
 70
     3
  9
$SHADEDIF
 70
    70
  9
$TILEMODE
 70
     1
  9
$MAXACTVP
 70
    64
  9
$PINSBASE
 10
0.0
 20
0.0
 30
0.0
  9
$PLIMCHECK
 70
     0
  9
$PEXTMIN
 10
1.000000000000000E+20
 20
1.000000000000000E+20
 30
1.000000000000000E+20
  9
$PEXTMAX
 10
-1.000000000000000E+20
 20
-1.000000000000000E+20
 30
-1.000000000000000E+20
  9
$PLIMMIN
 10
0.0
 20
0.0
  9
$PLIMMAX
 10
12.0
 20
9.0
  9
$UNITMODE
 70
     0
  9
$VISRETAIN
 70
     1
  9
$PLINEGEN
 70
     0
  9
$PSLTSCALE
 70
     1
  9
$TREEDEPTH
 70
  3020
  9
$CMLSTYLE
  2
Standard
  9
$CMLJUST
 70
     0
  9
$CMLSCALE
 40
1.0
  9
$PROXYGRAPHICS
 70
     1
  9
$MEASUREMENT
 70
     0
  9
$CELWEIGHT
370
    -1
  9
$ENDCAPS
280
     0
  9
$JOINSTYLE
280
     0
  9
$LWDISPLAY
290
     0
  9
$INSUNITS
 70
     0
  9
$HYPERLINKBASE
  1

  9
$STYLESHEET
  1

  9
$XEDIT
290
     1
  9
$CEPSNTYPE
380
     0
  9
$PSTYLEMODE
290
     1
  9
$FINGERPRINTGUID
  2
{8EF879B2-2EF9-4F15-9B80-92433E75E471}
  9
$VERSIONGUID
  2
{A8A7CCFD-7817-421D-8B06-EBB07B05EE83}
  9
$EXTNAMES
290
     1
  9
$PSVPSCALE
 40
0.0
  9
$OLESTARTUP
290
     0
  0
ENDSEC
  0
SECTION
  2
CLASSES
  0
CLASS
  1
ACDBDICTIONARYWDFLT
  2
AcDbDictionaryWithDefault
  3
ObjectDBX Classes
 90
        0
280
     0
281
     0
  0
CLASS
  1
MATERIAL
  2
AcDbMaterial
  3
ObjectDBX Classes
 90
     1153
280
     0
281
     0
  0
CLASS
  1
VISUALSTYLE
  2
AcDbVisualStyle
  3
ObjectDBX Classes
 90
     4095
280
     0
281
     0
  0
CLASS
  1
SCALE
  2
AcDbScale
  3
ObjectDBX Classes
 90
     1153
280
     0
281
     0
  0
CLASS
  1
TABLESTYLE
  2
AcDbTableStyle
  3
ObjectDBX Classes
 90
     4095
280
     0
281
     0
  0
CLASS
  1
MLEADERSTYLE
  2
AcDbMLeaderStyle
  3
ACDB_MLEADERSTYLE_CLASS
 90
     4095
280
     0
281
     0
  0
CLASS
  1
ACDBSECTIONVIEWSTYLE
  2
AcDbSectionViewStyle
  3
ObjectDBX Classes
 90
     1025
280
     0
281
     0
  0
CLASS
  1
ACDBDETAILVIEWSTYLE
  2
AcDbDetailViewStyle
  3
ObjectDBX Classes
 90
     1025
280
     0
281
     0
  0
CLASS
  1
SORTENTSTABLE
  2
AcDbSortentsTable
  3
ObjectDBX Classes
 90
        0
280
     0
281
     0
  0
CLASS
  1
DICTIONARYVAR
  2
AcDbDictionaryVar
  3
ObjectDBX Classes
 90
        0
280
     0
281
     0
  0
CLASS
  1
CELLSTYLEMAP
  2
AcDbCellStyleMap
  3
ObjectDBX Classes
 90
     1152
280
     0
281
     0
  0
CLASS
  1
ACDBPLACEHOLDER
  2
AcDbPlaceHolder
  3
ObjectDBX Classes
 90
        0
280
     0
281
     0
  0
CLASS
  1
LAYOUT
  2
AcDbLayout
  3
ObjectDBX Classes
 90
        0
280
     0
281
     0
  0
ENDSEC
  0
SECTION
  2
TABLES
  0
TABLE
  2
VPORT
  5
8
330
0
100
AcDbSymbolTable
 70
     1
  0
VPORT
  5
74
330
8
100
AcDbSymbolTableRecord
100
AcDbViewportTableRecord
  2
*Active
 70
     0
 10
0.0
 20
0.0
 11
1.0
 21
1.0
 12
1150.601677301491
 22
357.6434866914118
 13
0.0
 23
0.0
 14
1.0
 24
1.0
 15
0.0
 25
0.0
 16
0.0
 26
0.0
 36
1.0
 17
0.0
 27
0.0
 37
0.0
 40
1029.317600288886
 41
2.138297872340425
 42
50.0
 43
0.0
 44
0.0
 50
0.0
 51
0.0
 71
     0
 72
   100
 73
     1
 74
     1
 75
     0
 76
     0
 77
     0
 78
     0
281
     0
 65
     1
110
0.0
120
0.0
130
0.0
111
1.0
121
0.0
131
0.0
112
0.0
122
1.0
132
0.0
 79
     0
146
0.0
1001
ACAD_NAV_VCDISPLAY
1070
     3
  0
ENDTAB
  0
TABLE
  2
LTYPE
  5
5
330
0
100
AcDbSymbolTable
 70
     1
  0
LTYPE
  5
5A
330
5
100
AcDbSymbolTableRecord
100
AcDbLinetypeTableRecord
  2
ByBlock
 70
     0
  3

 72
    65
 73
     0
 40
0.0
  0
LTYPE
  5
5B
330
5
100
AcDbSymbolTableRecord
100
AcDbLinetypeTableRecord
  2
ByLayer
 70
     0
  3

 72
    65
 73
     0
 40
0.0
  0
LTYPE
  5
5C
330
5
100
AcDbSymbolTableRecord
100
AcDbLinetypeTableRecord
  2
Continuous
 70
     0
  3
Solid line
 72
    65
 73
     0
 40
0.0
  0
ENDTAB
  0
TABLE
  2
LAYER
  5
2
102
{ACAD_XDICTIONARY
360
C9D
102
}
330
0
100
AcDbSymbolTable
 70
     2
  0
LAYER
  5
54
102
{ACAD_XDICTIONARY
360
E75
102
}
330
2
100
AcDbSymbolTableRecord
100
AcDbLayerTableRecord
  2
0
 70
     0
 62
     7
  6
Continuous
370
    -3
390
F
  0
LAYER
  5
C81
330
2
100
AcDbSymbolTableRecord
100
AcDbLayerTableRecord
  2
Defpoints
 70
     0
 62
     7
  6
Continuous
290
     0
370
    -3
390
F
  0
ENDTAB
  0
TABLE
  2
STYLE
  5
3
330
0
100
AcDbSymbolTable
 70
     2
  0
STYLE
  5
55
330
3
100
AcDbSymbolTableRecord
100
AcDbTextStyleTableRecord
  2
Standard
 70
     0
 40
0.0
 41
1.0
 50
0.0
 71
     0
 42
0.2
  3
txt
  4

  0
STYLE
  5
59
330
3
100
AcDbSymbolTableRecord
100
AcDbTextStyleTableRecord
  2
Annotative
 70
     0
 40
0.0
 41
1.0
 50
0.0
 71
     0
 42
0.2
  3
txt
  4

1001
AcadAnnotative
1000
AnnotativeData
1002
{
1070
     1
1070
     1
1002
}
  0
ENDTAB
  0
TABLE
  2
VIEW
  5
6
330
0
100
AcDbSymbolTable
 70
     0
  0
ENDTAB
  0
TABLE
  2
UCS
  5
7
330
0
100
AcDbSymbolTable
 70
     0
  0
ENDTAB
  0
TABLE
  2
APPID
  5
9
330
0
100
AcDbSymbolTable
 70
    14
  0
APPID
  5
56
330
9
100
AcDbSymbolTableRecord
100
AcDbRegAppTableRecord
  2
ACAD
 70
     0
  0
APPID
  5
5D
330
9
100
AcDbSymbolTableRecord
100
AcDbRegAppTableRecord
  2
AcadAnnotative
 70
     0
  0
APPID
  5
C9A
330
9
100
AcDbSymbolTableRecord
100
AcDbRegAppTableRecord
  2
ACAD_DSTYLE_DIMJAG
 70
     0
  0
APPID
  5
C9B
330
9
100
AcDbSymbolTableRecord
100
AcDbRegAppTableRecord
  2
ACAD_DSTYLE_DIMTALN
 70
     0
  0
APPID
  5
C9C
330
9
100
AcDbSymbolTableRecord
100
AcDbRegAppTableRecord
  2
ACAD_NAV_VCDISPLAY
 70
     0
  0
APPID
  5
D6C
330
9
100
AcDbSymbolTableRecord
100
AcDbRegAppTableRecord
  2
ACAD_PSEXT
 70
     0
  0
APPID
  5
E18
330
9
100
AcDbSymbolTableRecord
100
AcDbRegAppTableRecord
  2
ACAD_EXEMPT_FROM_CAD_STANDARDS
 70
     0
  0
APPID
  5
EB9
330
9
100
AcDbSymbolTableRecord
100
AcDbRegAppTableRecord
  2
ACAD_MLEADERVER
 70
     0
  0
APPID
  5
F3E
330
9
100
AcDbSymbolTableRecord
100
AcDbRegAppTableRecord
  2
VDEXTRAPARAM
 70
     0
  0
APPID
  5
F3F
330
9
100
AcDbSymbolTableRecord
100
AcDbRegAppTableRecord
  2
VD_EX_PRINTER_DWG_STYLE_SHEET
 70
     0
  0
APPID
  5
F40
330
9
100
AcDbSymbolTableRecord
100
AcDbRegAppTableRecord
  2
VD_EX_PRINTER_SIZEX
 70
     0
  0
APPID
  5
F41
330
9
100
AcDbSymbolTableRecord
100
AcDbRegAppTableRecord
  2
VD_EX_PRINTER_AVSIZEX
 70
     0
  0
APPID
  5
F42
330
9
100
AcDbSymbolTableRecord
100
AcDbRegAppTableRecord
  2
VD_EX_PRINTER_SIZEY
 70
     0
  0
APPID
  5
F43
330
9
100
AcDbSymbolTableRecord
100
AcDbRegAppTableRecord
  2
VD_EX_PRINTER_AVSIZEY
 70
     0
  0
ENDTAB
  0
TABLE
  2
DIMSTYLE
  5
A
330
0
100
AcDbSymbolTable
 70
     4
100
AcDbDimStyleTable
 71
     1
340
57
  0
DIMSTYLE
105
57
102
{ACAD_REACTORS
330
D77
330
D78
330
DF6
330
E2A
102
}
330
A
100
AcDbSymbolTableRecord
100
AcDbDimStyleTableRecord
  2
Standard
 70
     0
340
55
  0
DIMSTYLE
105
58
330
A
100
AcDbSymbolTableRecord
100
AcDbDimStyleTableRecord
  2
Annotative
 70
     0
340
55
1001
AcadAnnotative
1000
AnnotativeData
1002
{
1070
     1
1070
     1
1002
}
  0
DIMSTYLE
105
C99
330
A
100
AcDbSymbolTableRecord
100
AcDbDimStyleTableRecord
  2
Annotativa
 70
     0
 40
0.0
340
55
1001
AcadAnnotative
1000
AnnotativeData
1002
{
1070
     1
1070
     1
1002
}
1001
ACAD_DSTYLE_DIMJAG
1070
   388
1040
1.5
1001
ACAD_DSTYLE_DIMTALN
1070
   392
1070
     0
  0
DIMSTYLE
105
D6B
330
A
100
AcDbSymbolTableRecord
100
AcDbDimStyleTableRecord
  2
ISO-25
 70
     0
 41
2.5
 42
0.625
 43
3.75
 44
1.25
 73
     0
 74
     0
 77
     1
 78
     8
140
2.5
141
2.5
143
0.03937007874016
147
0.625
171
     3
172
     1
271
     2
272
     2
274
     3
278
    44
283
     0
284
     8
340
55
  0
ENDTAB
  0
TABLE
  2
BLOCK_RECORD
  5
1
330
0
100
AcDbSymbolTable
 70
    12
  0
BLOCK_RECORD
  5
6F
102
{ACAD_XDICTIONARY
360
9DC
102
}
330
1
100
AcDbSymbolTableRecord
100
AcDbBlockTableRecord
  2
*Model_Space
340
72
  0
BLOCK_RECORD
  5
6B
330
1
100
AcDbSymbolTableRecord
100
AcDbBlockTableRecord
  2
*Paper_Space
340
6E
  0
BLOCK_RECORD
  5
C82
330
1
100
AcDbSymbolTableRecord
100
AcDbBlockTableRecord
  2
*D0
340
0
  0
BLOCK_RECORD
  5
D44
330
1
100
AcDbSymbolTableRecord
100
AcDbBlockTableRecord
  2
*D1
340
0
  0
BLOCK_RECORD
  5
D51
330
1
100
AcDbSymbolTableRecord
100
AcDbBlockTableRecord
  2
*D2
340
0
  0
BLOCK_RECORD
  5
D5E
330
1
100
AcDbSymbolTableRecord
100
AcDbBlockTableRecord
  2
*D3
340
0
  0
BLOCK_RECORD
  5
D79
330
1
100
AcDbSymbolTableRecord
100
AcDbBlockTableRecord
  2
*D4
340
0
  0
BLOCK_RECORD
  5
D86
330
1
100
AcDbSymbolTableRecord
100
AcDbBlockTableRecord
  2
*D5
340
0
  0
BLOCK_RECORD
  5
DF7
330
1
100
AcDbSymbolTableRecord
100
AcDbBlockTableRecord
  2
*D6
340
0
  0
BLOCK_RECORD
  5
E2B
330
1
100
AcDbSymbolTableRecord
100
AcDbBlockTableRecord
  2
*D7
340
0
  0
BLOCK_RECORD
  5
F2B
330
1
100
AcDbSymbolTableRecord
100
AcDbBlockTableRecord
  2
VDDIM_DEFAULT
340
0
  0
BLOCK_RECORD
  5
F2F
330
1
100
AcDbSymbolTableRecord
100
AcDbBlockTableRecord
  2
IBvert63
340
0
  0
BLOCK_RECORD
  5
108B
330
1
100
AcDbSymbolTableRecord
100
AcDbBlockTableRecord
  2
*D10
340
0
  0
ENDTAB
  0
ENDSEC
  0
SECTION
  2
BLOCKS
  0
BLOCK
  5
70
330
6F
100
AcDbEntity
  8
0
100
AcDbBlockBegin
  2
*Model_Space
 70
     0
 10
0.0
 20
0.0
 30
0.0
  3
*Model_Space
  1

  0
ENDBLK
  5
71
330
6F
100
AcDbEntity
  8
0
100
AcDbBlockEnd
  0
BLOCK
  5
6C
330
6B
100
AcDbEntity
 67
     1
  8
0
100
AcDbBlockBegin
  2
*Paper_Space
 70
     0
 10
0.0
 20
0.0
 30
0.0
  3
*Paper_Space
  1

  0
ENDBLK
  5
6D
330
6B
100
AcDbEntity
 67
     1
  8
0
100
AcDbBlockEnd
  0
BLOCK
  5
C83
330
C82
100
AcDbEntity
  8
0
100
AcDbBlockBegin
  2
*D0
 70
     1
 10
0.0
 20
0.0
 30
0.0
  3
*D0
  1

  0
LINE
  5
C8F
330
C82
100
AcDbEntity
  8
0
  6
Continuous
 62
     0
370
    -2
100
AcDbLine
 10
215.191517466444
 20
606.2950714487117
 30
0.0
 11
215.191517466444
 21
740.1204532226508
 31
0.0
  0
LINE
  5
C90
330
C82
100
AcDbEntity
  8
0
  6
Continuous
 62
     0
370
    -2
100
AcDbLine
 10
325.18271519489
 20
606.2950714487117
 30
0.0
 11
325.18271519489
 21
740.1204532226508
 31
0.0
  0
LINE
  5
C91
330
C82
100
AcDbEntity
  8
0
  6
Continuous
 62
     0
370
    -2
100
AcDbLine
 10
215.3715174664439
 20
739.9404532226506
 30
0.0
 11
269.542116330667
 21
739.9404532226506
 31
0.0
  0
LINE
  5
C92
330
C82
100
AcDbEntity
  8
0
  6
Continuous
 62
     0
370
    -2
100
AcDbLine
 10
325.0027151948899
 20
739.9404532226506
 30
0.0
 11
270.832116330667
 21
739.9404532226506
 31
0.0
  0
SOLID
  5
C93
330
C82
100
AcDbEntity
  8
0
  6
Continuous
 62
     0
100
AcDbTrace
 10
215.3715174664439
 20
739.9704532226506
 30
0.0
 11
215.3715174664439
 21
739.9104532226506
 31
0.0
 12
215.191517466444
 22
739.9404532226506
 32
0.0
 13
215.191517466444
 23
739.9404532226506
 33
0.0
  0
SOLID
  5
C94
330
C82
100
AcDbEntity
  8
0
  6
Continuous
 62
     0
100
AcDbTrace
 10
325.0027151948899
 20
739.9704532226506
 30
0.0
 11
325.0027151948899
 21
739.9104532226506
 31
0.0
 12
325.18271519489
 22
739.9404532226506
 32
0.0
 13
325.18271519489
 23
739.9404532226506
 33
0.0
  0
MTEXT
  5
C95
330
C82
100
AcDbEntity
  8
0
  6
Continuous
 62
     0
100
AcDbMText
 10
270.187116330667
 20
739.9404532226506
 30
0.0
 40
0.18
 41
0.0
 71
     5
 72
     1
  1
\A1;109.9912
 73
     1
 44
1.0
1001
ACAD
1000
MTEXTBEGIN
1070
    73
1070
     1
1070
    44
1040
1.0
1070
    74
1070
     0
1000
MTEXTEND
  0
POINT
  5
C96
330
C82
100
AcDbEntity
  8
Defpoints
  6
Continuous
 62
     0
100
AcDbPoint
 10
215.191517466444
 20
606.2325714487116
 30
0.0
  0
POINT
  5
C97
330
C82
100
AcDbEntity
  8
Defpoints
  6
Continuous
 62
     0
100
AcDbPoint
 10
325.18271519489
 20
606.2325714487116
 30
0.0
  0
POINT
  5
C98
330
C82
100
AcDbEntity
  8
Defpoints
  6
Continuous
 62
     0
100
AcDbPoint
 10
325.18271519489
 20
739.9404532226506
 30
0.0
  0
ENDBLK
  5
C84
330
C82
100
AcDbEntity
  8
0
100
AcDbBlockEnd
  0
BLOCK
  5
D45
330
D44
100
AcDbEntity
  8
0
100
AcDbBlockBegin
  2
*D1
 70
     1
 10
0.0
 20
0.0
 30
0.0
  3
*D1
  1

  0
LINE
  5
D47
330
D44
100
AcDbEntity
  8
0
  6
Continuous
 62
     0
370
    -2
100
AcDbLine
 10
215.191517466444
 20
472.9683600244166
 30
0.0
 11
215.191517466444
 21
612.2088938861609
 31
0.0
  0
LINE
  5
D48
330
D44
100
AcDbEntity
  8
0
  6
Continuous
 62
     0
370
    -2
100
AcDbLine
 10
325.18271519489
 20
472.9683600244166
 30
0.0
 11
325.18271519489
 21
612.2088938861609
 31
0.0
  0
LINE
  5
D49
330
D44
100
AcDbEntity
  8
0
  6
Continuous
 62
     0
370
    -2
100
AcDbLine
 10
215.3715174664439
 20
612.0288938861607
 30
0.0
 11
269.542116330667
 21
612.0288938861607
 31
0.0
  0
LINE
  5
D4A
330
D44
100
AcDbEntity
  8
0
  6
Continuous
 62
     0
370
    -2
100
AcDbLine
 10
325.0027151948899
 20
612.0288938861607
 30
0.0
 11
270.832116330667
 21
612.0288938861607
 31
0.0
  0
SOLID
  5
D4B
330
D44
100
AcDbEntity
  8
0
  6
Continuous
 62
     0
100
AcDbTrace
 10
215.3715174664439
 20
612.0588938861607
 30
0.0
 11
215.3715174664439
 21
611.9988938861609
 31
0.0
 12
215.191517466444
 22
612.0288938861607
 32
0.0
 13
215.191517466444
 23
612.0288938861607
 33
0.0
  0
SOLID
  5
D4C
330
D44
100
AcDbEntity
  8
0
  6
Continuous
 62
     0
100
AcDbTrace
 10
325.0027151948899
 20
612.0588938861607
 30
0.0
 11
325.0027151948899
 21
611.9988938861609
 31
0.0
 12
325.18271519489
 22
612.0288938861607
 32
0.0
 13
325.18271519489
 23
612.0288938861607
 33
0.0
  0
MTEXT
  5
D4D
330
D44
100
AcDbEntity
  8
0
  6
Continuous
 62
     0
100
AcDbMText
 10
270.187116330667
 20
612.0288938861607
 30
0.0
 40
0.18
 41
0.0
 71
     5
 72
     1
  1
\A1;109.9912
 73
     1
 44
1.0
1001
ACAD
1000
MTEXTBEGIN
1070
    73
1070
     1
1070
    44
1040
1.0
1070
    74
1070
     0
1000
MTEXTEND
  0
POINT
  5
D4E
330
D44
100
AcDbEntity
  8
Defpoints
  6
Continuous
 62
     0
100
AcDbPoint
 10
215.191517466444
 20
472.9058600244163
 30
0.0
  0
POINT
  5
D4F
330
D44
100
AcDbEntity
  8
Defpoints
  6
Continuous
 62
     0
100
AcDbPoint
 10
325.18271519489
 20
472.9058600244163
 30
0.0
  0
POINT
  5
D50
330
D44
100
AcDbEntity
  8
Defpoints
  6
Continuous
 62
     0
100
AcDbPoint
 10
325.18271519489
 20
612.0288938861607
 30
0.0
  0
ENDBLK
  5
D46
330
D44
100
AcDbEntity
  8
0
100
AcDbBlockEnd
  0
BLOCK
  5
D52
330
D51
100
AcDbEntity
  8
0
100
AcDbBlockBegin
  2
*D2
 70
     1
 10
0.0
 20
0.0
 30
0.0
  3
*D2
  1

  0
LINE
  5
D53
330
D51
100
AcDbEntity
  8
0
 62
     0
370
    -2
100
AcDbLine
 10
185.9992555075953
 20
0.0000009969947152
 30
0.0
 11
303.3232471913704
 21
0.000000996994682
 31
0.0
  0
LINE
  5
D54
330
D51
100
AcDbEntity
  8
0
 62
     0
370
    -2
100
AcDbLine
 10
185.9992555075953
 20
220.0000009969947
 30
0.0
 11
303.3232471913704
 21
220.0000009969947
 31
0.0
  0
LINE
  5
D55
330
D51
100
AcDbEntity
  8
0
 62
     0
370
    -2
100
AcDbLine
 10
303.1432471913704
 20
6.000000996994681
 30
0.0
 11
303.1432471913704
 21
110.8252340644099
 31
0.0
  0
LINE
  5
D56
330
D51
100
AcDbEntity
  8
0
 62
     0
370
    -2
100
AcDbLine
 10
303.1432471913705
 20
214.0000009969947
 30
0.0
 11
303.1432471913704
 21
118.1532558925136
 31
0.0
  0
SOLID
  5
D57
330
D51
100
AcDbEntity
  8
0
 62
     0
100
AcDbTrace
 10
302.1432471913704
 20
6.000000996994681
 30
0.0
 11
304.1432471913704
 21
6.000000996994681
 31
0.0
 12
303.1432471913704
 22
0.000000996994682
 32
0.0
 13
303.1432471913704
 23
0.000000996994682
 33
0.0
  0
SOLID
  5
D58
330
D51
100
AcDbEntity
  8
0
 62
     0
100
AcDbTrace
 10
302.1432471913704
 20
214.0000009969947
 30
0.0
 11
304.1432471913704
 21
214.0000009969947
 31
0.0
 12
303.1432471913705
 22
220.0000009969947
 32
0.0
 13
303.1432471913705
 23
220.0000009969947
 33
0.0
  0
MTEXT
  5
D59
330
D51
100
AcDbEntity
  8
0
 62
     0
100
AcDbMText
 10
303.1432471913704
 20
114.4892449784618
 30
0.0
 40
7.0
 41
0.0
 71
     5
 72
     1
  1
\A1;220.0
 73
     1
 44
1.0
1001
ACAD
1000
MTEXTBEGIN
1070
    73
1070
     1
1070
    44
1040
1.0
1070
    74
1070
     0
1000
MTEXTEND
  0
POINT
  5
D5A
330
D51
100
AcDbEntity
  8
Defpoints
 62
     0
100
AcDbPoint
 10
185.9367555075953
 20
0.0000009969947152
 30
0.0
  0
POINT
  5
D5B
330
D51
100
AcDbEntity
  8
Defpoints
 62
     0
100
AcDbPoint
 10
185.9367555075953
 20
220.0000009969947
 30
0.0
  0
POINT
  5
D5C
330
D51
100
AcDbEntity
  8
Defpoints
 62
     0
100
AcDbPoint
 10
303.1432471913705
 20
220.0000009969947
 30
0.0
  0
ENDBLK
  5
D5D
330
D51
100
AcDbEntity
  8
0
100
AcDbBlockEnd
  0
BLOCK
  5
D5F
330
D5E
100
AcDbEntity
  8
0
100
AcDbBlockBegin
  2
*D3
 70
     1
 10
0.0
 20
0.0
 30
0.0
  3
*D3
  1

  0
LINE
  5
D60
330
D5E
100
AcDbEntity
  8
0
 62
     0
370
    -2
100
AcDbLine
 10
159.9367555075952
 20
9.477895935434901
 30
0.0
 11
159.9367555075952
 21
-30.04944330897691
 31
0.0
  0
LINE
  5
D61
330
D5E
100
AcDbEntity
  8
0
 62
     0
370
    -2
100
AcDbLine
 10
260.9367555075953
 20
10.51467172870184
 30
0.0
 11
260.9367555075953
 21
-30.04944330897691
 31
0.0
  0
LINE
  5
D62
330
D5E
100
AcDbEntity
  8
0
 62
     0
370
    -2
100
AcDbLine
 10
165.9367555075952
 20
-29.86944330897691
 30
0.0
 11
197.1291460529662
 21
-29.86944330897691
 31
0.0
  0
LINE
  5
D63
330
D5E
100
AcDbEntity
  8
0
 62
     0
370
    -2
100
AcDbLine
 10
254.9367555075953
 20
-29.86944330897691
 30
0.0
 11
220.2477545113564
 21
-29.86944330897691
 31
0.0
  0
SOLID
  5
D64
330
D5E
100
AcDbEntity
  8
0
 62
     0
100
AcDbTrace
 10
165.9367555075952
 20
-28.86944330897691
 30
0.0
 11
165.9367555075952
 21
-30.86944330897691
 31
0.0
 12
159.9367555075952
 22
-29.86944330897691
 32
0.0
 13
159.9367555075952
 23
-29.86944330897691
 33
0.0
  0
SOLID
  5
D65
330
D5E
100
AcDbEntity
  8
0
 62
     0
100
AcDbTrace
 10
254.9367555075953
 20
-28.86944330897691
 30
0.0
 11
254.9367555075953
 21
-30.86944330897691
 31
0.0
 12
260.9367555075953
 22
-29.86944330897691
 32
0.0
 13
260.9367555075953
 23
-29.86944330897691
 33
0.0
  0
MTEXT
  5
D66
330
D5E
100
AcDbEntity
  8
0
 62
     0
100
AcDbMText
 10
208.6884502821614
 20
-29.86944330897691
 30
0.0
 40
7.0
 41
0.0
 71
     5
 72
     1
  1
\A1;101.0
 73
     1
 44
1.0
1001
ACAD
1000
MTEXTBEGIN
1070
    73
1070
     1
1070
    44
1040
1.0
1070
    74
1070
     0
1000
MTEXTEND
  0
POINT
  5
D67
330
D5E
100
AcDbEntity
  8
Defpoints
 62
     0
100
AcDbPoint
 10
159.9367555075952
 20
9.540395935434901
 30
0.0
  0
POINT
  5
D68
330
D5E
100
AcDbEntity
  8
Defpoints
 62
     0
100
AcDbPoint
 10
260.9367555075953
 20
10.57717172870184
 30
0.0
  0
POINT
  5
D69
330
D5E
100
AcDbEntity
  8
Defpoints
 62
     0
100
AcDbPoint
 10
260.9367555075953
 20
-29.86944330897691
 30
0.0
  0
ENDBLK
  5
D6A
330
D5E
100
AcDbEntity
  8
0
100
AcDbBlockEnd
  0
BLOCK
  5
D7A
330
D79
100
AcDbEntity
  8
0
100
AcDbBlockBegin
  2
*D4
 70
     1
 10
0.0
 20
0.0
 30
0.0
  3
*D4
  1

  0
LINE
  5
103E
330
D79
100
AcDbEntity
  8
0
 62
     0
370
    -2
100
AcDbLine
 10
676.2245734855412
 20
69.97523544850857
 30
0.0
 11
754.4988516220588
 21
69.97523544850857
 31
0.0
  0
LINE
  5
103F
330
D79
100
AcDbEntity
  8
0
 62
     0
370
    -2
100
AcDbLine
 10
675.9541645821209
 20
579.9754137506952
 30
0.0
 11
754.4988516220589
 21
579.9754137506952
 31
0.0
  0
LINE
  5
1040
330
D79
100
AcDbEntity
  8
0
 62
     0
370
    -2
100
AcDbLine
 10
754.3188516220586
 20
75.97523544850855
 30
0.0
 11
754.318851622059
 21
329.871718332436
 31
0.0
  0
LINE
  5
1041
330
D79
100
AcDbEntity
  8
0
 62
     0
370
    -2
100
AcDbLine
 10
754.318851622059
 20
573.9754137506952
 30
0.0
 11
754.318851622059
 21
337.0517183324359
 31
0.0
  0
SOLID
  5
1042
330
D79
100
AcDbEntity
  8
0
 62
     0
100
AcDbTrace
 10
753.3188516220587
 20
75.97523544850855
 30
0.0
 11
755.3188516220589
 21
75.97523544850855
 31
0.0
 12
754.3188516220586
 22
69.97523544850857
 32
0.0
 13
754.3188516220586
 23
69.97523544850857
 33
0.0
  0
SOLID
  5
1043
330
D79
100
AcDbEntity
  8
0
 62
     0
100
AcDbTrace
 10
753.318851622059
 20
573.9754137506952
 30
0.0
 11
755.318851622059
 21
573.9754137506952
 31
0.0
 12
754.318851622059
 22
579.9754137506952
 32
0.0
 13
754.318851622059
 23
579.9754137506952
 33
0.0
  0
MTEXT
  5
1044
330
D79
100
AcDbEntity
  8
0
 62
     0
100
AcDbMText
 10
754.3188516220586
 20
333.461718332436
 30
0.0
 40
7.0
 41
0.0
 71
     5
 72
     1
  1
\A1;510.0
 73
     1
 44
1.0
1001
ACAD
1000
MTEXTBEGIN
1070
    73
1070
     1
1070
    44
1040
1.0
1070
    74
1070
     0
1000
MTEXTEND
  0
POINT
  5
1045
330
D79
100
AcDbEntity
  8
Defpoints
 62
     0
100
AcDbPoint
 10
676.1620734855412
 20
69.97523544850857
 30
0.0
  0
POINT
  5
1046
330
D79
100
AcDbEntity
  8
Defpoints
 62
     0
100
AcDbPoint
 10
675.8916645821209
 20
579.9754137506952
 30
0.0
  0
POINT
  5
1047
330
D79
100
AcDbEntity
  8
Defpoints
 62
     0
100
AcDbPoint
 10
754.318851622059
 20
579.9754137506952
 30
0.0
  0
ENDBLK
  5
D7B
330
D79
100
AcDbEntity
  8
0
100
AcDbBlockEnd
  0
BLOCK
  5
D87
330
D86
100
AcDbEntity
  8
0
100
AcDbBlockBegin
  2
*D5
 70
     1
 10
0.0
 20
0.0
 30
0.0
  3
*D5
  1

  0
LINE
  5
105C
330
D86
100
AcDbEntity
  8
0
 62
     0
370
    -2
100
AcDbLine
 10
539.4563378727525
 20
83.16680784537915
 30
0.0
 11
539.4563378727525
 21
43.63946860096731
 31
0.0
  0
LINE
  5
105D
330
D86
100
AcDbEntity
  8
0
 62
     0
370
    -2
100
AcDbLine
 10
689.4563389790962
 20
83.10440262682158
 30
0.0
 11
689.4563389790962
 21
43.63946860096731
 31
0.0
  0
LINE
  5
105E
330
D86
100
AcDbEntity
  8
0
 62
     0
370
    -2
100
AcDbLine
 10
545.4563378727526
 20
43.81946860096731
 30
0.0
 11
599.804199009096
 21
43.81946860096731
 31
0.0
  0
LINE
  5
105F
330
D86
100
AcDbEntity
  8
0
 62
     0
370
    -2
100
AcDbLine
 10
683.4563389790964
 20
43.81946860096731
 30
0.0
 11
623.3175323424293
 21
43.81946860096731
 31
0.0
  0
SOLID
  5
1060
330
D86
100
AcDbEntity
  8
0
 62
     0
100
AcDbTrace
 10
545.4563378727526
 20
44.81946860096733
 30
0.0
 11
545.4563378727526
 21
42.81946860096732
 31
0.0
 12
539.4563378727525
 22
43.81946860096731
 32
0.0
 13
539.4563378727525
 23
43.81946860096731
 33
0.0
  0
SOLID
  5
1061
330
D86
100
AcDbEntity
  8
0
 62
     0
100
AcDbTrace
 10
683.4563389790964
 20
44.81946860096733
 30
0.0
 11
683.4563389790964
 21
42.81946860096732
 31
0.0
 12
689.4563389790962
 22
43.81946860096731
 32
0.0
 13
689.4563389790962
 23
43.81946860096731
 33
0.0
  0
MTEXT
  5
1062
330
D86
100
AcDbEntity
  8
0
 62
     0
100
AcDbMText
 10
611.5608656757626
 20
43.81946860096731
 30
0.0
 40
7.0
 41
0.0
 71
     5
 72
     1
  1
\A1;150.0
 73
     1
 44
1.0
1001
ACAD
1000
MTEXTBEGIN
1070
    73
1070
     1
1070
    44
1040
1.0
1070
    74
1070
     0
1000
MTEXTEND
  0
POINT
  5
1063
330
D86
100
AcDbEntity
  8
Defpoints
 62
     0
100
AcDbPoint
 10
539.4563378727525
 20
83.22930784537915
 30
0.0
  0
POINT
  5
1064
330
D86
100
AcDbEntity
  8
Defpoints
 62
     0
100
AcDbPoint
 10
689.4563389790962
 20
83.16690262682158
 30
0.0
  0
POINT
  5
1065
330
D86
100
AcDbEntity
  8
Defpoints
 62
     0
100
AcDbPoint
 10
689.4563389790962
 20
43.81946860096731
 30
0.0
  0
ENDBLK
  5
D88
330
D86
100
AcDbEntity
  8
0
100
AcDbBlockEnd
  0
BLOCK
  5
DF8
330
DF7
100
AcDbEntity
  8
0
100
AcDbBlockBegin
  2
*D6
 70
     1
 10
0.0
 20
0.0
 30
0.0
  3
*D6
  1

  0
LINE
  5
1076
330
DF7
100
AcDbEntity
  8
0
 62
     0
370
    -2
100
AcDbLine
 10
393.8459154814396
 20
69.79825936817511
 30
0.0000000000000119
 11
393.8459154814396
 21
43.43946884846004
 31
0.0000000000000119
  0
LINE
  5
1077
330
DF7
100
AcDbEntity
  8
0
 62
     0
370
    -2
100
AcDbLine
 10
479.3459154814396
 20
77.62347877963613
 30
0.0000000000000119
 11
479.3459154814396
 21
43.43946884846004
 31
0.0000000000000119
  0
LINE
  5
1078
330
DF7
100
AcDbEntity
  8
0
 62
     0
370
    -2
100
AcDbLine
 10
399.8459154814396
 20
43.61946884846005
 30
0.0000000000000119
 11
432.0076102560057
 21
43.61946884846005
 31
0.0000000000000119
  0
LINE
  5
1079
330
DF7
100
AcDbEntity
  8
0
 62
     0
370
    -2
100
AcDbLine
 10
473.3459154814395
 20
43.61946884846005
 30
0.0000000000000119
 11
453.1876102560056
 21
43.61946884846005
 31
0.0000000000000119
  0
SOLID
  5
107A
330
DF7
100
AcDbEntity
  8
0
 62
     0
100
AcDbTrace
 10
399.8459154814396
 20
44.61946884846003
 30
0.0000000000000119
 11
399.8459154814396
 21
42.61946884846003
 31
0.0000000000000119
 12
393.8459154814396
 22
43.61946884846005
 32
0.0000000000000119
 13
393.8459154814396
 23
43.61946884846005
 33
0.0000000000000119
  0
SOLID
  5
107B
330
DF7
100
AcDbEntity
  8
0
 62
     0
100
AcDbTrace
 10
473.3459154814395
 20
44.61946884846003
 30
0.0000000000000119
 11
473.3459154814395
 21
42.61946884846003
 31
0.0000000000000119
 12
479.3459154814396
 22
43.61946884846005
 32
0.0000000000000119
 13
479.3459154814396
 23
43.61946884846005
 33
0.0000000000000119
  0
MTEXT
  5
107C
330
DF7
100
AcDbEntity
  8
0
 62
     0
100
AcDbMText
 10
442.5976102560055
 20
43.61946884846005
 30
0.0000000000000119
 40
7.0
 41
0.0
 71
     5
 72
     1
  1
\A1;85.5
 73
     1
 44
1.0
1001
ACAD
1000
MTEXTBEGIN
1070
    73
1070
     1
1070
    44
1040
1.0
1070
    74
1070
     0
1000
MTEXTEND
  0
POINT
  5
107D
330
DF7
100
AcDbEntity
  8
Defpoints
 62
     0
100
AcDbPoint
 10
393.8459154814396
 20
69.86075936817511
 30
0.0
  0
POINT
  5
107E
330
DF7
100
AcDbEntity
  8
Defpoints
 62
     0
100
AcDbPoint
 10
479.3459154814396
 20
77.68597877963613
 30
0.0
  0
POINT
  5
107F
330
DF7
100
AcDbEntity
  8
Defpoints
 62
     0
100
AcDbPoint
 10
479.3459154814396
 20
43.61946884846005
 30
0.0000000000000119
  0
ENDBLK
  5
DF9
330
DF7
100
AcDbEntity
  8
0
100
AcDbBlockEnd
  0
BLOCK
  5
E2C
330
E2B
100
AcDbEntity
  8
0
100
AcDbBlockBegin
  2
*D7
 70
     1
 10
0.0
 20
0.0
 30
0.0
  3
*D7
  1

  0
LINE
  5
1080
330
E2B
100
AcDbEntity
  8
0
 62
     0
370
    -2
100
AcDbLine
 10
369.3459154814397
 20
578.2353202980377
 30
-0.0000000000000119
 11
369.3459154814397
 21
595.4053300548734
 31
-0.0000000000000119
  0
LINE
  5
1081
330
E2B
100
AcDbEntity
  8
0
 62
     0
370
    -2
100
AcDbLine
 10
479.3459154814396
 20
572.1929867926169
 30
-0.0000000000000119
 11
479.3459154814396
 21
595.4053300548734
 31
-0.0000000000000119
  0
LINE
  5
1082
330
E2B
100
AcDbEntity
  8
0
 62
     0
370
    -2
100
AcDbLine
 10
375.3459154814397
 20
595.2253300548733
 30
-0.0000000000000119
 11
414.2104618477518
 21
595.2253300548733
 31
-0.0000000000000119
  0
LINE
  5
1083
330
E2B
100
AcDbEntity
  8
0
 62
     0
370
    -2
100
AcDbLine
 10
473.3459154814395
 20
595.2253300548733
 30
-0.0000000000000119
 11
435.3904618477518
 21
595.2253300548733
 31
-0.0000000000000119
  0
SOLID
  5
1084
330
E2B
100
AcDbEntity
  8
0
 62
     0
100
AcDbTrace
 10
375.3459154814397
 20
596.2253300548733
 30
-0.0000000000000119
 11
375.3459154814397
 21
594.2253300548733
 31
-0.0000000000000119
 12
369.3459154814397
 22
595.2253300548733
 32
-0.0000000000000119
 13
369.3459154814397
 23
595.2253300548733
 33
-0.0000000000000119
  0
SOLID
  5
1085
330
E2B
100
AcDbEntity
  8
0
 62
     0
100
AcDbTrace
 10
473.3459154814395
 20
596.2253300548733
 30
-0.0000000000000119
 11
473.3459154814395
 21
594.2253300548733
 31
-0.0000000000000119
 12
479.3459154814396
 22
595.2253300548733
 32
-0.0000000000000119
 13
479.3459154814396
 23
595.2253300548733
 33
-0.0000000000000119
  0
MTEXT
  5
1086
330
E2B
100
AcDbEntity
  8
0
 62
     0
100
AcDbMText
 10
424.8004618477517
 20
595.2253300548733
 30
-0.0000000000000119
 40
7.0
 41
0.0
 71
     5
 72
     1
  1
\A1;110.0
 73
     1
 44
1.0
1001
ACAD
1000
MTEXTBEGIN
1070
    73
1070
     1
1070
    44
1040
1.0
1070
    74
1070
     0
1000
MTEXTEND
  0
POINT
  5
1087
330
E2B
100
AcDbEntity
  8
Defpoints
 62
     0
100
AcDbPoint
 10
369.3459154814397
 20
578.1728202980379
 30
0.0
  0
POINT
  5
1088
330
E2B
100
AcDbEntity
  8
Defpoints
 62
     0
100
AcDbPoint
 10
479.3459154814396
 20
572.1304867926169
 30
0.0
  0
POINT
  5
1089
330
E2B
100
AcDbEntity
  8
Defpoints
 62
     0
100
AcDbPoint
 10
479.3459154814396
 20
595.2253300548733
 30
-0.0000000000000119
  0
ENDBLK
  5
E2D
330
E2B
100
AcDbEntity
  8
0
100
AcDbBlockEnd
  0
BLOCK
  5
F2C
330
F2B
100
AcDbEntity
  8
0
100
AcDbBlockBegin
  2
VDDIM_DEFAULT
 70
     0
 10
0.0
 20
0.0
 30
0.0
  3
VDDIM_DEFAULT
  1

  0
HATCH
  5
F2D
330
F2B
100
AcDbEntity
  8
0
  6
Continuous
 62
     0
370
    -2
100
AcDbHatch
 10
0.0
 20
0.0
 30
0.0
210
0.0
220
0.0
230
-1.0
  2
SOLID
 70
     1
 71
     0
 91
        1
 92
        2
 72
     0
 73
     1
 93
        3
 10
0.0
 20
0.0
 10
1.0
 20
-0.1665
 10
1.0
 20
0.1665
 97
        0
 75
     0
 76
     1
 98
        1
 10
0.0
 20
0.0
  0
ENDBLK
  5
F2E
330
F2B
100
AcDbEntity
  8
0
100
AcDbBlockEnd
  0
BLOCK
  5
F30
330
F2F
100
AcDbEntity
  8
0
100
AcDbBlockBegin
  2
IBvert63
 70
     0
 10
0.0
 20
0.0
 30
0.0
  3
IBvert63
  1

  0
LINE
  5
F31
330
F2F
100
AcDbEntity
  8
0
 62
     7
100
AcDbLine
 10
42.72293092
 20
284.52894828
 30
0.0
 11
176.77931985
 21
284.52894828
 31
0.0
  0
LINE
  5
F32
330
F2F
100
AcDbEntity
  8
0
 62
     7
100
AcDbLine
 10
176.77931985
 20
14.52710054
 30
0.0
 11
43.00936865999999
 21
14.52710054
 31
0.0
  0
ARC
  5
F33
330
F2F
100
AcDbEntity
  8
0
 62
     7
100
AcDbCircle
 10
43.00936865999999
 20
21.65023728
 30
0.0
 40
7.123136749999998
100
AcDbArc
 50
180.0
 51
270.0
  0
CIRCLE
  5
F34
330
F2F
100
AcDbEntity
  8
0
 62
     7
100
AcDbCircle
 10
43.00936865999999
 20
21.65023728
 30
0.0
 40
2.58835439
  0
ARC
  5
F35
330
F2F
100
AcDbEntity
  8
0
 62
     7
100
AcDbCircle
 10
176.77931985
 20
21.65023728
 30
0.0
 40
7.123136749999998
100
AcDbArc
 50
270.0
 51
0.0
  0
CIRCLE
  5
F36
330
F2F
100
AcDbEntity
  8
0
 62
     7
100
AcDbCircle
 10
176.77931985
 20
21.65023728
 30
0.0
 40
2.58835439
  0
LINE
  5
F37
330
F2F
100
AcDbEntity
  8
0
 62
     7
100
AcDbLine
 10
35.88623191
 20
21.65023728
 30
0.0
 11
35.88623191
 21
277.40581154
 31
0.0
  0
LINE
  5
F38
330
F2F
100
AcDbEntity
  8
0
 62
     7
100
AcDbLine
 10
183.9024566
 20
21.65023728
 30
0.0
 11
183.9024566
 21
277.40581154
 31
0.0
  0
ARC
  5
F39
330
F2F
100
AcDbEntity
  8
0
 62
     7
100
AcDbCircle
 10
43.00936865999999
 20
277.40581154
 30
0.0
 40
7.123136749999998
100
AcDbArc
 50
90.0
 51
180.0
  0
CIRCLE
  5
F3A
330
F2F
100
AcDbEntity
  8
0
 62
     7
100
AcDbCircle
 10
43.00936865999999
 20
277.40581154
 30
0.0
 40
2.58835439
  0
CIRCLE
  5
F3B
330
F2F
100
AcDbEntity
  8
0
 62
     7
100
AcDbCircle
 10
176.77931985
 20
277.40581154
 30
0.0
 40
2.58835439
  0
ARC
  5
F3C
330
F2F
100
AcDbEntity
  8
0
 62
     7
100
AcDbCircle
 10
176.77931985
 20
277.40581154
 30
0.0
 40
7.123136749999998
100
AcDbArc
 50
0.0
 51
90.0
  0
ENDBLK
  5
F3D
330
F2F
100
AcDbEntity
  8
0
100
AcDbBlockEnd
  0
BLOCK
  5
108C
330
108B
100
AcDbEntity
  8
0
100
AcDbBlockBegin
  2
*D10
 70
     1
 10
0.0
 20
0.0
 30
0.0
  3
*D10
  1

  0
LINE
  5
108E
330
108B
100
AcDbEntity
  8
0
  6
Continuous
 62
     0
370
    -2
100
AcDbLine
 10
401.0497770439109
 20
579.975866245379
 30
0.0
 11
422.0755883940633
 21
579.975866245379
 31
0.0
  0
LINE
  5
108F
330
108B
100
AcDbEntity
  8
0
  6
Continuous
 62
     0
370
    -2
100
AcDbLine
 10
393.9084154800834
 20
417.464101535379
 30
0.0
 11
422.0755883940633
 21
417.464101535379
 31
0.0
  0
LINE
  5
1090
330
108B
100
AcDbEntity
  8
0
  6
Continuous
 62
     0
370
    -2
100
AcDbLine
 10
421.8955883940633
 20
579.7958662453789
 30
0.0
 11
421.8955883940633
 21
498.8999838903791
 31
0.0
  0
LINE
  5
1091
330
108B
100
AcDbEntity
  8
0
  6
Continuous
 62
     0
370
    -2
100
AcDbLine
 10
421.8955883940633
 20
417.644101535379
 30
0.0
 11
421.8955883940633
 21
498.5399838903791
 31
0.0
  0
SOLID
  5
1092
330
108B
100
AcDbEntity
  8
0
  6
Continuous
 62
     0
100
AcDbTrace
 10
421.8655883940633
 20
579.7958662453789
 30
0.0
 11
421.9255883940633
 21
579.7958662453789
 31
0.0
 12
421.8955883940633
 22
579.975866245379
 32
0.0
 13
421.8955883940633
 23
579.975866245379
 33
0.0
  0
SOLID
  5
1093
330
108B
100
AcDbEntity
  8
0
  6
Continuous
 62
     0
100
AcDbTrace
 10
421.8655883940633
 20
417.644101535379
 30
0.0
 11
421.9255883940633
 21
417.644101535379
 31
0.0
 12
421.8955883940633
 22
417.464101535379
 32
0.0
 13
421.8955883940633
 23
417.464101535379
 33
0.0
  0
MTEXT
  5
1094
330
108B
100
AcDbEntity
  8
0
  6
Continuous
 62
     0
100
AcDbMText
 10
421.8955883940633
 20
498.7199838903792
 30
0.0
 40
0.18
 41
0.0
 71
     5
 72
     1
  1
\A1;162.5118
 73
     1
 44
1.0
1001
ACAD
1000
MTEXTBEGIN
1070
    73
1070
     1
1070
    44
1040
1.0
1070
    74
1070
     0
1000
MTEXTEND
  0
POINT
  5
1095
330
108B
100
AcDbEntity
  8
Defpoints
  6
Continuous
 62
     0
100
AcDbPoint
 10
400.9872770439109
 20
579.975866245379
 30
0.0
  0
POINT
  5
1096
330
108B
100
AcDbEntity
  8
Defpoints
  6
Continuous
 62
     0
100
AcDbPoint
 10
393.8459154800834
 20
417.464101535379
 30
0.0
  0
POINT
  5
1097
330
108B
100
AcDbEntity
  8
Defpoints
  6
Continuous
 62
     0
100
AcDbPoint
 10
421.8955883940633
 20
417.464101535379
 30
0.0
  0
ENDBLK
  5
108D
330
108B
100
AcDbEntity
  8
0
100
AcDbBlockEnd
  0
ENDSEC
  0
SECTION
  2
ENTITIES
  0
LINE
  5
C05
330
6F
100
AcDbEntity
  8
0
 62
     7
100
AcDbLine
 10
471.5204121257349
 20
69.86075936817511
 30
0.0
 11
393.8459154800834
 21
69.86075936817511
 31
0.0
  0
LINE
  5
C06
330
6F
100
AcDbEntity
  8
0
 62
     7
100
AcDbLine
 10
393.8459154800834
 20
69.86075936817511
 30
0.0
 11
393.8459154800834
 21
417.464101535379
 31
0.0
  0
LINE
  5
C07
330
6F
100
AcDbEntity
  8
0
 62
     7
100
AcDbLine
 10
393.8459154800833
 20
417.464101535379
 30
0.0
 11
386.3223739223274
 21
417.464101535379
 31
0.0
  0
LINE
  5
C08
330
6F
100
AcDbEntity
  8
0
 62
     7
100
AcDbLine
 10
369.3459154814396
 20
419.2501108280998
 30
0.0
 11
369.3459154814397
 21
578.1728202980379
 31
0.0
  0
LINE
  5
C09
330
6F
100
AcDbEntity
  8
0
 62
     7
100
AcDbLine
 10
385.9911529620799
 20
579.975866245379
 30
0.0
 11
471.5204121257349
 21
579.975866245379
 31
0.0
  0
LINE
  5
C0B
330
6F
100
AcDbEntity
  8
0
 62
     7
100
AcDbLine
 10
467.2697667979083
 20
337.5459821766046
 30
0.0
 11
467.4997616352857
 21
334.4197560537343
 31
0.0
  0
LINE
  5
C0C
330
6F
100
AcDbEntity
  8
0
 62
     7
100
AcDbLine
 10
467.2697667979083
 20
337.5459821766046
 30
0.0
 11
465.9295499677587
 21
340.4422134620977
 31
0.0
  0
LINE
  5
C0D
330
6F
100
AcDbEntity
  8
0
 62
     7
100
AcDbLine
 10
465.9295499677587
 20
340.4422134620977
 30
0.0
 11
464.1407012326011
 21
342.9068494972036
 31
0.0
  0
LINE
  5
C0E
330
6F
100
AcDbEntity
  8
0
 62
     7
100
AcDbLine
 10
464.1407012326011
 20
342.9068494972036
 30
0.0
 11
461.6769170302262
 21
344.6956982323612
 31
0.0
  0
LINE
  5
C0F
330
6F
100
AcDbEntity
  8
0
 62
     7
100
AcDbLine
 10
461.6769170302262
 20
344.6956982323612
 30
0.0
 11
458.7806857447332
 21
345.8201174373172
 31
0.0
  0
LINE
  5
C10
330
6F
100
AcDbEntity
  8
0
 62
     7
100
AcDbLine
 10
458.7806857447332
 20
345.8201174373172
 30
0.0
 11
455.8691214700817
 21
346.2659098998881
 31
0.0
  0
LINE
  5
C11
330
6F
100
AcDbEntity
  8
0
 62
     7
100
AcDbLine
 10
455.8691214700817
 20
346.2659098998881
 30
0.0
 11
452.7420435144803
 21
345.8201174373172
 31
0.0
  0
LINE
  5
C12
330
6F
100
AcDbEntity
  8
0
 62
     7
100
AcDbLine
 10
452.7420435144803
 20
345.8201174373172
 30
0.0
 11
449.8304792398287
 21
344.6956982323612
 31
0.0
  0
LINE
  5
C13
330
6F
100
AcDbEntity
  8
0
 62
     7
100
AcDbLine
 10
449.8304792398287
 20
344.6956982323612
 30
0.0
 11
447.3811761938813
 21
342.9068494972036
 31
0.0
  0
LINE
  5
C14
330
6F
100
AcDbEntity
  8
0
 62
     7
100
AcDbLine
 10
447.3811761938813
 20
342.9068494972036
 30
0.0
 11
445.5943150684298
 21
340.4422134620977
 31
0.0
  0
LINE
  5
C15
330
6F
100
AcDbEntity
  8
0
 62
     7
100
AcDbLine
 10
445.5943150684298
 20
340.4422134620977
 30
0.0
 11
444.46961191923
 21
337.5459821766046
 31
0.0
  0
LINE
  5
C16
330
6F
100
AcDbEntity
  8
0
 62
     7
100
AcDbLine
 10
444.46961191923
 20
337.5459821766046
 30
0.0
 11
444.0226836796843
 21
334.4197560537343
 31
0.0
  0
LINE
  5
C17
330
6F
100
AcDbEntity
  8
0
 62
     7
100
AcDbLine
 10
444.0226836796843
 20
334.4197560537343
 30
0.0
 11
444.46961191923
 21
331.5093275560574
 31
0.0
  0
LINE
  5
C18
330
6F
100
AcDbEntity
  8
0
 62
     7
100
AcDbLine
 10
444.46961191923
 20
331.5093275560574
 30
0.0
 11
445.5943150684298
 21
328.5971953929187
 31
0.0
  0
LINE
  5
C19
330
6F
100
AcDbEntity
  8
0
 62
     7
100
AcDbLine
 10
445.5943150684298
 20
328.5971953929187
 30
0.0
 11
447.3811761938813
 21
326.1476084027276
 31
0.0
  0
LINE
  5
C1A
330
6F
100
AcDbEntity
  8
0
 62
     7
100
AcDbLine
 10
447.3811761938813
 20
326.1476084027276
 30
0.0
 11
449.8304792398287
 21
324.3454142881172
 31
0.0
  0
LINE
  5
C1B
330
6F
100
AcDbEntity
  8
0
 62
     7
100
AcDbLine
 10
449.8304792398287
 20
324.3454142881172
 30
0.0
 11
452.7420435144803
 21
323.004913513724
 31
0.0
  0
LINE
  5
C1C
330
6F
100
AcDbEntity
  8
0
 62
     7
100
AcDbLine
 10
452.7420435144803
 20
323.004913513724
 30
0.0
 11
455.8691214700817
 21
322.7891158885304
 31
0.0
  0
LINE
  5
C1D
330
6F
100
AcDbEntity
  8
0
 62
     7
100
AcDbLine
 10
455.8691214700817
 20
322.7891158885304
 30
0.0
 11
458.7806857447332
 21
323.004913513724
 31
0.0
  0
LINE
  5
C1E
330
6F
100
AcDbEntity
  8
0
 62
     7
100
AcDbLine
 10
458.7806857447332
 20
323.004913513724
 30
0.0
 11
461.6769170302262
 21
324.3454142881172
 31
0.0
  0
LINE
  5
C1F
330
6F
100
AcDbEntity
  8
0
 62
     7
100
AcDbLine
 10
461.6769170302262
 20
324.3454142881172
 30
0.0
 11
464.1407012326011
 21
326.1476084027276
 31
0.0
  0
LINE
  5
C20
330
6F
100
AcDbEntity
  8
0
 62
     7
100
AcDbLine
 10
464.1407012326011
 20
326.1476084027276
 30
0.0
 11
465.9295499677587
 21
328.5971953929187
 31
0.0
  0
LINE
  5
C21
330
6F
100
AcDbEntity
  8
0
 62
     7
100
AcDbLine
 10
465.9295499677587
 20
328.5971953929187
 30
0.0
 11
467.2697667979083
 21
331.5093275560574
 31
0.0
  0
LINE
  5
C22
330
6F
100
AcDbEntity
  8
0
 62
     7
100
AcDbLine
 10
467.2697667979083
 20
331.5093275560574
 30
0.0
 11
467.4997616352857
 21
334.4197560537343
 31
0.0
  0
LINE
  5
C23
330
6F
100
AcDbEntity
  8
0
 62
     7
100
AcDbLine
 10
467.2697667979083
 20
119.9419932349794
 30
0.0
 11
467.4997616352857
 21
117.0457619494864
 31
0.0
  0
LINE
  5
C24
330
6F
100
AcDbEntity
  8
0
 62
     7
100
AcDbLine
 10
467.2697667979083
 20
119.9419932349794
 30
0.0
 11
465.9295499677587
 21
122.853557509631
 31
0.0
  0
LINE
  5
C25
330
6F
100
AcDbEntity
  8
0
 62
     7
100
AcDbLine
 10
465.9295499677587
 20
122.853557509631
 30
0.0
 11
464.1407012326011
 21
125.3184774889805
 31
0.0
  0
LINE
  5
C26
330
6F
100
AcDbEntity
  8
0
 62
     7
100
AcDbLine
 10
464.1407012326011
 20
125.3184774889805
 30
0.0
 11
461.6769170302262
 21
127.1053386144322
 31
0.0
  0
LINE
  5
C27
330
6F
100
AcDbEntity
  8
0
 62
     7
100
AcDbLine
 10
461.6769170302262
 20
127.1053386144322
 30
0.0
 11
458.7806857447332
 21
128.4455554445819
 31
0.0
  0
LINE
  5
C28
330
6F
100
AcDbEntity
  8
0
 62
     7
100
AcDbLine
 10
458.7806857447332
 20
128.4455554445819
 30
0.0
 11
455.8691214700817
 21
128.8921997398839
 31
0.0
  0
LINE
  5
C29
330
6F
100
AcDbEntity
  8
0
 62
     7
100
AcDbLine
 10
455.8691214700817
 20
128.8921997398839
 30
0.0
 11
452.7420435144803
 21
128.4455554445819
 31
0.0
  0
LINE
  5
C2A
330
6F
100
AcDbEntity
  8
0
 62
     7
100
AcDbLine
 10
452.7420435144803
 20
128.4455554445819
 30
0.0
 11
449.8304792398287
 21
127.1053386144322
 31
0.0
  0
LINE
  5
C2B
330
6F
100
AcDbEntity
  8
0
 62
     7
100
AcDbLine
 10
449.8304792398287
 20
127.1053386144322
 30
0.0
 11
447.3811761938813
 21
125.3184774889805
 31
0.0
  0
LINE
  5
C2C
330
6F
100
AcDbEntity
  8
0
 62
     7
100
AcDbLine
 10
447.3811761938813
 20
125.3184774889805
 30
0.0
 11
445.5943150684298
 21
122.853557509631
 31
0.0
  0
LINE
  5
C2D
330
6F
100
AcDbEntity
  8
0
 62
     7
100
AcDbLine
 10
445.5943150684298
 20
122.853557509631
 30
0.0
 11
444.46961191923
 21
119.9419932349794
 31
0.0
  0
LINE
  5
C2E
330
6F
100
AcDbEntity
  8
0
 62
     7
100
AcDbLine
 10
444.46961191923
 20
119.9419932349794
 30
0.0
 11
444.0226836796843
 21
117.0457619494864
 31
0.0
  0
LINE
  5
C2F
330
6F
100
AcDbEntity
  8
0
 62
     7
100
AcDbLine
 10
444.0226836796843
 20
117.0457619494864
 30
0.0
 11
444.46961191923
 21
113.9184000496413
 31
0.0
  0
LINE
  5
C30
330
6F
100
AcDbEntity
  8
0
 62
     7
100
AcDbLine
 10
444.46961191923
 20
113.9184000496413
 30
0.0
 11
445.5943150684298
 21
111.0068357749897
 31
0.0
  0
LINE
  5
C31
330
6F
100
AcDbEntity
  8
0
 62
     7
100
AcDbLine
 10
445.5943150684298
 20
111.0068357749897
 30
0.0
 11
447.3811761938813
 21
108.5421997398839
 31
0.0
  0
LINE
  5
C32
330
6F
100
AcDbEntity
  8
0
 62
     7
100
AcDbLine
 10
447.3811761938813
 20
108.5421997398839
 30
0.0
 11
449.8304792398287
 21
106.7553386144322
 31
0.0
  0
LINE
  5
C33
330
6F
100
AcDbEntity
  8
0
 62
     7
100
AcDbLine
 10
449.8304792398287
 20
106.7553386144322
 30
0.0
 11
452.7420435144803
 21
105.6462523986345
 31
0.0
  0
LINE
  5
C34
330
6F
100
AcDbEntity
  8
0
 62
     7
100
AcDbLine
 10
452.7420435144803
 20
105.6462523986345
 30
0.0
 11
455.8691214700817
 21
105.1996081033325
 31
0.0
  0
LINE
  5
C35
330
6F
100
AcDbEntity
  8
0
 62
     7
100
AcDbLine
 10
455.8691214700817
 20
105.1996081033325
 30
0.0
 11
458.7806857447332
 21
105.6462523986345
 31
0.0
  0
LINE
  5
C36
330
6F
100
AcDbEntity
  8
0
 62
     7
100
AcDbLine
 10
458.7806857447332
 20
105.6462523986345
 30
0.0
 11
461.6769170302262
 21
106.7553386144322
 31
0.0
  0
LINE
  5
C37
330
6F
100
AcDbEntity
  8
0
 62
     7
100
AcDbLine
 10
461.6769170302262
 20
106.7553386144322
 30
0.0
 11
464.1407012326011
 21
108.5421997398839
 31
0.0
  0
LINE
  5
C38
330
6F
100
AcDbEntity
  8
0
 62
     7
100
AcDbLine
 10
464.1407012326011
 20
108.5421997398839
 30
0.0
 11
465.9295499677587
 21
111.0068357749897
 31
0.0
  0
LINE
  5
C39
330
6F
100
AcDbEntity
  8
0
 62
     7
100
AcDbLine
 10
465.9295499677587
 20
111.0068357749897
 30
0.0
 11
467.2697667979083
 21
113.9184000496413
 31
0.0
  0
LINE
  5
C3A
330
6F
100
AcDbEntity
  8
0
 62
     7
100
AcDbLine
 10
467.2697667979083
 20
113.9184000496413
 30
0.0
 11
467.4997616352857
 21
117.0457619494864
 31
0.0
  0
LINE
  5
C3E
330
6F
100
AcDbEntity
  8
0
 62
     7
100
AcDbLine
 10
384.0885845573301
 20
578.4028151354154
 30
0.0
 11
384.0885845573301
 21
419.2501108280998
 31
0.0
  0
LINE
  5
C3F
330
6F
100
AcDbEntity
  8
0
 62
     7
100
AcDbLine
 10
384.08858455733
 20
419.037152645343
 30
0.0
 11
384.08858455733
 21
419.2501108280998
 31
0.0
  0
LINE
  5
C40
330
6F
100
AcDbEntity
  8
0
 62
     7
100
AcDbLine
 10
384.08858455733
 20
419.2501108280998
 30
0.0
 11
369.3459154814395
 21
419.2501108280998
 31
0.0
  0
LINE
  5
C41
330
6F
100
AcDbEntity
  8
0
 62
     7
100
AcDbLine
 10
369.3459154814397
 20
578.1728202980379
 30
0.0
 11
384.0885845573301
 21
578.1728202980379
 31
0.0
  0
LINE
  5
C42
330
6F
100
AcDbEntity
  8
0
 62
     7
100
AcDbLine
 10
384.08858455733
 20
419.037152645343
 30
0.0
 11
384.5355127968758
 21
417.9127334403869
 31
0.0
  0
LINE
  5
C43
330
6F
100
AcDbEntity
  8
0
 62
     7
100
AcDbLine
 10
384.5355127968758
 20
417.9127334403869
 30
0.0
 11
385.6599320018318
 21
417.464101535379
 31
0.0
  0
LINE
  5
C44
330
6F
100
AcDbEntity
  8
0
 62
     7
100
AcDbLine
 10
385.6599320018318
 20
417.464101535379
 30
0.0
 11
386.3223739223274
 21
417.464101535379
 31
0.0
  0
LINE
  5
C45
330
6F
100
AcDbEntity
  8
0
 62
     7
100
AcDbLine
 10
386.3223739223274
 20
417.464101535379
 30
0.0
 11
387.4470770715273
 21
417.9127334403869
 31
0.0
  0
LINE
  5
C46
330
6F
100
AcDbEntity
  8
0
 62
     7
100
AcDbLine
 10
387.4470770715273
 20
417.9127334403869
 30
0.0
 11
387.894005311073
 21
419.037152645343
 31
0.0
  0
LINE
  5
C47
330
6F
100
AcDbEntity
  8
0
 62
     7
100
AcDbLine
 10
387.8940053110732
 20
578.4028151354154
 30
0.0
 11
387.4470770715275
 21
579.5101976857507
 31
0.0
  0
LINE
  5
C48
330
6F
100
AcDbEntity
  8
0
 62
     7
100
AcDbLine
 10
387.4470770715275
 20
579.5101976857507
 30
0.0
 11
386.3223739223276
 21
579.975866245379
 31
0.0
  0
LINE
  5
C49
330
6F
100
AcDbEntity
  8
0
 62
     7
100
AcDbLine
 10
386.3223739223276
 20
579.975866245379
 30
0.0
 11
385.659932001832
 21
579.975866245379
 31
0.0
  0
LINE
  5
C4A
330
6F
100
AcDbEntity
  8
0
 62
     7
100
AcDbLine
 10
385.659932001832
 20
579.975866245379
 30
0.0
 11
384.5355127968758
 21
579.5101976857507
 31
0.0
  0
LINE
  5
C4B
330
6F
100
AcDbEntity
  8
0
 62
     7
100
AcDbLine
 10
384.5355127968758
 20
579.5101976857507
 30
0.0
 11
384.0885845573301
 21
578.4028151354154
 31
0.0
  0
LINE
  5
C4C
330
6F
100
AcDbEntity
  8
0
 62
     7
100
AcDbLine
 10
479.3459154814396
 20
572.1304867926169
 30
0.0
 11
478.9001230188686
 21
574.3821646449663
 31
0.0
  0
LINE
  5
C4D
330
6F
100
AcDbEntity
  8
0
 62
     7
100
AcDbLine
 10
478.9001230188686
 20
574.3821646449663
 30
0.0
 11
477.7899010260963
 21
576.6139664002577
 31
0.0
  0
LINE
  5
C4E
330
6F
100
AcDbEntity
  8
0
 62
     7
100
AcDbLine
 10
477.7899010260963
 20
576.6139664002577
 30
0.0
 11
476.2196893585691
 21
578.4028151354154
 31
0.0
  0
LINE
  5
C4F
330
6F
100
AcDbEntity
  8
0
 62
     7
100
AcDbLine
 10
476.2196893585691
 20
578.4028151354154
 30
0.0
 11
473.9850481608407
 21
579.5101976857507
 31
0.0
  0
LINE
  5
C50
330
6F
100
AcDbEntity
  8
0
 62
     7
100
AcDbLine
 10
473.9850481608407
 20
579.5101976857507
 30
0.0
 11
471.5204121257349
 21
579.975866245379
 31
0.0
  0
LINE
  5
C51
330
6F
100
AcDbEntity
  8
0
 62
     7
100
AcDbLine
 10
471.5204121257349
 20
69.86075936817511
 30
0.0
 11
473.9850481608407
 21
70.09132209403984
 31
0.0
  0
LINE
  5
C52
330
6F
100
AcDbEntity
  8
0
 62
     7
100
AcDbLine
 10
473.9850481608407
 20
70.09132209403984
 30
0.0
 11
476.2196893585691
 21
71.20069225408115
 31
0.0
  0
LINE
  5
C53
330
6F
100
AcDbEntity
  8
0
 62
     7
100
AcDbLine
 10
476.2196893585691
 20
71.20069225408115
 30
0.0
 11
477.7899010260961
 21
73.00288636869137
 31
0.0
  0
LINE
  5
C54
330
6F
100
AcDbEntity
  8
0
 62
     7
100
AcDbLine
 10
477.7899010260961
 20
73.00288636869137
 30
0.0
 11
478.9001230188686
 21
75.2366757336888
 31
0.0
  0
LINE
  5
C55
330
6F
100
AcDbEntity
  8
0
 62
     7
100
AcDbLine
 10
478.9001230188686
 20
75.2366757336888
 30
0.0
 11
479.3459154814396
 21
77.68597877963613
 31
0.0
  0
LINE
  5
C62
330
6F
100
AcDbEntity
  8
0
 62
     7
100
AcDbLine
 10
387.8940053110732
 20
419.0371526453435
 30
0.0
 11
387.8940053110732
 21
578.4028151354154
 31
0.0
  0
LINE
  5
C64
330
6F
100
AcDbEntity
  8
0
 62
     7
100
AcDbLine
 10
467.4997616352857
 20
532.7900118313368
 30
0.0
 11
467.2697667979083
 21
535.7004403290138
 31
0.0
  0
LINE
  5
C65
330
6F
100
AcDbEntity
  8
0
 62
     7
100
AcDbLine
 10
467.2697667979083
 20
535.7004403290138
 30
0.0
 11
465.9295499677587
 21
538.6108688266906
 31
0.0
  0
LINE
  5
C66
330
6F
100
AcDbEntity
  8
0
 62
     7
100
AcDbLine
 10
465.9295499677587
 20
538.6108688266906
 30
0.0
 11
464.1407012326011
 21
541.0584682071759
 31
0.0
  0
LINE
  5
C67
330
6F
100
AcDbEntity
  8
0
 62
     7
100
AcDbLine
 10
464.1407012326011
 20
541.0584682071759
 30
0.0
 11
461.6769170302265
 21
542.8501563847701
 31
0.0
  0
LINE
  5
C68
330
6F
100
AcDbEntity
  8
0
 62
     7
100
AcDbLine
 10
461.6769170302265
 20
542.8501563847701
 30
0.0
 11
458.7806857447332
 21
544.2017309846668
 31
0.0
  0
LINE
  5
C69
330
6F
100
AcDbEntity
  8
0
 62
     7
100
AcDbLine
 10
458.7806857447332
 20
544.2017309846668
 30
0.0
 11
455.8691214700817
 21
544.4175286098603
 31
0.0
  0
LINE
  5
C6A
330
6F
100
AcDbEntity
  8
0
 62
     7
100
AcDbLine
 10
455.8691214700817
 20
544.4175286098603
 30
0.0
 11
452.7420435144803
 21
544.2017309846668
 31
0.0
  0
LINE
  5
C6B
330
6F
100
AcDbEntity
  8
0
 62
     7
100
AcDbLine
 10
452.7420435144803
 20
544.2017309846668
 30
0.0
 11
449.8304792398287
 21
542.8501563847701
 31
0.0
  0
LINE
  5
C6C
330
6F
100
AcDbEntity
  8
0
 62
     7
100
AcDbLine
 10
449.8304792398287
 20
542.8501563847701
 30
0.0
 11
447.3811761938815
 21
541.0584682071759
 31
0.0
  0
LINE
  5
C6D
330
6F
100
AcDbEntity
  8
0
 62
     7
100
AcDbLine
 10
447.3811761938815
 20
541.0584682071759
 30
0.0
 11
445.5943150684298
 21
538.6108688266906
 31
0.0
  0
LINE
  5
C6E
330
6F
100
AcDbEntity
  8
0
 62
     7
100
AcDbLine
 10
445.5943150684298
 20
538.6108688266906
 30
0.0
 11
444.46961191923
 21
535.7004403290138
 31
0.0
  0
LINE
  5
C6F
330
6F
100
AcDbEntity
  8
0
 62
     7
100
AcDbLine
 10
444.46961191923
 20
535.7004403290138
 30
0.0
 11
444.0226836796843
 21
532.7900118313368
 31
0.0
  0
LINE
  5
C70
330
6F
100
AcDbEntity
  8
0
 62
     7
100
AcDbLine
 10
444.0226836796843
 20
532.7900118313368
 30
0.0
 11
444.46961191923
 21
529.6609462660296
 31
0.0
  0
LINE
  5
C71
330
6F
100
AcDbEntity
  8
0
 62
     7
100
AcDbLine
 10
444.46961191923
 20
529.6609462660296
 30
0.0
 11
445.5943150684298
 21
526.7505177683529
 31
0.0
  0
LINE
  5
C72
330
6F
100
AcDbEntity
  8
0
 62
     7
100
AcDbLine
 10
445.5943150684298
 20
526.7505177683529
 30
0.0
 11
447.3811761938815
 21
524.2972395029941
 31
0.0
  0
LINE
  5
C73
330
6F
100
AcDbEntity
  8
0
 62
     7
100
AcDbLine
 10
447.3811761938815
 20
524.2972395029941
 30
0.0
 11
449.8304792398287
 21
522.5112302102735
 31
0.0
  0
LINE
  5
C74
330
6F
100
AcDbEntity
  8
0
 62
     7
100
AcDbLine
 10
449.8304792398287
 20
522.5112302102735
 30
0.0
 11
452.7420435144803
 21
521.3868110053173
 31
0.0
  0
LINE
  5
C75
330
6F
100
AcDbEntity
  8
0
 62
     7
100
AcDbLine
 10
452.7420435144803
 20
521.3868110053173
 30
0.0
 11
455.8691214700817
 21
520.9410185427461
 31
0.0
  0
LINE
  5
C76
330
6F
100
AcDbEntity
  8
0
 62
     7
100
AcDbLine
 10
455.8691214700817
 20
520.9410185427461
 30
0.0
 11
458.7806857447332
 21
521.3868110053173
 31
0.0
  0
LINE
  5
C77
330
6F
100
AcDbEntity
  8
0
 62
     7
100
AcDbLine
 10
458.7806857447332
 20
521.3868110053173
 30
0.0
 11
461.6769170302265
 21
522.5112302102735
 31
0.0
  0
LINE
  5
C78
330
6F
100
AcDbEntity
  8
0
 62
     7
100
AcDbLine
 10
461.6769170302265
 20
522.5112302102735
 30
0.0
 11
464.1407012326011
 21
524.2972395029941
 31
0.0
  0
LINE
  5
C79
330
6F
100
AcDbEntity
  8
0
 62
     7
100
AcDbLine
 10
464.1407012326011
 20
524.2972395029941
 30
0.0
 11
465.9295499677587
 21
526.7505177683529
 31
0.0
  0
LINE
  5
C7A
330
6F
100
AcDbEntity
  8
0
 62
     7
100
AcDbLine
 10
465.9295499677587
 20
526.7505177683529
 30
0.0
 11
467.2697667979083
 21
529.6609462660296
 31
0.0
  0
LINE
  5
C7B
330
6F
100
AcDbEntity
  8
0
 62
     7
100
AcDbLine
 10
467.2697667979083
 20
529.6609462660296
 30
0.0
 11
467.4997616352857
 21
532.7900118313368
 31
0.0
  0
LINE
  5
C7C
330
6F
100
AcDbEntity
  8
0
 62
     7
100
AcDbLine
 10
467.4997616352857
 20
532.7900118313368
 30
0.0
 11
467.4997616352857
 21
532.7900118313368
 31
0.0
  0
LINE
  5
C7D
330
6F
100
AcDbEntity
  8
0
 62
     7
100
AcDbLine
 10
467.4997616352857
 20
532.7900118313368
 30
0.0
 11
467.4997616352857
 21
532.7900118313368
 31
0.0
  0
LINE
  5
C7F
330
6F
100
AcDbEntity
  8
0
 62
     7
100
AcDbLine
 10
479.3459154814396
 20
77.68597877963613
 30
0.0
 11
479.3459154814396
 21
572.1304867926169
 31
0.0
  0
DIMENSION
  5
D77
330
6F
100
AcDbEntity
  8
0
 62
     1
100
AcDbDimension
  2
*D4
 10
754.318851622059
 20
579.9754137506952
 30
0.0
 11
754.3188516220586
 21
333.461718332436
 31
0.0
 70
   160
 71
     0
 42
510.0001783021866
  3
Standard
100
AcDbAlignedDimension
 13
676.1620734855412
 23
69.97523544850857
 33
0.0
 14
675.8916645821209
 24
579.9754137506952
 34
0.0
 50
90.0
100
AcDbRotatedDimension
1001
ACAD
1000
DSTYLE
1002
{
1070
    41
1040
6.0
1070
   140
1040
7.0
1070
   271
1070
     1
1002
}
  0
DIMENSION
  5
D78
330
6F
100
AcDbEntity
  8
0
 62
     1
100
AcDbDimension
  2
*D5
 10
689.4563389790962
 20
43.81946860096731
 30
0.0
 11
611.5608656757626
 21
43.81946860096731
 31
0.0
 70
   160
 71
     0
 42
150.0000011063438
  3
Standard
100
AcDbAlignedDimension
 13
539.4563378727525
 23
83.22930784537915
 33
0.0
 14
689.4563389790962
 24
83.16690262682158
 34
0.0
100
AcDbRotatedDimension
1001
ACAD
1000
DSTYLE
1002
{
1070
    41
1040
6.0
1070
   140
1040
7.0
1070
   271
1070
     1
1002
}
  0
DIMENSION
  5
DF6
330
6F
100
AcDbEntity
  8
0
 62
     1
100
AcDbDimension
  2
*D6
 10
479.3459154814396
 20
43.61946884846005
 30
0.0000000000000119
 11
442.5976102560055
 21
43.61946884846005
 31
0.0000000000000119
 70
   160
 71
     0
 42
85.5
  3
Standard
100
AcDbAlignedDimension
 13
393.8459154814396
 23
69.86075936817511
 33
0.0
 14
479.3459154814396
 24
77.68597877963613
 34
0.0
100
AcDbRotatedDimension
1001
ACAD
1000
DSTYLE
1002
{
1070
    41
1040
6.0
1070
   140
1040
7.0
1070
   271
1070
     1
1002
}
  0
DIMENSION
  5
E2A
330
6F
100
AcDbEntity
  8
0
 62
     1
100
AcDbDimension
  2
*D7
 10
479.3459154814396
 20
595.2253300548733
 30
-0.0000000000000119
 11
424.8004618477517
 21
595.2253300548733
 31
-0.0000000000000119
 70
   160
 71
     0
 42
110.0
  3
Standard
100
AcDbAlignedDimension
 13
369.3459154814397
 23
578.1728202980379
 33
0.0
 14
479.3459154814396
 24
572.1304867926169
 34
0.0
100
AcDbRotatedDimension
1001
ACAD
1000
DSTYLE
1002
{
1070
    41
1040
6.0
1070
   140
1040
7.0
1070
   271
1070
     1
1002
}
  0
ARC
  5
FBD
330
6F
100
AcDbEntity
  8
0
 62
     7
100
AcDbCircle
 10
552.8029043127523
 20
566.6288450453793
 30
0.0
 40
13.34747578
100
AcDbArc
 50
89.33202218000074
 51
179.33118909
  0
CIRCLE
  5
FBE
330
6F
100
AcDbEntity
  8
0
 62
     7
100
AcDbCircle
 10
552.1358610227525
 20
567.1313563353789
 30
0.0
 40
4.96458108
  0
LINE
  5
FBF
330
6F
100
AcDbEntity
  8
0
 62
     7
100
AcDbLine
 10
549.2218887127525
 20
565.6682568253791
 30
0.0
 11
550.9344632127525
 21
567.1894407853791
 31
0.0
  0
LINE
  5
FC0
330
6F
100
AcDbEntity
  8
0
 62
     7
100
AcDbLine
 10
550.2803233827526
 20
564.5287458353791
 30
0.0
 11
552.0984116527525
 21
566.1509184453791
 31
0.0
  0
LINE
  5
FC1
330
6F
100
AcDbEntity
  8
0
 62
     7
100
AcDbLine
 10
553.9164999127526
 20
569.838216875379
 30
0.0
 11
554.9423871327525
 21
568.6884295453791
 31
0.0
  0
LINE
  5
FC2
330
6F
100
AcDbEntity
  8
0
 62
     7
100
AcDbLine
 10
549.2218887127525
 20
565.6682568253791
 30
0.0
 11
550.2803233827526
 21
564.5287458353791
 31
0.0
  0
ARC
  5
FC3
330
6F
100
AcDbEntity
  8
0
 62
     7
100
AcDbCircle
 10
553.4155772527525
 20
566.0398526153791
 30
0.0
 40
11.48180791
100
AcDbArc
 50
95.73945561999748
 51
175.5973331100003
  0
LINE
  5
FC4
330
6F
100
AcDbEntity
  8
0
 62
     7
100
AcDbLine
 10
554.9749345827525
 20
565.6682568253791
 30
0.0
 11
553.2623600827526
 21
567.1894407853791
 31
0.0
  0
LINE
  5
FC5
330
6F
100
AcDbEntity
  8
0
 62
     7
100
AcDbLine
 10
553.9164999127526
 20
564.5287458353791
 30
0.0
 11
552.0984116527525
 21
566.1509184453791
 31
0.0
  0
LINE
  5
FC6
330
6F
100
AcDbEntity
  8
0
 62
     7
100
AcDbLine
 10
550.2803233827526
 20
569.838216875379
 30
0.0
 11
549.2544361627525
 21
568.6884295453791
 31
0.0
  0
LINE
  5
FC7
330
6F
100
AcDbEntity
  8
0
 62
     7
100
AcDbLine
 10
554.9749345827525
 20
565.6682568253791
 30
0.0
 11
553.9164999127526
 21
564.5287458353791
 31
0.0
  0
LINE
  5
FC8
330
6F
100
AcDbEntity
  8
0
 62
     7
100
AcDbLine
 10
552.0984116527525
 20
568.2233109553791
 30
0.0
 11
553.9164999127526
 21
569.838216875379
 31
0.0
  0
LINE
  5
FC9
330
6F
100
AcDbEntity
  8
0
 62
     7
100
AcDbLine
 10
552.0984116527525
 20
568.2233109553791
 30
0.0
 11
550.2803233827526
 21
569.838216875379
 31
0.0
  0
LINE
  5
FCA
330
6F
100
AcDbEntity
  8
0
 62
     7
100
AcDbLine
 10
553.2623600827526
 20
567.1894407853791
 30
0.0
 11
554.9423871327525
 21
568.6884295453791
 31
0.0
  0
LINE
  5
FCB
330
6F
100
AcDbEntity
  8
0
 62
     7
100
AcDbLine
 10
550.9344632127525
 20
567.1894407853791
 30
0.0
 11
549.2544361627525
 21
568.6884295453791
 31
0.0
  0
ARC
  5
FCC
330
6F
100
AcDbEntity
  8
0
 62
     7
100
AcDbCircle
 10
676.1097714327525
 20
566.6288450453793
 30
0.0
 40
13.34747578
100
AcDbArc
 50
0.6688109100000033
 51
90.66797781999929
  0
CIRCLE
  5
FCD
330
6F
100
AcDbEntity
  8
0
 62
     7
100
AcDbCircle
 10
676.7768147227525
 20
567.1313563353789
 30
0.0
 40
4.96458108
  0
LINE
  5
FCE
330
6F
100
AcDbEntity
  8
0
 62
     7
100
AcDbLine
 10
679.6907870327523
 20
565.6682568253791
 30
0.0
 11
677.9782125327525
 21
567.1894407853791
 31
0.0
  0
LINE
  5
FCF
330
6F
100
AcDbEntity
  8
0
 62
     7
100
AcDbLine
 10
676.8142640927525
 20
568.2233109553791
 30
0.0
 11
674.9961758327525
 21
569.838216875379
 31
0.0
  0
LINE
  5
FD0
330
6F
100
AcDbEntity
  8
0
 62
     7
100
AcDbLine
 10
678.6323523627523
 20
564.5287458353791
 30
0.0
 11
676.8142640927525
 21
566.1509184453791
 31
0.0
  0
LINE
  5
FD1
330
6F
100
AcDbEntity
  8
0
 62
     7
100
AcDbLine
 10
675.6503156627525
 20
567.1894407853791
 30
0.0
 11
673.9702886127526
 21
568.6884295453791
 31
0.0
  0
LINE
  5
FD2
330
6F
100
AcDbEntity
  8
0
 62
     7
100
AcDbLine
 10
674.9961758327525
 20
569.838216875379
 30
0.0
 11
673.9702886127526
 21
568.6884295453791
 31
0.0
  0
LINE
  5
FD3
330
6F
100
AcDbEntity
  8
0
 62
     7
100
AcDbLine
 10
679.6907870327523
 20
565.6682568253791
 30
0.0
 11
678.6323523627523
 21
564.5287458353791
 31
0.0
  0
ARC
  5
FD4
330
6F
100
AcDbEntity
  8
0
 62
     7
100
AcDbCircle
 10
675.4970984927525
 20
566.0398526153791
 30
0.0
 40
11.48180791
100
AcDbArc
 50
4.402666889999678
 51
84.26054438000253
  0
LINE
  5
FD5
330
6F
100
AcDbEntity
  8
0
 62
     7
100
AcDbLine
 10
673.9377411627526
 20
565.6682568253791
 30
0.0
 11
675.6503156627525
 21
567.1894407853791
 31
0.0
  0
LINE
  5
FD6
330
6F
100
AcDbEntity
  8
0
 62
     7
100
AcDbLine
 10
676.8142640927525
 20
568.2233109553791
 30
0.0
 11
678.6323523627523
 21
569.838216875379
 31
0.0
  0
LINE
  5
FD7
330
6F
100
AcDbEntity
  8
0
 62
     7
100
AcDbLine
 10
674.9961758327525
 20
564.5287458353791
 30
0.0
 11
676.8142640927525
 21
566.1509184453791
 31
0.0
  0
LINE
  5
FD8
330
6F
100
AcDbEntity
  8
0
 62
     7
100
AcDbLine
 10
677.9782125327525
 20
567.1894407853791
 30
0.0
 11
679.6582395827526
 21
568.6884295453791
 31
0.0
  0
LINE
  5
FD9
330
6F
100
AcDbEntity
  8
0
 62
     7
100
AcDbLine
 10
678.6323523627523
 20
569.838216875379
 30
0.0
 11
679.6582395827526
 21
568.6884295453791
 31
0.0
  0
LINE
  5
FDA
330
6F
100
AcDbEntity
  8
0
 62
     7
100
AcDbLine
 10
673.9377411627526
 20
565.6682568253791
 30
0.0
 11
674.9961758327525
 21
564.5287458353791
 31
0.0
  0
ARC
  5
FDB
330
6F
100
AcDbEntity
  8
0
 62
     7
100
AcDbCircle
 10
552.8029043127523
 20
430.8106702453791
 30
0.0
 40
13.34747578
100
AcDbArc
 50
180.66881091
 51
270.6679778199992
  0
CIRCLE
  5
FDC
330
6F
100
AcDbEntity
  8
0
 62
     7
100
AcDbCircle
 10
552.1358610227525
 20
430.3081589553791
 30
0.0
 40
4.96458108
  0
LINE
  5
FDD
330
6F
100
AcDbEntity
  8
0
 62
     7
100
AcDbLine
 10
549.2218887127525
 20
431.7712584653791
 30
0.0
 11
550.9344632127525
 21
430.2500745053791
 31
0.0
  0
LINE
  5
FDE
330
6F
100
AcDbEntity
  8
0
 62
     7
100
AcDbLine
 10
552.0984116527525
 20
429.2162043353791
 30
0.0
 11
553.9164999127526
 21
427.6012984153791
 31
0.0
  0
LINE
  5
FDF
330
6F
100
AcDbEntity
  8
0
 62
     7
100
AcDbLine
 10
550.2803233827526
 20
432.910769455379
 30
0.0
 11
552.0984116527525
 21
431.2885968453791
 31
0.0
  0
LINE
  5
FE0
330
6F
100
AcDbEntity
  8
0
 62
     7
100
AcDbLine
 10
553.2623600827526
 20
430.2500745053791
 30
0.0
 11
554.9423871327525
 21
428.751085745379
 31
0.0
  0
LINE
  5
FE1
330
6F
100
AcDbEntity
  8
0
 62
     7
100
AcDbLine
 10
553.9164999127526
 20
427.6012984153791
 30
0.0
 11
554.9423871327525
 21
428.751085745379
 31
0.0
  0
LINE
  5
FE2
330
6F
100
AcDbEntity
  8
0
 62
     7
100
AcDbLine
 10
549.2218887127525
 20
431.7712584653791
 30
0.0
 11
550.2803233827526
 21
432.910769455379
 31
0.0
  0
ARC
  5
FE3
330
6F
100
AcDbEntity
  8
0
 62
     7
100
AcDbCircle
 10
553.4155772527525
 20
431.399662665379
 30
0.0
 40
11.48180791
100
AcDbArc
 50
184.4026668899996
 51
264.2605443800025
  0
LINE
  5
FE4
330
6F
100
AcDbEntity
  8
0
 62
     7
100
AcDbLine
 10
554.9749345827525
 20
431.7712584653791
 30
0.0
 11
553.2623600827526
 21
430.2500745053791
 31
0.0
  0
LINE
  5
FE5
330
6F
100
AcDbEntity
  8
0
 62
     7
100
AcDbLine
 10
552.0984116527525
 20
429.2162043353791
 30
0.0
 11
550.2803233827526
 21
427.6012984153791
 31
0.0
  0
LINE
  5
FE6
330
6F
100
AcDbEntity
  8
0
 62
     7
100
AcDbLine
 10
553.9164999127526
 20
432.910769455379
 30
0.0
 11
552.0984116527525
 21
431.2885968453791
 31
0.0
  0
LINE
  5
FE7
330
6F
100
AcDbEntity
  8
0
 62
     7
100
AcDbLine
 10
550.9344632127525
 20
430.2500745053791
 30
0.0
 11
549.2544361627525
 21
428.751085745379
 31
0.0
  0
LINE
  5
FE8
330
6F
100
AcDbEntity
  8
0
 62
     7
100
AcDbLine
 10
550.2803233827526
 20
427.6012984153791
 30
0.0
 11
549.2544361627525
 21
428.751085745379
 31
0.0
  0
LINE
  5
FE9
330
6F
100
AcDbEntity
  8
0
 62
     7
100
AcDbLine
 10
554.9749345827525
 20
431.7712584653791
 30
0.0
 11
553.9164999127526
 21
432.910769455379
 31
0.0
  0
ARC
  5
FEA
330
6F
100
AcDbEntity
  8
0
 62
     7
100
AcDbCircle
 10
676.1097714327525
 20
430.8106702453791
 30
0.0
 40
13.34747578
100
AcDbArc
 50
269.3320221800008
 51
359.33118909
  0
CIRCLE
  5
FEB
330
6F
100
AcDbEntity
  8
0
 62
     7
100
AcDbCircle
 10
676.7768147227525
 20
430.3081589553791
 30
0.0
 40
4.96458108
  0
LINE
  5
FEC
330
6F
100
AcDbEntity
  8
0
 62
     7
100
AcDbLine
 10
679.6907870327523
 20
431.7712584653791
 30
0.0
 11
677.9782125327525
 21
430.2500745053791
 31
0.0
  0
LINE
  5
FED
330
6F
100
AcDbEntity
  8
0
 62
     7
100
AcDbLine
 10
676.8142640927525
 20
429.2162043353791
 30
0.0
 11
674.9961758327525
 21
427.6012984153791
 31
0.0
  0
LINE
  5
FEE
330
6F
100
AcDbEntity
  8
0
 62
     7
100
AcDbLine
 10
678.6323523627523
 20
432.910769455379
 30
0.0
 11
676.8142640927525
 21
431.2885968453791
 31
0.0
  0
LINE
  5
FEF
330
6F
100
AcDbEntity
  8
0
 62
     7
100
AcDbLine
 10
675.6503156627525
 20
430.2500745053791
 30
0.0
 11
673.9702886127526
 21
428.751085745379
 31
0.0
  0
LINE
  5
FF0
330
6F
100
AcDbEntity
  8
0
 62
     7
100
AcDbLine
 10
674.9961758327525
 20
427.6012984153791
 30
0.0
 11
673.9702886127526
 21
428.751085745379
 31
0.0
  0
LINE
  5
FF1
330
6F
100
AcDbEntity
  8
0
 62
     7
100
AcDbLine
 10
679.6907870327523
 20
431.7712584653791
 30
0.0
 11
678.6323523627523
 21
432.910769455379
 31
0.0
  0
ARC
  5
FF2
330
6F
100
AcDbEntity
  8
0
 62
     7
100
AcDbCircle
 10
675.4970984927525
 20
431.399662665379
 30
0.0
 40
11.48180791
100
AcDbArc
 50
275.7394556199975
 51
355.5973331100003
  0
LINE
  5
FF3
330
6F
100
AcDbEntity
  8
0
 62
     7
100
AcDbLine
 10
673.9377411627526
 20
431.7712584653791
 30
0.0
 11
675.6503156627525
 21
430.2500745053791
 31
0.0
  0
LINE
  5
FF4
330
6F
100
AcDbEntity
  8
0
 62
     7
100
AcDbLine
 10
676.8142640927525
 20
429.2162043353791
 30
0.0
 11
678.6323523627523
 21
427.6012984153791
 31
0.0
  0
LINE
  5
FF5
330
6F
100
AcDbEntity
  8
0
 62
     7
100
AcDbLine
 10
674.9961758327525
 20
432.910769455379
 30
0.0
 11
676.8142640927525
 21
431.2885968453791
 31
0.0
  0
LINE
  5
FF6
330
6F
100
AcDbEntity
  8
0
 62
     7
100
AcDbLine
 10
677.9782125327525
 20
430.2500745053791
 30
0.0
 11
679.6582395827526
 21
428.751085745379
 31
0.0
  0
LINE
  5
FF7
330
6F
100
AcDbEntity
  8
0
 62
     7
100
AcDbLine
 10
678.6323523627523
 20
427.6012984153791
 30
0.0
 11
679.6582395827526
 21
428.751085745379
 31
0.0
  0
LINE
  5
FF8
330
6F
100
AcDbEntity
  8
0
 62
     7
100
AcDbLine
 10
673.9377411627526
 20
431.7712584653791
 30
0.0
 11
674.9961758327525
 21
432.910769455379
 31
0.0
  0
ARC
  5
FF9
330
6F
100
AcDbEntity
  8
0
 62
     7
100
AcDbCircle
 10
552.8029043127523
 20
83.32260875537912
 30
0.0
 40
13.34747578
100
AcDbArc
 50
180.66881091
 51
270.6679778199992
  0
ARC
  5
FFA
330
6F
100
AcDbEntity
  8
0
 62
     7
100
AcDbCircle
 10
676.1097714327525
 20
83.32260875537912
 30
0.0
 40
13.34747578
100
AcDbArc
 50
269.3320221800008
 51
359.33118909
  0
LINE
  5
1004
330
6F
100
AcDbEntity
  8
0
 62
     7
100
AcDbLine
 10
686.9604688227525
 20
402.7290293053791
 30
0.0
 11
686.9604688227525
 21
84.71111228537912
 31
0.0
  0
LINE
  5
1005
330
6F
100
AcDbEntity
  8
0
 62
     7
100
AcDbLine
 10
541.9522069227525
 20
402.7290293053791
 30
0.0
 11
541.9522069227525
 21
84.71111228537912
 31
0.0
  0
LINE
  5
1006
330
6F
100
AcDbEntity
  8
0
 62
     7
100
AcDbLine
 10
551.9528922927526
 20
74.71042691537913
 30
0.0
 11
676.9597834527526
 21
74.71042691537913
 31
0.0
  0
ARC
  5
1007
330
6F
100
AcDbEntity
  8
0
 62
     7
100
AcDbCircle
 10
676.9597834527526
 20
84.71111228537912
 30
0.0
 40
10.00068537
100
AcDbArc
 50
270.0
 51
0.0
  0
ARC
  5
1008
330
6F
100
AcDbEntity
  8
0
 62
     7
100
AcDbCircle
 10
551.9528922927526
 20
84.71111228537912
 30
0.0
 40
10.00068537
100
AcDbArc
 50
180.0
 51
270.0
  0
ARC
  5
1009
330
6F
100
AcDbEntity
  8
0
 62
     7
100
AcDbCircle
 10
551.9528922927526
 20
402.7290293053791
 30
0.0
 40
10.00068537
100
AcDbArc
 50
90.0
 51
180.0
  0
ARC
  5
100A
330
6F
100
AcDbEntity
  8
0
 62
     7
100
AcDbCircle
 10
676.9597834527526
 20
402.7290293053791
 30
0.0
 40
10.00068537
100
AcDbArc
 50
0.0
 51
90.0
  0
LINE
  5
100B
330
6F
100
AcDbEntity
  8
0
 62
     7
100
AcDbLine
 10
551.9528922927526
 20
412.729714665379
 30
0.0
 11
676.9597834527526
 21
412.729714665379
 31
0.0
  0
LINE
  5
100D
330
6F
100
AcDbEntity
  8
0
 62
     7
370
    35
100
AcDbLine
 10
686.9522069227525
 20
366.2200667953791
 30
0.0
 11
686.9522069227525
 21
121.2200747953791
 31
0.0
  0
LINE
  5
1011
330
6F
100
AcDbEntity
  8
0
 62
     7
370
    35
100
AcDbLine
 10
541.9522069227525
 20
121.2200747953791
 30
0.0
 11
541.9522069227525
 21
366.2200667953791
 31
0.0
  0
CIRCLE
  5
1014
330
6F
100
AcDbEntity
  8
0
 62
     7
100
AcDbCircle
 10
674.4763781527525
 20
85.05251123537915
 30
-5.000346429999998
 40
4.50030729
  0
CIRCLE
  5
1015
330
6F
100
AcDbEntity
  8
0
 62
     7
100
AcDbCircle
 10
674.4763793327526
 20
85.05162805537914
 30
0.0
 40
1.75011825
  0
CIRCLE
  5
1016
330
6F
100
AcDbEntity
  8
0
 62
     7
100
AcDbCircle
 10
554.4694864927524
 20
85.03770248537913
 30
-5.000346429999998
 40
4.50030729
  0
CIRCLE
  5
1017
330
6F
100
AcDbEntity
  8
0
 62
     7
100
AcDbCircle
 10
554.4694864927524
 20
85.03770248537913
 30
-5.000346429999998
 40
1.75011825
  0
CIRCLE
  5
1018
330
6F
100
AcDbEntity
  8
0
 62
     7
100
AcDbCircle
 10
674.4763781527525
 20
401.2311828753791
 30
-5.000346429999998
 40
1.75011825
  0
CIRCLE
  5
1019
330
6F
100
AcDbEntity
  8
0
 62
     7
100
AcDbCircle
 10
674.4763781527525
 20
401.2311828753791
 30
-5.000346429999998
 40
4.50030729
  0
CIRCLE
  5
101A
330
6F
100
AcDbEntity
  8
0
 62
     7
100
AcDbCircle
 10
554.4694864927524
 20
401.245991625379
 30
-5.000346429999998
 40
1.75011825
  0
CIRCLE
  5
101B
330
6F
100
AcDbEntity
  8
0
 62
     7
100
AcDbCircle
 10
554.4694864927524
 20
401.245991625379
 30
-5.000346429999998
 40
4.50030729
  0
LINE
  5
101C
330
6F
100
AcDbEntity
  8
0
 62
     7
100
AcDbLine
 10
551.9528922927526
 20
412.729714665379
 30
0.0
 11
676.9597834527526
 21
412.729714665379
 31
0.0
  0
LINE
  5
1024
330
6F
100
AcDbEntity
  8
0
 62
     7
100
AcDbLine
 10
541.9522379874572
 20
115.8431281177561
 30
0.0
 11
541.9522379874572
 21
371.5969530096282
 31
0.0
  0
LINE
  5
1025
330
6F
100
AcDbEntity
  8
0
 62
     7
100
AcDbLine
 10
686.9604384750886
 20
115.8431281177561
 30
0.0
 11
686.9604384750886
 21
371.5969530096282
 31
0.0
  0
LINE
  5
1098
330
6F
100
AcDbEntity
  8
0
 62
     7
370
     5
100
AcDbLine
 10
582.7657454127526
 20
568.255956735379
 30
0.0
 11
582.7657454127526
 21
569.0930608053791
 31
0.0
  0
LINE
  5
1099
330
6F
100
AcDbEntity
  8
0
 62
     7
370
     5
100
AcDbLine
 10
582.7657454127526
 20
569.0930608053791
 30
0.0
 11
583.6028494827525
 21
569.9301648753792
 31
0.0
  0
LINE
  5
109A
330
6F
100
AcDbEntity
  8
0
 62
     7
370
     5
100
AcDbLine
 10
583.6028494827525
 20
569.9301648753792
 30
0.0
 11
585.2770576327525
 21
570.7672689553791
 31
0.0
  0
LINE
  5
109B
330
6F
100
AcDbEntity
  8
0
 62
     7
370
     5
100
AcDbLine
 10
582.7657454127526
 20
555.4514009053791
 30
0.0
 11
582.7657454127526
 21
556.288504975379
 31
0.0
  0
LINE
  5
109C
330
6F
100
AcDbEntity
  8
0
 62
     7
370
     5
100
AcDbLine
 10
582.7657454127526
 20
556.288504975379
 30
0.0
 11
582.7657454127526
 21
555.4514009053791
 31
0.0
  0
LINE
  5
109D
330
6F
100
AcDbEntity
  8
0
 62
     7
370
     5
100
AcDbLine
 10
582.7657454127526
 20
555.4514009053791
 30
0.0
 11
583.6028494827525
 21
554.6142968353791
 31
0.0
  0
LINE
  5
109E
330
6F
100
AcDbEntity
  8
0
 62
     7
370
     5
100
AcDbLine
 10
583.6028494827525
 20
554.6142968353791
 30
0.0
 11
584.4399535627525
 21
554.6142968353791
 31
0.0
  0
LINE
  5
109F
330
6F
100
AcDbEntity
  8
0
 62
     7
370
     5
100
AcDbLine
 10
641.6356181127525
 20
554.6142968353791
 30
0.0
 11
643.3098262627525
 21
554.6142968353791
 31
0.0
  0
LINE
  5
10A0
330
6F
100
AcDbEntity
  8
0
 62
     7
370
     5
100
AcDbLine
 10
643.3098262627525
 20
554.6142968353791
 30
0.0
 11
644.1469303327526
 21
555.4514009053791
 31
0.0
  0
LINE
  5
10A1
330
6F
100
AcDbEntity
  8
0
 62
     7
370
     5
100
AcDbLine
 10
644.1469303327526
 20
555.4514009053791
 30
0.0
 11
644.1469303327526
 21
556.288504975379
 31
0.0
  0
LINE
  5
10A2
330
6F
100
AcDbEntity
  8
0
 62
     7
370
     5
100
AcDbLine
 10
644.1469303327526
 20
568.255956735379
 30
0.0
 11
644.1469303327526
 21
569.0930608053791
 31
0.0
  0
LINE
  5
10A3
330
6F
100
AcDbEntity
  8
0
 62
     7
370
     5
100
AcDbLine
 10
644.1469303327526
 20
569.0930608053791
 30
0.0
 11
643.3098262627525
 21
569.9301648753792
 31
0.0
  0
LINE
  5
10A4
330
6F
100
AcDbEntity
  8
0
 62
     7
370
     5
100
AcDbLine
 10
643.3098262627525
 20
569.9301648753792
 30
0.0
 11
641.6356181127525
 21
570.7672689553791
 31
0.0
  0
LINE
  5
10A5
330
6F
100
AcDbEntity
  8
0
 62
     7
370
     5
100
AcDbLine
 10
641.6356181127525
 20
570.7672689553791
 30
0.0
 11
585.2770576327525
 21
570.7672689553791
 31
0.0
  0
LINE
  5
10A6
330
6F
100
AcDbEntity
  8
0
 62
     7
370
     5
100
AcDbLine
 10
584.4399535627525
 20
554.6142968353791
 30
0.0
 11
641.6356181127525
 21
554.6142968353791
 31
0.0
  0
LINE
  5
10A7
330
6F
100
AcDbEntity
  8
0
 62
     7
370
     5
100
AcDbLine
 10
644.1469303327526
 20
556.288504975379
 30
0.0
 11
644.1469303327526
 21
568.255956735379
 31
0.0
  0
LINE
  5
10A8
330
6F
100
AcDbEntity
  8
0
 62
     7
370
     5
100
AcDbLine
 10
582.7657454127526
 20
568.255956735379
 30
0.0
 11
582.7657454127526
 21
555.4514009053791
 31
0.0
  0
LINE
  5
10A9
330
6F
100
AcDbEntity
  8
0
 62
     7
370
     9
100
AcDbLine
 10
676.6453361427525
 20
577.4641015253791
 30
0.0
 11
552.2673396127526
 21
577.4641015353791
 31
0.0
  0
LINE
  5
10AA
330
6F
100
AcDbEntity
  8
0
 62
     7
370
     9
100
AcDbLine
 10
541.9676500927526
 20
566.9212586153792
 30
0.0
 11
541.9676500927526
 21
430.518256665379
 31
0.0
  0
LINE
  5
10AB
330
6F
100
AcDbEntity
  8
0
 62
     7
370
     9
100
AcDbLine
 10
686.9450256527525
 20
430.5182566153791
 30
0.0
 11
686.9450256527525
 21
566.9212586153792
 31
0.0
  0
LINE
  5
10AC
330
6F
100
AcDbEntity
  8
0
 62
     7
370
     9
100
AcDbLine
 10
675.9541645827526
 20
417.4641015453791
 30
0.0
 11
552.9585111627524
 21
417.464101535379
 31
0.0
  0
LINE
  5
10AD
330
6F
100
AcDbEntity
  8
0
 62
     7
370
     9
100
AcDbLine
 10
539.4563378727525
 20
428.504538495379
 30
0.0
 11
539.4563378727525
 21
431.8529547853791
 31
0.0
  0
LINE
  5
10AE
330
6F
100
AcDbEntity
  8
0
 62
     7
370
     9
100
AcDbLine
 10
676.6453361427525
 20
419.9754137553791
 30
0.0
 11
552.2673396127526
 21
419.9754137553791
 31
0.0
  0
LINE
  5
10AF
330
6F
100
AcDbEntity
  8
0
 62
     7
370
     9
100
AcDbLine
 10
539.4563378727525
 20
566.7846459553791
 30
0.0
 11
539.4563378727525
 21
83.16680784537913
 31
0.0
  0
LINE
  5
10B0
330
6F
100
AcDbEntity
  8
0
 62
     7
370
     9
100
AcDbLine
 10
552.9585111627524
 20
69.97604004537913
 30
0.0
 11
675.9541645827526
 21
69.97604004537913
 31
0.0
  0
LINE
  5
10B1
330
6F
100
AcDbEntity
  8
0
 62
     7
370
     9
100
AcDbLine
 10
689.4563378727525
 20
83.16680784537913
 30
0.0
 11
689.4563378727525
 21
566.7846459553791
 31
0.0
  0
LINE
  5
10B2
330
6F
100
AcDbEntity
  8
0
 62
     7
370
     9
100
AcDbLine
 10
675.9541645827526
 20
579.9754137553791
 30
0.0
 11
552.7954463227525
 21
579.9763187353792
 31
0.0
  0
ARC
  5
1188
330
6F
100
AcDbEntity
  8
0
 62
     7
370
    35
100
AcDbCircle
 10
674.4522379874572
 20
121.2200445636921
 30
0.0
 40
12.5
100
AcDbArc
 50
269.9999969999958
 51
0.0
  0
LINE
  5
1189
330
6F
100
AcDbEntity
  8
0
 62
     7
370
    35
100
AcDbLine
 10
686.9522379874572
 20
366.2200365636922
 30
0.0
 11
686.9522379874572
 21
121.2200445636921
 31
0.0
  0
ARC
  5
118A
330
6F
100
AcDbEntity
  8
0
 62
     7
370
    35
100
AcDbCircle
 10
674.4522379874572
 20
366.2200365636922
 30
0.0
 40
12.5
100
AcDbArc
 50
0.0
 51
90.00000299999769
  0
LINE
  5
118B
330
6F
100
AcDbEntity
  8
0
 62
     7
370
    35
100
AcDbLine
 10
554.4522379874572
 20
378.7200365636921
 30
0.0
 11
674.4522379874572
 21
378.7200365636921
 31
0.0
  0
ARC
  5
118C
330
6F
100
AcDbEntity
  8
0
 62
     7
370
    35
100
AcDbCircle
 10
554.4522379874572
 20
366.2200365636922
 30
0.0
 40
12.5
100
AcDbArc
 50
90.00000299999769
 51
179.9999949999995
  0
LINE
  5
118D
330
6F
100
AcDbEntity
  8
0
 62
     7
370
    35
100
AcDbLine
 10
541.9522379874572
 20
121.2200445636921
 30
0.0
 11
541.9522379874572
 21
366.2200365636922
 31
0.0
  0
ARC
  5
118E
330
6F
100
AcDbEntity
  8
0
 62
     7
370
    35
100
AcDbCircle
 10
554.4522379874572
 20
121.2200445636921
 30
0.0
 40
12.5
100
AcDbArc
 50
179.9999949999995
 51
269.9999969999958
  0
LINE
  5
118F
330
6F
100
AcDbEntity
  8
0
 62
     7
370
    35
100
AcDbLine
 10
674.4522379874572
 20
108.7200445636921
 30
0.0
 11
554.4522379874572
 21
108.7200445636921
 31
0.0
  0
LINE
  5
1190
330
6F
100
AcDbEntity
  8
0
 62
     7
 48
0.000929
370
    13
100
AcDbLine
 10
674.4522379874572
 20
108.7200445636921
 30
0.0
 11
674.4522379874572
 21
108.7572225636921
 31
0.0
  0
LINE
  5
1191
330
6F
100
AcDbEntity
  8
0
 62
     7
 48
0.000929
370
    13
100
AcDbLine
 10
686.9522379874572
 20
121.2200445636921
 30
0.0
 11
686.9150679874573
 21
121.2200445636921
 31
0.0
  0
LINE
  5
1192
330
6F
100
AcDbEntity
  8
0
 62
     7
 48
0.000929
370
    13
100
AcDbLine
 10
686.9522379874572
 20
366.2200365636922
 30
0.0
 11
686.9150679874573
 21
366.2200365636922
 31
0.0
  0
LINE
  5
1193
330
6F
100
AcDbEntity
  8
0
 62
     7
 48
0.000929
370
    13
100
AcDbLine
 10
674.4522379874572
 20
378.7200365636921
 30
0.0
 11
674.4522379874572
 21
378.6828665636922
 31
0.0
  0
LINE
  5
1194
330
6F
100
AcDbEntity
  8
0
 62
     7
 48
0.000929
370
    13
100
AcDbLine
 10
554.4522379874572
 20
378.7200365636921
 30
0.0
 11
554.4522379874572
 21
378.6828665636922
 31
0.0
  0
LINE
  5
1195
330
6F
100
AcDbEntity
  8
0
 62
     7
 48
0.000929
370
    13
100
AcDbLine
 10
541.9522379874572
 20
366.2200365636922
 30
0.0
 11
541.9894159874572
 21
366.2200365636922
 31
0.0
  0
LINE
  5
1196
330
6F
100
AcDbEntity
  8
0
 62
     7
 48
0.000929
370
    13
100
AcDbLine
 10
541.9522379874572
 20
121.2200445636921
 30
0.0
 11
541.9894159874572
 21
121.2200445636921
 31
0.0
  0
LINE
  5
1197
330
6F
100
AcDbEntity
  8
0
 62
     7
 48
0.000929
370
    13
100
AcDbLine
 10
554.4522379874572
 20
108.7200445636921
 30
0.0
 11
554.4522379874572
 21
108.7572225636921
 31
0.0
  0
LINE
  5
1198
330
6F
100
AcDbEntity
  8
0
 62
     7
 48
0.004094
370
    13
100
AcDbLine
 10
674.4522379874572
 20
108.7572225636921
 30
0.0
 11
674.4522379874572
 21
108.9209645636921
 31
0.0
  0
LINE
  5
1199
330
6F
100
AcDbEntity
  8
0
 62
     7
 48
0.004094
370
    13
100
AcDbLine
 10
686.9150679874573
 20
121.2200445636921
 30
0.0
 11
686.7513099874572
 21
121.2200445636921
 31
0.0
  0
LINE
  5
119A
330
6F
100
AcDbEntity
  8
0
 62
     7
 48
0.004094
370
    13
100
AcDbLine
 10
686.9150679874573
 20
366.2200365636922
 30
0.0
 11
686.7513099874572
 21
366.2200365636922
 31
0.0
  0
LINE
  5
119B
330
6F
100
AcDbEntity
  8
0
 62
     7
 48
0.004094
370
    13
100
AcDbLine
 10
674.4522379874572
 20
378.6828665636922
 30
0.0
 11
674.4522379874572
 21
378.5191095636922
 31
0.0
  0
LINE
  5
119C
330
6F
100
AcDbEntity
  8
0
 62
     7
 48
0.004094
370
    13
100
AcDbLine
 10
554.4522379874572
 20
378.6828665636922
 30
0.0
 11
554.4522379874572
 21
378.5191095636922
 31
0.0
  0
LINE
  5
119D
330
6F
100
AcDbEntity
  8
0
 62
     7
 48
0.004094
370
    13
100
AcDbLine
 10
541.9894159874572
 20
366.2200365636922
 30
0.0
 11
542.1531579874572
 21
366.2200365636922
 31
0.0
  0
LINE
  5
119E
330
6F
100
AcDbEntity
  8
0
 62
     7
 48
0.004094
370
    13
100
AcDbLine
 10
541.9894159874572
 20
121.2200445636921
 30
0.0
 11
542.1531579874572
 21
121.2200445636921
 31
0.0
  0
LINE
  5
119F
330
6F
100
AcDbEntity
  8
0
 62
     7
 48
0.004094
370
    13
100
AcDbLine
 10
554.4522379874572
 20
108.7572225636921
 30
0.0
 11
554.4522379874572
 21
108.9209645636921
 31
0.0
  0
LINE
  5
11A0
330
6F
100
AcDbEntity
  8
0
 62
     7
 48
0.066513
370
    13
100
AcDbLine
 10
674.4522379874572
 20
108.9209645636921
 30
0.0
 11
674.4522379874572
 21
111.5814715636921
 31
0.0
  0
LINE
  5
11A1
330
6F
100
AcDbEntity
  8
0
 62
     7
 48
0.066512
370
    13
100
AcDbLine
 10
686.7513099874572
 20
121.2200445636921
 30
0.0
 11
684.0908179874572
 21
121.2200445636921
 31
0.0
  0
LINE
  5
11A2
330
6F
100
AcDbEntity
  8
0
 62
     7
 48
0.066512
370
    13
100
AcDbLine
 10
686.7513099874572
 20
366.2200365636922
 30
0.0
 11
684.0908179874572
 21
366.2200365636922
 31
0.0
  0
LINE
  5
11A3
330
6F
100
AcDbEntity
  8
0
 62
     7
 48
0.066512
370
    13
100
AcDbLine
 10
674.4522379874572
 20
378.5191095636922
 30
0.0
 11
674.4522379874572
 21
375.8586175636922
 31
0.0
  0
LINE
  5
11A4
330
6F
100
AcDbEntity
  8
0
 62
     7
 48
0.066512
370
    13
100
AcDbLine
 10
554.4522379874572
 20
378.5191095636922
 30
0.0
 11
554.4522379874572
 21
375.8586175636922
 31
0.0
  0
LINE
  5
11A5
330
6F
100
AcDbEntity
  8
0
 62
     7
 48
0.066513
370
    13
100
AcDbLine
 10
542.1531579874572
 20
366.2200365636922
 30
0.0
 11
544.8136649874571
 21
366.2200365636922
 31
0.0
  0
LINE
  5
11A6
330
6F
100
AcDbEntity
  8
0
 62
     7
 48
0.066513
370
    13
100
AcDbLine
 10
542.1531579874572
 20
121.2200445636921
 30
0.0
 11
544.8136649874571
 21
121.2200445636921
 31
0.0
  0
LINE
  5
11A7
330
6F
100
AcDbEntity
  8
0
 62
     7
 48
0.066513
370
    13
100
AcDbLine
 10
554.4522379874572
 20
108.9209645636921
 30
0.0
 11
554.4522379874572
 21
111.5814715636921
 31
0.0
  0
LINE
  5
11A8
330
6F
100
AcDbEntity
  8
0
 62
     7
 48
0.02105
370
    13
100
AcDbLine
 10
684.0908179874572
 20
121.2200445636921
 30
0.0
 11
683.2488079874572
 21
121.2200445636921
 31
0.0
  0
LINE
  5
11A9
330
6F
100
AcDbEntity
  8
0
 62
     7
 48
0.02105
370
    13
100
AcDbLine
 10
674.4522379874572
 20
111.5814715636921
 30
0.0
 11
674.4522379874572
 21
112.4234825636921
 31
0.0
  0
LINE
  5
11AA
330
6F
100
AcDbEntity
  8
0
 62
     7
 48
0.02105
370
    13
100
AcDbLine
 10
684.0908179874572
 20
366.2200365636922
 30
0.0
 11
683.2488079874572
 21
366.2200365636922
 31
0.0
  0
LINE
  5
11AB
330
6F
100
AcDbEntity
  8
0
 62
     7
 48
0.02105
370
    13
100
AcDbLine
 10
674.4522379874572
 20
375.8586175636922
 30
0.0
 11
674.4522379874572
 21
375.0166065636922
 31
0.0
  0
LINE
  5
11AC
330
6F
100
AcDbEntity
  8
0
 62
     7
 48
0.02105
370
    13
100
AcDbLine
 10
554.4522379874572
 20
375.8586175636922
 30
0.0
 11
554.4522379874572
 21
375.0166065636922
 31
0.0
  0
LINE
  5
11AD
330
6F
100
AcDbEntity
  8
0
 62
     7
 48
0.02105
370
    13
100
AcDbLine
 10
544.8136649874571
 20
366.2200365636922
 30
0.0
 11
545.6556759874572
 21
366.2200365636922
 31
0.0
  0
LINE
  5
11AE
330
6F
100
AcDbEntity
  8
0
 62
     7
 48
0.02105
370
    13
100
AcDbLine
 10
544.8136649874571
 20
121.2200445636921
 30
0.0
 11
545.6556759874572
 21
121.2200445636921
 31
0.0
  0
LINE
  5
11AF
330
6F
100
AcDbEntity
  8
0
 62
     7
 48
0.02105
370
    13
100
AcDbLine
 10
554.4522379874572
 20
111.5814715636921
 30
0.0
 11
554.4522379874572
 21
112.4234825636921
 31
0.0
  0
LINE
  5
11B0
330
6F
100
AcDbEntity
  8
0
 62
     7
 48
0.008427
370
    13
100
AcDbLine
 10
674.4522379874572
 20
112.7605715636921
 30
0.0
 11
674.4522379874572
 21
112.4234825636921
 31
0.0
  0
ARC
  5
11B1
330
6F
100
AcDbEntity
  8
0
 62
     7
370
    13
100
AcDbCircle
 10
674.3427099874573
 20
121.2255525636921
 30
0.0
 40
8.465775
100
AcDbArc
 50
270.7412439999991
 51
345.0512529999995
  0
ARC
  5
11B2
330
6F
100
AcDbEntity
  8
0
 62
     7
370
    13
100
AcDbCircle
 10
674.4511699874569
 20
121.1977365636921
 30
0.0
 40
8.35392
100
AcDbArc
 50
345.0435759999991
 51
0.1530160000000656
  0
LINE
  5
11B3
330
6F
100
AcDbEntity
  8
0
 62
     7
 48
0.011094
370
    13
100
AcDbLine
 10
682.8050519874572
 20
121.2200445636921
 30
0.0
 11
683.2488079874572
 21
121.2200445636921
 31
0.0
  0
ARC
  5
11B4
330
6F
100
AcDbEntity
  8
0
 62
     7
370
    13
100
AcDbCircle
 10
42811.87020698746
 20
268.0598195636922
 30
0.0
 40
42129.320607
100
AcDbArc
 50
179.9991029999999
 51
180.1996959999996
  0
LINE
  5
11B5
330
6F
100
AcDbEntity
  8
0
 62
     7
370
    13
100
AcDbLine
 10
682.5487039874571
 20
366.2200365636922
 30
0.0
 11
682.5487039874571
 21
268.720036563692
 31
0.0
  0
LINE
  5
11B6
330
6F
100
AcDbEntity
  8
0
 62
     7
 48
0.017503
370
    13
100
AcDbLine
 10
682.5487039874571
 20
366.2200365636922
 30
0.0
 11
683.2488079874572
 21
366.2200365636922
 31
0.0
  0
ARC
  5
11B7
330
6F
100
AcDbEntity
  8
0
 62
     7
370
    13
100
AcDbCircle
 10
674.4522379874572
 20
366.2200365636922
 30
0.0
 40
8.096458
100
AcDbArc
 50
0.0
 51
1.88532199999992
  0
ARC
  5
11B8
330
6F
100
AcDbEntity
  8
0
 62
     7
370
    13
100
AcDbCircle
 10
674.3456099874572
 20
366.2170155636923
 30
0.0
 40
8.203092999999999
100
AcDbArc
 50
1.8819050000001
 51
89.25516400000097
  0
LINE
  5
11B9
330
6F
100
AcDbEntity
  8
0
 62
     7
 48
0.01493
370
    13
100
AcDbLine
 10
674.4522379874572
 20
374.4194085636922
 30
0.0
 11
674.4522379874572
 21
375.0166065636922
 31
0.0
  0
LINE
  5
11BA
330
6F
100
AcDbEntity
  8
0
 62
     7
 48
0.01493
370
    13
100
AcDbLine
 10
554.4522379874572
 20
374.4194085636922
 30
0.0
 11
554.4522379874572
 21
375.0166065636922
 31
0.0
  0
LINE
  5
11BB
330
6F
100
AcDbEntity
  8
0
 62
     7
370
    13
100
AcDbLine
 10
674.4522379874572
 20
374.4194085636922
 30
0.0
 11
554.4522379874572
 21
374.4194085636922
 31
0.0
  0
ARC
  5
11BC
330
6F
100
AcDbEntity
  8
0
 62
     7
370
    13
100
AcDbCircle
 10
554.5588739874572
 20
366.2170155636923
 30
0.0
 40
8.203094
100
AcDbArc
 50
90.74484099999864
 51
178.1180829999999
  0
ARC
  5
11BD
330
6F
100
AcDbEntity
  8
0
 62
     7
370
    13
100
AcDbCircle
 10
554.4522379874572
 20
366.2200365636922
 30
0.0
 40
8.096458
100
AcDbArc
 50
178.1146820000002
 51
180.0000049999997
  0
LINE
  5
11BE
330
6F
100
AcDbEntity
  8
0
 62
     7
 48
0.017503
370
    13
100
AcDbLine
 10
546.3557799874572
 20
366.2200365636922
 30
0.0
 11
545.6556759874572
 21
366.2200365636922
 31
0.0
  0
LINE
  5
11BF
330
6F
100
AcDbEntity
  8
0
 62
     7
 48
0.011094
370
    13
100
AcDbLine
 10
546.0994169874573
 20
121.2200445636921
 30
0.0
 11
545.6556759874572
 21
121.2200445636921
 31
0.0
  0
ARC
  5
11C0
330
6F
100
AcDbEntity
  8
0
 62
     7
370
    13
100
AcDbCircle
 10
-41582.37198101251
 20
268.060323563692
 30
0.0
 40
42128.72815099999
100
AcDbArc
 50
359.8002939999997
 51
0.0008970000000975
  0
LINE
  5
11C1
330
6F
100
AcDbEntity
  8
0
 62
     7
370
    13
100
AcDbLine
 10
546.3557799874572
 20
268.720036563692
 30
0.0
 11
546.3557799874572
 21
366.2200365636922
 31
0.0
  0
ARC
  5
11C2
330
6F
100
AcDbEntity
  8
0
 62
     7
370
    13
100
AcDbCircle
 10
554.4533059874573
 20
121.1977365636921
 30
0.0
 40
8.35392
100
AcDbArc
 50
179.8469809999997
 51
194.9564289999986
  0
ARC
  5
11C3
330
6F
100
AcDbEntity
  8
0
 62
     7
370
    13
100
AcDbCircle
 10
554.5617579874572
 20
121.2255525636921
 30
0.0
 40
8.465775
100
AcDbArc
 50
194.9487519999998
 51
269.2587580000018
  0
LINE
  5
11C4
330
6F
100
AcDbEntity
  8
0
 62
     7
 48
0.008427
370
    13
100
AcDbLine
 10
554.4522379874572
 20
112.7605715636921
 30
0.0
 11
554.4522379874572
 21
112.4234825636921
 31
0.0
  0
LINE
  5
11C5
330
6F
100
AcDbEntity
  8
0
 62
     7
370
    13
100
AcDbLine
 10
674.4522379874572
 20
112.7605715636921
 30
0.0
 11
622.0510459874574
 21
112.7605715636921
 31
0.0
  0
LINE
  5
11C6
330
6F
100
AcDbEntity
  8
0
 62
     7
370
    13
100
AcDbLine
 10
622.0510459874574
 20
112.7605715636921
 30
0.0
 11
554.4522379874572
 21
112.7605715636921
 31
0.0
  0
CIRCLE
  5
11C7
330
6F
100
AcDbEntity
  8
0
 62
     7
370
    35
100
AcDbCircle
 10
674.4522379874572
 20
366.2200365636922
 30
0.0
 40
4.39527
  0
CIRCLE
  5
11C8
330
6F
100
AcDbEntity
  8
0
 62
     7
370
    35
100
AcDbCircle
 10
554.4522379874572
 20
366.2200365636922
 30
0.0
 40
4.39527
  0
CIRCLE
  5
11C9
330
6F
100
AcDbEntity
  8
0
 62
     7
370
    35
100
AcDbCircle
 10
674.5932254774008
 20
121.3727175129094
 30
0.0
 40
4.39527
  0
CIRCLE
  5
11CA
330
6F
100
AcDbEntity
  8
0
 62
     7
370
    35
100
AcDbCircle
 10
554.5933050532992
 20
121.2345212422764
 30
0.0
 40
4.39527
  0
LINE
  5
11CB
330
6F
100
AcDbEntity
  8
0
 62
     7
100
AcDbLine
 10
541.9522379874572
 20
402.728999073692
 30
0.0
 11
541.9522379874572
 21
84.71108205369212
 31
0.0
  0
LINE
  5
11CC
330
6F
100
AcDbEntity
  8
0
 62
     7
370
    35
100
AcDbLine
 10
686.9522379874572
 20
366.2200365636921
 30
0.0
 11
686.9522379874572
 21
121.2200445636921
 31
0.0
  0
LINE
  5
11CD
330
6F
100
AcDbEntity
  8
0
 62
     7
370
    35
100
AcDbLine
 10
554.4522379874572
 20
378.7200365636921
 30
0.0
 11
674.4522379874572
 21
378.7200365636921
 31
0.0
  0
LINE
  5
11CE
330
6F
100
AcDbEntity
  8
0
 62
     7
370
    35
100
AcDbLine
 10
541.9522379874572
 20
121.2200445636921
 30
0.0
 11
541.9522379874572
 21
366.2200365636921
 31
0.0
  0
LINE
  5
11CF
330
6F
100
AcDbEntity
  8
0
 62
     7
370
    35
100
AcDbLine
 10
674.4522379874572
 20
108.7200445636921
 30
0.0
 11
554.4522379874572
 21
108.7200445636921
 31
0.0
  0
LINE
  5
11D0
330
6F
100
AcDbEntity
  8
0
 62
     7
100
AcDbLine
 10
541.9522690521619
 20
115.8430978860691
 30
0.0
 11
541.9522690521619
 21
371.5969227779412
 31
0.0
  0
LINE
  5
11D1
330
6F
100
AcDbEntity
  8
0
 62
     7
100
AcDbLine
 10
686.9604695397933
 20
115.8430978860691
 30
0.0
 11
686.9604695397933
 21
371.5969227779412
 31
0.0
  0
ENDSEC
  0
SECTION
  2
OBJECTS
  0
DICTIONARY
  5
C
330
0
100
AcDbDictionary
281
     1
  3
ACAD_CIP_PREVIOUS_PRODUCT_INFO
350
985
  3
ACAD_COLOR
350
62
  3
ACAD_DETAILVIEWSTYLE
350
69
  3
ACAD_GROUP
350
D
  3
ACAD_LAYOUT
350
61
  3
ACAD_MATERIAL
350
10
  3
ACAD_MLEADERSTYLE
350
65
  3
ACAD_MLINESTYLE
350
5E
  3
ACAD_PLOTSETTINGS
350
60
  3
ACAD_PLOTSTYLENAME
350
E
  3
ACAD_SCALELIST
350
42
  3
ACAD_SECTIONVIEWSTYLE
350
67
  3
ACAD_TABLESTYLE
350
63
  3
ACAD_VISUALSTYLE
350
29
  3
ACDB_RECOMPOSE_DATA
350
11D4
  3
AcDbVariableDictionary
350
E77
  3
DWGPROPS
350
11D5
  0
DICTIONARY
  5
C9D
330
2
100
AcDbDictionary
280
     1
281
     1
  3
ACAD_LAYERSTATES
360
C9E
  0
DICTIONARY
  5
E75
330
54
100
AcDbDictionary
280
     1
281
     1
  3
ADSK_XREC_LAYER_RECONCILED
360
E76
  0
DICTIONARY
  5
9DC
330
6F
100
AcDbDictionary
280
     1
281
     1
  3
ACAD_SORTENTS
360
9DD
  0
XRECORD
  5
985
102
{ACAD_REACTORS
330
C
102
}
330
C
100
AcDbXrecord
280
     1
300
ACDLT
300
2014
300
ACDLT_F_S
  0
DICTIONARY
  5
62
102
{ACAD_REACTORS
330
C
102
}
330
C
100
AcDbDictionary
281
     1
  0
DICTIONARY
  5
69
102
{ACAD_REACTORS
330
C
102
}
330
C
100
AcDbDictionary
281
     1
  3
Imperial24
350
6A
  3
Metric50
350
D6E
  0
DICTIONARY
  5
D
102
{ACAD_REACTORS
330
C
102
}
330
C
100
AcDbDictionary
281
     1
  0
DICTIONARY
  5
61
102
{ACAD_REACTORS
330
C
102
}
330
C
100
AcDbDictionary
281
     1
  3
Layout1
350
6E
  3
Model
350
72
  0
DICTIONARY
  5
10
102
{ACAD_REACTORS
330
C
102
}
330
C
100
AcDbDictionary
281
     1
  3
ByBlock
350
19
  3
ByLayer
350
11
  3
Global
350
21
  0
DICTIONARY
  5
65
102
{ACAD_REACTORS
330
C
102
}
330
C
100
AcDbDictionary
281
     1
  3
Standard
350
66
  0
DICTIONARY
  5
5E
102
{ACAD_REACTORS
330
C
102
}
330
C
100
AcDbDictionary
281
     1
  3
Standard
350
5F
  0
DICTIONARY
  5
60
102
{ACAD_REACTORS
330
C
102
}
330
C
100
AcDbDictionary
281
     1
  0
ACDBDICTIONARYWDFLT
  5
E
102
{ACAD_REACTORS
330
C
102
}
330
C
100
AcDbDictionary
281
     1
  3
Normal
350
F
100
AcDbDictionaryWithDefault
340
F
  0
DICTIONARY
  5
42
102
{ACAD_REACTORS
330
C
102
}
330
C
100
AcDbDictionary
281
     1
  3
A0
350
43
  3
A1
350
44
  3
A2
350
45
  3
A3
350
46
  3
A4
350
47
  3
A5
350
48
  3
A6
350
49
  3
A7
350
4A
  3
A8
350
4B
  3
A9
350
4C
  3
B0
350
4D
  3
B1
350
4E
  3
B2
350
4F
  3
B3
350
50
  3
B4
350
51
  3
B5
350
52
  3
B6
350
53
  0
DICTIONARY
  5
67
102
{ACAD_REACTORS
330
C
102
}
330
C
100
AcDbDictionary
281
     1
  3
Imperial24
350
68
  3
Metric50
350
D6D
  0
DICTIONARY
  5
63
102
{ACAD_REACTORS
330
C
102
}
330
C
100
AcDbDictionary
281
     1
  3
Standard
350
64
  0
DICTIONARY
  5
29
102
{ACAD_REACTORS
330
C
102
}
330
C
100
AcDbDictionary
281
     1
  3
2dWireframe
350
2F
  3
Basic
350
2E
  3
Brighten
350
35
  3
ColorChange
350
39
  3
Conceptual
350
32
  3
Dim
350
34
  3
EdgeColorOff
350
41
  3
Facepattern
350
38
  3
Flat
350
2A
  3
FlatWithEdges
350
2B
  3
Gouraud
350
2C
  3
GouraudWithEdges
350
2D
  3
Hidden
350
31
  3
JitterOff
350
3F
  3
Linepattern
350
37
  3
OverhangOff
350
40
  3
Realistic
350
33
  3
Shaded
350
3E
  3
Shaded with edges
350
3D
  3
Shades of Gray
350
3A
  3
Sketchy
350
3B
  3
Thicken
350
36
  3
Wireframe
350
30
  3
X-Ray
350
3C
  0
XRECORD
  5
11D4
102
{ACAD_REACTORS
330
C
102
}
330
C
100
AcDbXrecord
280
     1
 90
        1
330
64
  0
DICTIONARY
  5
E77
102
{ACAD_REACTORS
330
C
102
}
330
C
100
AcDbDictionary
281
     1
  3
CANNOSCALE
350
E7C
  3
CMLEADERSTYLE
350
E79
  3
CTABLESTYLE
350
E78
  3
CVIEWDETAILSTYLE
350
E7A
  3
CVIEWSECTIONSTYLE
350
E7B
  3
DIMASSOC
350
E7F
  3
INDEXCTL
350
E7E
  3
SORTENTS
350
E7D
  3
XCLIPFRAME
350
11D2
  0
XRECORD
  5
11D5
102
{ACAD_REACTORS
330
C
102
}
330
C
100
AcDbXrecord
280
     1
  1
DWGPROPS COOKIE
  2

  3

  4

  6

  7

  8
FontanaNZ
  9

300
=
301
=
302
=
303
=
304
=
305
=
306
=
307
=
308
=
309
=
 40
0.0185550231481482
 41
2457183.632612037
 42
2457183.685146886
  1

 90
        0
  0
DICTIONARY
  5
C9E
102
{ACAD_REACTORS
330
C9D
102
}
330
C9D
100
AcDbDictionary
281
     1
  0
XRECORD
  5
E76
102
{ACAD_REACTORS
330
E75
102
}
330
E75
100
AcDbXrecord
280
     1
290
     1
  0
SORTENTSTABLE
  5
9DD
102
{ACAD_REACTORS
330
9DC
102
}
330
9DC
100
AcDbSortentsTable
330
6F
331
FEC
  5
FF6
331
FE8
  5
FF2
331
FE4
  5
FEE
331
1024
  5
10AD
331
FE0
  5
FEA
331
C2E
  5
5ED
331
C75
  5
462
331
C71
  5
447
331
C2A
  5
5DD
331
C26
  5
5CD
331
C6D
  5
42D
331
101C
  5
10A6
331
C22
  5
695
331
C69
  5
41C
331
1018
  5
10A2
331
D78
  5
D78
331
FDC
  5
FE6
331
FD8
  5
FE2
331
FD4
  5
FDE
331
1014
  5
109E
331
FD0
  5
FDA
331
C1E
  5
67C
331
C65
  5
40C
331
C1A
  5
65D
331
C55
  5
53B
331
C16
  5
64D
331
C12
  5
63D
331
C51
  5
51F
331
1008
  5
1028
331
FCC
  5
FD6
331
FC8
  5
FD2
331
FC4
  5
FCE
331
1004
  5
1024
331
FC0
  5
FCA
331
C0E
  5
62D
331
C4D
  5
54A
331
10AF
  5
FC0
331
C49
  5
575
331
C45
  5
592
331
10AB
  5
FC4
331
C06
  5
6B5
331
C41
  5
5A4
331
FF8
  5
100B
331
FF7
  5
100A
331
10A7
  5
1013
331
FF3
  5
1006
331
10A3
  5
1017
331
109F
  5
1019
331
C39
  5
619
331
C35
  5
609
331
C7C
  5
494
331
109B
  5
101C
331
C31
  5
5F9
331
C78
  5
476
331
FEF
  5
FF9
331
FEB
  5
FF5
331
FE7
  5
FF1
331
FE3
  5
FED
331
C2D
  5
5E9
331
C74
  5
45B
331
C70
  5
441
331
C29
  5
5D9
331
C25
  5
5C9
331
C6C
  5
428
331
101B
  5
10A5
331
C21
  5
691
331
C68
  5
418
331
D77
  5
D77
331
FDF
  5
FE9
331
FDB
  5
FE5
331
FD7
  5
FE1
331
FD3
  5
FDD
331
1017
  5
10A1
331
C1D
  5
673
331
C64
  5
408
331
C19
  5
659
331
C15
  5
649
331
C54
  5
534
331
100B
  5
1099
331
C11
  5
639
331
C50
  5
55F
331
FCF
  5
FD9
331
FCB
  5
FD5
331
FC7
  5
FD1
331
FC3
  5
FCD
331
1007
  5
1027
331
10B2
  5
FBD
331
C0D
  5
629
331
C4C
  5
543
331
C48
  5
56E
331
10AE
  5
FC1
331
C09
  5
6A5
331
C44
  5
589
331
10AA
  5
FC5
331
C05
  5
6B1
331
C40
  5
5B5
331
E2A
  5
E2A
331
FBF
  5
FC9
331
FF6
  5
1009
331
10A6
  5
1014
331
FF2
  5
1005
331
10A2
  5
1016
331
C7F
  5
400
331
109E
  5
1020
331
C38
  5
615
331
C34
  5
605
331
C7B
  5
490
331
109A
  5
1023
331
C30
  5
5F5
331
DF6
  5
DF6
331
FEE
  5
FF8
331
FEA
  5
FF4
331
FE6
  5
FF0
331
FE2
  5
FEC
331
C77
  5
46F
331
C2C
  5
5E5
331
C73
  5
455
331
C6F
  5
43A
331
C28
  5
5D5
331
C24
  5
5C5
331
C6B
  5
424
331
101A
  5
10A4
331
C20
  5
689
331
FDE
  5
FE8
331
FDA
  5
FE4
331
FD6
  5
FE0
331
FD2
  5
FDC
331
C67
  5
414
331
1016
  5
10A0
331
C1C
  5
66A
331
C18
  5
655
331
C14
  5
645
331
C53
  5
52C
331
100A
  5
1098
331
C10
  5
635
331
FCE
  5
FD8
331
FCA
  5
FD4
331
FC6
  5
FD0
331
FC2
  5
FCC
331
C4F
  5
557
331
1006
  5
1026
331
10B1
  5
FBE
331
C0C
  5
625
331
C4B
  5
57D
331
C47
  5
566
331
10AD
  5
FC2
331
C08
  5
6A9
331
C43
  5
585
331
FFA
  5
100F
331
10A9
  5
FC6
331
FBE
  5
FC8
331
FF5
  5
1008
331
10A5
  5
1015
331
C3F
  5
5B1
331
FF1
  5
1004
331
10A1
  5
101B
331
C37
  5
611
331
109D
  5
101F
331
C33
  5
601
331
C7A
  5
487
331
1099
  5
1022
331
FED
  5
FF7
331
FE9
  5
FF3
331
FE5
  5
FEF
331
1025
  5
10AE
331
FE1
  5
FEB
331
C2F
  5
5F1
331
C76
  5
469
331
C72
  5
44E
331
C2B
  5
5E1
331
C6E
  5
433
331
C27
  5
5D1
331
C23
  5
621
331
C6A
  5
420
331
1019
  5
10A3
331
FDD
  5
FE7
331
FD9
  5
FE3
331
FD5
  5
FDF
331
1015
  5
109F
331
FD1
  5
FDB
331
C1F
  5
680
331
C66
  5
410
331
1011
  5
109C
331
C1B
  5
661
331
C62
  5
4AC
331
100D
  5
109A
331
C17
  5
651
331
C13
  5
641
331
C52
  5
524
331
1009
  5
1029
331
FCD
  5
FD7
331
FC9
  5
FD3
331
FC5
  5
FCF
331
FC1
  5
FCB
331
C0F
  5
631
331
C4E
  5
54F
331
1005
  5
1025
331
10B0
  5
FBF
331
C0B
  5
699
331
C4A
  5
579
331
C46
  5
59B
331
10AC
  5
FC3
331
C07
  5
6B9
331
C42
  5
581
331
FF9
  5
100D
331
10A8
  5
1011
331
FBD
  5
FC7
331
FF4
  5
1007
331
10A4
  5
1018
331
C3E
  5
5AD
331
FF0
  5
FFA
331
10A0
  5
101A
331
C3A
  5
61D
331
C36
  5
60D
331
C7D
  5
498
331
109C
  5
101E
331
C32
  5
5FD
331
C79
  5
47C
331
1098
  5
1021
  0
ACDBDETAILVIEWSTYLE
  5
6A
102
{ACAD_XDICTIONARY
360
1209
102
}
102
{ACAD_REACTORS
330
69
102
}
330
69
100
AcDbModelDocViewStyle
 70
     0
  3
Imperial24
290
     0
100
AcDbDetailViewStyle
 70
     0
 71
     0
 90
        3
 71
     1
340
55
 40
0.24
340
0
 40
0.24
300

 40
0.36
280
     3
 71
     2
340
5C
 90
       25
 71
     3
340
55
 40
0.24
 90
        1
 40
0.75
 90
        1
300
%<\AcVar ViewType \f "%tc1">% %<\AcVar ViewDetailId>%\PSCALA %<\AcVar ViewScale \f "%sn">%
 71
     4
340
5C
 90
       25
340
5C
 90
       25
280
     0
  0
ACDBDETAILVIEWSTYLE
  5
D6E
102
{ACAD_XDICTIONARY
360
1211
102
}
102
{ACAD_REACTORS
330
69
102
}
330
69
100
AcDbModelDocViewStyle
 70
     0
  3
Metric50
290
     0
100
AcDbDetailViewStyle
 70
     0
 71
     0
 90
        3
 71
     1
340
55
 40
5.0
340
0
 40
5.0
300

 40
0.0
280
     1
 71
     2
340
5C
 90
       25
 71
     3
340
55
 40
5.0
 90
        0
 40
15.0
 90
        1
300
%<\AcVar ViewDetailId>% (%<\AcVar ViewScale \f "%sn">%)
 71
     4
340
5C
 90
       25
340
5C
 90
       25
280
     0
  0
LAYOUT
  5
6E
102
{ACAD_XDICTIONARY
360
120B
102
}
102
{ACAD_REACTORS
330
61
102
}
330
61
100
AcDbPlotSettings
  1

  2
\\prn100c.italy.gewiss.local\W564C
  4

  6

 40
0.0
 41
0.0
 42
0.0
 43
0.0
 44
0.0
 45
0.0
 46
0.0
 47
0.0
 48
0.0
 49
0.0
140
0.0
141
0.0
142
1.0
143
1.0
 70
   688
 72
     0
 73
     0
 74
     5
  7

 75
    16
147
1.0
148
0.0
149
0.0
100
AcDbLayout
  1
Layout1
 70
     1
 71
     1
 10
0.0
 20
0.0
 11
12.0
 21
9.0
 12
0.0
 22
0.0
 32
0.0
 14
1.000000000000000E+20
 24
1.000000000000000E+20
 34
1.000000000000000E+20
 15
-1.000000000000000E+20
 25
-1.000000000000000E+20
 35
-1.000000000000000E+20
146
0.0
 13
0.0
 23
0.0
 33
0.0
 16
1.0
 26
0.0
 36
0.0
 17
0.0
 27
1.0
 37
0.0
 76
     0
330
6B
  0
LAYOUT
  5
72
102
{ACAD_XDICTIONARY
360
120D
102
}
102
{ACAD_REACTORS
330
61
102
}
330
61
100
AcDbPlotSettings
  1

  2
\\prn100c.italy.gewiss.local\W564C
  4

  6

 40
0.0
 41
0.0
 42
0.0
 43
0.0
 44
0.0
 45
0.0
 46
0.0
 47
0.0
 48
0.0
 49
0.0
140
0.0
141
0.0
142
1.0
143
1.0
 70
  1712
 72
     0
 73
     0
 74
     0
  7

 75
     0
147
1.0
148
0.0
149
0.0
100
AcDbLayout
  1
Model
 70
     1
 71
     0
 10
0.0
 20
0.0
 11
12.0
 21
9.0
 12
0.0
 22
0.0
 32
0.0
 14
0.0
 24
0.0
 34
0.0
 15
0.0
 25
0.0
 35
0.0
146
0.0
 13
0.0
 23
0.0
 33
0.0
 16
1.0
 26
0.0
 36
0.0
 17
0.0
 27
1.0
 37
0.0
 76
     0
330
6F
331
74
  0
MATERIAL
  5
19
102
{ACAD_XDICTIONARY
360
1A
102
}
102
{ACAD_REACTORS
330
10
102
}
330
10
100
AcDbMaterial
  1
ByBlock
 72
     0
 43
0.0208333333333333
 43
0.0
 43
0.0
 43
0.0
 43
0.0
 43
0.0208333333333333
 43
0.0
 43
0.0
 43
0.0
 43
0.0
 43
1.0
 43
0.0
 43
0.0
 43
0.0
 43
0.0
 43
1.0
 77
     0
 47
0.0208333333333333
 47
0.0
 47
0.0
 47
0.0
 47
0.0
 47
0.0208333333333333
 47
0.0
 47
0.0
 47
0.0
 47
0.0
 47
1.0
 47
0.0
 47
0.0
 47
0.0
 47
0.0
 47
1.0
171
     0
 49
0.0208333333333333
 49
0.0
 49
0.0
 49
0.0
 49
0.0
 49
0.0208333333333333
 49
0.0
 49
0.0
 49
0.0
 49
0.0
 49
1.0
 49
0.0
 49
0.0
 49
0.0
 49
0.0
 49
1.0
175
     0
142
0.0208333333333333
142
0.0
142
0.0
142
0.0
142
0.0
142
0.0208333333333333
142
0.0
142
0.0
142
0.0
142
0.0
142
1.0
142
0.0
142
0.0
142
0.0
142
0.0
142
1.0
179
     0
144
0.0208333333333333
144
0.0
144
0.0
144
0.0
144
0.0
144
0.0208333333333333
144
0.0
144
0.0
144
0.0
144
0.0
144
1.0
144
0.0
144
0.0
144
0.0
144
0.0
144
1.0
147
0.0208333333333333
147
0.0
147
0.0
147
0.0
147
0.0
147
0.0208333333333333
147
0.0
147
0.0
147
0.0
147
0.0
147
1.0
147
0.0
147
0.0
147
0.0
147
0.0
147
1.0
  0
MATERIAL
  5
11
102
{ACAD_XDICTIONARY
360
12
102
}
102
{ACAD_REACTORS
330
10
102
}
330
10
100
AcDbMaterial
  1
ByLayer
 72
     0
 43
0.0208333333333333
 43
0.0
 43
0.0
 43
0.0
 43
0.0
 43
0.0208333333333333
 43
0.0
 43
0.0
 43
0.0
 43
0.0
 43
1.0
 43
0.0
 43
0.0
 43
0.0
 43
0.0
 43
1.0
 77
     0
 47
0.0208333333333333
 47
0.0
 47
0.0
 47
0.0
 47
0.0
 47
0.0208333333333333
 47
0.0
 47
0.0
 47
0.0
 47
0.0
 47
1.0
 47
0.0
 47
0.0
 47
0.0
 47
0.0
 47
1.0
171
     0
 49
0.0208333333333333
 49
0.0
 49
0.0
 49
0.0
 49
0.0
 49
0.0208333333333333
 49
0.0
 49
0.0
 49
0.0
 49
0.0
 49
1.0
 49
0.0
 49
0.0
 49
0.0
 49
0.0
 49
1.0
175
     0
142
0.0208333333333333
142
0.0
142
0.0
142
0.0
142
0.0
142
0.0208333333333333
142
0.0
142
0.0
142
0.0
142
0.0
142
1.0
142
0.0
142
0.0
142
0.0
142
0.0
142
1.0
179
     0
144
0.0208333333333333
144
0.0
144
0.0
144
0.0
144
0.0
144
0.0208333333333333
144
0.0
144
0.0
144
0.0
144
0.0
144
1.0
144
0.0
144
0.0
144
0.0
144
0.0
144
1.0
147
0.0208333333333333
147
0.0
147
0.0
147
0.0
147
0.0
147
0.0208333333333333
147
0.0
147
0.0
147
0.0
147
0.0
147
1.0
147
0.0
147
0.0
147
0.0
147
0.0
147
1.0
  0
MATERIAL
  5
21
102
{ACAD_XDICTIONARY
360
22
102
}
102
{ACAD_REACTORS
330
10
102
}
330
10
100
AcDbMaterial
  1
Global
 72
     0
 43
0.0208333333333333
 43
0.0
 43
0.0
 43
0.0
 43
0.0
 43
0.0208333333333333
 43
0.0
 43
0.0
 43
0.0
 43
0.0
 43
1.0
 43
0.0
 43
0.0
 43
0.0
 43
0.0
 43
1.0
 77
     0
 47
0.0208333333333333
 47
0.0
 47
0.0
 47
0.0
 47
0.0
 47
0.0208333333333333
 47
0.0
 47
0.0
 47
0.0
 47
0.0
 47
1.0
 47
0.0
 47
0.0
 47
0.0
 47
0.0
 47
1.0
171
     0
 49
0.0208333333333333
 49
0.0
 49
0.0
 49
0.0
 49
0.0
 49
0.0208333333333333
 49
0.0
 49
0.0
 49
0.0
 49
0.0
 49
1.0
 49
0.0
 49
0.0
 49
0.0
 49
0.0
 49
1.0
175
     0
142
0.0208333333333333
142
0.0
142
0.0
142
0.0
142
0.0
142
0.0208333333333333
142
0.0
142
0.0
142
0.0
142
0.0
142
1.0
142
0.0
142
0.0
142
0.0
142
0.0
142
1.0
179
     0
144
0.0208333333333333
144
0.0
144
0.0
144
0.0
144
0.0
144
0.0208333333333333
144
0.0
144
0.0
144
0.0
144
0.0
144
1.0
144
0.0
144
0.0
144
0.0
144
0.0
144
1.0
147
0.0208333333333333
147
0.0
147
0.0
147
0.0
147
0.0
147
0.0208333333333333
147
0.0
147
0.0
147
0.0
147
0.0
147
1.0
147
0.0
147
0.0
147
0.0
147
0.0
147
1.0
  0
MLEADERSTYLE
  5
66
102
{ACAD_REACTORS
330
65
102
}
330
65
100
AcDbMLeaderStyle
170
     2
171
     1
172
     0
 90
        2
 40
0.0
 41
0.0
173
     1
 91
-1056964608
340
5A
 92
       -2
290
     1
 42
0.09
291
     1
 43
0.36
  3
Standard
 44
0.18
300

342
55
174
     1
178
     6
175
     1
176
     0
 93
-1056964608
 45
0.18
292
     0
297
     0
 46
0.18
 94
-1056964608
 47
1.0
 49
1.0
140
1.0
293
     1
141
0.0
294
     1
177
     0
142
1.0
295
     0
296
     0
143
0.125
1001
ACAD_MLEADERVER
1070
     2
  0
MLINESTYLE
  5
5F
102
{ACAD_REACTORS
330
5E
102
}
330
5E
100
AcDbMlineStyle
  2
STANDARD
 70
     0
  3

 62
   256
 51
90.0
 52
90.0
 71
     2
 49
0.5
 62
   256
  6
BYLAYER
 49
-0.5
 62
   256
  6
BYLAYER
  0
ACDBPLACEHOLDER
  5
F
102
{ACAD_REACTORS
330
E
102
}
330
E
  0
SCALE
  5
43
102
{ACAD_REACTORS
330
42
102
}
330
42
100
AcDbScale
 70
     0
300
1:1
140
1.0
141
1.0
290
     1
  0
SCALE
  5
44
102
{ACAD_REACTORS
330
42
102
}
330
42
100
AcDbScale
 70
     0
300
1/128" = 1'-0"
140
0.0078125
141
12.0
290
     0
  0
SCALE
  5
45
102
{ACAD_REACTORS
330
42
102
}
330
42
100
AcDbScale
 70
     0
300
1/64" = 1'-0"
140
0.015625
141
12.0
290
     0
  0
SCALE
  5
46
102
{ACAD_REACTORS
330
42
102
}
330
42
100
AcDbScale
 70
     0
300
1/32" = 1'-0"
140
0.03125
141
12.0
290
     0
  0
SCALE
  5
47
102
{ACAD_REACTORS
330
42
102
}
330
42
100
AcDbScale
 70
     0
300
1/16" = 1'-0"
140
0.0625
141
12.0
290
     0
  0
SCALE
  5
48
102
{ACAD_REACTORS
330
42
102
}
330
42
100
AcDbScale
 70
     0
300
3/32" = 1'-0"
140
0.09375
141
12.0
290
     0
  0
SCALE
  5
49
102
{ACAD_REACTORS
330
42
102
}
330
42
100
AcDbScale
 70
     0
300
1/8" = 1'-0"
140
0.125
141
12.0
290
     0
  0
SCALE
  5
4A
102
{ACAD_REACTORS
330
42
102
}
330
42
100
AcDbScale
 70
     0
300
3/16" = 1'-0"
140
0.1875
141
12.0
290
     0
  0
SCALE
  5
4B
102
{ACAD_REACTORS
330
42
102
}
330
42
100
AcDbScale
 70
     0
300
1/4" = 1'-0"
140
0.25
141
12.0
290
     0
  0
SCALE
  5
4C
102
{ACAD_REACTORS
330
42
102
}
330
42
100
AcDbScale
 70
     0
300
3/8" = 1'-0"
140
0.375
141
12.0
290
     0
  0
SCALE
  5
4D
102
{ACAD_REACTORS
330
42
102
}
330
42
100
AcDbScale
 70
     0
300
1/2" = 1'-0"
140
0.5
141
12.0
290
     0
  0
SCALE
  5
4E
102
{ACAD_REACTORS
330
42
102
}
330
42
100
AcDbScale
 70
     0
300
3/4" = 1'-0"
140
0.75
141
12.0
290
     0
  0
SCALE
  5
4F
102
{ACAD_REACTORS
330
42
102
}
330
42
100
AcDbScale
 70
     0
300
1" = 1'-0"
140
1.0
141
12.0
290
     0
  0
SCALE
  5
50
102
{ACAD_REACTORS
330
42
102
}
330
42
100
AcDbScale
 70
     0
300
1-1/2" = 1'-0"
140
1.5
141
12.0
290
     0
  0
SCALE
  5
51
102
{ACAD_REACTORS
330
42
102
}
330
42
100
AcDbScale
 70
     0
300
3" = 1'-0"
140
3.0
141
12.0
290
     0
  0
SCALE
  5
52
102
{ACAD_REACTORS
330
42
102
}
330
42
100
AcDbScale
 70
     0
300
6" = 1'-0"
140
6.0
141
12.0
290
     0
  0
SCALE
  5
53
102
{ACAD_REACTORS
330
42
102
}
330
42
100
AcDbScale
 70
     0
300
1'-0" = 1'-0"
140
12.0
141
12.0
290
     0
  0
ACDBSECTIONVIEWSTYLE
  5
68
102
{ACAD_XDICTIONARY
360
1207
102
}
102
{ACAD_REACTORS
330
67
102
}
330
67
100
AcDbModelDocViewStyle
 70
     0
  3
Imperial24
290
     0
100
AcDbSectionViewStyle
 70
     0
 71
     0
 90
       78
 71
     1
340
55
 40
0.24
340
0
340
0
 40
0.24
300
I, O, Q, S, X, Z
 40
0.48
 90
        3
 40
0.18
 90
        1
 71
     2
340
5C
 90
       25
340
5C
 90
       50
 40
0.24
 40
0.0
 40
0.24
 71
     3
340
55
 40
0.24
 90
        1
 40
0.75
 90
        1
300
%<\AcVar ViewType \f "%tc1">% %<\AcVar ViewSectionStartId>%-%<\AcVar ViewSectionEndId>%\PSCALA %<\AcVar ViewScale \f "%sn">%
 71
     4
300
ANSI31
 40
1.0
 90
        0
290
     0
290
     0
 90
        6
 40
0.0
 40
1.570796326794896
 40
0.2617993877991494
 40
1.308996938995747
 40
-0.2617993877991494
 40
1.832595714594044
  0
ACDBSECTIONVIEWSTYLE
  5
D6D
102
{ACAD_XDICTIONARY
360
120F
102
}
102
{ACAD_REACTORS
330
67
102
}
330
67
100
AcDbModelDocViewStyle
 70
     0
  3
Metric50
290
     0
100
AcDbSectionViewStyle
 70
     0
 71
     0
 90
      102
 71
     1
340
55
 40
5.0
340
0
340
0
 40
5.0
300
I, O, Q, S, X, Z
 40
10.0
 90
        0
 40
2.5
 90
        0
 71
     2
340
5C
 90
       25
340
5C
 90
       50
 40
5.0
 40
2.5
 40
5.0
 71
     3
340
55
 40
5.0
 90
        0
 40
15.0
 90
        1
300
%<\AcVar ViewSectionStartId>%-%<\AcVar ViewSectionEndId>% (%<\AcVar ViewScale \f "%sn">%)
 71
     4
300
ANSI31
 40
1.0
 90
        0
290
     0
290
     0
 90
        6
 40
0.0
 40
1.570796326794896
 40
0.2617993877991494
 40
1.308996938995747
 40
-0.2617993877991494
 40
1.832595714594044
  0
TABLESTYLE
  5
64
102
{ACAD_XDICTIONARY
360
E81
102
}
102
{ACAD_REACTORS
330
63
102
}
330
63
100
AcDbTableStyle
  3
Standard
 70
     0
 71
     0
 40
0.06
 41
0.06
280
     0
281
     0
  7
Standard
140
0.18
170
     2
 62
     0
 63
     7
283
     0
274
    -2
284
     1
 64
     0
275
    -2
285
     1
 65
     0
276
    -2
286
     1
 66
     0
277
    -2
287
     1
 67
     0
278
    -2
288
     1
 68
     0
279
    -2
289
     1
 69
     0
  7
Standard
140
0.25
170
     5
 62
     0
 63
     7
283
     0
274
    -2
284
     1
 64
     0
275
    -2
285
     1
 65
     0
276
    -2
286
     1
 66
     0
277
    -2
287
     1
 67
     0
278
    -2
288
     1
 68
     0
279
    -2
289
     1
 69
     0
  7
Standard
140
0.18
170
     5
 62
     0
 63
     7
283
     0
274
    -2
284
     1
 64
     0
275
    -2
285
     1
 65
     0
276
    -2
286
     1
 66
     0
277
    -2
287
     1
 67
     0
278
    -2
288
     1
 68
     0
279
    -2
289
     1
 69
     0
  0
VISUALSTYLE
  5
2F
102
{ACAD_XDICTIONARY
360
11E0
102
}
102
{ACAD_REACTORS
330
29
102
}
330
29
100
AcDbVisualStyle
  2

 70
     4
 71
     0
 72
     2
 73
     0
 90
        0
 40
-0.6
 41
-30.0
 62
     5
 63
     7
 74
     1
 91
        4
 64
     7
 65
   257
 75
     1
175
     1
 42
1.0
 92
        0
 66
   257
 43
1.0
 76
     1
 77
     6
 78
     2
 67
     7
 79
     5
170
     0
171
     0
290
     0
174
     0
 93
        1
 44
0.0
173
     0
291
     0
 45
0.0
1001
ACAD
1000
AcDbSavedByObjectVersion
1070
     0
  0
VISUALSTYLE
  5
2E
102
{ACAD_XDICTIONARY
360
11DE
102
}
102
{ACAD_REACTORS
330
29
102
}
330
29
100
AcDbVisualStyle
  2

 70
     7
 71
     1
 72
     0
 73
     1
 90
        0
 40
-0.6
 41
-30.0
 62
     5
 63
     7
 74
     0
 91
        4
 64
     7
 65
   257
 75
     1
175
     1
 42
1.0
 92
        8
 66
     7
 43
1.0
 76
     1
 77
     6
 78
     2
 67
     7
 79
     5
170
     0
171
     0
290
     0
174
     0
 93
        1
 44
0.0
173
     0
291
     1
 45
0.0
1001
ACAD
1000
AcDbSavedByObjectVersion
1070
     0
  0
VISUALSTYLE
  5
35
102
{ACAD_XDICTIONARY
360
11EC
102
}
102
{ACAD_REACTORS
330
29
102
}
330
29
100
AcDbVisualStyle
  2

 70
    12
 71
     2
 72
     2
 73
     0
 90
        0
 40
-0.6
 41
-30.0
 62
     5
 63
     7
 74
     1
 91
        4
 64
     7
 65
   257
 75
     1
175
     1
 42
1.0
 92
        8
 66
     7
 43
1.0
 76
     1
 77
     6
 78
     2
 67
     7
 79
     5
170
     0
171
     0
290
     0
174
     0
 93
        1
 44
50.0
173
     0
291
     1
 45
0.0
1001
ACAD
1000
AcDbSavedByObjectVersion
1070
     0
  0
VISUALSTYLE
  5
39
102
{ACAD_XDICTIONARY
360
11F4
102
}
102
{ACAD_REACTORS
330
29
102
}
330
29
100
AcDbVisualStyle
  2

 70
    16
 71
     2
 72
     2
 73
     3
 90
        0
 40
-0.6
 41
-30.0
 62
     5
 63
     8
 74
     1
 91
        4
 64
     7
 65
   257
 75
     1
175
     1
 42
1.0
 92
        8
 66
     8
 43
1.0
 76
     1
 77
     6
 78
     2
 67
     7
 79
     5
170
     0
171
     0
290
     0
174
     0
 93
        1
 44
0.0
173
     0
291
     1
 45
0.0
1001
ACAD
1000
AcDbSavedByObjectVersion
1070
     0
  0
VISUALSTYLE
  5
32
102
{ACAD_XDICTIONARY
360
11E6
102
}
102
{ACAD_REACTORS
330
29
102
}
330
29
100
AcDbVisualStyle
  2

 70
     9
 71
     3
 72
     2
 73
     0
 90
        0
 40
-0.6
 41
-30.0
 62
     5
 63
     7
 74
     2
 91
        2
 64
     7
 65
   257
 75
     1
175
     1
 42
179.0
 92
        8
 66
     7
 43
1.0
 76
     1
 77
     6
 78
     2
 67
     7
 79
     3
170
     0
171
     0
290
     0
174
     0
 93
        1
 44
0.0
173
     0
291
     0
 45
0.0
1001
ACAD
1000
AcDbSavedByObjectVersion
1070
     0
  0
VISUALSTYLE
  5
34
102
{ACAD_XDICTIONARY
360
11EA
102
}
102
{ACAD_REACTORS
330
29
102
}
330
29
100
AcDbVisualStyle
  2

 70
    11
 71
     2
 72
     2
 73
     0
 90
        0
 40
-0.6
 41
-30.0
 62
     5
 63
     7
 74
     1
 91
        4
 64
     7
 65
   257
 75
     1
175
     1
 42
1.0
 92
        8
 66
     7
 43
1.0
 76
     1
 77
     6
 78
     2
 67
     7
 79
     5
170
     0
171
     0
290
     0
174
     0
 93
        1
 44
-50.0
173
     0
291
     1
 45
0.0
1001
ACAD
1000
AcDbSavedByObjectVersion
1070
     0
  0
VISUALSTYLE
  5
41
102
{ACAD_XDICTIONARY
360
1204
102
}
102
{ACAD_REACTORS
330
29
102
}
330
29
100
AcDbVisualStyle
  2

 70
    22
 71
     2
 72
     2
 73
     0
 90
        0
 40
-0.6
 41
-30.0
 62
     5
 63
     7
 74
     1
 91
        4
 64
     7
 65
   257
 75
     1
175
     1
 42
1.0
 92
        8
 66
     7
 43
1.0
 76
     1
 77
     6
 78
     2
 67
     7
 79
     5
170
     0
171
     0
290
     0
174
     0
 93
        1
 44
0.0
173
     0
291
     1
 45
0.0
1001
ACAD
1000
AcDbSavedByObjectVersion
1070
     0
  0
VISUALSTYLE
  5
38
102
{ACAD_XDICTIONARY
360
11F2
102
}
102
{ACAD_REACTORS
330
29
102
}
330
29
100
AcDbVisualStyle
  2

 70
    15
 71
     2
 72
     2
 73
     0
 90
        0
 40
-0.6
 41
-30.0
 62
     5
 63
     7
 74
     1
 91
        4
 64
     7
 65
   257
 75
     1
175
     1
 42
1.0
 92
        8
 66
     7
 43
1.0
 76
     1
 77
     6
 78
     2
 67
     7
 79
     5
170
     0
171
     0
290
     0
174
     0
 93
        1
 44
0.0
173
     0
291
     1
 45
0.0
1001
ACAD
1000
AcDbSavedByObjectVersion
1070
     0
  0
VISUALSTYLE
  5
2A
102
{ACAD_XDICTIONARY
360
11D6
102
}
102
{ACAD_REACTORS
330
29
102
}
330
29
100
AcDbVisualStyle
  2

 70
     0
 71
     2
 72
     1
 73
     1
 90
        2
 40
-0.6
 41
30.0
 62
     5
 63
     7
 74
     0
 91
        0
 64
     7
 65
   257
 75
     1
175
     1
 42
1.0
 92
        8
 66
     7
 43
1.0
 76
     1
 77
     6
 78
     2
 67
     7
 79
     5
170
     0
171
     0
290
     0
174
     0
 93
       13
 44
0.0
173
     0
291
     1
 45
0.0
1001
ACAD
1000
AcDbSavedByObjectVersion
1070
     0
  0
VISUALSTYLE
  5
2B
102
{ACAD_XDICTIONARY
360
11D8
102
}
102
{ACAD_REACTORS
330
29
102
}
330
29
100
AcDbVisualStyle
  2

 70
     1
 71
     2
 72
     1
 73
     1
 90
        2
 40
-0.6
 41
30.0
 62
     5
 63
     7
 74
     1
 91
        0
 64
     7
 65
   257
 75
     1
175
     1
 42
1.0
 92
        0
 66
   257
 43
1.0
 76
     1
 77
     6
 78
     2
 67
     7
 79
     5
170
     0
171
     0
290
     0
174
     0
 93
       13
 44
0.0
173
     0
291
     1
 45
0.0
1001
ACAD
1000
AcDbSavedByObjectVersion
1070
     0
  0
VISUALSTYLE
  5
2C
102
{ACAD_XDICTIONARY
360
11DA
102
}
102
{ACAD_REACTORS
330
29
102
}
330
29
100
AcDbVisualStyle
  2

 70
     2
 71
     2
 72
     2
 73
     1
 90
        2
 40
-0.6
 41
30.0
 62
     5
 63
     7
 74
     0
 91
        0
 64
     7
 65
   257
 75
     1
175
     1
 42
1.0
 92
        0
 66
     7
 43
1.0
 76
     1
 77
     6
 78
     2
 67
     7
 79
     5
170
     0
171
     0
290
     0
174
     0
 93
       13
 44
0.0
173
     0
291
     1
 45
0.0
1001
ACAD
1000
AcDbSavedByObjectVersion
1070
     0
  0
VISUALSTYLE
  5
2D
102
{ACAD_XDICTIONARY
360
11DC
102
}
102
{ACAD_REACTORS
330
29
102
}
330
29
100
AcDbVisualStyle
  2

 70
     3
 71
     2
 72
     2
 73
     1
 90
        2
 40
-0.6
 41
30.0
 62
     5
 63
     7
 74
     1
 91
        0
 64
     7
 65
   257
 75
     1
175
     1
 42
1.0
 92
        0
 66
   257
 43
1.0
 76
     1
 77
     6
 78
     2
 67
     7
 79
     5
170
     0
171
     0
290
     0
174
     0
 93
       13
 44
0.0
173
     0
291
     1
 45
0.0
1001
ACAD
1000
AcDbSavedByObjectVersion
1070
     0
  0
VISUALSTYLE
  5
31
102
{ACAD_XDICTIONARY
360
11E4
102
}
102
{ACAD_REACTORS
330
29
102
}
330
29
100
AcDbVisualStyle
  2

 70
     6
 71
     1
 72
     2
 73
     2
 90
        0
 40
-0.6
 41
-30.0
 62
     5
 63
     7
 74
     2
 91
        2
 64
     7
 65
   257
 75
     2
175
     1
 42
40.0
 92
        0
 66
   257
 43
1.0
 76
     1
 77
     6
 78
     2
 67
     7
 79
     3
170
     0
171
     0
290
     0
174
     0
 93
        1
 44
0.0
173
     0
291
     0
 45
0.0
1001
ACAD
1000
AcDbSavedByObjectVersion
1070
     0
  0
VISUALSTYLE
  5
3F
102
{ACAD_XDICTIONARY
360
1200
102
}
102
{ACAD_REACTORS
330
29
102
}
330
29
100
AcDbVisualStyle
  2

 70
    20
 71
     2
 72
     2
 73
     0
 90
        0
 40
-0.6
 41
-30.0
 62
     5
 63
     7
 74
     1
 91
        4
 64
     7
 65
   257
 75
     1
175
     1
 42
1.0
 92
       10
 66
     7
 43
1.0
 76
     1
 77
     6
 78
     2
 67
     7
 79
     5
170
     0
171
     0
290
     0
174
     0
 93
        1
 44
0.0
173
     0
291
     1
 45
0.0
1001
ACAD
1000
AcDbSavedByObjectVersion
1070
     0
  0
VISUALSTYLE
  5
37
102
{ACAD_XDICTIONARY
360
11F0
102
}
102
{ACAD_REACTORS
330
29
102
}
330
29
100
AcDbVisualStyle
  2

 70
    14
 71
     2
 72
     2
 73
     0
 90
        0
 40
-0.6
 41
-30.0
 62
     5
 63
     7
 74
     1
 91
        4
 64
     7
 65
   257
 75
     7
175
     7
 42
1.0
 92
        8
 66
     7
 43
1.0
 76
     1
 77
     6
 78
     2
 67
     7
 79
     5
170
     0
171
     0
290
     0
174
     0
 93
        1
 44
0.0
173
     0
291
     1
 45
0.0
1001
ACAD
1000
AcDbSavedByObjectVersion
1070
     0
  0
VISUALSTYLE
  5
40
102
{ACAD_XDICTIONARY
360
1202
102
}
102
{ACAD_REACTORS
330
29
102
}
330
29
100
AcDbVisualStyle
  2

 70
    21
 71
     2
 72
     2
 73
     0
 90
        0
 40
-0.6
 41
-30.0
 62
     5
 63
     7
 74
     1
 91
        4
 64
     7
 65
   257
 75
     1
175
     1
 42
1.0
 92
        9
 66
     7
 43
1.0
 76
     1
 77
     6
 78
     2
 67
     7
 79
     5
170
     0
171
     0
290
     0
174
     0
 93
        1
 44
0.0
173
     0
291
     1
 45
0.0
1001
ACAD
1000
AcDbSavedByObjectVersion
1070
     0
  0
VISUALSTYLE
  5
33
102
{ACAD_XDICTIONARY
360
11E8
102
}
102
{ACAD_REACTORS
330
29
102
}
330
29
100
AcDbVisualStyle
  2

 70
     8
 71
     2
 72
     3
 73
     0
 90
        2
 40
-0.6
 41
30.0
 62
     5
 63
     7
 74
     0
 91
        0
 64
     7
 65
   257
 75
     1
175
     1
 42
1.0
 92
        8
 66
   257
 43
1.0
 76
     1
 77
     6
 78
     2
 67
     7
 79
     3
170
     0
171
     0
290
     0
174
     0
 93
       13
 44
0.0
173
     0
291
     0
 45
0.0
1001
ACAD
1000
AcDbSavedByObjectVersion
1070
     0
  0
VISUALSTYLE
  5
3E
102
{ACAD_XDICTIONARY
360
11FE
102
}
102
{ACAD_REACTORS
330
29
102
}
330
29
100
AcDbVisualStyle
  2

 70
    27
 71
     2
 72
     2
 73
     1
 90
        2
 40
-0.6
 41
30.0
 62
     5
 63
     7
 74
     0
 91
        4
 64
     7
 65
   257
 75
     1
175
     1
 42
1.0
 92
        8
 66
   257
 43
1.0
 76
     1
 77
     6
 78
     2
 67
     8
 79
     3
170
     0
171
     0
290
     0
174
     0
 93
        5
 44
0.0
173
     0
291
     0
 45
0.0
1001
ACAD
1000
AcDbSavedByObjectVersion
1070
     0
  0
VISUALSTYLE
  5
3D
102
{ACAD_XDICTIONARY
360
11FC
102
}
102
{ACAD_REACTORS
330
29
102
}
330
29
100
AcDbVisualStyle
  2

 70
    26
 71
     2
 72
     2
 73
     1
 90
        2
 40
-0.6
 41
30.0
 62
     5
 63
     7
 74
     1
 91
       10
 64
     7
 65
   257
 75
     2
175
     1
 42
1.0
 92
        8
 66
   257
 43
1.0
 76
     1
 77
     6
 78
     2
 67
     7
 79
     3
170
     0
171
     0
290
     0
174
     0
 93
        5
 44
0.0
173
     0
291
     0
 45
0.0
1001
ACAD
1000
AcDbSavedByObjectVersion
1070
     0
  0
VISUALSTYLE
  5
3A
102
{ACAD_XDICTIONARY
360
11F6
102
}
102
{ACAD_REACTORS
330
29
102
}
330
29
100
AcDbVisualStyle
  2

 70
    23
 71
     2
 72
     2
 73
     3
 90
        0
 40
-0.6
 41
-30.0
 62
     5
 63
     7
 74
     2
 91
        2
 64
     7
 65
     7
 75
     1
175
     1
 42
40.0
 92
        8
 66
     7
 43
1.0
 76
     1
 77
     6
 78
     2
 67
     7
 79
     3
170
     0
171
     0
290
     0
174
     0
 93
        1
 44
0.0
173
     0
291
     0
 45
0.0
1001
ACAD
1000
AcDbSavedByObjectVersion
1070
     0
  0
VISUALSTYLE
  5
3B
102
{ACAD_XDICTIONARY
360
11F8
102
}
102
{ACAD_REACTORS
330
29
102
}
330
29
100
AcDbVisualStyle
  2

 70
    24
 71
     1
 72
     2
 73
     2
 90
        0
 40
-0.6
 41
-30.0
 62
     5
 63
     7
 74
     2
 91
        2
 64
     7
 65
     7
 75
     1
175
     1
 42
40.0
 92
       11
 66
     7
 43
1.0
 76
     1
 77
     6
 78
     2
 67
     7
 79
     6
170
     0
171
     0
290
     0
174
     0
 93
        1
 44
0.0
173
     0
291
     0
 45
0.0
1001
ACAD
1000
AcDbSavedByObjectVersion
1070
     0
  0
VISUALSTYLE
  5
36
102
{ACAD_XDICTIONARY
360
11EE
102
}
102
{ACAD_REACTORS
330
29
102
}
330
29
100
AcDbVisualStyle
  2

 70
    13
 71
     2
 72
     2
 73
     0
 90
        0
 40
-0.6
 41
-30.0
 62
     5
 63
     7
 74
     1
 91
        4
 64
     7
 65
   257
 75
     1
175
     1
 42
1.0
 92
       12
 66
     7
 43
1.0
 76
     1
 77
     6
 78
     2
 67
     7
 79
     5
170
     0
171
     0
290
     0
174
     0
 93
        1
 44
0.0
173
     0
291
     1
 45
0.0
1001
ACAD
1000
AcDbSavedByObjectVersion
1070
     0
  0
VISUALSTYLE
  5
30
102
{ACAD_XDICTIONARY
360
11E2
102
}
102
{ACAD_REACTORS
330
29
102
}
330
29
100
AcDbVisualStyle
  2

 70
     5
 71
     0
 72
     2
 73
     0
 90
        0
 40
-0.6
 41
-30.0
 62
     5
 63
     7
 74
     1
 91
        4
 64
     7
 65
   257
 75
     1
175
     1
 42
1.0
 92
        0
 66
   257
 43
1.0
 76
     1
 77
     6
 78
     2
 67
     7
 79
     3
170
     0
171
     0
290
     0
174
     0
 93
        1
 44
0.0
173
     0
291
     0
 45
0.0
1001
ACAD
1000
AcDbSavedByObjectVersion
1070
     0
  0
VISUALSTYLE
  5
3C
102
{ACAD_XDICTIONARY
360
11FA
102
}
102
{ACAD_REACTORS
330
29
102
}
330
29
100
AcDbVisualStyle
  2

 70
    25
 71
     2
 72
     2
 73
     1
 90
        1
 40
0.5
 41
-30.0
 62
     5
 63
     7
 74
     1
 91
        0
 64
     7
 65
   257
 75
     1
175
     1
 42
1.0
 92
        8
 66
     7
 43
1.0
 76
     1
 77
     6
 78
     2
 67
     7
 79
     3
170
     0
171
     0
290
     0
174
     0
 93
       13
 44
0.0
173
     0
291
     0
 45
0.0
1001
ACAD
1000
AcDbSavedByObjectVersion
1070
     0
  0
DICTIONARYVAR
  5
E7C
102
{ACAD_REACTORS
330
E77
102
}
330
E77
100
DictionaryVariables
280
     0
  1
1:1
  0
DICTIONARYVAR
  5
E79
102
{ACAD_REACTORS
330
E77
102
}
330
E77
100
DictionaryVariables
280
     0
  1
STANDARD
  0
DICTIONARYVAR
  5
E78
102
{ACAD_REACTORS
330
E77
102
}
330
E77
100
DictionaryVariables
280
     0
  1
STANDARD
  0
DICTIONARYVAR
  5
E7A
102
{ACAD_REACTORS
330
E77
102
}
330
E77
100
DictionaryVariables
280
     0
  1
Imperial24
  0
DICTIONARYVAR
  5
E7B
102
{ACAD_REACTORS
330
E77
102
}
330
E77
100
DictionaryVariables
280
     0
  1
Imperial24
  0
DICTIONARYVAR
  5
E7F
102
{ACAD_REACTORS
330
E77
102
}
330
E77
100
DictionaryVariables
280
     0
  1
1
  0
DICTIONARYVAR
  5
E7E
102
{ACAD_REACTORS
330
E77
102
}
330
E77
100
DictionaryVariables
280
     0
  1
0
  0
DICTIONARYVAR
  5
E7D
102
{ACAD_REACTORS
330
E77
102
}
330
E77
100
DictionaryVariables
280
     0
  1
127
  0
DICTIONARYVAR
  5
11D2
102
{ACAD_REACTORS
330
E77
102
}
330
E77
100
DictionaryVariables
280
     0
  1
2
  0
DICTIONARY
  5
1209
330
6A
100
AcDbDictionary
280
     1
281
     1
  3
ACAD_XREC_ROUNDTRIP
360
120A
  0
DICTIONARY
  5
1211
330
D6E
100
AcDbDictionary
280
     1
281
     1
  3
ACAD_XREC_ROUNDTRIP
360
1212
  0
DICTIONARY
  5
120B
330
6E
100
AcDbDictionary
280
     1
281
     1
  3
ACAD_XREC_ROUNDTRIP
360
120C
  0
DICTIONARY
  5
120D
330
72
100
AcDbDictionary
280
     1
281
     1
  3
ACAD_XREC_ROUNDTRIP
360
120E
  0
DICTIONARY
  5
1A
330
19
100
AcDbDictionary
280
     1
281
     1
  3
ACAD_XREC_ROUNDTRIP
360
E86
  3
BUMPTILE
360
1C
  3
DIFFUSETILE
360
1B
  3
OPACITYTILE
360
1F
  3
REFLECTIONTILE
360
1E
  3
REFRACTIONTILE
360
20
  3
SPECULARTILE
360
1D
  0
DICTIONARY
  5
12
330
11
100
AcDbDictionary
280
     1
281
     1
  3
ACAD_XREC_ROUNDTRIP
360
E85
  3
BUMPTILE
360
14
  3
DIFFUSETILE
360
13
  3
OPACITYTILE
360
17
  3
REFLECTIONTILE
360
16
  3
REFRACTIONTILE
360
18
  3
SPECULARTILE
360
15
  0
DICTIONARY
  5
22
330
21
100
AcDbDictionary
280
     1
281
     1
  3
ACAD_XREC_ROUNDTRIP
360
E87
  3
BUMPTILE
360
24
  3
DIFFUSETILE
360
23
  3
OPACITYTILE
360
27
  3
REFLECTIONTILE
360
26
  3
REFRACTIONTILE
360
28
  3
SPECULARTILE
360
25
  0
DICTIONARY
  5
1207
330
68
100
AcDbDictionary
280
     1
281
     1
  3
ACAD_XREC_ROUNDTRIP
360
1208
  0
DICTIONARY
  5
120F
330
D6D
100
AcDbDictionary
280
     1
281
     1
  3
ACAD_XREC_ROUNDTRIP
360
1210
  0
DICTIONARY
  5
E81
330
64
100
AcDbDictionary
280
     1
281
     1
  3
ACAD_ROUNDTRIP_2008_TABLESTYLE_CELLSTYLEMAP
360
11D3
  3
ACAD_XREC_ROUNDTRIP
360
1206
  0
DICTIONARY
  5
11E0
330
2F
100
AcDbDictionary
280
     1
281
     1
  3
ACAD_XREC_ROUNDTRIP
360
11E1
  0
DICTIONARY
  5
11DE
330
2E
100
AcDbDictionary
280
     1
281
     1
  3
ACAD_XREC_ROUNDTRIP
360
11DF
  0
DICTIONARY
  5
11EC
330
35
100
AcDbDictionary
280
     1
281
     1
  3
ACAD_XREC_ROUNDTRIP
360
11ED
  0
DICTIONARY
  5
11F4
330
39
100
AcDbDictionary
280
     1
281
     1
  3
ACAD_XREC_ROUNDTRIP
360
11F5
  0
DICTIONARY
  5
11E6
330
32
100
AcDbDictionary
280
     1
281
     1
  3
ACAD_XREC_ROUNDTRIP
360
11E7
  0
DICTIONARY
  5
11EA
330
34
100
AcDbDictionary
280
     1
281
     1
  3
ACAD_XREC_ROUNDTRIP
360
11EB
  0
DICTIONARY
  5
1204
330
41
100
AcDbDictionary
280
     1
281
     1
  3
ACAD_XREC_ROUNDTRIP
360
1205
  0
DICTIONARY
  5
11F2
330
38
100
AcDbDictionary
280
     1
281
     1
  3
ACAD_XREC_ROUNDTRIP
360
11F3
  0
DICTIONARY
  5
11D6
330
2A
100
AcDbDictionary
280
     1
281
     1
  3
ACAD_XREC_ROUNDTRIP
360
11D7
  0
DICTIONARY
  5
11D8
330
2B
100
AcDbDictionary
280
     1
281
     1
  3
ACAD_XREC_ROUNDTRIP
360
11D9
  0
DICTIONARY
  5
11DA
330
2C
100
AcDbDictionary
280
     1
281
     1
  3
ACAD_XREC_ROUNDTRIP
360
11DB
  0
DICTIONARY
  5
11DC
330
2D
100
AcDbDictionary
280
     1
281
     1
  3
ACAD_XREC_ROUNDTRIP
360
11DD
  0
DICTIONARY
  5
11E4
330
31
100
AcDbDictionary
280
     1
281
     1
  3
ACAD_XREC_ROUNDTRIP
360
11E5
  0
DICTIONARY
  5
1200
330
3F
100
AcDbDictionary
280
     1
281
     1
  3
ACAD_XREC_ROUNDTRIP
360
1201
  0
DICTIONARY
  5
11F0
330
37
100
AcDbDictionary
280
     1
281
     1
  3
ACAD_XREC_ROUNDTRIP
360
11F1
  0
DICTIONARY
  5
1202
330
40
100
AcDbDictionary
280
     1
281
     1
  3
ACAD_XREC_ROUNDTRIP
360
1203
  0
DICTIONARY
  5
11E8
330
33
100
AcDbDictionary
280
     1
281
     1
  3
ACAD_XREC_ROUNDTRIP
360
11E9
  0
DICTIONARY
  5
11FE
330
3E
100
AcDbDictionary
280
     1
281
     1
  3
ACAD_XREC_ROUNDTRIP
360
11FF
  0
DICTIONARY
  5
11FC
330
3D
100
AcDbDictionary
280
     1
281
     1
  3
ACAD_XREC_ROUNDTRIP
360
11FD
  0
DICTIONARY
  5
11F6
330
3A
100
AcDbDictionary
280
     1
281
     1
  3
ACAD_XREC_ROUNDTRIP
360
11F7
  0
DICTIONARY
  5
11F8
330
3B
100
AcDbDictionary
280
     1
281
     1
  3
ACAD_XREC_ROUNDTRIP
360
11F9
  0
DICTIONARY
  5
11EE
330
36
100
AcDbDictionary
280
     1
281
     1
  3
ACAD_XREC_ROUNDTRIP
360
11EF
  0
DICTIONARY
  5
11E2
330
30
100
AcDbDictionary
280
     1
281
     1
  3
ACAD_XREC_ROUNDTRIP
360
11E3
  0
DICTIONARY
  5
11FA
330
3C
100
AcDbDictionary
280
     1
281
     1
  3
ACAD_XREC_ROUNDTRIP
360
11FB
  0
XRECORD
  5
120A
102
{ACAD_REACTORS
330
1209
102
}
330
1209
100
AcDbXrecord
280
     1
102
DISPLAYNAME
  1
Imperial24
102
FLAGS
 90
        0
  0
XRECORD
  5
1212
102
{ACAD_REACTORS
330
1211
102
}
330
1211
100
AcDbXrecord
280
     1
102
DISPLAYNAME
  1
Metric50
102
FLAGS
 90
        0
  0
XRECORD
  5
120C
102
{ACAD_REACTORS
330
120B
102
}
330
120B
100
AcDbXrecord
280
     1
102
SHADEPLOT
 70
     0
102
SHADEPLOTRESLEVEL
 70
     2
102
SHADEPLOTCUSTOMDPI
 70
   300
  0
XRECORD
  5
120E
102
{ACAD_REACTORS
330
120D
102
}
330
120D
100
AcDbXrecord
280
     1
102
SHADEPLOT
 70
     0
102
SHADEPLOTRESLEVEL
 70
     2
102
SHADEPLOTCUSTOMDPI
 70
   300
  0
XRECORD
  5
E86
102
{ACAD_REACTORS
330
1A
102
}
330
1A
100
AcDbXrecord
280
     1
102
MATERIAL
148
0.0
149
0.0
149
0.0
 93
        0
 94
      127
282
     0
 72
     0
 77
     0
171
     0
175
     0
179
     0
273
     0
  0
XRECORD
  5
1C
102
{ACAD_REACTORS
330
1A
102
}
330
1A
100
AcDbXrecord
280
     1
270
     1
271
     1
  0
XRECORD
  5
1B
102
{ACAD_REACTORS
330
1A
102
}
330
1A
100
AcDbXrecord
280
     1
270
     1
271
     1
  0
XRECORD
  5
1F
102
{ACAD_REACTORS
330
1A
102
}
330
1A
100
AcDbXrecord
280
     1
270
     1
271
     1
  0
XRECORD
  5
1E
102
{ACAD_REACTORS
330
1A
102
}
330
1A
100
AcDbXrecord
280
     1
270
     1
271
     1
  0
XRECORD
  5
20
102
{ACAD_REACTORS
330
1A
102
}
330
1A
100
AcDbXrecord
280
     1
270
     1
271
     1
  0
XRECORD
  5
1D
102
{ACAD_REACTORS
330
1A
102
}
330
1A
100
AcDbXrecord
280
     1
270
     1
271
     1
  0
XRECORD
  5
E85
102
{ACAD_REACTORS
330
12
102
}
330
12
100
AcDbXrecord
280
     1
102
MATERIAL
148
0.0
149
0.0
149
0.0
 93
        0
 94
      127
282
     0
 72
     0
 77
     0
171
     0
175
     0
179
     0
273
     0
  0
XRECORD
  5
14
102
{ACAD_REACTORS
330
12
102
}
330
12
100
AcDbXrecord
280
     1
270
     1
271
     1
  0
XRECORD
  5
13
102
{ACAD_REACTORS
330
12
102
}
330
12
100
AcDbXrecord
280
     1
270
     1
271
     1
  0
XRECORD
  5
17
102
{ACAD_REACTORS
330
12
102
}
330
12
100
AcDbXrecord
280
     1
270
     1
271
     1
  0
XRECORD
  5
16
102
{ACAD_REACTORS
330
12
102
}
330
12
100
AcDbXrecord
280
     1
270
     1
271
     1
  0
XRECORD
  5
18
102
{ACAD_REACTORS
330
12
102
}
330
12
100
AcDbXrecord
280
     1
270
     1
271
     1
  0
XRECORD
  5
15
102
{ACAD_REACTORS
330
12
102
}
330
12
100
AcDbXrecord
280
     1
270
     1
271
     1
  0
XRECORD
  5
E87
102
{ACAD_REACTORS
330
22
102
}
330
22
100
AcDbXrecord
280
     1
102
MATERIAL
148
0.0
149
0.0
149
0.0
 93
        0
 94
      127
282
     0
 72
     0
 77
     0
171
     0
175
     0
179
     0
273
     0
  0
XRECORD
  5
24
102
{ACAD_REACTORS
330
22
102
}
330
22
100
AcDbXrecord
280
     1
270
     1
271
     1
  0
XRECORD
  5
23
102
{ACAD_REACTORS
330
22
102
}
330
22
100
AcDbXrecord
280
     1
270
     1
271
     1
  0
XRECORD
  5
27
102
{ACAD_REACTORS
330
22
102
}
330
22
100
AcDbXrecord
280
     1
270
     1
271
     1
  0
XRECORD
  5
26
102
{ACAD_REACTORS
330
22
102
}
330
22
100
AcDbXrecord
280
     1
270
     1
271
     1
  0
XRECORD
  5
28
102
{ACAD_REACTORS
330
22
102
}
330
22
100
AcDbXrecord
280
     1
270
     1
271
     1
  0
XRECORD
  5
25
102
{ACAD_REACTORS
330
22
102
}
330
22
100
AcDbXrecord
280
     1
270
     1
271
     1
  0
XRECORD
  5
1208
102
{ACAD_REACTORS
330
1207
102
}
330
1207
100
AcDbXrecord
280
     1
102
DISPLAYNAME
  1
Imperial24
102
FLAGS
 90
        0
  0
XRECORD
  5
1210
102
{ACAD_REACTORS
330
120F
102
}
330
120F
100
AcDbXrecord
280
     1
102
DISPLAYNAME
  1
Metric50
102
FLAGS
 90
        0
  0
CELLSTYLEMAP
  5
11D3
102
{ACAD_REACTORS
330
E81
102
}
330
E81
100
AcDbCellStyleMap
 90
        3
300
CELLSTYLE
  1
TABLEFORMAT_BEGIN
 90
        5
170
     1
 91
        0
 92
    32768
 62
   257
 93
        1
300
CONTENTFORMAT
  1
CONTENTFORMAT_BEGIN
 90
        0
 91
        0
 92
      512
 93
        0
300

 40
0.0
140
1.0
 94
        5
 62
     0
340
55
144
0.25
309
CONTENTFORMAT_END
171
     1
301
MARGIN
  1
CELLMARGIN_BEGIN
 40
0.06
 40
0.06
 40
0.06
 40
0.06
 40
0.18
 40
0.18
309
CELLMARGIN_END
 94
        6
 95
        1
302
GRIDFORMAT
  1
GRIDFORMAT_BEGIN
 90
        0
 91
        1
 62
     0
 92
       -2
340
0
 93
        0
 40
0.045
309
GRIDFORMAT_END
 95
        2
302
GRIDFORMAT
  1
GRIDFORMAT_BEGIN
 90
        0
 91
        1
 62
     0
 92
       -2
340
0
 93
        0
 40
0.045
309
GRIDFORMAT_END
 95
        4
302
GRIDFORMAT
  1
GRIDFORMAT_BEGIN
 90
        0
 91
        1
 62
     0
 92
       -2
340
0
 93
        0
 40
0.045
309
GRIDFORMAT_END
 95
        8
302
GRIDFORMAT
  1
GRIDFORMAT_BEGIN
 90
        0
 91
        1
 62
     0
 92
       -2
340
0
 93
        0
 40
0.045
309
GRIDFORMAT_END
 95
       16
302
GRIDFORMAT
  1
GRIDFORMAT_BEGIN
 90
        0
 91
        1
 62
     0
 92
       -2
340
0
 93
        0
 40
0.045
309
GRIDFORMAT_END
 95
       32
302
GRIDFORMAT
  1
GRIDFORMAT_BEGIN
 90
        0
 91
        1
 62
     0
 92
       -2
340
0
 93
        0
 40
0.045
309
GRIDFORMAT_END
309
TABLEFORMAT_END
  1
CELLSTYLE_BEGIN
 90
        1
 91
        1
300
_TITLE
309
CELLSTYLE_END
300
CELLSTYLE
  1
TABLEFORMAT_BEGIN
 90
        5
170
     1
 91
        0
 92
        0
 62
   257
 93
        1
300
CONTENTFORMAT
  1
CONTENTFORMAT_BEGIN
 90
        0
 91
        0
 92
      512
 93
        0
300

 40
0.0
140
1.0
 94
        5
 62
     0
340
55
144
0.18
309
CONTENTFORMAT_END
171
     1
301
MARGIN
  1
CELLMARGIN_BEGIN
 40
0.06
 40
0.06
 40
0.06
 40
0.06
 40
0.18
 40
0.18
309
CELLMARGIN_END
 94
        6
 95
        1
302
GRIDFORMAT
  1
GRIDFORMAT_BEGIN
 90
        0
 91
        1
 62
     0
 92
       -2
340
0
 93
        0
 40
0.045
309
GRIDFORMAT_END
 95
        2
302
GRIDFORMAT
  1
GRIDFORMAT_BEGIN
 90
        0
 91
        1
 62
     0
 92
       -2
340
0
 93
        0
 40
0.045
309
GRIDFORMAT_END
 95
        4
302
GRIDFORMAT
  1
GRIDFORMAT_BEGIN
 90
        0
 91
        1
 62
     0
 92
       -2
340
0
 93
        0
 40
0.045
309
GRIDFORMAT_END
 95
        8
302
GRIDFORMAT
  1
GRIDFORMAT_BEGIN
 90
        0
 91
        1
 62
     0
 92
       -2
340
0
 93
        0
 40
0.045
309
GRIDFORMAT_END
 95
       16
302
GRIDFORMAT
  1
GRIDFORMAT_BEGIN
 90
        0
 91
        1
 62
     0
 92
       -2
340
0
 93
        0
 40
0.045
309
GRIDFORMAT_END
 95
       32
302
GRIDFORMAT
  1
GRIDFORMAT_BEGIN
 90
        0
 91
        1
 62
     0
 92
       -2
340
0
 93
        0
 40
0.045
309
GRIDFORMAT_END
309
TABLEFORMAT_END
  1
CELLSTYLE_BEGIN
 90
        2
 91
        1
300
_HEADER
309
CELLSTYLE_END
300
CELLSTYLE
  1
TABLEFORMAT_BEGIN
 90
        5
170
     1
 91
        0
 92
        0
 62
   257
 93
        1
300
CONTENTFORMAT
  1
CONTENTFORMAT_BEGIN
 90
        0
 91
        0
 92
      512
 93
        0
300

 40
0.0
140
1.0
 94
        2
 62
     0
340
55
144
0.18
309
CONTENTFORMAT_END
171
     1
301
MARGIN
  1
CELLMARGIN_BEGIN
 40
0.06
 40
0.06
 40
0.06
 40
0.06
 40
0.18
 40
0.18
309
CELLMARGIN_END
 94
        6
 95
        1
302
GRIDFORMAT
  1
GRIDFORMAT_BEGIN
 90
        0
 91
        1
 62
     0
 92
       -2
340
0
 93
        0
 40
0.045
309
GRIDFORMAT_END
 95
        2
302
GRIDFORMAT
  1
GRIDFORMAT_BEGIN
 90
        0
 91
        1
 62
     0
 92
       -2
340
0
 93
        0
 40
0.045
309
GRIDFORMAT_END
 95
        4
302
GRIDFORMAT
  1
GRIDFORMAT_BEGIN
 90
        0
 91
        1
 62
     0
 92
       -2
340
0
 93
        0
 40
0.045
309
GRIDFORMAT_END
 95
        8
302
GRIDFORMAT
  1
GRIDFORMAT_BEGIN
 90
        0
 91
        1
 62
     0
 92
       -2
340
0
 93
        0
 40
0.045
309
GRIDFORMAT_END
 95
       16
302
GRIDFORMAT
  1
GRIDFORMAT_BEGIN
 90
        0
 91
        1
 62
     0
 92
       -2
340
0
 93
        0
 40
0.045
309
GRIDFORMAT_END
 95
       32
302
GRIDFORMAT
  1
GRIDFORMAT_BEGIN
 90
        0
 91
        1
 62
     0
 92
       -2
340
0
 93
        0
 40
0.045
309
GRIDFORMAT_END
309
TABLEFORMAT_END
  1
CELLSTYLE_BEGIN
 90
        3
 91
        2
300
_DATA
309
CELLSTYLE_END
  0
XRECORD
  5
1206
102
{ACAD_REACTORS
330
E81
102
}
330
E81
100
AcDbXrecord
280
     1
102
ACAD_ROUNDTRIP_PRE2007_TABLESTYLE
 90
      512
 91
        0
  1

 92
      512
 93
        0
  2

 94
      512
 95
        0
  3

  0
XRECORD
  5
11E1
102
{ACAD_REACTORS
330
11E0
102
}
330
11E0
100
AcDbXrecord
280
     1
102
RTVSPost2010Prop28
280
     1
102
RTVSPost2010PropOp28
 70
     1
102
RTVSPost2010Prop29
280
     1
102
RTVSPost2010PropOp29
 70
     1
102
RTVSPost2010Prop30
280
     0
102
RTVSPost2010PropOp30
 70
     1
102
RTVSPost2010Prop31
280
     0
102
RTVSPost2010PropOp31
 70
     1
102
RTVSPost2010Prop32
280
     0
102
RTVSPost2010PropOp32
 70
     1
102
RTVSPost2010Prop33
280
     0
102
RTVSPost2010PropOp33
 70
     1
102
RTVSPost2010Prop34
280
     0
102
RTVSPost2010PropOp34
 70
     1
102
RTVSPost2010Prop35
280
     0
102
RTVSPost2010PropOp35
 70
     1
102
RTVSPost2010Prop36
280
     0
102
RTVSPost2010PropOp36
 70
     1
102
RTVSPost2010Prop37
 90
       50
102
RTVSPost2010PropOp37
 70
     1
102
RTVSPost2010Prop38
140
0.0
102
RTVSPost2010PropOp38
 70
     1
102
RTVSPost2010Prop39
140
1.0
102
RTVSPost2010PropOp39
 70
     1
102
RTVSPost2010Prop40
 90
        0
102
RTVSPost2010PropOp40
 70
     1
102
RTVSPost2010Prop41ColorIndex
 90
       18
102
RTVSPost2010Prop41ColorRGB
 90
        0
102
RTVSPost2010PropOp41
 70
     1
102
RTVSPost2010Prop42
 90
       50
102
RTVSPost2010PropOp42
 70
     1
102
RTVSPost2010Prop43
 90
        3
102
RTVSPost2010PropOp43
 70
     1
102
RTVSPost2010Prop44ColorIndex
 90
        5
102
RTVSPost2010Prop44ColorRGB
 90
      255
102
RTVSPost2010PropOp44
 70
     1
102
RTVSPost2010Prop45
280
     0
102
RTVSPost2010PropOp45
 70
     1
102
RTVSPost2010Prop46
 90
       50
102
RTVSPost2010PropOp46
 70
     1
102
RTVSPost2010Prop47
 90
       50
102
RTVSPost2010PropOp47
 70
     1
102
RTVSPost2010Prop48
 90
       50
102
RTVSPost2010PropOp48
 70
     1
102
RTVSPost2010Prop49
280
     0
102
RTVSPost2010PropOp49
 70
     1
102
RTVSPost2010Prop50
 90
       50
102
RTVSPost2010PropOp50
 70
     1
102
RTVSPost2010Prop51ColorIndex
 90
      256
102
RTVSPost2010Prop51ColorRGB
 90
-16777216
102
RTVSPost2010PropOp51
 70
     0
102
RTVSPost2010Prop52
140
1.0
102
RTVSPost2010PropOp52
 70
     0
102
RTVSPost2010Prop53
 90
        2
102
RTVSPost2010PropOp53
 70
     1
102
RTVSPost2010Prop54
  1
strokes_ogs.tif
102
RTVSPost2010PropOp54
 70
     1
102
RTVSPost2010Prop55
280
     0
102
RTVSPost2010PropOp55
 70
     1
102
RTVSPost2010Prop56
140
1.0
102
RTVSPost2010PropOp56
 70
     1
102
RTVSPost2010Prop57
140
1.0
102
RTVSPost2010PropOp57
 70
     1
102
RTVSPropertyOp0
 70
     1
102
RTVSPropertyOp1
 70
     1
102
RTVSPropertyOp2
 70
     1
102
RTVSPropertyOp3
 70
     1
102
RTVSPropertyOp4
 70
     1
102
RTVSPropertyOp5
 70
     1
102
RTVSPropertyOp6
 70
     1
102
RTVSPropertyOp7
 70
     1
102
RTVSPropertyOp8
 70
     1
102
RTVSPropertyOp9
 70
     1
102
RTVSPropertyOp10
 70
     1
102
RTVSPropertyOp11
 70
     1
102
RTVSPropertyOp12
 70
     1
102
RTVSPropertyOp13
 70
     1
102
RTVSPropertyOp14
 70
     1
102
RTVSPropertyOp15
 70
     1
102
RTVSPropertyOp16
 70
     1
102
RTVSPropertyOp17
 70
     1
102
RTVSPropertyOp18
 70
     1
102
RTVSPropertyOp19
 70
     1
102
RTVSPropertyOp20
 70
     1
102
RTVSPropertyOp21
 70
     1
102
RTVSPropertyOp22
 70
     1
102
RTVSPropertyOp23
 70
     1
102
RTVSPropertyOp24
 70
     1
102
RTVSPropertyOp25
 70
     1
102
RTVSPropertyOp26
 70
     1
102
RTVSPropertyOp27
 70
     1
102
RTVSPropertyOp28
 70
     1
102
RTVSPropertyOp29
 70
     1
102
RTVSPropertyOp30
 70
     1
102
RTVSPropertyOp31
 70
     1
102
RTVSPropertyOp32
 70
     1
102
RTVSPropertyOp33
 70
     1
102
RTVSPropertyOp34
 70
     1
102
RTVSPropertyOp35
 70
     1
102
RTVSPropertyOp36
 70
     1
102
RTVSPropertyOp37
 70
     1
102
RTVSPropertyOp38
 70
     1
102
RTVSPropertyOp39
 70
     1
102
RTVSPropertyOp40
 70
     1
102
RTVSPropertyOp41
 70
     1
102
RTVSPropertyOp42
 70
     1
102
RTVSPropertyOp43
 70
     1
102
RTVSPropertyOp44
 70
     1
102
RTVSPropertyOp45
 70
     1
102
RTVSPropertyOp46
 70
     1
102
RTVSPropertyOp47
 70
     1
102
RTVSPropertyOp48
 70
     1
102
RTVSPropertyOp49
 70
     1
102
RTVSPropertyOp50
 70
     1
102
RTVSPropertyOp51
 70
     0
102
RTVSPropertyOp52
 70
     0
102
RTVSPropertyOp53
 70
     1
102
RTVSPropertyOp54
 70
     1
102
RTVSPropertyOp55
 70
     1
102
RTVSPropertyOp56
 70
     1
102
RTVSPropertyOp57
 70
     1
102
RTVSPropertyOp58
 70
     1
102
RTVSPropertyOp59
 70
     1
102
RTVSPropertyOp60
 70
     1
102
RTVSPropertyOp61
 70
     1
102
RTVSPropertyOp62
 70
     1
  0
XRECORD
  5
11DF
102
{ACAD_REACTORS
330
11DE
102
}
330
11DE
100
AcDbXrecord
280
     1
102
RTVSPost2010Prop28
280
     0
102
RTVSPost2010PropOp28
 70
     1
102
RTVSPost2010Prop29
280
     1
102
RTVSPost2010PropOp29
 70
     1
102
RTVSPost2010Prop30
280
     1
102
RTVSPost2010PropOp30
 70
     1
102
RTVSPost2010Prop31
280
     0
102
RTVSPost2010PropOp31
 70
     1
102
RTVSPost2010Prop32
280
     0
102
RTVSPost2010PropOp32
 70
     1
102
RTVSPost2010Prop33
280
     0
102
RTVSPost2010PropOp33
 70
     1
102
RTVSPost2010Prop34
280
     0
102
RTVSPost2010PropOp34
 70
     1
102
RTVSPost2010Prop35
280
     0
102
RTVSPost2010PropOp35
 70
     1
102
RTVSPost2010Prop36
280
     0
102
RTVSPost2010PropOp36
 70
     1
102
RTVSPost2010Prop37
 90
       50
102
RTVSPost2010PropOp37
 70
     1
102
RTVSPost2010Prop38
140
0.0
102
RTVSPost2010PropOp38
 70
     1
102
RTVSPost2010Prop39
140
1.0
102
RTVSPost2010PropOp39
 70
     1
102
RTVSPost2010Prop40
 90
        0
102
RTVSPost2010PropOp40
 70
     1
102
RTVSPost2010Prop41ColorIndex
 90
       18
102
RTVSPost2010Prop41ColorRGB
 90
        0
102
RTVSPost2010PropOp41
 70
     1
102
RTVSPost2010Prop42
 90
       50
102
RTVSPost2010PropOp42
 70
     1
102
RTVSPost2010Prop43
 90
        3
102
RTVSPost2010PropOp43
 70
     1
102
RTVSPost2010Prop44ColorIndex
 90
        5
102
RTVSPost2010Prop44ColorRGB
 90
      255
102
RTVSPost2010PropOp44
 70
     1
102
RTVSPost2010Prop45
280
     0
102
RTVSPost2010PropOp45
 70
     1
102
RTVSPost2010Prop46
 90
       50
102
RTVSPost2010PropOp46
 70
     1
102
RTVSPost2010Prop47
 90
       50
102
RTVSPost2010PropOp47
 70
     1
102
RTVSPost2010Prop48
 90
       50
102
RTVSPost2010PropOp48
 70
     1
102
RTVSPost2010Prop49
280
     0
102
RTVSPost2010PropOp49
 70
     1
102
RTVSPost2010Prop50
 90
       50
102
RTVSPost2010PropOp50
 70
     1
102
RTVSPost2010Prop51ColorIndex
 90
      256
102
RTVSPost2010Prop51ColorRGB
 90
-16777216
102
RTVSPost2010PropOp51
 70
     0
102
RTVSPost2010Prop52
140
1.0
102
RTVSPost2010PropOp52
 70
     0
102
RTVSPost2010Prop53
 90
        2
102
RTVSPost2010PropOp53
 70
     1
102
RTVSPost2010Prop54
  1
strokes_ogs.tif
102
RTVSPost2010PropOp54
 70
     1
102
RTVSPost2010Prop55
280
     0
102
RTVSPost2010PropOp55
 70
     1
102
RTVSPost2010Prop56
140
1.0
102
RTVSPost2010PropOp56
 70
     1
102
RTVSPost2010Prop57
140
1.0
102
RTVSPost2010PropOp57
 70
     1
102
RTVSPropertyOp0
 70
     1
102
RTVSPropertyOp1
 70
     1
102
RTVSPropertyOp2
 70
     1
102
RTVSPropertyOp3
 70
     1
102
RTVSPropertyOp4
 70
     1
102
RTVSPropertyOp5
 70
     1
102
RTVSPropertyOp6
 70
     1
102
RTVSPropertyOp7
 70
     1
102
RTVSPropertyOp8
 70
     1
102
RTVSPropertyOp9
 70
     1
102
RTVSPropertyOp10
 70
     1
102
RTVSPropertyOp11
 70
     1
102
RTVSPropertyOp12
 70
     1
102
RTVSPropertyOp13
 70
     1
102
RTVSPropertyOp14
 70
     1
102
RTVSPropertyOp15
 70
     1
102
RTVSPropertyOp16
 70
     1
102
RTVSPropertyOp17
 70
     1
102
RTVSPropertyOp18
 70
     1
102
RTVSPropertyOp19
 70
     1
102
RTVSPropertyOp20
 70
     1
102
RTVSPropertyOp21
 70
     1
102
RTVSPropertyOp22
 70
     1
102
RTVSPropertyOp23
 70
     1
102
RTVSPropertyOp24
 70
     1
102
RTVSPropertyOp25
 70
     1
102
RTVSPropertyOp26
 70
     1
102
RTVSPropertyOp27
 70
     1
102
RTVSPropertyOp28
 70
     1
102
RTVSPropertyOp29
 70
     1
102
RTVSPropertyOp30
 70
     1
102
RTVSPropertyOp31
 70
     1
102
RTVSPropertyOp32
 70
     1
102
RTVSPropertyOp33
 70
     1
102
RTVSPropertyOp34
 70
     1
102
RTVSPropertyOp35
 70
     1
102
RTVSPropertyOp36
 70
     1
102
RTVSPropertyOp37
 70
     1
102
RTVSPropertyOp38
 70
     1
102
RTVSPropertyOp39
 70
     1
102
RTVSPropertyOp40
 70
     1
102
RTVSPropertyOp41
 70
     1
102
RTVSPropertyOp42
 70
     1
102
RTVSPropertyOp43
 70
     1
102
RTVSPropertyOp44
 70
     1
102
RTVSPropertyOp45
 70
     1
102
RTVSPropertyOp46
 70
     1
102
RTVSPropertyOp47
 70
     1
102
RTVSPropertyOp48
 70
     1
102
RTVSPropertyOp49
 70
     1
102
RTVSPropertyOp50
 70
     1
102
RTVSPropertyOp51
 70
     0
102
RTVSPropertyOp52
 70
     0
102
RTVSPropertyOp53
 70
     1
102
RTVSPropertyOp54
 70
     1
102
RTVSPropertyOp55
 70
     1
102
RTVSPropertyOp56
 70
     1
102
RTVSPropertyOp57
 70
     1
102
RTVSPropertyOp58
 70
     1
102
RTVSPropertyOp59
 70
     1
102
RTVSPropertyOp60
 70
     1
102
RTVSPropertyOp61
 70
     1
102
RTVSPropertyOp62
 70
     1
  0
XRECORD
  5
11ED
102
{ACAD_REACTORS
330
11EC
102
}
330
11EC
100
AcDbXrecord
280
     1
102
RTVSPost2010Prop28
280
     0
102
RTVSPost2010PropOp28
 70
     1
102
RTVSPost2010Prop29
280
     1
102
RTVSPost2010PropOp29
 70
     1
102
RTVSPost2010Prop30
280
     1
102
RTVSPost2010PropOp30
 70
     1
102
RTVSPost2010Prop31
280
     0
102
RTVSPost2010PropOp31
 70
     1
102
RTVSPost2010Prop32
280
     0
102
RTVSPost2010PropOp32
 70
     1
102
RTVSPost2010Prop33
280
     0
102
RTVSPost2010PropOp33
 70
     1
102
RTVSPost2010Prop34
280
     0
102
RTVSPost2010PropOp34
 70
     1
102
RTVSPost2010Prop35
280
     0
102
RTVSPost2010PropOp35
 70
     1
102
RTVSPost2010Prop36
280
     0
102
RTVSPost2010PropOp36
 70
     1
102
RTVSPost2010Prop37
 90
       50
102
RTVSPost2010PropOp37
 70
     1
102
RTVSPost2010Prop38
140
0.0
102
RTVSPost2010PropOp38
 70
     1
102
RTVSPost2010Prop39
140
1.0
102
RTVSPost2010PropOp39
 70
     1
102
RTVSPost2010Prop40
 90
        0
102
RTVSPost2010PropOp40
 70
     1
102
RTVSPost2010Prop41ColorIndex
 90
       18
102
RTVSPost2010Prop41ColorRGB
 90
        0
102
RTVSPost2010PropOp41
 70
     1
102
RTVSPost2010Prop42
 90
       50
102
RTVSPost2010PropOp42
 70
     1
102
RTVSPost2010Prop43
 90
        3
102
RTVSPost2010PropOp43
 70
     1
102
RTVSPost2010Prop44ColorIndex
 90
        5
102
RTVSPost2010Prop44ColorRGB
 90
      255
102
RTVSPost2010PropOp44
 70
     1
102
RTVSPost2010Prop45
280
     0
102
RTVSPost2010PropOp45
 70
     1
102
RTVSPost2010Prop46
 90
       50
102
RTVSPost2010PropOp46
 70
     1
102
RTVSPost2010Prop47
 90
       50
102
RTVSPost2010PropOp47
 70
     1
102
RTVSPost2010Prop48
 90
       50
102
RTVSPost2010PropOp48
 70
     1
102
RTVSPost2010Prop49
280
     0
102
RTVSPost2010PropOp49
 70
     1
102
RTVSPost2010Prop50
 90
       50
102
RTVSPost2010PropOp50
 70
     1
102
RTVSPost2010Prop51ColorIndex
 90
      256
102
RTVSPost2010Prop51ColorRGB
 90
-16777216
102
RTVSPost2010PropOp51
 70
     0
102
RTVSPost2010Prop52
140
1.0
102
RTVSPost2010PropOp52
 70
     0
102
RTVSPost2010Prop53
 90
        2
102
RTVSPost2010PropOp53
 70
     1
102
RTVSPost2010Prop54
  1
strokes_ogs.tif
102
RTVSPost2010PropOp54
 70
     1
102
RTVSPost2010Prop55
280
     0
102
RTVSPost2010PropOp55
 70
     1
102
RTVSPost2010Prop56
140
1.0
102
RTVSPost2010PropOp56
 70
     1
102
RTVSPost2010Prop57
140
1.0
102
RTVSPost2010PropOp57
 70
     1
102
RTVSPropertyOp0
 70
     1
102
RTVSPropertyOp1
 70
     1
102
RTVSPropertyOp2
 70
     1
102
RTVSPropertyOp3
 70
     1
102
RTVSPropertyOp4
 70
     1
102
RTVSPropertyOp5
 70
     1
102
RTVSPropertyOp6
 70
     1
102
RTVSPropertyOp7
 70
     1
102
RTVSPropertyOp8
 70
     1
102
RTVSPropertyOp9
 70
     1
102
RTVSPropertyOp10
 70
     1
102
RTVSPropertyOp11
 70
     1
102
RTVSPropertyOp12
 70
     1
102
RTVSPropertyOp13
 70
     1
102
RTVSPropertyOp14
 70
     1
102
RTVSPropertyOp15
 70
     1
102
RTVSPropertyOp16
 70
     1
102
RTVSPropertyOp17
 70
     1
102
RTVSPropertyOp18
 70
     1
102
RTVSPropertyOp19
 70
     1
102
RTVSPropertyOp20
 70
     1
102
RTVSPropertyOp21
 70
     1
102
RTVSPropertyOp22
 70
     1
102
RTVSPropertyOp23
 70
     1
102
RTVSPropertyOp24
 70
     1
102
RTVSPropertyOp25
 70
     1
102
RTVSPropertyOp26
 70
     1
102
RTVSPropertyOp27
 70
     1
102
RTVSPropertyOp28
 70
     1
102
RTVSPropertyOp29
 70
     1
102
RTVSPropertyOp30
 70
     1
102
RTVSPropertyOp31
 70
     1
102
RTVSPropertyOp32
 70
     1
102
RTVSPropertyOp33
 70
     1
102
RTVSPropertyOp34
 70
     1
102
RTVSPropertyOp35
 70
     1
102
RTVSPropertyOp36
 70
     1
102
RTVSPropertyOp37
 70
     1
102
RTVSPropertyOp38
 70
     1
102
RTVSPropertyOp39
 70
     1
102
RTVSPropertyOp40
 70
     1
102
RTVSPropertyOp41
 70
     1
102
RTVSPropertyOp42
 70
     1
102
RTVSPropertyOp43
 70
     1
102
RTVSPropertyOp44
 70
     1
102
RTVSPropertyOp45
 70
     1
102
RTVSPropertyOp46
 70
     1
102
RTVSPropertyOp47
 70
     1
102
RTVSPropertyOp48
 70
     1
102
RTVSPropertyOp49
 70
     1
102
RTVSPropertyOp50
 70
     1
102
RTVSPropertyOp51
 70
     0
102
RTVSPropertyOp52
 70
     0
102
RTVSPropertyOp53
 70
     1
102
RTVSPropertyOp54
 70
     1
102
RTVSPropertyOp55
 70
     1
102
RTVSPropertyOp56
 70
     1
102
RTVSPropertyOp57
 70
     1
102
RTVSPropertyOp58
 70
     1
102
RTVSPropertyOp59
 70
     1
102
RTVSPropertyOp60
 70
     1
102
RTVSPropertyOp61
 70
     1
102
RTVSPropertyOp62
 70
     1
  0
XRECORD
  5
11F5
102
{ACAD_REACTORS
330
11F4
102
}
330
11F4
100
AcDbXrecord
280
     1
102
RTVSPost2010Prop28
280
     0
102
RTVSPost2010PropOp28
 70
     1
102
RTVSPost2010Prop29
280
     1
102
RTVSPost2010PropOp29
 70
     1
102
RTVSPost2010Prop30
280
     1
102
RTVSPost2010PropOp30
 70
     1
102
RTVSPost2010Prop31
280
     0
102
RTVSPost2010PropOp31
 70
     1
102
RTVSPost2010Prop32
280
     0
102
RTVSPost2010PropOp32
 70
     1
102
RTVSPost2010Prop33
280
     0
102
RTVSPost2010PropOp33
 70
     1
102
RTVSPost2010Prop34
280
     0
102
RTVSPost2010PropOp34
 70
     1
102
RTVSPost2010Prop35
280
     0
102
RTVSPost2010PropOp35
 70
     1
102
RTVSPost2010Prop36
280
     0
102
RTVSPost2010PropOp36
 70
     1
102
RTVSPost2010Prop37
 90
       50
102
RTVSPost2010PropOp37
 70
     1
102
RTVSPost2010Prop38
140
0.0
102
RTVSPost2010PropOp38
 70
     1
102
RTVSPost2010Prop39
140
1.0
102
RTVSPost2010PropOp39
 70
     1
102
RTVSPost2010Prop40
 90
        0
102
RTVSPost2010PropOp40
 70
     1
102
RTVSPost2010Prop41ColorIndex
 90
       18
102
RTVSPost2010Prop41ColorRGB
 90
        0
102
RTVSPost2010PropOp41
 70
     1
102
RTVSPost2010Prop42
 90
       50
102
RTVSPost2010PropOp42
 70
     1
102
RTVSPost2010Prop43
 90
        3
102
RTVSPost2010PropOp43
 70
     1
102
RTVSPost2010Prop44ColorIndex
 90
        5
102
RTVSPost2010Prop44ColorRGB
 90
      255
102
RTVSPost2010PropOp44
 70
     1
102
RTVSPost2010Prop45
280
     0
102
RTVSPost2010PropOp45
 70
     1
102
RTVSPost2010Prop46
 90
       50
102
RTVSPost2010PropOp46
 70
     1
102
RTVSPost2010Prop47
 90
       50
102
RTVSPost2010PropOp47
 70
     1
102
RTVSPost2010Prop48
 90
       50
102
RTVSPost2010PropOp48
 70
     1
102
RTVSPost2010Prop49
280
     0
102
RTVSPost2010PropOp49
 70
     1
102
RTVSPost2010Prop50
 90
       50
102
RTVSPost2010PropOp50
 70
     1
102
RTVSPost2010Prop51ColorIndex
 90
      256
102
RTVSPost2010Prop51ColorRGB
 90
-16777216
102
RTVSPost2010PropOp51
 70
     0
102
RTVSPost2010Prop52
140
1.0
102
RTVSPost2010PropOp52
 70
     0
102
RTVSPost2010Prop53
 90
        2
102
RTVSPost2010PropOp53
 70
     1
102
RTVSPost2010Prop54
  1
strokes_ogs.tif
102
RTVSPost2010PropOp54
 70
     1
102
RTVSPost2010Prop55
280
     0
102
RTVSPost2010PropOp55
 70
     1
102
RTVSPost2010Prop56
140
1.0
102
RTVSPost2010PropOp56
 70
     1
102
RTVSPost2010Prop57
140
1.0
102
RTVSPost2010PropOp57
 70
     1
102
RTVSPropertyOp0
 70
     1
102
RTVSPropertyOp1
 70
     1
102
RTVSPropertyOp2
 70
     1
102
RTVSPropertyOp3
 70
     1
102
RTVSPropertyOp4
 70
     1
102
RTVSPropertyOp5
 70
     1
102
RTVSPropertyOp6
 70
     1
102
RTVSPropertyOp7
 70
     1
102
RTVSPropertyOp8
 70
     1
102
RTVSPropertyOp9
 70
     1
102
RTVSPropertyOp10
 70
     1
102
RTVSPropertyOp11
 70
     1
102
RTVSPropertyOp12
 70
     1
102
RTVSPropertyOp13
 70
     1
102
RTVSPropertyOp14
 70
     1
102
RTVSPropertyOp15
 70
     1
102
RTVSPropertyOp16
 70
     1
102
RTVSPropertyOp17
 70
     1
102
RTVSPropertyOp18
 70
     1
102
RTVSPropertyOp19
 70
     1
102
RTVSPropertyOp20
 70
     1
102
RTVSPropertyOp21
 70
     1
102
RTVSPropertyOp22
 70
     1
102
RTVSPropertyOp23
 70
     1
102
RTVSPropertyOp24
 70
     1
102
RTVSPropertyOp25
 70
     1
102
RTVSPropertyOp26
 70
     1
102
RTVSPropertyOp27
 70
     1
102
RTVSPropertyOp28
 70
     1
102
RTVSPropertyOp29
 70
     1
102
RTVSPropertyOp30
 70
     1
102
RTVSPropertyOp31
 70
     1
102
RTVSPropertyOp32
 70
     1
102
RTVSPropertyOp33
 70
     1
102
RTVSPropertyOp34
 70
     1
102
RTVSPropertyOp35
 70
     1
102
RTVSPropertyOp36
 70
     1
102
RTVSPropertyOp37
 70
     1
102
RTVSPropertyOp38
 70
     1
102
RTVSPropertyOp39
 70
     1
102
RTVSPropertyOp40
 70
     1
102
RTVSPropertyOp41
 70
     1
102
RTVSPropertyOp42
 70
     1
102
RTVSPropertyOp43
 70
     1
102
RTVSPropertyOp44
 70
     1
102
RTVSPropertyOp45
 70
     1
102
RTVSPropertyOp46
 70
     1
102
RTVSPropertyOp47
 70
     1
102
RTVSPropertyOp48
 70
     1
102
RTVSPropertyOp49
 70
     1
102
RTVSPropertyOp50
 70
     1
102
RTVSPropertyOp51
 70
     0
102
RTVSPropertyOp52
 70
     0
102
RTVSPropertyOp53
 70
     1
102
RTVSPropertyOp54
 70
     1
102
RTVSPropertyOp55
 70
     1
102
RTVSPropertyOp56
 70
     1
102
RTVSPropertyOp57
 70
     1
102
RTVSPropertyOp58
 70
     1
102
RTVSPropertyOp59
 70
     1
102
RTVSPropertyOp60
 70
     1
102
RTVSPropertyOp61
 70
     1
102
RTVSPropertyOp62
 70
     1
  0
XRECORD
  5
11E7
102
{ACAD_REACTORS
330
11E6
102
}
330
11E6
100
AcDbXrecord
280
     1
102
RTVSPost2010Prop28
280
     0
102
RTVSPost2010PropOp28
 70
     1
102
RTVSPost2010Prop29
280
     1
102
RTVSPost2010PropOp29
 70
     1
102
RTVSPost2010Prop30
280
     1
102
RTVSPost2010PropOp30
 70
     1
102
RTVSPost2010Prop31
280
     0
102
RTVSPost2010PropOp31
 70
     1
102
RTVSPost2010Prop32
280
     0
102
RTVSPost2010PropOp32
 70
     1
102
RTVSPost2010Prop33
280
     0
102
RTVSPost2010PropOp33
 70
     1
102
RTVSPost2010Prop34
280
     0
102
RTVSPost2010PropOp34
 70
     1
102
RTVSPost2010Prop35
280
     0
102
RTVSPost2010PropOp35
 70
     1
102
RTVSPost2010Prop36
280
     0
102
RTVSPost2010PropOp36
 70
     1
102
RTVSPost2010Prop37
 90
       50
102
RTVSPost2010PropOp37
 70
     1
102
RTVSPost2010Prop38
140
0.0
102
RTVSPost2010PropOp38
 70
     1
102
RTVSPost2010Prop39
140
1.0
102
RTVSPost2010PropOp39
 70
     1
102
RTVSPost2010Prop40
 90
        0
102
RTVSPost2010PropOp40
 70
     1
102
RTVSPost2010Prop41ColorIndex
 90
       18
102
RTVSPost2010Prop41ColorRGB
 90
        0
102
RTVSPost2010PropOp41
 70
     1
102
RTVSPost2010Prop42
 90
       50
102
RTVSPost2010PropOp42
 70
     1
102
RTVSPost2010Prop43
 90
        3
102
RTVSPost2010PropOp43
 70
     1
102
RTVSPost2010Prop44ColorIndex
 90
        5
102
RTVSPost2010Prop44ColorRGB
 90
      255
102
RTVSPost2010PropOp44
 70
     1
102
RTVSPost2010Prop45
280
     0
102
RTVSPost2010PropOp45
 70
     1
102
RTVSPost2010Prop46
 90
       50
102
RTVSPost2010PropOp46
 70
     1
102
RTVSPost2010Prop47
 90
       50
102
RTVSPost2010PropOp47
 70
     1
102
RTVSPost2010Prop48
 90
       50
102
RTVSPost2010PropOp48
 70
     1
102
RTVSPost2010Prop49
280
     0
102
RTVSPost2010PropOp49
 70
     1
102
RTVSPost2010Prop50
 90
       50
102
RTVSPost2010PropOp50
 70
     1
102
RTVSPost2010Prop51ColorIndex
 90
      256
102
RTVSPost2010Prop51ColorRGB
 90
-16777216
102
RTVSPost2010PropOp51
 70
     0
102
RTVSPost2010Prop52
140
1.0
102
RTVSPost2010PropOp52
 70
     0
102
RTVSPost2010Prop53
 90
        2
102
RTVSPost2010PropOp53
 70
     1
102
RTVSPost2010Prop54
  1
strokes_ogs.tif
102
RTVSPost2010PropOp54
 70
     1
102
RTVSPost2010Prop55
280
     0
102
RTVSPost2010PropOp55
 70
     1
102
RTVSPost2010Prop56
140
1.0
102
RTVSPost2010PropOp56
 70
     1
102
RTVSPost2010Prop57
140
1.0
102
RTVSPost2010PropOp57
 70
     1
102
RTVSPropertyOp0
 70
     1
102
RTVSPropertyOp1
 70
     1
102
RTVSPropertyOp2
 70
     1
102
RTVSPropertyOp3
 70
     1
102
RTVSPropertyOp4
 70
     1
102
RTVSPropertyOp5
 70
     1
102
RTVSPropertyOp6
 70
     1
102
RTVSPropertyOp7
 70
     1
102
RTVSPropertyOp8
 70
     1
102
RTVSPropertyOp9
 70
     1
102
RTVSPropertyOp10
 70
     1
102
RTVSPropertyOp11
 70
     1
102
RTVSPropertyOp12
 70
     1
102
RTVSPropertyOp13
 70
     1
102
RTVSPropertyOp14
 70
     1
102
RTVSPropertyOp15
 70
     1
102
RTVSPropertyOp16
 70
     1
102
RTVSPropertyOp17
 70
     1
102
RTVSPropertyOp18
 70
     1
102
RTVSPropertyOp19
 70
     1
102
RTVSPropertyOp20
 70
     1
102
RTVSPropertyOp21
 70
     1
102
RTVSPropertyOp22
 70
     1
102
RTVSPropertyOp23
 70
     1
102
RTVSPropertyOp24
 70
     1
102
RTVSPropertyOp25
 70
     1
102
RTVSPropertyOp26
 70
     1
102
RTVSPropertyOp27
 70
     1
102
RTVSPropertyOp28
 70
     1
102
RTVSPropertyOp29
 70
     1
102
RTVSPropertyOp30
 70
     1
102
RTVSPropertyOp31
 70
     1
102
RTVSPropertyOp32
 70
     1
102
RTVSPropertyOp33
 70
     1
102
RTVSPropertyOp34
 70
     1
102
RTVSPropertyOp35
 70
     1
102
RTVSPropertyOp36
 70
     1
102
RTVSPropertyOp37
 70
     1
102
RTVSPropertyOp38
 70
     1
102
RTVSPropertyOp39
 70
     1
102
RTVSPropertyOp40
 70
     1
102
RTVSPropertyOp41
 70
     1
102
RTVSPropertyOp42
 70
     1
102
RTVSPropertyOp43
 70
     1
102
RTVSPropertyOp44
 70
     1
102
RTVSPropertyOp45
 70
     1
102
RTVSPropertyOp46
 70
     1
102
RTVSPropertyOp47
 70
     1
102
RTVSPropertyOp48
 70
     1
102
RTVSPropertyOp49
 70
     1
102
RTVSPropertyOp50
 70
     1
102
RTVSPropertyOp51
 70
     0
102
RTVSPropertyOp52
 70
     0
102
RTVSPropertyOp53
 70
     1
102
RTVSPropertyOp54
 70
     1
102
RTVSPropertyOp55
 70
     1
102
RTVSPropertyOp56
 70
     1
102
RTVSPropertyOp57
 70
     1
102
RTVSPropertyOp58
 70
     1
102
RTVSPropertyOp59
 70
     1
102
RTVSPropertyOp60
 70
     1
102
RTVSPropertyOp61
 70
     1
102
RTVSPropertyOp62
 70
     1
  0
XRECORD
  5
11EB
102
{ACAD_REACTORS
330
11EA
102
}
330
11EA
100
AcDbXrecord
280
     1
102
RTVSPost2010Prop28
280
     0
102
RTVSPost2010PropOp28
 70
     1
102
RTVSPost2010Prop29
280
     1
102
RTVSPost2010PropOp29
 70
     1
102
RTVSPost2010Prop30
280
     1
102
RTVSPost2010PropOp30
 70
     1
102
RTVSPost2010Prop31
280
     0
102
RTVSPost2010PropOp31
 70
     1
102
RTVSPost2010Prop32
280
     0
102
RTVSPost2010PropOp32
 70
     1
102
RTVSPost2010Prop33
280
     0
102
RTVSPost2010PropOp33
 70
     1
102
RTVSPost2010Prop34
280
     0
102
RTVSPost2010PropOp34
 70
     1
102
RTVSPost2010Prop35
280
     0
102
RTVSPost2010PropOp35
 70
     1
102
RTVSPost2010Prop36
280
     0
102
RTVSPost2010PropOp36
 70
     1
102
RTVSPost2010Prop37
 90
       50
102
RTVSPost2010PropOp37
 70
     1
102
RTVSPost2010Prop38
140
0.0
102
RTVSPost2010PropOp38
 70
     1
102
RTVSPost2010Prop39
140
1.0
102
RTVSPost2010PropOp39
 70
     1
102
RTVSPost2010Prop40
 90
        0
102
RTVSPost2010PropOp40
 70
     1
102
RTVSPost2010Prop41ColorIndex
 90
       18
102
RTVSPost2010Prop41ColorRGB
 90
        0
102
RTVSPost2010PropOp41
 70
     1
102
RTVSPost2010Prop42
 90
       50
102
RTVSPost2010PropOp42
 70
     1
102
RTVSPost2010Prop43
 90
        3
102
RTVSPost2010PropOp43
 70
     1
102
RTVSPost2010Prop44ColorIndex
 90
        5
102
RTVSPost2010Prop44ColorRGB
 90
      255
102
RTVSPost2010PropOp44
 70
     1
102
RTVSPost2010Prop45
280
     0
102
RTVSPost2010PropOp45
 70
     1
102
RTVSPost2010Prop46
 90
       50
102
RTVSPost2010PropOp46
 70
     1
102
RTVSPost2010Prop47
 90
       50
102
RTVSPost2010PropOp47
 70
     1
102
RTVSPost2010Prop48
 90
       50
102
RTVSPost2010PropOp48
 70
     1
102
RTVSPost2010Prop49
280
     0
102
RTVSPost2010PropOp49
 70
     1
102
RTVSPost2010Prop50
 90
       50
102
RTVSPost2010PropOp50
 70
     1
102
RTVSPost2010Prop51ColorIndex
 90
      256
102
RTVSPost2010Prop51ColorRGB
 90
-16777216
102
RTVSPost2010PropOp51
 70
     0
102
RTVSPost2010Prop52
140
1.0
102
RTVSPost2010PropOp52
 70
     0
102
RTVSPost2010Prop53
 90
        2
102
RTVSPost2010PropOp53
 70
     1
102
RTVSPost2010Prop54
  1
strokes_ogs.tif
102
RTVSPost2010PropOp54
 70
     1
102
RTVSPost2010Prop55
280
     0
102
RTVSPost2010PropOp55
 70
     1
102
RTVSPost2010Prop56
140
1.0
102
RTVSPost2010PropOp56
 70
     1
102
RTVSPost2010Prop57
140
1.0
102
RTVSPost2010PropOp57
 70
     1
102
RTVSPropertyOp0
 70
     1
102
RTVSPropertyOp1
 70
     1
102
RTVSPropertyOp2
 70
     1
102
RTVSPropertyOp3
 70
     1
102
RTVSPropertyOp4
 70
     1
102
RTVSPropertyOp5
 70
     1
102
RTVSPropertyOp6
 70
     1
102
RTVSPropertyOp7
 70
     1
102
RTVSPropertyOp8
 70
     1
102
RTVSPropertyOp9
 70
     1
102
RTVSPropertyOp10
 70
     1
102
RTVSPropertyOp11
 70
     1
102
RTVSPropertyOp12
 70
     1
102
RTVSPropertyOp13
 70
     1
102
RTVSPropertyOp14
 70
     1
102
RTVSPropertyOp15
 70
     1
102
RTVSPropertyOp16
 70
     1
102
RTVSPropertyOp17
 70
     1
102
RTVSPropertyOp18
 70
     1
102
RTVSPropertyOp19
 70
     1
102
RTVSPropertyOp20
 70
     1
102
RTVSPropertyOp21
 70
     1
102
RTVSPropertyOp22
 70
     1
102
RTVSPropertyOp23
 70
     1
102
RTVSPropertyOp24
 70
     1
102
RTVSPropertyOp25
 70
     1
102
RTVSPropertyOp26
 70
     1
102
RTVSPropertyOp27
 70
     1
102
RTVSPropertyOp28
 70
     1
102
RTVSPropertyOp29
 70
     1
102
RTVSPropertyOp30
 70
     1
102
RTVSPropertyOp31
 70
     1
102
RTVSPropertyOp32
 70
     1
102
RTVSPropertyOp33
 70
     1
102
RTVSPropertyOp34
 70
     1
102
RTVSPropertyOp35
 70
     1
102
RTVSPropertyOp36
 70
     1
102
RTVSPropertyOp37
 70
     1
102
RTVSPropertyOp38
 70
     1
102
RTVSPropertyOp39
 70
     1
102
RTVSPropertyOp40
 70
     1
102
RTVSPropertyOp41
 70
     1
102
RTVSPropertyOp42
 70
     1
102
RTVSPropertyOp43
 70
     1
102
RTVSPropertyOp44
 70
     1
102
RTVSPropertyOp45
 70
     1
102
RTVSPropertyOp46
 70
     1
102
RTVSPropertyOp47
 70
     1
102
RTVSPropertyOp48
 70
     1
102
RTVSPropertyOp49
 70
     1
102
RTVSPropertyOp50
 70
     1
102
RTVSPropertyOp51
 70
     0
102
RTVSPropertyOp52
 70
     0
102
RTVSPropertyOp53
 70
     1
102
RTVSPropertyOp54
 70
     1
102
RTVSPropertyOp55
 70
     1
102
RTVSPropertyOp56
 70
     1
102
RTVSPropertyOp57
 70
     1
102
RTVSPropertyOp58
 70
     1
102
RTVSPropertyOp59
 70
     1
102
RTVSPropertyOp60
 70
     1
102
RTVSPropertyOp61
 70
     1
102
RTVSPropertyOp62
 70
     1
  0
XRECORD
  5
1205
102
{ACAD_REACTORS
330
1204
102
}
330
1204
100
AcDbXrecord
280
     1
102
RTVSPost2010Prop28
280
     0
102
RTVSPost2010PropOp28
 70
     1
102
RTVSPost2010Prop29
280
     1
102
RTVSPost2010PropOp29
 70
     1
102
RTVSPost2010Prop30
280
     1
102
RTVSPost2010PropOp30
 70
     1
102
RTVSPost2010Prop31
280
     0
102
RTVSPost2010PropOp31
 70
     1
102
RTVSPost2010Prop32
280
     0
102
RTVSPost2010PropOp32
 70
     1
102
RTVSPost2010Prop33
280
     0
102
RTVSPost2010PropOp33
 70
     1
102
RTVSPost2010Prop34
280
     0
102
RTVSPost2010PropOp34
 70
     1
102
RTVSPost2010Prop35
280
     0
102
RTVSPost2010PropOp35
 70
     1
102
RTVSPost2010Prop36
280
     0
102
RTVSPost2010PropOp36
 70
     1
102
RTVSPost2010Prop37
 90
       50
102
RTVSPost2010PropOp37
 70
     0
102
RTVSPost2010Prop38
140
0.0
102
RTVSPost2010PropOp38
 70
     0
102
RTVSPost2010Prop39
140
1.0
102
RTVSPost2010PropOp39
 70
     0
102
RTVSPost2010Prop40
 90
        0
102
RTVSPost2010PropOp40
 70
     0
102
RTVSPost2010Prop41ColorIndex
 90
       18
102
RTVSPost2010Prop41ColorRGB
 90
        0
102
RTVSPost2010PropOp41
 70
     0
102
RTVSPost2010Prop42
 90
       50
102
RTVSPost2010PropOp42
 70
     0
102
RTVSPost2010Prop43
 90
        3
102
RTVSPost2010PropOp43
 70
     0
102
RTVSPost2010Prop44ColorIndex
 90
        5
102
RTVSPost2010Prop44ColorRGB
 90
      255
102
RTVSPost2010PropOp44
 70
     0
102
RTVSPost2010Prop45
280
     0
102
RTVSPost2010PropOp45
 70
     1
102
RTVSPost2010Prop46
 90
       50
102
RTVSPost2010PropOp46
 70
     0
102
RTVSPost2010Prop47
 90
       50
102
RTVSPost2010PropOp47
 70
     0
102
RTVSPost2010Prop48
 90
       50
102
RTVSPost2010PropOp48
 70
     0
102
RTVSPost2010Prop49
280
     0
102
RTVSPost2010PropOp49
 70
     1
102
RTVSPost2010Prop50
 90
       50
102
RTVSPost2010PropOp50
 70
     0
102
RTVSPost2010Prop51ColorIndex
 90
      256
102
RTVSPost2010Prop51ColorRGB
 90
-16777216
102
RTVSPost2010PropOp51
 70
     0
102
RTVSPost2010Prop52
140
1.0
102
RTVSPost2010PropOp52
 70
     0
102
RTVSPost2010Prop53
 90
        2
102
RTVSPost2010PropOp53
 70
     0
102
RTVSPost2010Prop54
  1
strokes_ogs.tif
102
RTVSPost2010PropOp54
 70
     0
102
RTVSPost2010Prop55
280
     0
102
RTVSPost2010PropOp55
 70
     1
102
RTVSPost2010Prop56
140
1.0
102
RTVSPost2010PropOp56
 70
     0
102
RTVSPost2010Prop57
140
1.0
102
RTVSPost2010PropOp57
 70
     0
102
RTVSPropertyOp0
 70
     0
102
RTVSPropertyOp1
 70
     0
102
RTVSPropertyOp2
 70
     0
102
RTVSPropertyOp3
 70
     0
102
RTVSPropertyOp4
 70
     0
102
RTVSPropertyOp5
 70
     0
102
RTVSPropertyOp6
 70
     0
102
RTVSPropertyOp7
 70
     0
102
RTVSPropertyOp8
 70
     0
102
RTVSPropertyOp9
 70
     0
102
RTVSPropertyOp10
 70
     0
102
RTVSPropertyOp11
 70
     0
102
RTVSPropertyOp12
 70
     0
102
RTVSPropertyOp13
 70
     0
102
RTVSPropertyOp14
 70
     2
102
RTVSPropertyOp15
 70
     0
102
RTVSPropertyOp16
 70
     0
102
RTVSPropertyOp17
 70
     0
102
RTVSPropertyOp18
 70
     0
102
RTVSPropertyOp19
 70
     0
102
RTVSPropertyOp20
 70
     0
102
RTVSPropertyOp21
 70
     0
102
RTVSPropertyOp22
 70
     0
102
RTVSPropertyOp23
 70
     0
102
RTVSPropertyOp24
 70
     0
102
RTVSPropertyOp25
 70
     0
102
RTVSPropertyOp26
 70
     0
102
RTVSPropertyOp27
 70
     0
102
RTVSPropertyOp28
 70
     1
102
RTVSPropertyOp29
 70
     1
102
RTVSPropertyOp30
 70
     1
102
RTVSPropertyOp31
 70
     1
102
RTVSPropertyOp32
 70
     1
102
RTVSPropertyOp33
 70
     1
102
RTVSPropertyOp34
 70
     1
102
RTVSPropertyOp35
 70
     1
102
RTVSPropertyOp36
 70
     1
102
RTVSPropertyOp37
 70
     0
102
RTVSPropertyOp38
 70
     0
102
RTVSPropertyOp39
 70
     0
102
RTVSPropertyOp40
 70
     0
102
RTVSPropertyOp41
 70
     0
102
RTVSPropertyOp42
 70
     0
102
RTVSPropertyOp43
 70
     0
102
RTVSPropertyOp44
 70
     0
102
RTVSPropertyOp45
 70
     1
102
RTVSPropertyOp46
 70
     0
102
RTVSPropertyOp47
 70
     0
102
RTVSPropertyOp48
 70
     0
102
RTVSPropertyOp49
 70
     1
102
RTVSPropertyOp50
 70
     0
102
RTVSPropertyOp51
 70
     0
102
RTVSPropertyOp52
 70
     0
102
RTVSPropertyOp53
 70
     0
102
RTVSPropertyOp54
 70
     0
102
RTVSPropertyOp55
 70
     1
102
RTVSPropertyOp56
 70
     0
102
RTVSPropertyOp57
 70
     0
102
RTVSPropertyOp58
 70
     0
102
RTVSPropertyOp59
 70
     0
102
RTVSPropertyOp60
 70
     0
102
RTVSPropertyOp61
 70
     0
102
RTVSPropertyOp62
 70
     0
  0
XRECORD
  5
11F3
102
{ACAD_REACTORS
330
11F2
102
}
330
11F2
100
AcDbXrecord
280
     1
102
RTVSPost2010Prop28
280
     0
102
RTVSPost2010PropOp28
 70
     1
102
RTVSPost2010Prop29
280
     1
102
RTVSPost2010PropOp29
 70
     1
102
RTVSPost2010Prop30
280
     1
102
RTVSPost2010PropOp30
 70
     1
102
RTVSPost2010Prop31
280
     0
102
RTVSPost2010PropOp31
 70
     1
102
RTVSPost2010Prop32
280
     0
102
RTVSPost2010PropOp32
 70
     1
102
RTVSPost2010Prop33
280
     0
102
RTVSPost2010PropOp33
 70
     1
102
RTVSPost2010Prop34
280
     0
102
RTVSPost2010PropOp34
 70
     1
102
RTVSPost2010Prop35
280
     0
102
RTVSPost2010PropOp35
 70
     1
102
RTVSPost2010Prop36
280
     0
102
RTVSPost2010PropOp36
 70
     1
102
RTVSPost2010Prop37
 90
       50
102
RTVSPost2010PropOp37
 70
     1
102
RTVSPost2010Prop38
140
0.0
102
RTVSPost2010PropOp38
 70
     1
102
RTVSPost2010Prop39
140
1.0
102
RTVSPost2010PropOp39
 70
     1
102
RTVSPost2010Prop40
 90
        0
102
RTVSPost2010PropOp40
 70
     1
102
RTVSPost2010Prop41ColorIndex
 90
       18
102
RTVSPost2010Prop41ColorRGB
 90
        0
102
RTVSPost2010PropOp41
 70
     1
102
RTVSPost2010Prop42
 90
       50
102
RTVSPost2010PropOp42
 70
     1
102
RTVSPost2010Prop43
 90
        3
102
RTVSPost2010PropOp43
 70
     1
102
RTVSPost2010Prop44ColorIndex
 90
        5
102
RTVSPost2010Prop44ColorRGB
 90
      255
102
RTVSPost2010PropOp44
 70
     1
102
RTVSPost2010Prop45
280
     0
102
RTVSPost2010PropOp45
 70
     1
102
RTVSPost2010Prop46
 90
       50
102
RTVSPost2010PropOp46
 70
     1
102
RTVSPost2010Prop47
 90
       50
102
RTVSPost2010PropOp47
 70
     1
102
RTVSPost2010Prop48
 90
       50
102
RTVSPost2010PropOp48
 70
     1
102
RTVSPost2010Prop49
280
     0
102
RTVSPost2010PropOp49
 70
     1
102
RTVSPost2010Prop50
 90
       50
102
RTVSPost2010PropOp50
 70
     1
102
RTVSPost2010Prop51ColorIndex
 90
      256
102
RTVSPost2010Prop51ColorRGB
 90
-16777216
102
RTVSPost2010PropOp51
 70
     0
102
RTVSPost2010Prop52
140
1.0
102
RTVSPost2010PropOp52
 70
     0
102
RTVSPost2010Prop53
 90
        2
102
RTVSPost2010PropOp53
 70
     1
102
RTVSPost2010Prop54
  1
strokes_ogs.tif
102
RTVSPost2010PropOp54
 70
     1
102
RTVSPost2010Prop55
280
     0
102
RTVSPost2010PropOp55
 70
     1
102
RTVSPost2010Prop56
140
1.0
102
RTVSPost2010PropOp56
 70
     1
102
RTVSPost2010Prop57
140
1.0
102
RTVSPost2010PropOp57
 70
     1
102
RTVSPropertyOp0
 70
     1
102
RTVSPropertyOp1
 70
     1
102
RTVSPropertyOp2
 70
     1
102
RTVSPropertyOp3
 70
     1
102
RTVSPropertyOp4
 70
     1
102
RTVSPropertyOp5
 70
     1
102
RTVSPropertyOp6
 70
     1
102
RTVSPropertyOp7
 70
     1
102
RTVSPropertyOp8
 70
     1
102
RTVSPropertyOp9
 70
     1
102
RTVSPropertyOp10
 70
     1
102
RTVSPropertyOp11
 70
     1
102
RTVSPropertyOp12
 70
     1
102
RTVSPropertyOp13
 70
     1
102
RTVSPropertyOp14
 70
     1
102
RTVSPropertyOp15
 70
     1
102
RTVSPropertyOp16
 70
     1
102
RTVSPropertyOp17
 70
     1
102
RTVSPropertyOp18
 70
     1
102
RTVSPropertyOp19
 70
     1
102
RTVSPropertyOp20
 70
     1
102
RTVSPropertyOp21
 70
     1
102
RTVSPropertyOp22
 70
     1
102
RTVSPropertyOp23
 70
     1
102
RTVSPropertyOp24
 70
     1
102
RTVSPropertyOp25
 70
     1
102
RTVSPropertyOp26
 70
     1
102
RTVSPropertyOp27
 70
     1
102
RTVSPropertyOp28
 70
     1
102
RTVSPropertyOp29
 70
     1
102
RTVSPropertyOp30
 70
     1
102
RTVSPropertyOp31
 70
     1
102
RTVSPropertyOp32
 70
     1
102
RTVSPropertyOp33
 70
     1
102
RTVSPropertyOp34
 70
     1
102
RTVSPropertyOp35
 70
     1
102
RTVSPropertyOp36
 70
     1
102
RTVSPropertyOp37
 70
     1
102
RTVSPropertyOp38
 70
     1
102
RTVSPropertyOp39
 70
     1
102
RTVSPropertyOp40
 70
     1
102
RTVSPropertyOp41
 70
     1
102
RTVSPropertyOp42
 70
     1
102
RTVSPropertyOp43
 70
     1
102
RTVSPropertyOp44
 70
     1
102
RTVSPropertyOp45
 70
     1
102
RTVSPropertyOp46
 70
     1
102
RTVSPropertyOp47
 70
     1
102
RTVSPropertyOp48
 70
     1
102
RTVSPropertyOp49
 70
     1
102
RTVSPropertyOp50
 70
     1
102
RTVSPropertyOp51
 70
     0
102
RTVSPropertyOp52
 70
     0
102
RTVSPropertyOp53
 70
     1
102
RTVSPropertyOp54
 70
     1
102
RTVSPropertyOp55
 70
     1
102
RTVSPropertyOp56
 70
     1
102
RTVSPropertyOp57
 70
     1
102
RTVSPropertyOp58
 70
     1
102
RTVSPropertyOp59
 70
     1
102
RTVSPropertyOp60
 70
     1
102
RTVSPropertyOp61
 70
     1
102
RTVSPropertyOp62
 70
     1
  0
XRECORD
  5
11D7
102
{ACAD_REACTORS
330
11D6
102
}
330
11D6
100
AcDbXrecord
280
     1
102
RTVSPost2010Prop28
280
     0
102
RTVSPost2010PropOp28
 70
     1
102
RTVSPost2010Prop29
280
     1
102
RTVSPost2010PropOp29
 70
     1
102
RTVSPost2010Prop30
280
     1
102
RTVSPost2010PropOp30
 70
     1
102
RTVSPost2010Prop31
280
     0
102
RTVSPost2010PropOp31
 70
     1
102
RTVSPost2010Prop32
280
     0
102
RTVSPost2010PropOp32
 70
     1
102
RTVSPost2010Prop33
280
     0
102
RTVSPost2010PropOp33
 70
     1
102
RTVSPost2010Prop34
280
     0
102
RTVSPost2010PropOp34
 70
     1
102
RTVSPost2010Prop35
280
     0
102
RTVSPost2010PropOp35
 70
     1
102
RTVSPost2010Prop36
280
     0
102
RTVSPost2010PropOp36
 70
     1
102
RTVSPost2010Prop37
 90
       50
102
RTVSPost2010PropOp37
 70
     1
102
RTVSPost2010Prop38
140
0.0
102
RTVSPost2010PropOp38
 70
     1
102
RTVSPost2010Prop39
140
1.0
102
RTVSPost2010PropOp39
 70
     1
102
RTVSPost2010Prop40
 90
        0
102
RTVSPost2010PropOp40
 70
     1
102
RTVSPost2010Prop41ColorIndex
 90
       18
102
RTVSPost2010Prop41ColorRGB
 90
        0
102
RTVSPost2010PropOp41
 70
     1
102
RTVSPost2010Prop42
 90
       50
102
RTVSPost2010PropOp42
 70
     1
102
RTVSPost2010Prop43
 90
        3
102
RTVSPost2010PropOp43
 70
     1
102
RTVSPost2010Prop44ColorIndex
 90
        5
102
RTVSPost2010Prop44ColorRGB
 90
      255
102
RTVSPost2010PropOp44
 70
     1
102
RTVSPost2010Prop45
280
     0
102
RTVSPost2010PropOp45
 70
     1
102
RTVSPost2010Prop46
 90
       50
102
RTVSPost2010PropOp46
 70
     1
102
RTVSPost2010Prop47
 90
       50
102
RTVSPost2010PropOp47
 70
     1
102
RTVSPost2010Prop48
 90
       50
102
RTVSPost2010PropOp48
 70
     1
102
RTVSPost2010Prop49
280
     0
102
RTVSPost2010PropOp49
 70
     1
102
RTVSPost2010Prop50
 90
       50
102
RTVSPost2010PropOp50
 70
     1
102
RTVSPost2010Prop51ColorIndex
 90
      256
102
RTVSPost2010Prop51ColorRGB
 90
-16777216
102
RTVSPost2010PropOp51
 70
     0
102
RTVSPost2010Prop52
140
1.0
102
RTVSPost2010PropOp52
 70
     0
102
RTVSPost2010Prop53
 90
        2
102
RTVSPost2010PropOp53
 70
     1
102
RTVSPost2010Prop54
  1
strokes_ogs.tif
102
RTVSPost2010PropOp54
 70
     1
102
RTVSPost2010Prop55
280
     0
102
RTVSPost2010PropOp55
 70
     1
102
RTVSPost2010Prop56
140
1.0
102
RTVSPost2010PropOp56
 70
     1
102
RTVSPost2010Prop57
140
1.0
102
RTVSPost2010PropOp57
 70
     1
102
RTVSPropertyOp0
 70
     1
102
RTVSPropertyOp1
 70
     1
102
RTVSPropertyOp2
 70
     1
102
RTVSPropertyOp3
 70
     1
102
RTVSPropertyOp4
 70
     1
102
RTVSPropertyOp5
 70
     1
102
RTVSPropertyOp6
 70
     1
102
RTVSPropertyOp7
 70
     1
102
RTVSPropertyOp8
 70
     1
102
RTVSPropertyOp9
 70
     1
102
RTVSPropertyOp10
 70
     1
102
RTVSPropertyOp11
 70
     1
102
RTVSPropertyOp12
 70
     1
102
RTVSPropertyOp13
 70
     1
102
RTVSPropertyOp14
 70
     1
102
RTVSPropertyOp15
 70
     1
102
RTVSPropertyOp16
 70
     1
102
RTVSPropertyOp17
 70
     1
102
RTVSPropertyOp18
 70
     1
102
RTVSPropertyOp19
 70
     1
102
RTVSPropertyOp20
 70
     1
102
RTVSPropertyOp21
 70
     1
102
RTVSPropertyOp22
 70
     1
102
RTVSPropertyOp23
 70
     1
102
RTVSPropertyOp24
 70
     1
102
RTVSPropertyOp25
 70
     1
102
RTVSPropertyOp26
 70
     1
102
RTVSPropertyOp27
 70
     1
102
RTVSPropertyOp28
 70
     1
102
RTVSPropertyOp29
 70
     1
102
RTVSPropertyOp30
 70
     1
102
RTVSPropertyOp31
 70
     1
102
RTVSPropertyOp32
 70
     1
102
RTVSPropertyOp33
 70
     1
102
RTVSPropertyOp34
 70
     1
102
RTVSPropertyOp35
 70
     1
102
RTVSPropertyOp36
 70
     1
102
RTVSPropertyOp37
 70
     1
102
RTVSPropertyOp38
 70
     1
102
RTVSPropertyOp39
 70
     1
102
RTVSPropertyOp40
 70
     1
102
RTVSPropertyOp41
 70
     1
102
RTVSPropertyOp42
 70
     1
102
RTVSPropertyOp43
 70
     1
102
RTVSPropertyOp44
 70
     1
102
RTVSPropertyOp45
 70
     1
102
RTVSPropertyOp46
 70
     1
102
RTVSPropertyOp47
 70
     1
102
RTVSPropertyOp48
 70
     1
102
RTVSPropertyOp49
 70
     1
102
RTVSPropertyOp50
 70
     1
102
RTVSPropertyOp51
 70
     0
102
RTVSPropertyOp52
 70
     0
102
RTVSPropertyOp53
 70
     1
102
RTVSPropertyOp54
 70
     1
102
RTVSPropertyOp55
 70
     1
102
RTVSPropertyOp56
 70
     1
102
RTVSPropertyOp57
 70
     1
102
RTVSPropertyOp58
 70
     1
102
RTVSPropertyOp59
 70
     1
102
RTVSPropertyOp60
 70
     1
102
RTVSPropertyOp61
 70
     1
102
RTVSPropertyOp62
 70
     1
  0
XRECORD
  5
11D9
102
{ACAD_REACTORS
330
11D8
102
}
330
11D8
100
AcDbXrecord
280
     1
102
RTVSPost2010Prop28
280
     0
102
RTVSPost2010PropOp28
 70
     1
102
RTVSPost2010Prop29
280
     1
102
RTVSPost2010PropOp29
 70
     1
102
RTVSPost2010Prop30
280
     1
102
RTVSPost2010PropOp30
 70
     1
102
RTVSPost2010Prop31
280
     0
102
RTVSPost2010PropOp31
 70
     1
102
RTVSPost2010Prop32
280
     0
102
RTVSPost2010PropOp32
 70
     1
102
RTVSPost2010Prop33
280
     0
102
RTVSPost2010PropOp33
 70
     1
102
RTVSPost2010Prop34
280
     0
102
RTVSPost2010PropOp34
 70
     1
102
RTVSPost2010Prop35
280
     0
102
RTVSPost2010PropOp35
 70
     1
102
RTVSPost2010Prop36
280
     0
102
RTVSPost2010PropOp36
 70
     1
102
RTVSPost2010Prop37
 90
       50
102
RTVSPost2010PropOp37
 70
     1
102
RTVSPost2010Prop38
140
0.0
102
RTVSPost2010PropOp38
 70
     1
102
RTVSPost2010Prop39
140
1.0
102
RTVSPost2010PropOp39
 70
     1
102
RTVSPost2010Prop40
 90
        0
102
RTVSPost2010PropOp40
 70
     1
102
RTVSPost2010Prop41ColorIndex
 90
       18
102
RTVSPost2010Prop41ColorRGB
 90
        0
102
RTVSPost2010PropOp41
 70
     1
102
RTVSPost2010Prop42
 90
       50
102
RTVSPost2010PropOp42
 70
     1
102
RTVSPost2010Prop43
 90
        3
102
RTVSPost2010PropOp43
 70
     1
102
RTVSPost2010Prop44ColorIndex
 90
        5
102
RTVSPost2010Prop44ColorRGB
 90
      255
102
RTVSPost2010PropOp44
 70
     1
102
RTVSPost2010Prop45
280
     0
102
RTVSPost2010PropOp45
 70
     1
102
RTVSPost2010Prop46
 90
       50
102
RTVSPost2010PropOp46
 70
     1
102
RTVSPost2010Prop47
 90
       50
102
RTVSPost2010PropOp47
 70
     1
102
RTVSPost2010Prop48
 90
       50
102
RTVSPost2010PropOp48
 70
     1
102
RTVSPost2010Prop49
280
     0
102
RTVSPost2010PropOp49
 70
     1
102
RTVSPost2010Prop50
 90
       50
102
RTVSPost2010PropOp50
 70
     1
102
RTVSPost2010Prop51ColorIndex
 90
      256
102
RTVSPost2010Prop51ColorRGB
 90
-16777216
102
RTVSPost2010PropOp51
 70
     0
102
RTVSPost2010Prop52
140
1.0
102
RTVSPost2010PropOp52
 70
     0
102
RTVSPost2010Prop53
 90
        2
102
RTVSPost2010PropOp53
 70
     1
102
RTVSPost2010Prop54
  1
strokes_ogs.tif
102
RTVSPost2010PropOp54
 70
     1
102
RTVSPost2010Prop55
280
     0
102
RTVSPost2010PropOp55
 70
     1
102
RTVSPost2010Prop56
140
1.0
102
RTVSPost2010PropOp56
 70
     1
102
RTVSPost2010Prop57
140
1.0
102
RTVSPost2010PropOp57
 70
     1
102
RTVSPropertyOp0
 70
     1
102
RTVSPropertyOp1
 70
     1
102
RTVSPropertyOp2
 70
     1
102
RTVSPropertyOp3
 70
     1
102
RTVSPropertyOp4
 70
     1
102
RTVSPropertyOp5
 70
     1
102
RTVSPropertyOp6
 70
     1
102
RTVSPropertyOp7
 70
     1
102
RTVSPropertyOp8
 70
     1
102
RTVSPropertyOp9
 70
     1
102
RTVSPropertyOp10
 70
     1
102
RTVSPropertyOp11
 70
     1
102
RTVSPropertyOp12
 70
     1
102
RTVSPropertyOp13
 70
     1
102
RTVSPropertyOp14
 70
     1
102
RTVSPropertyOp15
 70
     1
102
RTVSPropertyOp16
 70
     1
102
RTVSPropertyOp17
 70
     1
102
RTVSPropertyOp18
 70
     1
102
RTVSPropertyOp19
 70
     1
102
RTVSPropertyOp20
 70
     1
102
RTVSPropertyOp21
 70
     1
102
RTVSPropertyOp22
 70
     1
102
RTVSPropertyOp23
 70
     1
102
RTVSPropertyOp24
 70
     1
102
RTVSPropertyOp25
 70
     1
102
RTVSPropertyOp26
 70
     1
102
RTVSPropertyOp27
 70
     1
102
RTVSPropertyOp28
 70
     1
102
RTVSPropertyOp29
 70
     1
102
RTVSPropertyOp30
 70
     1
102
RTVSPropertyOp31
 70
     1
102
RTVSPropertyOp32
 70
     1
102
RTVSPropertyOp33
 70
     1
102
RTVSPropertyOp34
 70
     1
102
RTVSPropertyOp35
 70
     1
102
RTVSPropertyOp36
 70
     1
102
RTVSPropertyOp37
 70
     1
102
RTVSPropertyOp38
 70
     1
102
RTVSPropertyOp39
 70
     1
102
RTVSPropertyOp40
 70
     1
102
RTVSPropertyOp41
 70
     1
102
RTVSPropertyOp42
 70
     1
102
RTVSPropertyOp43
 70
     1
102
RTVSPropertyOp44
 70
     1
102
RTVSPropertyOp45
 70
     1
102
RTVSPropertyOp46
 70
     1
102
RTVSPropertyOp47
 70
     1
102
RTVSPropertyOp48
 70
     1
102
RTVSPropertyOp49
 70
     1
102
RTVSPropertyOp50
 70
     1
102
RTVSPropertyOp51
 70
     0
102
RTVSPropertyOp52
 70
     0
102
RTVSPropertyOp53
 70
     1
102
RTVSPropertyOp54
 70
     1
102
RTVSPropertyOp55
 70
     1
102
RTVSPropertyOp56
 70
     1
102
RTVSPropertyOp57
 70
     1
102
RTVSPropertyOp58
 70
     1
102
RTVSPropertyOp59
 70
     1
102
RTVSPropertyOp60
 70
     1
102
RTVSPropertyOp61
 70
     1
102
RTVSPropertyOp62
 70
     1
  0
XRECORD
  5
11DB
102
{ACAD_REACTORS
330
11DA
102
}
330
11DA
100
AcDbXrecord
280
     1
102
RTVSPost2010Prop28
280
     0
102
RTVSPost2010PropOp28
 70
     1
102
RTVSPost2010Prop29
280
     1
102
RTVSPost2010PropOp29
 70
     1
102
RTVSPost2010Prop30
280
     1
102
RTVSPost2010PropOp30
 70
     1
102
RTVSPost2010Prop31
280
     0
102
RTVSPost2010PropOp31
 70
     1
102
RTVSPost2010Prop32
280
     0
102
RTVSPost2010PropOp32
 70
     1
102
RTVSPost2010Prop33
280
     0
102
RTVSPost2010PropOp33
 70
     1
102
RTVSPost2010Prop34
280
     0
102
RTVSPost2010PropOp34
 70
     1
102
RTVSPost2010Prop35
280
     0
102
RTVSPost2010PropOp35
 70
     1
102
RTVSPost2010Prop36
280
     0
102
RTVSPost2010PropOp36
 70
     1
102
RTVSPost2010Prop37
 90
       50
102
RTVSPost2010PropOp37
 70
     1
102
RTVSPost2010Prop38
140
0.0
102
RTVSPost2010PropOp38
 70
     1
102
RTVSPost2010Prop39
140
1.0
102
RTVSPost2010PropOp39
 70
     1
102
RTVSPost2010Prop40
 90
        0
102
RTVSPost2010PropOp40
 70
     1
102
RTVSPost2010Prop41ColorIndex
 90
       18
102
RTVSPost2010Prop41ColorRGB
 90
        0
102
RTVSPost2010PropOp41
 70
     1
102
RTVSPost2010Prop42
 90
       50
102
RTVSPost2010PropOp42
 70
     1
102
RTVSPost2010Prop43
 90
        3
102
RTVSPost2010PropOp43
 70
     1
102
RTVSPost2010Prop44ColorIndex
 90
        5
102
RTVSPost2010Prop44ColorRGB
 90
      255
102
RTVSPost2010PropOp44
 70
     1
102
RTVSPost2010Prop45
280
     0
102
RTVSPost2010PropOp45
 70
     1
102
RTVSPost2010Prop46
 90
       50
102
RTVSPost2010PropOp46
 70
     1
102
RTVSPost2010Prop47
 90
       50
102
RTVSPost2010PropOp47
 70
     1
102
RTVSPost2010Prop48
 90
       50
102
RTVSPost2010PropOp48
 70
     1
102
RTVSPost2010Prop49
280
     0
102
RTVSPost2010PropOp49
 70
     1
102
RTVSPost2010Prop50
 90
       50
102
RTVSPost2010PropOp50
 70
     1
102
RTVSPost2010Prop51ColorIndex
 90
      256
102
RTVSPost2010Prop51ColorRGB
 90
-16777216
102
RTVSPost2010PropOp51
 70
     0
102
RTVSPost2010Prop52
140
1.0
102
RTVSPost2010PropOp52
 70
     0
102
RTVSPost2010Prop53
 90
        2
102
RTVSPost2010PropOp53
 70
     1
102
RTVSPost2010Prop54
  1
strokes_ogs.tif
102
RTVSPost2010PropOp54
 70
     1
102
RTVSPost2010Prop55
280
     0
102
RTVSPost2010PropOp55
 70
     1
102
RTVSPost2010Prop56
140
1.0
102
RTVSPost2010PropOp56
 70
     1
102
RTVSPost2010Prop57
140
1.0
102
RTVSPost2010PropOp57
 70
     1
102
RTVSPropertyOp0
 70
     1
102
RTVSPropertyOp1
 70
     1
102
RTVSPropertyOp2
 70
     1
102
RTVSPropertyOp3
 70
     1
102
RTVSPropertyOp4
 70
     1
102
RTVSPropertyOp5
 70
     1
102
RTVSPropertyOp6
 70
     1
102
RTVSPropertyOp7
 70
     1
102
RTVSPropertyOp8
 70
     1
102
RTVSPropertyOp9
 70
     1
102
RTVSPropertyOp10
 70
     1
102
RTVSPropertyOp11
 70
     1
102
RTVSPropertyOp12
 70
     1
102
RTVSPropertyOp13
 70
     1
102
RTVSPropertyOp14
 70
     1
102
RTVSPropertyOp15
 70
     1
102
RTVSPropertyOp16
 70
     1
102
RTVSPropertyOp17
 70
     1
102
RTVSPropertyOp18
 70
     1
102
RTVSPropertyOp19
 70
     1
102
RTVSPropertyOp20
 70
     1
102
RTVSPropertyOp21
 70
     1
102
RTVSPropertyOp22
 70
     1
102
RTVSPropertyOp23
 70
     1
102
RTVSPropertyOp24
 70
     1
102
RTVSPropertyOp25
 70
     1
102
RTVSPropertyOp26
 70
     1
102
RTVSPropertyOp27
 70
     1
102
RTVSPropertyOp28
 70
     1
102
RTVSPropertyOp29
 70
     1
102
RTVSPropertyOp30
 70
     1
102
RTVSPropertyOp31
 70
     1
102
RTVSPropertyOp32
 70
     1
102
RTVSPropertyOp33
 70
     1
102
RTVSPropertyOp34
 70
     1
102
RTVSPropertyOp35
 70
     1
102
RTVSPropertyOp36
 70
     1
102
RTVSPropertyOp37
 70
     1
102
RTVSPropertyOp38
 70
     1
102
RTVSPropertyOp39
 70
     1
102
RTVSPropertyOp40
 70
     1
102
RTVSPropertyOp41
 70
     1
102
RTVSPropertyOp42
 70
     1
102
RTVSPropertyOp43
 70
     1
102
RTVSPropertyOp44
 70
     1
102
RTVSPropertyOp45
 70
     1
102
RTVSPropertyOp46
 70
     1
102
RTVSPropertyOp47
 70
     1
102
RTVSPropertyOp48
 70
     1
102
RTVSPropertyOp49
 70
     1
102
RTVSPropertyOp50
 70
     1
102
RTVSPropertyOp51
 70
     0
102
RTVSPropertyOp52
 70
     0
102
RTVSPropertyOp53
 70
     1
102
RTVSPropertyOp54
 70
     1
102
RTVSPropertyOp55
 70
     1
102
RTVSPropertyOp56
 70
     1
102
RTVSPropertyOp57
 70
     1
102
RTVSPropertyOp58
 70
     1
102
RTVSPropertyOp59
 70
     1
102
RTVSPropertyOp60
 70
     1
102
RTVSPropertyOp61
 70
     1
102
RTVSPropertyOp62
 70
     1
  0
XRECORD
  5
11DD
102
{ACAD_REACTORS
330
11DC
102
}
330
11DC
100
AcDbXrecord
280
     1
102
RTVSPost2010Prop28
280
     0
102
RTVSPost2010PropOp28
 70
     1
102
RTVSPost2010Prop29
280
     1
102
RTVSPost2010PropOp29
 70
     1
102
RTVSPost2010Prop30
280
     1
102
RTVSPost2010PropOp30
 70
     1
102
RTVSPost2010Prop31
280
     0
102
RTVSPost2010PropOp31
 70
     1
102
RTVSPost2010Prop32
280
     0
102
RTVSPost2010PropOp32
 70
     1
102
RTVSPost2010Prop33
280
     0
102
RTVSPost2010PropOp33
 70
     1
102
RTVSPost2010Prop34
280
     0
102
RTVSPost2010PropOp34
 70
     1
102
RTVSPost2010Prop35
280
     0
102
RTVSPost2010PropOp35
 70
     1
102
RTVSPost2010Prop36
280
     0
102
RTVSPost2010PropOp36
 70
     1
102
RTVSPost2010Prop37
 90
       50
102
RTVSPost2010PropOp37
 70
     1
102
RTVSPost2010Prop38
140
0.0
102
RTVSPost2010PropOp38
 70
     1
102
RTVSPost2010Prop39
140
1.0
102
RTVSPost2010PropOp39
 70
     1
102
RTVSPost2010Prop40
 90
        0
102
RTVSPost2010PropOp40
 70
     1
102
RTVSPost2010Prop41ColorIndex
 90
       18
102
RTVSPost2010Prop41ColorRGB
 90
        0
102
RTVSPost2010PropOp41
 70
     1
102
RTVSPost2010Prop42
 90
       50
102
RTVSPost2010PropOp42
 70
     1
102
RTVSPost2010Prop43
 90
        3
102
RTVSPost2010PropOp43
 70
     1
102
RTVSPost2010Prop44ColorIndex
 90
        5
102
RTVSPost2010Prop44ColorRGB
 90
      255
102
RTVSPost2010PropOp44
 70
     1
102
RTVSPost2010Prop45
280
     0
102
RTVSPost2010PropOp45
 70
     1
102
RTVSPost2010Prop46
 90
       50
102
RTVSPost2010PropOp46
 70
     1
102
RTVSPost2010Prop47
 90
       50
102
RTVSPost2010PropOp47
 70
     1
102
RTVSPost2010Prop48
 90
       50
102
RTVSPost2010PropOp48
 70
     1
102
RTVSPost2010Prop49
280
     0
102
RTVSPost2010PropOp49
 70
     1
102
RTVSPost2010Prop50
 90
       50
102
RTVSPost2010PropOp50
 70
     1
102
RTVSPost2010Prop51ColorIndex
 90
      256
102
RTVSPost2010Prop51ColorRGB
 90
-16777216
102
RTVSPost2010PropOp51
 70
     0
102
RTVSPost2010Prop52
140
1.0
102
RTVSPost2010PropOp52
 70
     0
102
RTVSPost2010Prop53
 90
        2
102
RTVSPost2010PropOp53
 70
     1
102
RTVSPost2010Prop54
  1
strokes_ogs.tif
102
RTVSPost2010PropOp54
 70
     1
102
RTVSPost2010Prop55
280
     0
102
RTVSPost2010PropOp55
 70
     1
102
RTVSPost2010Prop56
140
1.0
102
RTVSPost2010PropOp56
 70
     1
102
RTVSPost2010Prop57
140
1.0
102
RTVSPost2010PropOp57
 70
     1
102
RTVSPropertyOp0
 70
     1
102
RTVSPropertyOp1
 70
     1
102
RTVSPropertyOp2
 70
     1
102
RTVSPropertyOp3
 70
     1
102
RTVSPropertyOp4
 70
     1
102
RTVSPropertyOp5
 70
     1
102
RTVSPropertyOp6
 70
     1
102
RTVSPropertyOp7
 70
     1
102
RTVSPropertyOp8
 70
     1
102
RTVSPropertyOp9
 70
     1
102
RTVSPropertyOp10
 70
     1
102
RTVSPropertyOp11
 70
     1
102
RTVSPropertyOp12
 70
     1
102
RTVSPropertyOp13
 70
     1
102
RTVSPropertyOp14
 70
     1
102
RTVSPropertyOp15
 70
     1
102
RTVSPropertyOp16
 70
     1
102
RTVSPropertyOp17
 70
     1
102
RTVSPropertyOp18
 70
     1
102
RTVSPropertyOp19
 70
     1
102
RTVSPropertyOp20
 70
     1
102
RTVSPropertyOp21
 70
     1
102
RTVSPropertyOp22
 70
     1
102
RTVSPropertyOp23
 70
     1
102
RTVSPropertyOp24
 70
     1
102
RTVSPropertyOp25
 70
     1
102
RTVSPropertyOp26
 70
     1
102
RTVSPropertyOp27
 70
     1
102
RTVSPropertyOp28
 70
     1
102
RTVSPropertyOp29
 70
     1
102
RTVSPropertyOp30
 70
     1
102
RTVSPropertyOp31
 70
     1
102
RTVSPropertyOp32
 70
     1
102
RTVSPropertyOp33
 70
     1
102
RTVSPropertyOp34
 70
     1
102
RTVSPropertyOp35
 70
     1
102
RTVSPropertyOp36
 70
     1
102
RTVSPropertyOp37
 70
     1
102
RTVSPropertyOp38
 70
     1
102
RTVSPropertyOp39
 70
     1
102
RTVSPropertyOp40
 70
     1
102
RTVSPropertyOp41
 70
     1
102
RTVSPropertyOp42
 70
     1
102
RTVSPropertyOp43
 70
     1
102
RTVSPropertyOp44
 70
     1
102
RTVSPropertyOp45
 70
     1
102
RTVSPropertyOp46
 70
     1
102
RTVSPropertyOp47
 70
     1
102
RTVSPropertyOp48
 70
     1
102
RTVSPropertyOp49
 70
     1
102
RTVSPropertyOp50
 70
     1
102
RTVSPropertyOp51
 70
     0
102
RTVSPropertyOp52
 70
     0
102
RTVSPropertyOp53
 70
     1
102
RTVSPropertyOp54
 70
     1
102
RTVSPropertyOp55
 70
     1
102
RTVSPropertyOp56
 70
     1
102
RTVSPropertyOp57
 70
     1
102
RTVSPropertyOp58
 70
     1
102
RTVSPropertyOp59
 70
     1
102
RTVSPropertyOp60
 70
     1
102
RTVSPropertyOp61
 70
     1
102
RTVSPropertyOp62
 70
     1
  0
XRECORD
  5
11E5
102
{ACAD_REACTORS
330
11E4
102
}
330
11E4
100
AcDbXrecord
280
     1
102
RTVSPost2010Prop28
280
     0
102
RTVSPost2010PropOp28
 70
     1
102
RTVSPost2010Prop29
280
     1
102
RTVSPost2010PropOp29
 70
     1
102
RTVSPost2010Prop30
280
     1
102
RTVSPost2010PropOp30
 70
     1
102
RTVSPost2010Prop31
280
     0
102
RTVSPost2010PropOp31
 70
     1
102
RTVSPost2010Prop32
280
     0
102
RTVSPost2010PropOp32
 70
     1
102
RTVSPost2010Prop33
280
     0
102
RTVSPost2010PropOp33
 70
     1
102
RTVSPost2010Prop34
280
     0
102
RTVSPost2010PropOp34
 70
     1
102
RTVSPost2010Prop35
280
     0
102
RTVSPost2010PropOp35
 70
     1
102
RTVSPost2010Prop36
280
     0
102
RTVSPost2010PropOp36
 70
     1
102
RTVSPost2010Prop37
 90
       50
102
RTVSPost2010PropOp37
 70
     1
102
RTVSPost2010Prop38
140
0.0
102
RTVSPost2010PropOp38
 70
     1
102
RTVSPost2010Prop39
140
1.0
102
RTVSPost2010PropOp39
 70
     1
102
RTVSPost2010Prop40
 90
        0
102
RTVSPost2010PropOp40
 70
     1
102
RTVSPost2010Prop41ColorIndex
 90
       18
102
RTVSPost2010Prop41ColorRGB
 90
        0
102
RTVSPost2010PropOp41
 70
     1
102
RTVSPost2010Prop42
 90
       50
102
RTVSPost2010PropOp42
 70
     1
102
RTVSPost2010Prop43
 90
        3
102
RTVSPost2010PropOp43
 70
     1
102
RTVSPost2010Prop44ColorIndex
 90
        5
102
RTVSPost2010Prop44ColorRGB
 90
      255
102
RTVSPost2010PropOp44
 70
     1
102
RTVSPost2010Prop45
280
     0
102
RTVSPost2010PropOp45
 70
     1
102
RTVSPost2010Prop46
 90
       50
102
RTVSPost2010PropOp46
 70
     1
102
RTVSPost2010Prop47
 90
       50
102
RTVSPost2010PropOp47
 70
     1
102
RTVSPost2010Prop48
 90
       50
102
RTVSPost2010PropOp48
 70
     1
102
RTVSPost2010Prop49
280
     0
102
RTVSPost2010PropOp49
 70
     1
102
RTVSPost2010Prop50
 90
       50
102
RTVSPost2010PropOp50
 70
     1
102
RTVSPost2010Prop51ColorIndex
 90
      256
102
RTVSPost2010Prop51ColorRGB
 90
-16777216
102
RTVSPost2010PropOp51
 70
     0
102
RTVSPost2010Prop52
140
1.0
102
RTVSPost2010PropOp52
 70
     0
102
RTVSPost2010Prop53
 90
        2
102
RTVSPost2010PropOp53
 70
     1
102
RTVSPost2010Prop54
  1
strokes_ogs.tif
102
RTVSPost2010PropOp54
 70
     1
102
RTVSPost2010Prop55
280
     0
102
RTVSPost2010PropOp55
 70
     1
102
RTVSPost2010Prop56
140
1.0
102
RTVSPost2010PropOp56
 70
     1
102
RTVSPost2010Prop57
140
1.0
102
RTVSPost2010PropOp57
 70
     1
102
RTVSPropertyOp0
 70
     1
102
RTVSPropertyOp1
 70
     1
102
RTVSPropertyOp2
 70
     1
102
RTVSPropertyOp3
 70
     1
102
RTVSPropertyOp4
 70
     1
102
RTVSPropertyOp5
 70
     1
102
RTVSPropertyOp6
 70
     1
102
RTVSPropertyOp7
 70
     1
102
RTVSPropertyOp8
 70
     1
102
RTVSPropertyOp9
 70
     1
102
RTVSPropertyOp10
 70
     1
102
RTVSPropertyOp11
 70
     1
102
RTVSPropertyOp12
 70
     1
102
RTVSPropertyOp13
 70
     1
102
RTVSPropertyOp14
 70
     1
102
RTVSPropertyOp15
 70
     1
102
RTVSPropertyOp16
 70
     1
102
RTVSPropertyOp17
 70
     1
102
RTVSPropertyOp18
 70
     1
102
RTVSPropertyOp19
 70
     1
102
RTVSPropertyOp20
 70
     1
102
RTVSPropertyOp21
 70
     1
102
RTVSPropertyOp22
 70
     1
102
RTVSPropertyOp23
 70
     1
102
RTVSPropertyOp24
 70
     1
102
RTVSPropertyOp25
 70
     1
102
RTVSPropertyOp26
 70
     1
102
RTVSPropertyOp27
 70
     1
102
RTVSPropertyOp28
 70
     1
102
RTVSPropertyOp29
 70
     1
102
RTVSPropertyOp30
 70
     1
102
RTVSPropertyOp31
 70
     1
102
RTVSPropertyOp32
 70
     1
102
RTVSPropertyOp33
 70
     1
102
RTVSPropertyOp34
 70
     1
102
RTVSPropertyOp35
 70
     1
102
RTVSPropertyOp36
 70
     1
102
RTVSPropertyOp37
 70
     1
102
RTVSPropertyOp38
 70
     1
102
RTVSPropertyOp39
 70
     1
102
RTVSPropertyOp40
 70
     1
102
RTVSPropertyOp41
 70
     1
102
RTVSPropertyOp42
 70
     1
102
RTVSPropertyOp43
 70
     1
102
RTVSPropertyOp44
 70
     1
102
RTVSPropertyOp45
 70
     1
102
RTVSPropertyOp46
 70
     1
102
RTVSPropertyOp47
 70
     1
102
RTVSPropertyOp48
 70
     1
102
RTVSPropertyOp49
 70
     1
102
RTVSPropertyOp50
 70
     1
102
RTVSPropertyOp51
 70
     0
102
RTVSPropertyOp52
 70
     0
102
RTVSPropertyOp53
 70
     1
102
RTVSPropertyOp54
 70
     1
102
RTVSPropertyOp55
 70
     1
102
RTVSPropertyOp56
 70
     1
102
RTVSPropertyOp57
 70
     1
102
RTVSPropertyOp58
 70
     1
102
RTVSPropertyOp59
 70
     1
102
RTVSPropertyOp60
 70
     1
102
RTVSPropertyOp61
 70
     1
102
RTVSPropertyOp62
 70
     1
  0
XRECORD
  5
1201
102
{ACAD_REACTORS
330
1200
102
}
330
1200
100
AcDbXrecord
280
     1
102
RTVSPost2010Prop28
280
     0
102
RTVSPost2010PropOp28
 70
     1
102
RTVSPost2010Prop29
280
     1
102
RTVSPost2010PropOp29
 70
     1
102
RTVSPost2010Prop30
280
     1
102
RTVSPost2010PropOp30
 70
     1
102
RTVSPost2010Prop31
280
     0
102
RTVSPost2010PropOp31
 70
     1
102
RTVSPost2010Prop32
280
     0
102
RTVSPost2010PropOp32
 70
     1
102
RTVSPost2010Prop33
280
     0
102
RTVSPost2010PropOp33
 70
     1
102
RTVSPost2010Prop34
280
     0
102
RTVSPost2010PropOp34
 70
     1
102
RTVSPost2010Prop35
280
     0
102
RTVSPost2010PropOp35
 70
     1
102
RTVSPost2010Prop36
280
     0
102
RTVSPost2010PropOp36
 70
     1
102
RTVSPost2010Prop37
 90
       50
102
RTVSPost2010PropOp37
 70
     0
102
RTVSPost2010Prop38
140
0.0
102
RTVSPost2010PropOp38
 70
     0
102
RTVSPost2010Prop39
140
1.0
102
RTVSPost2010PropOp39
 70
     0
102
RTVSPost2010Prop40
 90
        0
102
RTVSPost2010PropOp40
 70
     0
102
RTVSPost2010Prop41ColorIndex
 90
       18
102
RTVSPost2010Prop41ColorRGB
 90
        0
102
RTVSPost2010PropOp41
 70
     0
102
RTVSPost2010Prop42
 90
       50
102
RTVSPost2010PropOp42
 70
     0
102
RTVSPost2010Prop43
 90
        3
102
RTVSPost2010PropOp43
 70
     0
102
RTVSPost2010Prop44ColorIndex
 90
        5
102
RTVSPost2010Prop44ColorRGB
 90
      255
102
RTVSPost2010PropOp44
 70
     0
102
RTVSPost2010Prop45
280
     0
102
RTVSPost2010PropOp45
 70
     1
102
RTVSPost2010Prop46
 90
       50
102
RTVSPost2010PropOp46
 70
     0
102
RTVSPost2010Prop47
 90
       50
102
RTVSPost2010PropOp47
 70
     0
102
RTVSPost2010Prop48
 90
       50
102
RTVSPost2010PropOp48
 70
     0
102
RTVSPost2010Prop49
280
     0
102
RTVSPost2010PropOp49
 70
     1
102
RTVSPost2010Prop50
 90
       50
102
RTVSPost2010PropOp50
 70
     0
102
RTVSPost2010Prop51ColorIndex
 90
      256
102
RTVSPost2010Prop51ColorRGB
 90
-16777216
102
RTVSPost2010PropOp51
 70
     0
102
RTVSPost2010Prop52
140
1.0
102
RTVSPost2010PropOp52
 70
     0
102
RTVSPost2010Prop53
 90
        2
102
RTVSPost2010PropOp53
 70
     0
102
RTVSPost2010Prop54
  1
strokes_ogs.tif
102
RTVSPost2010PropOp54
 70
     0
102
RTVSPost2010Prop55
280
     0
102
RTVSPost2010PropOp55
 70
     1
102
RTVSPost2010Prop56
140
1.0
102
RTVSPost2010PropOp56
 70
     0
102
RTVSPost2010Prop57
140
1.0
102
RTVSPost2010PropOp57
 70
     0
102
RTVSPropertyOp0
 70
     0
102
RTVSPropertyOp1
 70
     0
102
RTVSPropertyOp2
 70
     0
102
RTVSPropertyOp3
 70
     0
102
RTVSPropertyOp4
 70
     0
102
RTVSPropertyOp5
 70
     0
102
RTVSPropertyOp6
 70
     0
102
RTVSPropertyOp7
 70
     0
102
RTVSPropertyOp8
 70
     0
102
RTVSPropertyOp9
 70
     0
102
RTVSPropertyOp10
 70
     0
102
RTVSPropertyOp11
 70
     0
102
RTVSPropertyOp12
 70
     0
102
RTVSPropertyOp13
 70
     0
102
RTVSPropertyOp14
 70
     2
102
RTVSPropertyOp15
 70
     0
102
RTVSPropertyOp16
 70
     0
102
RTVSPropertyOp17
 70
     0
102
RTVSPropertyOp18
 70
     0
102
RTVSPropertyOp19
 70
     0
102
RTVSPropertyOp20
 70
     0
102
RTVSPropertyOp21
 70
     0
102
RTVSPropertyOp22
 70
     0
102
RTVSPropertyOp23
 70
     0
102
RTVSPropertyOp24
 70
     0
102
RTVSPropertyOp25
 70
     0
102
RTVSPropertyOp26
 70
     0
102
RTVSPropertyOp27
 70
     0
102
RTVSPropertyOp28
 70
     1
102
RTVSPropertyOp29
 70
     1
102
RTVSPropertyOp30
 70
     1
102
RTVSPropertyOp31
 70
     1
102
RTVSPropertyOp32
 70
     1
102
RTVSPropertyOp33
 70
     1
102
RTVSPropertyOp34
 70
     1
102
RTVSPropertyOp35
 70
     1
102
RTVSPropertyOp36
 70
     1
102
RTVSPropertyOp37
 70
     0
102
RTVSPropertyOp38
 70
     0
102
RTVSPropertyOp39
 70
     0
102
RTVSPropertyOp40
 70
     0
102
RTVSPropertyOp41
 70
     0
102
RTVSPropertyOp42
 70
     0
102
RTVSPropertyOp43
 70
     0
102
RTVSPropertyOp44
 70
     0
102
RTVSPropertyOp45
 70
     1
102
RTVSPropertyOp46
 70
     0
102
RTVSPropertyOp47
 70
     0
102
RTVSPropertyOp48
 70
     0
102
RTVSPropertyOp49
 70
     1
102
RTVSPropertyOp50
 70
     0
102
RTVSPropertyOp51
 70
     0
102
RTVSPropertyOp52
 70
     0
102
RTVSPropertyOp53
 70
     0
102
RTVSPropertyOp54
 70
     0
102
RTVSPropertyOp55
 70
     1
102
RTVSPropertyOp56
 70
     0
102
RTVSPropertyOp57
 70
     0
102
RTVSPropertyOp58
 70
     0
102
RTVSPropertyOp59
 70
     0
102
RTVSPropertyOp60
 70
     0
102
RTVSPropertyOp61
 70
     0
102
RTVSPropertyOp62
 70
     0
  0
XRECORD
  5
11F1
102
{ACAD_REACTORS
330
11F0
102
}
330
11F0
100
AcDbXrecord
280
     1
102
RTVSPost2010Prop28
280
     0
102
RTVSPost2010PropOp28
 70
     1
102
RTVSPost2010Prop29
280
     1
102
RTVSPost2010PropOp29
 70
     1
102
RTVSPost2010Prop30
280
     1
102
RTVSPost2010PropOp30
 70
     1
102
RTVSPost2010Prop31
280
     0
102
RTVSPost2010PropOp31
 70
     1
102
RTVSPost2010Prop32
280
     0
102
RTVSPost2010PropOp32
 70
     1
102
RTVSPost2010Prop33
280
     0
102
RTVSPost2010PropOp33
 70
     1
102
RTVSPost2010Prop34
280
     0
102
RTVSPost2010PropOp34
 70
     1
102
RTVSPost2010Prop35
280
     0
102
RTVSPost2010PropOp35
 70
     1
102
RTVSPost2010Prop36
280
     0
102
RTVSPost2010PropOp36
 70
     1
102
RTVSPost2010Prop37
 90
       50
102
RTVSPost2010PropOp37
 70
     1
102
RTVSPost2010Prop38
140
0.0
102
RTVSPost2010PropOp38
 70
     1
102
RTVSPost2010Prop39
140
1.0
102
RTVSPost2010PropOp39
 70
     1
102
RTVSPost2010Prop40
 90
        0
102
RTVSPost2010PropOp40
 70
     1
102
RTVSPost2010Prop41ColorIndex
 90
       18
102
RTVSPost2010Prop41ColorRGB
 90
        0
102
RTVSPost2010PropOp41
 70
     1
102
RTVSPost2010Prop42
 90
       50
102
RTVSPost2010PropOp42
 70
     1
102
RTVSPost2010Prop43
 90
        3
102
RTVSPost2010PropOp43
 70
     1
102
RTVSPost2010Prop44ColorIndex
 90
        5
102
RTVSPost2010Prop44ColorRGB
 90
      255
102
RTVSPost2010PropOp44
 70
     1
102
RTVSPost2010Prop45
280
     0
102
RTVSPost2010PropOp45
 70
     1
102
RTVSPost2010Prop46
 90
       50
102
RTVSPost2010PropOp46
 70
     1
102
RTVSPost2010Prop47
 90
       50
102
RTVSPost2010PropOp47
 70
     1
102
RTVSPost2010Prop48
 90
       50
102
RTVSPost2010PropOp48
 70
     1
102
RTVSPost2010Prop49
280
     0
102
RTVSPost2010PropOp49
 70
     1
102
RTVSPost2010Prop50
 90
       50
102
RTVSPost2010PropOp50
 70
     1
102
RTVSPost2010Prop51ColorIndex
 90
      256
102
RTVSPost2010Prop51ColorRGB
 90
-16777216
102
RTVSPost2010PropOp51
 70
     0
102
RTVSPost2010Prop52
140
1.0
102
RTVSPost2010PropOp52
 70
     0
102
RTVSPost2010Prop53
 90
        2
102
RTVSPost2010PropOp53
 70
     1
102
RTVSPost2010Prop54
  1
strokes_ogs.tif
102
RTVSPost2010PropOp54
 70
     1
102
RTVSPost2010Prop55
280
     0
102
RTVSPost2010PropOp55
 70
     1
102
RTVSPost2010Prop56
140
1.0
102
RTVSPost2010PropOp56
 70
     1
102
RTVSPost2010Prop57
140
1.0
102
RTVSPost2010PropOp57
 70
     1
102
RTVSPropertyOp0
 70
     1
102
RTVSPropertyOp1
 70
     1
102
RTVSPropertyOp2
 70
     1
102
RTVSPropertyOp3
 70
     1
102
RTVSPropertyOp4
 70
     1
102
RTVSPropertyOp5
 70
     1
102
RTVSPropertyOp6
 70
     1
102
RTVSPropertyOp7
 70
     1
102
RTVSPropertyOp8
 70
     1
102
RTVSPropertyOp9
 70
     1
102
RTVSPropertyOp10
 70
     1
102
RTVSPropertyOp11
 70
     1
102
RTVSPropertyOp12
 70
     1
102
RTVSPropertyOp13
 70
     1
102
RTVSPropertyOp14
 70
     1
102
RTVSPropertyOp15
 70
     1
102
RTVSPropertyOp16
 70
     1
102
RTVSPropertyOp17
 70
     1
102
RTVSPropertyOp18
 70
     1
102
RTVSPropertyOp19
 70
     1
102
RTVSPropertyOp20
 70
     1
102
RTVSPropertyOp21
 70
     1
102
RTVSPropertyOp22
 70
     1
102
RTVSPropertyOp23
 70
     1
102
RTVSPropertyOp24
 70
     1
102
RTVSPropertyOp25
 70
     1
102
RTVSPropertyOp26
 70
     1
102
RTVSPropertyOp27
 70
     1
102
RTVSPropertyOp28
 70
     1
102
RTVSPropertyOp29
 70
     1
102
RTVSPropertyOp30
 70
     1
102
RTVSPropertyOp31
 70
     1
102
RTVSPropertyOp32
 70
     1
102
RTVSPropertyOp33
 70
     1
102
RTVSPropertyOp34
 70
     1
102
RTVSPropertyOp35
 70
     1
102
RTVSPropertyOp36
 70
     1
102
RTVSPropertyOp37
 70
     1
102
RTVSPropertyOp38
 70
     1
102
RTVSPropertyOp39
 70
     1
102
RTVSPropertyOp40
 70
     1
102
RTVSPropertyOp41
 70
     1
102
RTVSPropertyOp42
 70
     1
102
RTVSPropertyOp43
 70
     1
102
RTVSPropertyOp44
 70
     1
102
RTVSPropertyOp45
 70
     1
102
RTVSPropertyOp46
 70
     1
102
RTVSPropertyOp47
 70
     1
102
RTVSPropertyOp48
 70
     1
102
RTVSPropertyOp49
 70
     1
102
RTVSPropertyOp50
 70
     1
102
RTVSPropertyOp51
 70
     0
102
RTVSPropertyOp52
 70
     0
102
RTVSPropertyOp53
 70
     1
102
RTVSPropertyOp54
 70
     1
102
RTVSPropertyOp55
 70
     1
102
RTVSPropertyOp56
 70
     1
102
RTVSPropertyOp57
 70
     1
102
RTVSPropertyOp58
 70
     1
102
RTVSPropertyOp59
 70
     1
102
RTVSPropertyOp60
 70
     1
102
RTVSPropertyOp61
 70
     1
102
RTVSPropertyOp62
 70
     1
  0
XRECORD
  5
1203
102
{ACAD_REACTORS
330
1202
102
}
330
1202
100
AcDbXrecord
280
     1
102
RTVSPost2010Prop28
280
     0
102
RTVSPost2010PropOp28
 70
     1
102
RTVSPost2010Prop29
280
     1
102
RTVSPost2010PropOp29
 70
     1
102
RTVSPost2010Prop30
280
     1
102
RTVSPost2010PropOp30
 70
     1
102
RTVSPost2010Prop31
280
     0
102
RTVSPost2010PropOp31
 70
     1
102
RTVSPost2010Prop32
280
     0
102
RTVSPost2010PropOp32
 70
     1
102
RTVSPost2010Prop33
280
     0
102
RTVSPost2010PropOp33
 70
     1
102
RTVSPost2010Prop34
280
     0
102
RTVSPost2010PropOp34
 70
     1
102
RTVSPost2010Prop35
280
     0
102
RTVSPost2010PropOp35
 70
     1
102
RTVSPost2010Prop36
280
     0
102
RTVSPost2010PropOp36
 70
     1
102
RTVSPost2010Prop37
 90
       50
102
RTVSPost2010PropOp37
 70
     0
102
RTVSPost2010Prop38
140
0.0
102
RTVSPost2010PropOp38
 70
     0
102
RTVSPost2010Prop39
140
1.0
102
RTVSPost2010PropOp39
 70
     0
102
RTVSPost2010Prop40
 90
        0
102
RTVSPost2010PropOp40
 70
     0
102
RTVSPost2010Prop41ColorIndex
 90
       18
102
RTVSPost2010Prop41ColorRGB
 90
        0
102
RTVSPost2010PropOp41
 70
     0
102
RTVSPost2010Prop42
 90
       50
102
RTVSPost2010PropOp42
 70
     0
102
RTVSPost2010Prop43
 90
        3
102
RTVSPost2010PropOp43
 70
     0
102
RTVSPost2010Prop44ColorIndex
 90
        5
102
RTVSPost2010Prop44ColorRGB
 90
      255
102
RTVSPost2010PropOp44
 70
     0
102
RTVSPost2010Prop45
280
     0
102
RTVSPost2010PropOp45
 70
     1
102
RTVSPost2010Prop46
 90
       50
102
RTVSPost2010PropOp46
 70
     0
102
RTVSPost2010Prop47
 90
       50
102
RTVSPost2010PropOp47
 70
     0
102
RTVSPost2010Prop48
 90
       50
102
RTVSPost2010PropOp48
 70
     0
102
RTVSPost2010Prop49
280
     0
102
RTVSPost2010PropOp49
 70
     1
102
RTVSPost2010Prop50
 90
       50
102
RTVSPost2010PropOp50
 70
     0
102
RTVSPost2010Prop51ColorIndex
 90
      256
102
RTVSPost2010Prop51ColorRGB
 90
-16777216
102
RTVSPost2010PropOp51
 70
     0
102
RTVSPost2010Prop52
140
1.0
102
RTVSPost2010PropOp52
 70
     0
102
RTVSPost2010Prop53
 90
        2
102
RTVSPost2010PropOp53
 70
     0
102
RTVSPost2010Prop54
  1
strokes_ogs.tif
102
RTVSPost2010PropOp54
 70
     0
102
RTVSPost2010Prop55
280
     0
102
RTVSPost2010PropOp55
 70
     1
102
RTVSPost2010Prop56
140
1.0
102
RTVSPost2010PropOp56
 70
     0
102
RTVSPost2010Prop57
140
1.0
102
RTVSPost2010PropOp57
 70
     0
102
RTVSPropertyOp0
 70
     0
102
RTVSPropertyOp1
 70
     0
102
RTVSPropertyOp2
 70
     0
102
RTVSPropertyOp3
 70
     0
102
RTVSPropertyOp4
 70
     0
102
RTVSPropertyOp5
 70
     0
102
RTVSPropertyOp6
 70
     0
102
RTVSPropertyOp7
 70
     0
102
RTVSPropertyOp8
 70
     0
102
RTVSPropertyOp9
 70
     0
102
RTVSPropertyOp10
 70
     0
102
RTVSPropertyOp11
 70
     0
102
RTVSPropertyOp12
 70
     0
102
RTVSPropertyOp13
 70
     0
102
RTVSPropertyOp14
 70
     2
102
RTVSPropertyOp15
 70
     0
102
RTVSPropertyOp16
 70
     0
102
RTVSPropertyOp17
 70
     0
102
RTVSPropertyOp18
 70
     0
102
RTVSPropertyOp19
 70
     0
102
RTVSPropertyOp20
 70
     0
102
RTVSPropertyOp21
 70
     0
102
RTVSPropertyOp22
 70
     0
102
RTVSPropertyOp23
 70
     0
102
RTVSPropertyOp24
 70
     0
102
RTVSPropertyOp25
 70
     0
102
RTVSPropertyOp26
 70
     0
102
RTVSPropertyOp27
 70
     0
102
RTVSPropertyOp28
 70
     1
102
RTVSPropertyOp29
 70
     1
102
RTVSPropertyOp30
 70
     1
102
RTVSPropertyOp31
 70
     1
102
RTVSPropertyOp32
 70
     1
102
RTVSPropertyOp33
 70
     1
102
RTVSPropertyOp34
 70
     1
102
RTVSPropertyOp35
 70
     1
102
RTVSPropertyOp36
 70
     1
102
RTVSPropertyOp37
 70
     0
102
RTVSPropertyOp38
 70
     0
102
RTVSPropertyOp39
 70
     0
102
RTVSPropertyOp40
 70
     0
102
RTVSPropertyOp41
 70
     0
102
RTVSPropertyOp42
 70
     0
102
RTVSPropertyOp43
 70
     0
102
RTVSPropertyOp44
 70
     0
102
RTVSPropertyOp45
 70
     1
102
RTVSPropertyOp46
 70
     0
102
RTVSPropertyOp47
 70
     0
102
RTVSPropertyOp48
 70
     0
102
RTVSPropertyOp49
 70
     1
102
RTVSPropertyOp50
 70
     0
102
RTVSPropertyOp51
 70
     0
102
RTVSPropertyOp52
 70
     0
102
RTVSPropertyOp53
 70
     0
102
RTVSPropertyOp54
 70
     0
102
RTVSPropertyOp55
 70
     1
102
RTVSPropertyOp56
 70
     0
102
RTVSPropertyOp57
 70
     0
102
RTVSPropertyOp58
 70
     0
102
RTVSPropertyOp59
 70
     0
102
RTVSPropertyOp60
 70
     0
102
RTVSPropertyOp61
 70
     0
102
RTVSPropertyOp62
 70
     0
  0
XRECORD
  5
11E9
102
{ACAD_REACTORS
330
11E8
102
}
330
11E8
100
AcDbXrecord
280
     1
102
RTVSPost2010Prop28
280
     0
102
RTVSPost2010PropOp28
 70
     1
102
RTVSPost2010Prop29
280
     1
102
RTVSPost2010PropOp29
 70
     1
102
RTVSPost2010Prop30
280
     1
102
RTVSPost2010PropOp30
 70
     1
102
RTVSPost2010Prop31
280
     0
102
RTVSPost2010PropOp31
 70
     1
102
RTVSPost2010Prop32
280
     0
102
RTVSPost2010PropOp32
 70
     1
102
RTVSPost2010Prop33
280
     0
102
RTVSPost2010PropOp33
 70
     1
102
RTVSPost2010Prop34
280
     0
102
RTVSPost2010PropOp34
 70
     1
102
RTVSPost2010Prop35
280
     0
102
RTVSPost2010PropOp35
 70
     1
102
RTVSPost2010Prop36
280
     0
102
RTVSPost2010PropOp36
 70
     1
102
RTVSPost2010Prop37
 90
       50
102
RTVSPost2010PropOp37
 70
     1
102
RTVSPost2010Prop38
140
0.0
102
RTVSPost2010PropOp38
 70
     1
102
RTVSPost2010Prop39
140
1.0
102
RTVSPost2010PropOp39
 70
     1
102
RTVSPost2010Prop40
 90
        0
102
RTVSPost2010PropOp40
 70
     1
102
RTVSPost2010Prop41ColorIndex
 90
       18
102
RTVSPost2010Prop41ColorRGB
 90
        0
102
RTVSPost2010PropOp41
 70
     1
102
RTVSPost2010Prop42
 90
       50
102
RTVSPost2010PropOp42
 70
     1
102
RTVSPost2010Prop43
 90
        3
102
RTVSPost2010PropOp43
 70
     1
102
RTVSPost2010Prop44ColorIndex
 90
        5
102
RTVSPost2010Prop44ColorRGB
 90
      255
102
RTVSPost2010PropOp44
 70
     1
102
RTVSPost2010Prop45
280
     0
102
RTVSPost2010PropOp45
 70
     1
102
RTVSPost2010Prop46
 90
       50
102
RTVSPost2010PropOp46
 70
     1
102
RTVSPost2010Prop47
 90
       50
102
RTVSPost2010PropOp47
 70
     1
102
RTVSPost2010Prop48
 90
       50
102
RTVSPost2010PropOp48
 70
     1
102
RTVSPost2010Prop49
280
     0
102
RTVSPost2010PropOp49
 70
     1
102
RTVSPost2010Prop50
 90
       50
102
RTVSPost2010PropOp50
 70
     1
102
RTVSPost2010Prop51ColorIndex
 90
      256
102
RTVSPost2010Prop51ColorRGB
 90
-16777216
102
RTVSPost2010PropOp51
 70
     0
102
RTVSPost2010Prop52
140
1.0
102
RTVSPost2010PropOp52
 70
     0
102
RTVSPost2010Prop53
 90
        2
102
RTVSPost2010PropOp53
 70
     1
102
RTVSPost2010Prop54
  1
strokes_ogs.tif
102
RTVSPost2010PropOp54
 70
     1
102
RTVSPost2010Prop55
280
     0
102
RTVSPost2010PropOp55
 70
     1
102
RTVSPost2010Prop56
140
1.0
102
RTVSPost2010PropOp56
 70
     1
102
RTVSPost2010Prop57
140
1.0
102
RTVSPost2010PropOp57
 70
     1
102
RTVSPropertyOp0
 70
     1
102
RTVSPropertyOp1
 70
     1
102
RTVSPropertyOp2
 70
     1
102
RTVSPropertyOp3
 70
     1
102
RTVSPropertyOp4
 70
     1
102
RTVSPropertyOp5
 70
     1
102
RTVSPropertyOp6
 70
     1
102
RTVSPropertyOp7
 70
     1
102
RTVSPropertyOp8
 70
     1
102
RTVSPropertyOp9
 70
     1
102
RTVSPropertyOp10
 70
     1
102
RTVSPropertyOp11
 70
     1
102
RTVSPropertyOp12
 70
     1
102
RTVSPropertyOp13
 70
     1
102
RTVSPropertyOp14
 70
     1
102
RTVSPropertyOp15
 70
     1
102
RTVSPropertyOp16
 70
     1
102
RTVSPropertyOp17
 70
     1
102
RTVSPropertyOp18
 70
     1
102
RTVSPropertyOp19
 70
     1
102
RTVSPropertyOp20
 70
     1
102
RTVSPropertyOp21
 70
     1
102
RTVSPropertyOp22
 70
     1
102
RTVSPropertyOp23
 70
     1
102
RTVSPropertyOp24
 70
     1
102
RTVSPropertyOp25
 70
     1
102
RTVSPropertyOp26
 70
     1
102
RTVSPropertyOp27
 70
     1
102
RTVSPropertyOp28
 70
     1
102
RTVSPropertyOp29
 70
     1
102
RTVSPropertyOp30
 70
     1
102
RTVSPropertyOp31
 70
     1
102
RTVSPropertyOp32
 70
     1
102
RTVSPropertyOp33
 70
     1
102
RTVSPropertyOp34
 70
     1
102
RTVSPropertyOp35
 70
     1
102
RTVSPropertyOp36
 70
     1
102
RTVSPropertyOp37
 70
     1
102
RTVSPropertyOp38
 70
     1
102
RTVSPropertyOp39
 70
     1
102
RTVSPropertyOp40
 70
     1
102
RTVSPropertyOp41
 70
     1
102
RTVSPropertyOp42
 70
     1
102
RTVSPropertyOp43
 70
     1
102
RTVSPropertyOp44
 70
     1
102
RTVSPropertyOp45
 70
     1
102
RTVSPropertyOp46
 70
     1
102
RTVSPropertyOp47
 70
     1
102
RTVSPropertyOp48
 70
     1
102
RTVSPropertyOp49
 70
     1
102
RTVSPropertyOp50
 70
     1
102
RTVSPropertyOp51
 70
     0
102
RTVSPropertyOp52
 70
     0
102
RTVSPropertyOp53
 70
     1
102
RTVSPropertyOp54
 70
     1
102
RTVSPropertyOp55
 70
     1
102
RTVSPropertyOp56
 70
     1
102
RTVSPropertyOp57
 70
     1
102
RTVSPropertyOp58
 70
     1
102
RTVSPropertyOp59
 70
     1
102
RTVSPropertyOp60
 70
     1
102
RTVSPropertyOp61
 70
     1
102
RTVSPropertyOp62
 70
     1
  0
XRECORD
  5
11FF
102
{ACAD_REACTORS
330
11FE
102
}
330
11FE
100
AcDbXrecord
280
     1
102
RTVSPost2010Prop28
280
     0
102
RTVSPost2010PropOp28
 70
     1
102
RTVSPost2010Prop29
280
     1
102
RTVSPost2010PropOp29
 70
     1
102
RTVSPost2010Prop30
280
     1
102
RTVSPost2010PropOp30
 70
     1
102
RTVSPost2010Prop31
280
     0
102
RTVSPost2010PropOp31
 70
     1
102
RTVSPost2010Prop32
280
     0
102
RTVSPost2010PropOp32
 70
     1
102
RTVSPost2010Prop33
280
     0
102
RTVSPost2010PropOp33
 70
     1
102
RTVSPost2010Prop34
280
     0
102
RTVSPost2010PropOp34
 70
     1
102
RTVSPost2010Prop35
280
     0
102
RTVSPost2010PropOp35
 70
     1
102
RTVSPost2010Prop36
280
     0
102
RTVSPost2010PropOp36
 70
     1
102
RTVSPost2010Prop37
 90
       50
102
RTVSPost2010PropOp37
 70
     1
102
RTVSPost2010Prop38
140
0.0
102
RTVSPost2010PropOp38
 70
     1
102
RTVSPost2010Prop39
140
1.0
102
RTVSPost2010PropOp39
 70
     1
102
RTVSPost2010Prop40
 90
        0
102
RTVSPost2010PropOp40
 70
     1
102
RTVSPost2010Prop41ColorIndex
 90
       18
102
RTVSPost2010Prop41ColorRGB
 90
        0
102
RTVSPost2010PropOp41
 70
     1
102
RTVSPost2010Prop42
 90
       50
102
RTVSPost2010PropOp42
 70
     1
102
RTVSPost2010Prop43
 90
        3
102
RTVSPost2010PropOp43
 70
     1
102
RTVSPost2010Prop44ColorIndex
 90
        5
102
RTVSPost2010Prop44ColorRGB
 90
      255
102
RTVSPost2010PropOp44
 70
     1
102
RTVSPost2010Prop45
280
     0
102
RTVSPost2010PropOp45
 70
     1
102
RTVSPost2010Prop46
 90
       50
102
RTVSPost2010PropOp46
 70
     1
102
RTVSPost2010Prop47
 90
       50
102
RTVSPost2010PropOp47
 70
     1
102
RTVSPost2010Prop48
 90
       50
102
RTVSPost2010PropOp48
 70
     1
102
RTVSPost2010Prop49
280
     0
102
RTVSPost2010PropOp49
 70
     1
102
RTVSPost2010Prop50
 90
       50
102
RTVSPost2010PropOp50
 70
     1
102
RTVSPost2010Prop51ColorIndex
 90
      256
102
RTVSPost2010Prop51ColorRGB
 90
-16777216
102
RTVSPost2010PropOp51
 70
     0
102
RTVSPost2010Prop52
140
1.0
102
RTVSPost2010PropOp52
 70
     0
102
RTVSPost2010Prop53
 90
        2
102
RTVSPost2010PropOp53
 70
     1
102
RTVSPost2010Prop54
  1
strokes_ogs.tif
102
RTVSPost2010PropOp54
 70
     1
102
RTVSPost2010Prop55
280
     0
102
RTVSPost2010PropOp55
 70
     1
102
RTVSPost2010Prop56
140
1.0
102
RTVSPost2010PropOp56
 70
     1
102
RTVSPost2010Prop57
140
1.0
102
RTVSPost2010PropOp57
 70
     1
102
RTVSPropertyOp0
 70
     1
102
RTVSPropertyOp1
 70
     1
102
RTVSPropertyOp2
 70
     1
102
RTVSPropertyOp3
 70
     1
102
RTVSPropertyOp4
 70
     1
102
RTVSPropertyOp5
 70
     1
102
RTVSPropertyOp6
 70
     1
102
RTVSPropertyOp7
 70
     1
102
RTVSPropertyOp8
 70
     1
102
RTVSPropertyOp9
 70
     1
102
RTVSPropertyOp10
 70
     1
102
RTVSPropertyOp11
 70
     1
102
RTVSPropertyOp12
 70
     1
102
RTVSPropertyOp13
 70
     1
102
RTVSPropertyOp14
 70
     1
102
RTVSPropertyOp15
 70
     1
102
RTVSPropertyOp16
 70
     1
102
RTVSPropertyOp17
 70
     1
102
RTVSPropertyOp18
 70
     1
102
RTVSPropertyOp19
 70
     1
102
RTVSPropertyOp20
 70
     1
102
RTVSPropertyOp21
 70
     1
102
RTVSPropertyOp22
 70
     1
102
RTVSPropertyOp23
 70
     1
102
RTVSPropertyOp24
 70
     1
102
RTVSPropertyOp25
 70
     1
102
RTVSPropertyOp26
 70
     1
102
RTVSPropertyOp27
 70
     1
102
RTVSPropertyOp28
 70
     1
102
RTVSPropertyOp29
 70
     1
102
RTVSPropertyOp30
 70
     1
102
RTVSPropertyOp31
 70
     1
102
RTVSPropertyOp32
 70
     1
102
RTVSPropertyOp33
 70
     1
102
RTVSPropertyOp34
 70
     1
102
RTVSPropertyOp35
 70
     1
102
RTVSPropertyOp36
 70
     1
102
RTVSPropertyOp37
 70
     1
102
RTVSPropertyOp38
 70
     1
102
RTVSPropertyOp39
 70
     1
102
RTVSPropertyOp40
 70
     1
102
RTVSPropertyOp41
 70
     1
102
RTVSPropertyOp42
 70
     1
102
RTVSPropertyOp43
 70
     1
102
RTVSPropertyOp44
 70
     1
102
RTVSPropertyOp45
 70
     1
102
RTVSPropertyOp46
 70
     1
102
RTVSPropertyOp47
 70
     1
102
RTVSPropertyOp48
 70
     1
102
RTVSPropertyOp49
 70
     1
102
RTVSPropertyOp50
 70
     1
102
RTVSPropertyOp51
 70
     0
102
RTVSPropertyOp52
 70
     0
102
RTVSPropertyOp53
 70
     1
102
RTVSPropertyOp54
 70
     1
102
RTVSPropertyOp55
 70
     1
102
RTVSPropertyOp56
 70
     1
102
RTVSPropertyOp57
 70
     1
102
RTVSPropertyOp58
 70
     1
102
RTVSPropertyOp59
 70
     1
102
RTVSPropertyOp60
 70
     1
102
RTVSPropertyOp61
 70
     1
102
RTVSPropertyOp62
 70
     1
  0
XRECORD
  5
11FD
102
{ACAD_REACTORS
330
11FC
102
}
330
11FC
100
AcDbXrecord
280
     1
102
RTVSPost2010Prop28
280
     0
102
RTVSPost2010PropOp28
 70
     1
102
RTVSPost2010Prop29
280
     1
102
RTVSPost2010PropOp29
 70
     1
102
RTVSPost2010Prop30
280
     1
102
RTVSPost2010PropOp30
 70
     1
102
RTVSPost2010Prop31
280
     0
102
RTVSPost2010PropOp31
 70
     1
102
RTVSPost2010Prop32
280
     0
102
RTVSPost2010PropOp32
 70
     1
102
RTVSPost2010Prop33
280
     0
102
RTVSPost2010PropOp33
 70
     1
102
RTVSPost2010Prop34
280
     0
102
RTVSPost2010PropOp34
 70
     1
102
RTVSPost2010Prop35
280
     0
102
RTVSPost2010PropOp35
 70
     1
102
RTVSPost2010Prop36
280
     0
102
RTVSPost2010PropOp36
 70
     1
102
RTVSPost2010Prop37
 90
       50
102
RTVSPost2010PropOp37
 70
     1
102
RTVSPost2010Prop38
140
0.0
102
RTVSPost2010PropOp38
 70
     1
102
RTVSPost2010Prop39
140
1.0
102
RTVSPost2010PropOp39
 70
     1
102
RTVSPost2010Prop40
 90
        0
102
RTVSPost2010PropOp40
 70
     1
102
RTVSPost2010Prop41ColorIndex
 90
       18
102
RTVSPost2010Prop41ColorRGB
 90
        0
102
RTVSPost2010PropOp41
 70
     1
102
RTVSPost2010Prop42
 90
       50
102
RTVSPost2010PropOp42
 70
     1
102
RTVSPost2010Prop43
 90
        3
102
RTVSPost2010PropOp43
 70
     1
102
RTVSPost2010Prop44ColorIndex
 90
        5
102
RTVSPost2010Prop44ColorRGB
 90
      255
102
RTVSPost2010PropOp44
 70
     1
102
RTVSPost2010Prop45
280
     0
102
RTVSPost2010PropOp45
 70
     1
102
RTVSPost2010Prop46
 90
       50
102
RTVSPost2010PropOp46
 70
     1
102
RTVSPost2010Prop47
 90
       50
102
RTVSPost2010PropOp47
 70
     1
102
RTVSPost2010Prop48
 90
       50
102
RTVSPost2010PropOp48
 70
     1
102
RTVSPost2010Prop49
280
     0
102
RTVSPost2010PropOp49
 70
     1
102
RTVSPost2010Prop50
 90
       50
102
RTVSPost2010PropOp50
 70
     1
102
RTVSPost2010Prop51ColorIndex
 90
      256
102
RTVSPost2010Prop51ColorRGB
 90
-16777216
102
RTVSPost2010PropOp51
 70
     0
102
RTVSPost2010Prop52
140
1.0
102
RTVSPost2010PropOp52
 70
     0
102
RTVSPost2010Prop53
 90
        2
102
RTVSPost2010PropOp53
 70
     1
102
RTVSPost2010Prop54
  1
strokes_ogs.tif
102
RTVSPost2010PropOp54
 70
     1
102
RTVSPost2010Prop55
280
     0
102
RTVSPost2010PropOp55
 70
     1
102
RTVSPost2010Prop56
140
1.0
102
RTVSPost2010PropOp56
 70
     1
102
RTVSPost2010Prop57
140
1.0
102
RTVSPost2010PropOp57
 70
     1
102
RTVSPropertyOp0
 70
     1
102
RTVSPropertyOp1
 70
     1
102
RTVSPropertyOp2
 70
     1
102
RTVSPropertyOp3
 70
     1
102
RTVSPropertyOp4
 70
     1
102
RTVSPropertyOp5
 70
     1
102
RTVSPropertyOp6
 70
     1
102
RTVSPropertyOp7
 70
     1
102
RTVSPropertyOp8
 70
     1
102
RTVSPropertyOp9
 70
     1
102
RTVSPropertyOp10
 70
     1
102
RTVSPropertyOp11
 70
     1
102
RTVSPropertyOp12
 70
     1
102
RTVSPropertyOp13
 70
     1
102
RTVSPropertyOp14
 70
     1
102
RTVSPropertyOp15
 70
     1
102
RTVSPropertyOp16
 70
     1
102
RTVSPropertyOp17
 70
     1
102
RTVSPropertyOp18
 70
     1
102
RTVSPropertyOp19
 70
     1
102
RTVSPropertyOp20
 70
     1
102
RTVSPropertyOp21
 70
     1
102
RTVSPropertyOp22
 70
     1
102
RTVSPropertyOp23
 70
     1
102
RTVSPropertyOp24
 70
     1
102
RTVSPropertyOp25
 70
     1
102
RTVSPropertyOp26
 70
     1
102
RTVSPropertyOp27
 70
     1
102
RTVSPropertyOp28
 70
     1
102
RTVSPropertyOp29
 70
     1
102
RTVSPropertyOp30
 70
     1
102
RTVSPropertyOp31
 70
     1
102
RTVSPropertyOp32
 70
     1
102
RTVSPropertyOp33
 70
     1
102
RTVSPropertyOp34
 70
     1
102
RTVSPropertyOp35
 70
     1
102
RTVSPropertyOp36
 70
     1
102
RTVSPropertyOp37
 70
     1
102
RTVSPropertyOp38
 70
     1
102
RTVSPropertyOp39
 70
     1
102
RTVSPropertyOp40
 70
     1
102
RTVSPropertyOp41
 70
     1
102
RTVSPropertyOp42
 70
     1
102
RTVSPropertyOp43
 70
     1
102
RTVSPropertyOp44
 70
     1
102
RTVSPropertyOp45
 70
     1
102
RTVSPropertyOp46
 70
     1
102
RTVSPropertyOp47
 70
     1
102
RTVSPropertyOp48
 70
     1
102
RTVSPropertyOp49
 70
     1
102
RTVSPropertyOp50
 70
     1
102
RTVSPropertyOp51
 70
     0
102
RTVSPropertyOp52
 70
     0
102
RTVSPropertyOp53
 70
     1
102
RTVSPropertyOp54
 70
     1
102
RTVSPropertyOp55
 70
     1
102
RTVSPropertyOp56
 70
     1
102
RTVSPropertyOp57
 70
     1
102
RTVSPropertyOp58
 70
     1
102
RTVSPropertyOp59
 70
     1
102
RTVSPropertyOp60
 70
     1
102
RTVSPropertyOp61
 70
     1
102
RTVSPropertyOp62
 70
     1
  0
XRECORD
  5
11F7
102
{ACAD_REACTORS
330
11F6
102
}
330
11F6
100
AcDbXrecord
280
     1
102
RTVSPost2010Prop28
280
     0
102
RTVSPost2010PropOp28
 70
     1
102
RTVSPost2010Prop29
280
     1
102
RTVSPost2010PropOp29
 70
     1
102
RTVSPost2010Prop30
280
     1
102
RTVSPost2010PropOp30
 70
     1
102
RTVSPost2010Prop31
280
     0
102
RTVSPost2010PropOp31
 70
     1
102
RTVSPost2010Prop32
280
     0
102
RTVSPost2010PropOp32
 70
     1
102
RTVSPost2010Prop33
280
     0
102
RTVSPost2010PropOp33
 70
     1
102
RTVSPost2010Prop34
280
     0
102
RTVSPost2010PropOp34
 70
     1
102
RTVSPost2010Prop35
280
     0
102
RTVSPost2010PropOp35
 70
     1
102
RTVSPost2010Prop36
280
     0
102
RTVSPost2010PropOp36
 70
     1
102
RTVSPost2010Prop37
 90
       50
102
RTVSPost2010PropOp37
 70
     1
102
RTVSPost2010Prop38
140
0.0
102
RTVSPost2010PropOp38
 70
     1
102
RTVSPost2010Prop39
140
1.0
102
RTVSPost2010PropOp39
 70
     1
102
RTVSPost2010Prop40
 90
        0
102
RTVSPost2010PropOp40
 70
     1
102
RTVSPost2010Prop41ColorIndex
 90
       18
102
RTVSPost2010Prop41ColorRGB
 90
        0
102
RTVSPost2010PropOp41
 70
     1
102
RTVSPost2010Prop42
 90
       50
102
RTVSPost2010PropOp42
 70
     1
102
RTVSPost2010Prop43
 90
        3
102
RTVSPost2010PropOp43
 70
     1
102
RTVSPost2010Prop44ColorIndex
 90
        5
102
RTVSPost2010Prop44ColorRGB
 90
      255
102
RTVSPost2010PropOp44
 70
     1
102
RTVSPost2010Prop45
280
     0
102
RTVSPost2010PropOp45
 70
     1
102
RTVSPost2010Prop46
 90
       50
102
RTVSPost2010PropOp46
 70
     1
102
RTVSPost2010Prop47
 90
       50
102
RTVSPost2010PropOp47
 70
     1
102
RTVSPost2010Prop48
 90
       50
102
RTVSPost2010PropOp48
 70
     1
102
RTVSPost2010Prop49
280
     0
102
RTVSPost2010PropOp49
 70
     1
102
RTVSPost2010Prop50
 90
       50
102
RTVSPost2010PropOp50
 70
     1
102
RTVSPost2010Prop51ColorIndex
 90
      256
102
RTVSPost2010Prop51ColorRGB
 90
-16777216
102
RTVSPost2010PropOp51
 70
     0
102
RTVSPost2010Prop52
140
1.0
102
RTVSPost2010PropOp52
 70
     0
102
RTVSPost2010Prop53
 90
        2
102
RTVSPost2010PropOp53
 70
     1
102
RTVSPost2010Prop54
  1
strokes_ogs.tif
102
RTVSPost2010PropOp54
 70
     1
102
RTVSPost2010Prop55
280
     0
102
RTVSPost2010PropOp55
 70
     1
102
RTVSPost2010Prop56
140
1.0
102
RTVSPost2010PropOp56
 70
     1
102
RTVSPost2010Prop57
140
1.0
102
RTVSPost2010PropOp57
 70
     1
102
RTVSPropertyOp0
 70
     1
102
RTVSPropertyOp1
 70
     1
102
RTVSPropertyOp2
 70
     1
102
RTVSPropertyOp3
 70
     1
102
RTVSPropertyOp4
 70
     1
102
RTVSPropertyOp5
 70
     1
102
RTVSPropertyOp6
 70
     1
102
RTVSPropertyOp7
 70
     1
102
RTVSPropertyOp8
 70
     1
102
RTVSPropertyOp9
 70
     1
102
RTVSPropertyOp10
 70
     1
102
RTVSPropertyOp11
 70
     1
102
RTVSPropertyOp12
 70
     1
102
RTVSPropertyOp13
 70
     1
102
RTVSPropertyOp14
 70
     1
102
RTVSPropertyOp15
 70
     1
102
RTVSPropertyOp16
 70
     1
102
RTVSPropertyOp17
 70
     1
102
RTVSPropertyOp18
 70
     1
102
RTVSPropertyOp19
 70
     1
102
RTVSPropertyOp20
 70
     1
102
RTVSPropertyOp21
 70
     1
102
RTVSPropertyOp22
 70
     1
102
RTVSPropertyOp23
 70
     1
102
RTVSPropertyOp24
 70
     1
102
RTVSPropertyOp25
 70
     1
102
RTVSPropertyOp26
 70
     1
102
RTVSPropertyOp27
 70
     1
102
RTVSPropertyOp28
 70
     1
102
RTVSPropertyOp29
 70
     1
102
RTVSPropertyOp30
 70
     1
102
RTVSPropertyOp31
 70
     1
102
RTVSPropertyOp32
 70
     1
102
RTVSPropertyOp33
 70
     1
102
RTVSPropertyOp34
 70
     1
102
RTVSPropertyOp35
 70
     1
102
RTVSPropertyOp36
 70
     1
102
RTVSPropertyOp37
 70
     1
102
RTVSPropertyOp38
 70
     1
102
RTVSPropertyOp39
 70
     1
102
RTVSPropertyOp40
 70
     1
102
RTVSPropertyOp41
 70
     1
102
RTVSPropertyOp42
 70
     1
102
RTVSPropertyOp43
 70
     1
102
RTVSPropertyOp44
 70
     1
102
RTVSPropertyOp45
 70
     1
102
RTVSPropertyOp46
 70
     1
102
RTVSPropertyOp47
 70
     1
102
RTVSPropertyOp48
 70
     1
102
RTVSPropertyOp49
 70
     1
102
RTVSPropertyOp50
 70
     1
102
RTVSPropertyOp51
 70
     0
102
RTVSPropertyOp52
 70
     0
102
RTVSPropertyOp53
 70
     1
102
RTVSPropertyOp54
 70
     1
102
RTVSPropertyOp55
 70
     1
102
RTVSPropertyOp56
 70
     1
102
RTVSPropertyOp57
 70
     1
102
RTVSPropertyOp58
 70
     1
102
RTVSPropertyOp59
 70
     1
102
RTVSPropertyOp60
 70
     1
102
RTVSPropertyOp61
 70
     1
102
RTVSPropertyOp62
 70
     1
  0
XRECORD
  5
11F9
102
{ACAD_REACTORS
330
11F8
102
}
330
11F8
100
AcDbXrecord
280
     1
102
RTVSPost2010Prop28
280
     0
102
RTVSPost2010PropOp28
 70
     1
102
RTVSPost2010Prop29
280
     1
102
RTVSPost2010PropOp29
 70
     1
102
RTVSPost2010Prop30
280
     1
102
RTVSPost2010PropOp30
 70
     1
102
RTVSPost2010Prop31
280
     0
102
RTVSPost2010PropOp31
 70
     1
102
RTVSPost2010Prop32
280
     0
102
RTVSPost2010PropOp32
 70
     1
102
RTVSPost2010Prop33
280
     0
102
RTVSPost2010PropOp33
 70
     1
102
RTVSPost2010Prop34
280
     0
102
RTVSPost2010PropOp34
 70
     1
102
RTVSPost2010Prop35
280
     0
102
RTVSPost2010PropOp35
 70
     1
102
RTVSPost2010Prop36
280
     0
102
RTVSPost2010PropOp36
 70
     1
102
RTVSPost2010Prop37
 90
       50
102
RTVSPost2010PropOp37
 70
     1
102
RTVSPost2010Prop38
140
0.0
102
RTVSPost2010PropOp38
 70
     1
102
RTVSPost2010Prop39
140
1.0
102
RTVSPost2010PropOp39
 70
     1
102
RTVSPost2010Prop40
 90
        0
102
RTVSPost2010PropOp40
 70
     1
102
RTVSPost2010Prop41ColorIndex
 90
       18
102
RTVSPost2010Prop41ColorRGB
 90
        0
102
RTVSPost2010PropOp41
 70
     1
102
RTVSPost2010Prop42
 90
       50
102
RTVSPost2010PropOp42
 70
     1
102
RTVSPost2010Prop43
 90
        3
102
RTVSPost2010PropOp43
 70
     1
102
RTVSPost2010Prop44ColorIndex
 90
        5
102
RTVSPost2010Prop44ColorRGB
 90
      255
102
RTVSPost2010PropOp44
 70
     1
102
RTVSPost2010Prop45
280
     0
102
RTVSPost2010PropOp45
 70
     1
102
RTVSPost2010Prop46
 90
       50
102
RTVSPost2010PropOp46
 70
     1
102
RTVSPost2010Prop47
 90
       50
102
RTVSPost2010PropOp47
 70
     1
102
RTVSPost2010Prop48
 90
       50
102
RTVSPost2010PropOp48
 70
     1
102
RTVSPost2010Prop49
280
     0
102
RTVSPost2010PropOp49
 70
     1
102
RTVSPost2010Prop50
 90
       50
102
RTVSPost2010PropOp50
 70
     1
102
RTVSPost2010Prop51ColorIndex
 90
      256
102
RTVSPost2010Prop51ColorRGB
 90
-16777216
102
RTVSPost2010PropOp51
 70
     0
102
RTVSPost2010Prop52
140
1.0
102
RTVSPost2010PropOp52
 70
     0
102
RTVSPost2010Prop53
 90
        2
102
RTVSPost2010PropOp53
 70
     1
102
RTVSPost2010Prop54
  1
strokes_ogs.tif
102
RTVSPost2010PropOp54
 70
     1
102
RTVSPost2010Prop55
280
     0
102
RTVSPost2010PropOp55
 70
     1
102
RTVSPost2010Prop56
140
1.0
102
RTVSPost2010PropOp56
 70
     1
102
RTVSPost2010Prop57
140
1.0
102
RTVSPost2010PropOp57
 70
     1
102
RTVSPropertyOp0
 70
     1
102
RTVSPropertyOp1
 70
     1
102
RTVSPropertyOp2
 70
     1
102
RTVSPropertyOp3
 70
     1
102
RTVSPropertyOp4
 70
     1
102
RTVSPropertyOp5
 70
     1
102
RTVSPropertyOp6
 70
     1
102
RTVSPropertyOp7
 70
     1
102
RTVSPropertyOp8
 70
     1
102
RTVSPropertyOp9
 70
     1
102
RTVSPropertyOp10
 70
     1
102
RTVSPropertyOp11
 70
     1
102
RTVSPropertyOp12
 70
     1
102
RTVSPropertyOp13
 70
     1
102
RTVSPropertyOp14
 70
     1
102
RTVSPropertyOp15
 70
     1
102
RTVSPropertyOp16
 70
     1
102
RTVSPropertyOp17
 70
     1
102
RTVSPropertyOp18
 70
     1
102
RTVSPropertyOp19
 70
     1
102
RTVSPropertyOp20
 70
     1
102
RTVSPropertyOp21
 70
     1
102
RTVSPropertyOp22
 70
     1
102
RTVSPropertyOp23
 70
     1
102
RTVSPropertyOp24
 70
     1
102
RTVSPropertyOp25
 70
     1
102
RTVSPropertyOp26
 70
     1
102
RTVSPropertyOp27
 70
     1
102
RTVSPropertyOp28
 70
     1
102
RTVSPropertyOp29
 70
     1
102
RTVSPropertyOp30
 70
     1
102
RTVSPropertyOp31
 70
     1
102
RTVSPropertyOp32
 70
     1
102
RTVSPropertyOp33
 70
     1
102
RTVSPropertyOp34
 70
     1
102
RTVSPropertyOp35
 70
     1
102
RTVSPropertyOp36
 70
     1
102
RTVSPropertyOp37
 70
     1
102
RTVSPropertyOp38
 70
     1
102
RTVSPropertyOp39
 70
     1
102
RTVSPropertyOp40
 70
     1
102
RTVSPropertyOp41
 70
     1
102
RTVSPropertyOp42
 70
     1
102
RTVSPropertyOp43
 70
     1
102
RTVSPropertyOp44
 70
     1
102
RTVSPropertyOp45
 70
     1
102
RTVSPropertyOp46
 70
     1
102
RTVSPropertyOp47
 70
     1
102
RTVSPropertyOp48
 70
     1
102
RTVSPropertyOp49
 70
     1
102
RTVSPropertyOp50
 70
     1
102
RTVSPropertyOp51
 70
     0
102
RTVSPropertyOp52
 70
     0
102
RTVSPropertyOp53
 70
     1
102
RTVSPropertyOp54
 70
     1
102
RTVSPropertyOp55
 70
     1
102
RTVSPropertyOp56
 70
     1
102
RTVSPropertyOp57
 70
     1
102
RTVSPropertyOp58
 70
     1
102
RTVSPropertyOp59
 70
     1
102
RTVSPropertyOp60
 70
     1
102
RTVSPropertyOp61
 70
     1
102
RTVSPropertyOp62
 70
     1
  0
XRECORD
  5
11EF
102
{ACAD_REACTORS
330
11EE
102
}
330
11EE
100
AcDbXrecord
280
     1
102
RTVSPost2010Prop28
280
     0
102
RTVSPost2010PropOp28
 70
     1
102
RTVSPost2010Prop29
280
     1
102
RTVSPost2010PropOp29
 70
     1
102
RTVSPost2010Prop30
280
     1
102
RTVSPost2010PropOp30
 70
     1
102
RTVSPost2010Prop31
280
     0
102
RTVSPost2010PropOp31
 70
     1
102
RTVSPost2010Prop32
280
     0
102
RTVSPost2010PropOp32
 70
     1
102
RTVSPost2010Prop33
280
     0
102
RTVSPost2010PropOp33
 70
     1
102
RTVSPost2010Prop34
280
     0
102
RTVSPost2010PropOp34
 70
     1
102
RTVSPost2010Prop35
280
     0
102
RTVSPost2010PropOp35
 70
     1
102
RTVSPost2010Prop36
280
     0
102
RTVSPost2010PropOp36
 70
     1
102
RTVSPost2010Prop37
 90
       50
102
RTVSPost2010PropOp37
 70
     1
102
RTVSPost2010Prop38
140
0.0
102
RTVSPost2010PropOp38
 70
     1
102
RTVSPost2010Prop39
140
1.0
102
RTVSPost2010PropOp39
 70
     1
102
RTVSPost2010Prop40
 90
        0
102
RTVSPost2010PropOp40
 70
     1
102
RTVSPost2010Prop41ColorIndex
 90
       18
102
RTVSPost2010Prop41ColorRGB
 90
        0
102
RTVSPost2010PropOp41
 70
     1
102
RTVSPost2010Prop42
 90
       50
102
RTVSPost2010PropOp42
 70
     1
102
RTVSPost2010Prop43
 90
        3
102
RTVSPost2010PropOp43
 70
     1
102
RTVSPost2010Prop44ColorIndex
 90
        5
102
RTVSPost2010Prop44ColorRGB
 90
      255
102
RTVSPost2010PropOp44
 70
     1
102
RTVSPost2010Prop45
280
     0
102
RTVSPost2010PropOp45
 70
     1
102
RTVSPost2010Prop46
 90
       50
102
RTVSPost2010PropOp46
 70
     1
102
RTVSPost2010Prop47
 90
       50
102
RTVSPost2010PropOp47
 70
     1
102
RTVSPost2010Prop48
 90
       50
102
RTVSPost2010PropOp48
 70
     1
102
RTVSPost2010Prop49
280
     0
102
RTVSPost2010PropOp49
 70
     1
102
RTVSPost2010Prop50
 90
       50
102
RTVSPost2010PropOp50
 70
     1
102
RTVSPost2010Prop51ColorIndex
 90
      256
102
RTVSPost2010Prop51ColorRGB
 90
-16777216
102
RTVSPost2010PropOp51
 70
     0
102
RTVSPost2010Prop52
140
1.0
102
RTVSPost2010PropOp52
 70
     0
102
RTVSPost2010Prop53
 90
        2
102
RTVSPost2010PropOp53
 70
     1
102
RTVSPost2010Prop54
  1
strokes_ogs.tif
102
RTVSPost2010PropOp54
 70
     1
102
RTVSPost2010Prop55
280
     0
102
RTVSPost2010PropOp55
 70
     1
102
RTVSPost2010Prop56
140
1.0
102
RTVSPost2010PropOp56
 70
     1
102
RTVSPost2010Prop57
140
1.0
102
RTVSPost2010PropOp57
 70
     1
102
RTVSPropertyOp0
 70
     1
102
RTVSPropertyOp1
 70
     1
102
RTVSPropertyOp2
 70
     1
102
RTVSPropertyOp3
 70
     1
102
RTVSPropertyOp4
 70
     1
102
RTVSPropertyOp5
 70
     1
102
RTVSPropertyOp6
 70
     1
102
RTVSPropertyOp7
 70
     1
102
RTVSPropertyOp8
 70
     1
102
RTVSPropertyOp9
 70
     1
102
RTVSPropertyOp10
 70
     1
102
RTVSPropertyOp11
 70
     1
102
RTVSPropertyOp12
 70
     1
102
RTVSPropertyOp13
 70
     1
102
RTVSPropertyOp14
 70
     1
102
RTVSPropertyOp15
 70
     1
102
RTVSPropertyOp16
 70
     1
102
RTVSPropertyOp17
 70
     1
102
RTVSPropertyOp18
 70
     1
102
RTVSPropertyOp19
 70
     1
102
RTVSPropertyOp20
 70
     1
102
RTVSPropertyOp21
 70
     1
102
RTVSPropertyOp22
 70
     1
102
RTVSPropertyOp23
 70
     1
102
RTVSPropertyOp24
 70
     1
102
RTVSPropertyOp25
 70
     1
102
RTVSPropertyOp26
 70
     1
102
RTVSPropertyOp27
 70
     1
102
RTVSPropertyOp28
 70
     1
102
RTVSPropertyOp29
 70
     1
102
RTVSPropertyOp30
 70
     1
102
RTVSPropertyOp31
 70
     1
102
RTVSPropertyOp32
 70
     1
102
RTVSPropertyOp33
 70
     1
102
RTVSPropertyOp34
 70
     1
102
RTVSPropertyOp35
 70
     1
102
RTVSPropertyOp36
 70
     1
102
RTVSPropertyOp37
 70
     1
102
RTVSPropertyOp38
 70
     1
102
RTVSPropertyOp39
 70
     1
102
RTVSPropertyOp40
 70
     1
102
RTVSPropertyOp41
 70
     1
102
RTVSPropertyOp42
 70
     1
102
RTVSPropertyOp43
 70
     1
102
RTVSPropertyOp44
 70
     1
102
RTVSPropertyOp45
 70
     1
102
RTVSPropertyOp46
 70
     1
102
RTVSPropertyOp47
 70
     1
102
RTVSPropertyOp48
 70
     1
102
RTVSPropertyOp49
 70
     1
102
RTVSPropertyOp50
 70
     1
102
RTVSPropertyOp51
 70
     0
102
RTVSPropertyOp52
 70
     0
102
RTVSPropertyOp53
 70
     1
102
RTVSPropertyOp54
 70
     1
102
RTVSPropertyOp55
 70
     1
102
RTVSPropertyOp56
 70
     1
102
RTVSPropertyOp57
 70
     1
102
RTVSPropertyOp58
 70
     1
102
RTVSPropertyOp59
 70
     1
102
RTVSPropertyOp60
 70
     1
102
RTVSPropertyOp61
 70
     1
102
RTVSPropertyOp62
 70
     1
  0
XRECORD
  5
11E3
102
{ACAD_REACTORS
330
11E2
102
}
330
11E2
100
AcDbXrecord
280
     1
102
RTVSPost2010Prop28
280
     0
102
RTVSPost2010PropOp28
 70
     1
102
RTVSPost2010Prop29
280
     1
102
RTVSPost2010PropOp29
 70
     1
102
RTVSPost2010Prop30
280
     1
102
RTVSPost2010PropOp30
 70
     1
102
RTVSPost2010Prop31
280
     0
102
RTVSPost2010PropOp31
 70
     1
102
RTVSPost2010Prop32
280
     0
102
RTVSPost2010PropOp32
 70
     1
102
RTVSPost2010Prop33
280
     0
102
RTVSPost2010PropOp33
 70
     1
102
RTVSPost2010Prop34
280
     0
102
RTVSPost2010PropOp34
 70
     1
102
RTVSPost2010Prop35
280
     0
102
RTVSPost2010PropOp35
 70
     1
102
RTVSPost2010Prop36
280
     0
102
RTVSPost2010PropOp36
 70
     1
102
RTVSPost2010Prop37
 90
       50
102
RTVSPost2010PropOp37
 70
     1
102
RTVSPost2010Prop38
140
0.0
102
RTVSPost2010PropOp38
 70
     1
102
RTVSPost2010Prop39
140
1.0
102
RTVSPost2010PropOp39
 70
     1
102
RTVSPost2010Prop40
 90
        0
102
RTVSPost2010PropOp40
 70
     1
102
RTVSPost2010Prop41ColorIndex
 90
       18
102
RTVSPost2010Prop41ColorRGB
 90
        0
102
RTVSPost2010PropOp41
 70
     1
102
RTVSPost2010Prop42
 90
       50
102
RTVSPost2010PropOp42
 70
     1
102
RTVSPost2010Prop43
 90
        3
102
RTVSPost2010PropOp43
 70
     1
102
RTVSPost2010Prop44ColorIndex
 90
        5
102
RTVSPost2010Prop44ColorRGB
 90
      255
102
RTVSPost2010PropOp44
 70
     1
102
RTVSPost2010Prop45
280
     0
102
RTVSPost2010PropOp45
 70
     1
102
RTVSPost2010Prop46
 90
       50
102
RTVSPost2010PropOp46
 70
     1
102
RTVSPost2010Prop47
 90
       50
102
RTVSPost2010PropOp47
 70
     1
102
RTVSPost2010Prop48
 90
       50
102
RTVSPost2010PropOp48
 70
     1
102
RTVSPost2010Prop49
280
     0
102
RTVSPost2010PropOp49
 70
     1
102
RTVSPost2010Prop50
 90
       50
102
RTVSPost2010PropOp50
 70
     1
102
RTVSPost2010Prop51ColorIndex
 90
      256
102
RTVSPost2010Prop51ColorRGB
 90
-16777216
102
RTVSPost2010PropOp51
 70
     0
102
RTVSPost2010Prop52
140
1.0
102
RTVSPost2010PropOp52
 70
     0
102
RTVSPost2010Prop53
 90
        2
102
RTVSPost2010PropOp53
 70
     1
102
RTVSPost2010Prop54
  1
strokes_ogs.tif
102
RTVSPost2010PropOp54
 70
     1
102
RTVSPost2010Prop55
280
     0
102
RTVSPost2010PropOp55
 70
     1
102
RTVSPost2010Prop56
140
1.0
102
RTVSPost2010PropOp56
 70
     1
102
RTVSPost2010Prop57
140
1.0
102
RTVSPost2010PropOp57
 70
     1
102
RTVSPropertyOp0
 70
     1
102
RTVSPropertyOp1
 70
     1
102
RTVSPropertyOp2
 70
     1
102
RTVSPropertyOp3
 70
     1
102
RTVSPropertyOp4
 70
     1
102
RTVSPropertyOp5
 70
     1
102
RTVSPropertyOp6
 70
     1
102
RTVSPropertyOp7
 70
     1
102
RTVSPropertyOp8
 70
     1
102
RTVSPropertyOp9
 70
     1
102
RTVSPropertyOp10
 70
     1
102
RTVSPropertyOp11
 70
     1
102
RTVSPropertyOp12
 70
     1
102
RTVSPropertyOp13
 70
     1
102
RTVSPropertyOp14
 70
     1
102
RTVSPropertyOp15
 70
     1
102
RTVSPropertyOp16
 70
     1
102
RTVSPropertyOp17
 70
     1
102
RTVSPropertyOp18
 70
     1
102
RTVSPropertyOp19
 70
     1
102
RTVSPropertyOp20
 70
     1
102
RTVSPropertyOp21
 70
     1
102
RTVSPropertyOp22
 70
     1
102
RTVSPropertyOp23
 70
     1
102
RTVSPropertyOp24
 70
     1
102
RTVSPropertyOp25
 70
     1
102
RTVSPropertyOp26
 70
     1
102
RTVSPropertyOp27
 70
     1
102
RTVSPropertyOp28
 70
     1
102
RTVSPropertyOp29
 70
     1
102
RTVSPropertyOp30
 70
     1
102
RTVSPropertyOp31
 70
     1
102
RTVSPropertyOp32
 70
     1
102
RTVSPropertyOp33
 70
     1
102
RTVSPropertyOp34
 70
     1
102
RTVSPropertyOp35
 70
     1
102
RTVSPropertyOp36
 70
     1
102
RTVSPropertyOp37
 70
     1
102
RTVSPropertyOp38
 70
     1
102
RTVSPropertyOp39
 70
     1
102
RTVSPropertyOp40
 70
     1
102
RTVSPropertyOp41
 70
     1
102
RTVSPropertyOp42
 70
     1
102
RTVSPropertyOp43
 70
     1
102
RTVSPropertyOp44
 70
     1
102
RTVSPropertyOp45
 70
     1
102
RTVSPropertyOp46
 70
     1
102
RTVSPropertyOp47
 70
     1
102
RTVSPropertyOp48
 70
     1
102
RTVSPropertyOp49
 70
     1
102
RTVSPropertyOp50
 70
     1
102
RTVSPropertyOp51
 70
     0
102
RTVSPropertyOp52
 70
     0
102
RTVSPropertyOp53
 70
     1
102
RTVSPropertyOp54
 70
     1
102
RTVSPropertyOp55
 70
     1
102
RTVSPropertyOp56
 70
     1
102
RTVSPropertyOp57
 70
     1
102
RTVSPropertyOp58
 70
     1
102
RTVSPropertyOp59
 70
     1
102
RTVSPropertyOp60
 70
     1
102
RTVSPropertyOp61
 70
     1
102
RTVSPropertyOp62
 70
     1
  0
XRECORD
  5
11FB
102
{ACAD_REACTORS
330
11FA
102
}
330
11FA
100
AcDbXrecord
280
     1
102
RTVSPost2010Prop28
280
     0
102
RTVSPost2010PropOp28
 70
     1
102
RTVSPost2010Prop29
280
     1
102
RTVSPost2010PropOp29
 70
     1
102
RTVSPost2010Prop30
280
     1
102
RTVSPost2010PropOp30
 70
     1
102
RTVSPost2010Prop31
280
     0
102
RTVSPost2010PropOp31
 70
     1
102
RTVSPost2010Prop32
280
     0
102
RTVSPost2010PropOp32
 70
     1
102
RTVSPost2010Prop33
280
     0
102
RTVSPost2010PropOp33
 70
     1
102
RTVSPost2010Prop34
280
     0
102
RTVSPost2010PropOp34
 70
     1
102
RTVSPost2010Prop35
280
     0
102
RTVSPost2010PropOp35
 70
     1
102
RTVSPost2010Prop36
280
     0
102
RTVSPost2010PropOp36
 70
     1
102
RTVSPost2010Prop37
 90
       50
102
RTVSPost2010PropOp37
 70
     1
102
RTVSPost2010Prop38
140
0.0
102
RTVSPost2010PropOp38
 70
     1
102
RTVSPost2010Prop39
140
1.0
102
RTVSPost2010PropOp39
 70
     1
102
RTVSPost2010Prop40
 90
        0
102
RTVSPost2010PropOp40
 70
     1
102
RTVSPost2010Prop41ColorIndex
 90
       18
102
RTVSPost2010Prop41ColorRGB
 90
        0
102
RTVSPost2010PropOp41
 70
     1
102
RTVSPost2010Prop42
 90
       50
102
RTVSPost2010PropOp42
 70
     1
102
RTVSPost2010Prop43
 90
        3
102
RTVSPost2010PropOp43
 70
     1
102
RTVSPost2010Prop44ColorIndex
 90
        5
102
RTVSPost2010Prop44ColorRGB
 90
      255
102
RTVSPost2010PropOp44
 70
     1
102
RTVSPost2010Prop45
280
     0
102
RTVSPost2010PropOp45
 70
     1
102
RTVSPost2010Prop46
 90
       50
102
RTVSPost2010PropOp46
 70
     1
102
RTVSPost2010Prop47
 90
       50
102
RTVSPost2010PropOp47
 70
     1
102
RTVSPost2010Prop48
 90
       50
102
RTVSPost2010PropOp48
 70
     1
102
RTVSPost2010Prop49
280
     0
102
RTVSPost2010PropOp49
 70
     1
102
RTVSPost2010Prop50
 90
       50
102
RTVSPost2010PropOp50
 70
     1
102
RTVSPost2010Prop51ColorIndex
 90
      256
102
RTVSPost2010Prop51ColorRGB
 90
-16777216
102
RTVSPost2010PropOp51
 70
     0
102
RTVSPost2010Prop52
140
1.0
102
RTVSPost2010PropOp52
 70
     0
102
RTVSPost2010Prop53
 90
        2
102
RTVSPost2010PropOp53
 70
     1
102
RTVSPost2010Prop54
  1
strokes_ogs.tif
102
RTVSPost2010PropOp54
 70
     1
102
RTVSPost2010Prop55
280
     0
102
RTVSPost2010PropOp55
 70
     1
102
RTVSPost2010Prop56
140
1.0
102
RTVSPost2010PropOp56
 70
     1
102
RTVSPost2010Prop57
140
1.0
102
RTVSPost2010PropOp57
 70
     1
102
RTVSPropertyOp0
 70
     1
102
RTVSPropertyOp1
 70
     1
102
RTVSPropertyOp2
 70
     1
102
RTVSPropertyOp3
 70
     1
102
RTVSPropertyOp4
 70
     1
102
RTVSPropertyOp5
 70
     1
102
RTVSPropertyOp6
 70
     1
102
RTVSPropertyOp7
 70
     1
102
RTVSPropertyOp8
 70
     1
102
RTVSPropertyOp9
 70
     1
102
RTVSPropertyOp10
 70
     1
102
RTVSPropertyOp11
 70
     1
102
RTVSPropertyOp12
 70
     1
102
RTVSPropertyOp13
 70
     1
102
RTVSPropertyOp14
 70
     1
102
RTVSPropertyOp15
 70
     1
102
RTVSPropertyOp16
 70
     1
102
RTVSPropertyOp17
 70
     1
102
RTVSPropertyOp18
 70
     1
102
RTVSPropertyOp19
 70
     1
102
RTVSPropertyOp20
 70
     1
102
RTVSPropertyOp21
 70
     1
102
RTVSPropertyOp22
 70
     1
102
RTVSPropertyOp23
 70
     1
102
RTVSPropertyOp24
 70
     1
102
RTVSPropertyOp25
 70
     1
102
RTVSPropertyOp26
 70
     1
102
RTVSPropertyOp27
 70
     1
102
RTVSPropertyOp28
 70
     1
102
RTVSPropertyOp29
 70
     1
102
RTVSPropertyOp30
 70
     1
102
RTVSPropertyOp31
 70
     1
102
RTVSPropertyOp32
 70
     1
102
RTVSPropertyOp33
 70
     1
102
RTVSPropertyOp34
 70
     1
102
RTVSPropertyOp35
 70
     1
102
RTVSPropertyOp36
 70
     1
102
RTVSPropertyOp37
 70
     1
102
RTVSPropertyOp38
 70
     1
102
RTVSPropertyOp39
 70
     1
102
RTVSPropertyOp40
 70
     1
102
RTVSPropertyOp41
 70
     1
102
RTVSPropertyOp42
 70
     1
102
RTVSPropertyOp43
 70
     1
102
RTVSPropertyOp44
 70
     1
102
RTVSPropertyOp45
 70
     1
102
RTVSPropertyOp46
 70
     1
102
RTVSPropertyOp47
 70
     1
102
RTVSPropertyOp48
 70
     1
102
RTVSPropertyOp49
 70
     1
102
RTVSPropertyOp50
 70
     1
102
RTVSPropertyOp51
 70
     0
102
RTVSPropertyOp52
 70
     0
102
RTVSPropertyOp53
 70
     1
102
RTVSPropertyOp54
 70
     1
102
RTVSPropertyOp55
 70
     1
102
RTVSPropertyOp56
 70
     1
102
RTVSPropertyOp57
 70
     1
102
RTVSPropertyOp58
 70
     1
102
RTVSPropertyOp59
 70
     1
102
RTVSPropertyOp60
 70
     1
102
RTVSPropertyOp61
 70
     1
102
RTVSPropertyOp62
 70
     1
  0
ENDSEC
  0
EOF
