  0
SECTION
  2
HEADER
  9
$ACADVER
  1
AC1018
  9
$ACADMAINTVER
 70
     0
  9
$DWGCODEPAGE
  3
ANSI_1252
  9
$LASTSAVEDBY
  1
belottimc
  9
$INSBASE
 10
0.0
 20
0.0
 30
0.0
  9
$EXTMIN
 10
238.3143310546875
 20
419.1548589828757
 30
0.0
  9
$EXTMAX
 10
1235.946149663612
 20
1282.990254581906
 30
0.0
  9
$LIMMIN
 10
0.0
 20
0.0
  9
$LIMMAX
 10
420.0
 20
297.0
  9
$ORTHOMODE
 70
     0
  9
$REGENMODE
 70
     1
  9
$FILLMODE
 70
     1
  9
$QTEXTMODE
 70
     0
  9
$MIRRTEXT
 70
     1
  9
$LTSCALE
 40
1.0
  9
$ATTMODE
 70
     1
  9
$TEXTSIZE
 40
2.5
  9
$TRACEWID
 40
1.0
  9
$TEXTSTYLE
  7
Standard
  9
$CLAYER
  8
0
  9
$CELTYPE
  6
ByLayer
  9
$CECOLOR
 62
   256
  9
$CELTSCALE
 40
1.0
  9
$DISPSILH
 70
     0
  9
$DIMSCALE
 40
1.0
  9
$DIMASZ
 40
2.5
  9
$DIMEXO
 40
0.625
  9
$DIMDLI
 40
3.75
  9
$DIMRND
 40
0.0
  9
$DIMDLE
 40
0.0
  9
$DIMEXE
 40
1.25
  9
$DIMTP
 40
0.0
  9
$DIMTM
 40
0.0
  9
$DIMTXT
 40
2.5
  9
$DIMCEN
 40
2.5
  9
$DIMTSZ
 40
0.0
  9
$DIMTOL
 70
     0
  9
$DIMLIM
 70
     0
  9
$DIMTIH
 70
     0
  9
$DIMTOH
 70
     0
  9
$DIMSE1
 70
     0
  9
$DIMSE2
 70
     0
  9
$DIMTAD
 70
     1
  9
$DIMZIN
 70
     8
  9
$DIMBLK
  1

  9
$DIMASO
 70
     1
  9
$DIMSHO
 70
     1
  9
$DIMPOST
  1

  9
$DIMAPOST
  1

  9
$DIMALT
 70
     0
  9
$DIMALTD
 70
     3
  9
$DIMALTF
 40
0.03937007874016
  9
$DIMLFAC
 40
1.0
  9
$DIMTOFL
 70
     1
  9
$DIMTVP
 40
0.0
  9
$DIMTIX
 70
     0
  9
$DIMSOXD
 70
     0
  9
$DIMSAH
 70
     0
  9
$DIMBLK1
  1

  9
$DIMBLK2
  1

  9
$DIMSTYLE
  2
Standard
  9
$DIMCLRD
 70
     0
  9
$DIMCLRE
 70
     0
  9
$DIMCLRT
 70
     0
  9
$DIMTFAC
 40
1.0
  9
$DIMGAP
 40
0.625
  9
$DIMJUST
 70
     0
  9
$DIMSD1
 70
     0
  9
$DIMSD2
 70
     0
  9
$DIMTOLJ
 70
     0
  9
$DIMTZIN
 70
     8
  9
$DIMALTZ
 70
     0
  9
$DIMALTTZ
 70
     0
  9
$DIMUPT
 70
     0
  9
$DIMDEC
 70
     2
  9
$DIMTDEC
 70
     2
  9
$DIMALTU
 70
     2
  9
$DIMALTTD
 70
     3
  9
$DIMTXSTY
  7
Standard
  9
$DIMAUNIT
 70
     0
  9
$DIMADEC
 70
     0
  9
$DIMALTRND
 40
0.0
  9
$DIMAZIN
 70
     0
  9
$DIMDSEP
 70
    44
  9
$DIMATFIT
 70
     0
  9
$DIMFRAC
 70
     0
  9
$DIMLDRBLK
  1

  9
$DIMLUNIT
 70
     2
  9
$DIMLWD
 70
    -2
  9
$DIMLWE
 70
    -2
  9
$DIMTMOVE
 70
     0
  9
$LUNITS
 70
     2
  9
$LUPREC
 70
     4
  9
$SKETCHINC
 40
1.0
  9
$FILLETRAD
 40
2.5
  9
$AUNITS
 70
     0
  9
$AUPREC
 70
     0
  9
$MENU
  1
.
  9
$ELEVATION
 40
0.0
  9
$PELEVATION
 40
0.0
  9
$THICKNESS
 40
0.0
  9
$LIMCHECK
 70
     0
  9
$CHAMFERA
 40
2.5
  9
$CHAMFERB
 40
2.5
  9
$CHAMFERC
 40
0.0
  9
$CHAMFERD
 40
0.0
  9
$SKPOLY
 70
     0
  9
$TDCREATE
 40
2447893.041666644
  9
$TDUCREATE
 40
2447892.999999977
  9
$TDUPDATE
 40
2447893.041666667
  9
$TDUUPDATE
 40
2447893.0
  9
$TDINDWG
 40
0.0096527662
  9
$TDUSRTIMER
 40
0.0096527662
  9
$USRTIMER
 70
     1
  9
$ANGBASE
 50
0.0
  9
$ANGDIR
 70
     0
  9
$PDMODE
 70
     0
  9
$PDSIZE
 40
0.0
  9
$PLINEWID
 40
0.0
  9
$SPLFRAME
 70
     0
  9
$SPLINETYPE
 70
     6
  9
$SPLINESEGS
 70
     8
  9
$HANDSEED
  5
99E
  9
$SURFTAB1
 70
     6
  9
$SURFTAB2
 70
     6
  9
$SURFTYPE
 70
     6
  9
$SURFU
 70
     6
  9
$SURFV
 70
     6
  9
$UCSBASE
  2

  9
$UCSNAME
  2

  9
$UCSORG
 10
0.0
 20
0.0
 30
0.0
  9
$UCSXDIR
 10
1.0
 20
0.0
 30
0.0
  9
$UCSYDIR
 10
0.0
 20
1.0
 30
0.0
  9
$UCSORTHOREF
  2

  9
$UCSORTHOVIEW
 70
     0
  9
$UCSORGTOP
 10
0.0
 20
0.0
 30
0.0
  9
$UCSORGBOTTOM
 10
0.0
 20
0.0
 30
0.0
  9
$UCSORGLEFT
 10
0.0
 20
0.0
 30
0.0
  9
$UCSORGRIGHT
 10
0.0
 20
0.0
 30
0.0
  9
$UCSORGFRONT
 10
0.0
 20
0.0
 30
0.0
  9
$UCSORGBACK
 10
0.0
 20
0.0
 30
0.0
  9
$PUCSBASE
  2

  9
$PUCSNAME
  2

  9
$PUCSORG
 10
0.0
 20
0.0
 30
0.0
  9
$PUCSXDIR
 10
1.0
 20
0.0
 30
0.0
  9
$PUCSYDIR
 10
0.0
 20
1.0
 30
0.0
  9
$PUCSORTHOREF
  2

  9
$PUCSORTHOVIEW
 70
     0
  9
$PUCSORGTOP
 10
0.0
 20
0.0
 30
0.0
  9
$PUCSORGBOTTOM
 10
0.0
 20
0.0
 30
0.0
  9
$PUCSORGLEFT
 10
0.0
 20
0.0
 30
0.0
  9
$PUCSORGRIGHT
 10
0.0
 20
0.0
 30
0.0
  9
$PUCSORGFRONT
 10
0.0
 20
0.0
 30
0.0
  9
$PUCSORGBACK
 10
0.0
 20
0.0
 30
0.0
  9
$USERI1
 70
     0
  9
$USERI2
 70
     0
  9
$USERI3
 70
     0
  9
$USERI4
 70
     0
  9
$USERI5
 70
     0
  9
$USERR1
 40
0.0
  9
$USERR2
 40
0.0
  9
$USERR3
 40
0.0
  9
$USERR4
 40
0.0
  9
$USERR5
 40
0.0
  9
$WORLDVIEW
 70
     1
  9
$SHADEDGE
 70
     3
  9
$SHADEDIF
 70
    70
  9
$TILEMODE
 70
     1
  9
$MAXACTVP
 70
    48
  9
$PINSBASE
 10
0.0
 20
0.0
 30
0.0
  9
$PLIMCHECK
 70
     0
  9
$PEXTMIN
 10
0.0
 20
0.0
 30
0.0
  9
$PEXTMAX
 10
960.1931762695312
 20
745.2379760742188
 30
2.0
  9
$PLIMMIN
 10
0.0
 20
0.0
  9
$PLIMMAX
 10
420.0
 20
297.0
  9
$UNITMODE
 70
     0
  9
$VISRETAIN
 70
     0
  9
$PLINEGEN
 70
     0
  9
$PSLTSCALE
 70
     1
  9
$TREEDEPTH
 70
  3020
  9
$CMLSTYLE
  2
Standard
  9
$CMLJUST
 70
     0
  9
$CMLSCALE
 40
20.0
  9
$PROXYGRAPHICS
 70
     1
  9
$MEASUREMENT
 70
     1
  9
$CELWEIGHT
370
    -1
  9
$ENDCAPS
280
     0
  9
$JOINSTYLE
280
     0
  9
$LWDISPLAY
290
     0
  9
$INSUNITS
 70
     0
  9
$HYPERLINKBASE
  1

  9
$STYLESHEET
  1

  9
$XEDIT
290
     1
  9
$CEPSNTYPE
380
     0
  9
$PSTYLEMODE
290
     0
  9
$FINGERPRINTGUID
  2

  9
$VERSIONGUID
  2

  9
$EXTNAMES
290
     1
  9
$PSVPSCALE
 40
0.0
  9
$OLESTARTUP
290
     0
  9
$SORTENTS
280
   127
  9
$INDEXCTL
280
     0
  9
$HIDETEXT
280
     1
  9
$XCLIPFRAME
290
     0
  9
$HALOGAP
280
     0
  9
$OBSCOLOR
 70
   257
  9
$OBSLTYPE
280
     0
  9
$INTERSECTIONDISPLAY
280
     0
  9
$INTERSECTIONCOLOR
 70
   257
  9
$DIMASSOC
280
     2
  9
$PROJECTNAME
  1

  0
ENDSEC
  0
SECTION
  2
CLASSES
  0
CLASS
  1
ACDBDICTIONARYWDFLT
  2
AcDbDictionaryWithDefault
  3
ObjectDBX Classes
 90
        0
 91
        4
280
     0
281
     0
  0
CLASS
  1
ACDBPLACEHOLDER
  2
AcDbPlaceHolder
  3
ObjectDBX Classes
 90
        0
 91
        1
280
     0
281
     0
  0
CLASS
  1
LAYOUT
  2
AcDbLayout
  3
ObjectDBX Classes
 90
        0
 91
        1
280
     0
281
     0
  0
CLASS
  1
DICTIONARYVAR
  2
AcDbDictionaryVar
  3
ObjectDBX Classes
 90
        0
 91
        4
280
     0
281
     0
  0
CLASS
  1
TABLESTYLE
  2
AcDbTableStyle
  3
ObjectDBX Classes
 90
     4095
 91
        5
280
     0
281
     0
  0
CLASS
  1
SCALE
  2
AcDbScale
  3
ObjectDBX Classes
 90
     1153
 91
       70
280
     0
281
     0
  0
CLASS
  1
WIPEOUTVARIABLES
  2
AcDbWipeoutVariables
  3
WipeOut|AutoCAD Express Tool|expresstools@autodesk.com
 90
        0
 91
        4
280
     0
281
     0
  0
ENDSEC
  0
SECTION
  2
TABLES
  0
TABLE
  2
VPORT
  5
8
330
0
100
AcDbSymbolTable
 70
     2
  0
VPORT
  5
97
330
8
100
AcDbSymbolTableRecord
100
AcDbViewportTableRecord
  2
*ACTIVE
 70
     0
 10
0.0
 20
0.0
 11
1.0
 21
1.0
 12
783.0341387030553
 22
887.7221649083632
 13
0.0
 23
0.0
 14
1.0
 24
1.0
 15
0.5
 25
0.5
 16
0.0
 26
0.0
 36
1.0
 17
0.0
 27
0.0
 37
0.0
 40
1812.222025921166
 41
0.688564
 42
50.0
 43
0.0
 44
0.0
 50
0.0
 51
0.0
 71
     0
 72
   100
 73
     1
 74
     1
 75
     0
 76
     0
 77
     0
 78
     0
281
     0
 65
     1
110
0.0
120
0.0
130
0.0
111
1.0
121
0.0
131
0.0
112
0.0
122
1.0
132
0.0
 79
     0
146
0.0
  0
ENDTAB
  0
TABLE
  2
LTYPE
  5
5
330
0
100
AcDbSymbolTable
 70
     2
  0
LTYPE
  5
14
330
5
100
AcDbSymbolTableRecord
100
AcDbLinetypeTableRecord
  2
ByBlock
 70
     0
  3

 72
    65
 73
     0
 40
0.0
  0
LTYPE
  5
15
330
5
100
AcDbSymbolTableRecord
100
AcDbLinetypeTableRecord
  2
ByLayer
 70
     0
  3

 72
    65
 73
     0
 40
0.0
  0
LTYPE
  5
16
330
5
100
AcDbSymbolTableRecord
100
AcDbLinetypeTableRecord
  2
Continuous
 70
     0
  3
Solid line
 72
    65
 73
     0
 40
0.0
  0
LTYPE
  5
97E
330
5
100
AcDbSymbolTableRecord
100
AcDbLinetypeTableRecord
  2
DASHDOT
 70
     0
  3
 __ . __ . __ . __ . __ . __ . __ . 
 72
    65
 73
     4
 40
18.5
 49
12.0
 74
     0
 49
-3.0
 74
     0
 49
0.5
 74
     0
 49
-3.0
 74
     0
  0
ENDTAB
  0
TABLE
  2
LAYER
  5
2
330
0
100
AcDbSymbolTable
 70
     2
  0
LAYER
  5
10
330
2
100
AcDbSymbolTableRecord
100
AcDbLayerTableRecord
  2
0
 70
     0
 62
     7
  6
Continuous
370
    -3
390
F
  0
LAYER
  5
8D8
330
2
100
AcDbSymbolTableRecord
100
AcDbLayerTableRecord
  2
DEFPOINTS
 70
     0
 62
     7
  6
Continuous
290
     0
370
    -3
390
F
  0
ENDTAB
  0
TABLE
  2
STYLE
  5
3
330
0
100
AcDbSymbolTable
 70
     1
  0
STYLE
  5
11
330
3
100
AcDbSymbolTableRecord
100
AcDbTextStyleTableRecord
  2
Standard
 70
     0
 40
0.0
 41
1.0
 50
0.0
 71
     0
 42
2.5
  3
txt
  4

  0
ENDTAB
  0
TABLE
  2
VIEW
  5
6
330
0
100
AcDbSymbolTable
 70
     0
  0
ENDTAB
  0
TABLE
  2
UCS
  5
7
330
0
100
AcDbSymbolTable
 70
     0
  0
ENDTAB
  0
TABLE
  2
APPID
  5
9
330
0
100
AcDbSymbolTable
 70
     1
  0
APPID
  5
12
330
9
100
AcDbSymbolTableRecord
100
AcDbRegAppTableRecord
  2
ACAD
 70
     0
  0
ENDTAB
  0
TABLE
  2
DIMSTYLE
  5
A
330
0
100
AcDbSymbolTable
 70
     1
100
AcDbDimStyleTable
  0
DIMSTYLE
105
27
102
{ACAD_REACTORS
330
8D9
330
8FB
330
933
102
}
330
A
100
AcDbSymbolTableRecord
100
AcDbDimStyleTableRecord
  2
Standard
 70
     0
340
11
  0
ENDTAB
  0
TABLE
  2
BLOCK_RECORD
  5
1
330
0
100
AcDbSymbolTable
 70
    14
  0
BLOCK_RECORD
  5
1F
330
1
100
AcDbSymbolTableRecord
100
AcDbBlockTableRecord
  2
*Model_Space
340
22
  0
BLOCK_RECORD
  5
73
330
1
100
AcDbSymbolTableRecord
100
AcDbBlockTableRecord
  2
*Paper_Space
340
74
  0
BLOCK_RECORD
  5
8E4
330
1
100
AcDbSymbolTableRecord
100
AcDbBlockTableRecord
  2
*D0
340
0
  0
BLOCK_RECORD
  5
8EF
330
1
100
AcDbSymbolTableRecord
100
AcDbBlockTableRecord
  2
*D1
340
0
  0
BLOCK_RECORD
  5
8FA
330
1
100
AcDbSymbolTableRecord
100
AcDbBlockTableRecord
  2
*D2
340
0
  0
BLOCK_RECORD
  5
906
330
1
100
AcDbSymbolTableRecord
100
AcDbBlockTableRecord
  2
*D3
340
0
  0
BLOCK_RECORD
  5
911
330
1
100
AcDbSymbolTableRecord
100
AcDbBlockTableRecord
  2
*D4
340
0
  0
BLOCK_RECORD
  5
91C
330
1
100
AcDbSymbolTableRecord
100
AcDbBlockTableRecord
  2
*D5
340
0
  0
BLOCK_RECORD
  5
927
330
1
100
AcDbSymbolTableRecord
100
AcDbBlockTableRecord
  2
*D6
340
0
  0
BLOCK_RECORD
  5
932
330
1
100
AcDbSymbolTableRecord
100
AcDbBlockTableRecord
  2
*D7
340
0
  0
BLOCK_RECORD
  5
93E
330
1
100
AcDbSymbolTableRecord
100
AcDbBlockTableRecord
  2
*D8
340
0
  0
BLOCK_RECORD
  5
94B
330
1
100
AcDbSymbolTableRecord
100
AcDbBlockTableRecord
  2
*D9
340
0
  0
BLOCK_RECORD
  5
957
330
1
100
AcDbSymbolTableRecord
100
AcDbBlockTableRecord
  2
*D10
340
0
  0
BLOCK_RECORD
  5
963
330
1
100
AcDbSymbolTableRecord
100
AcDbBlockTableRecord
  2
*D11
340
0
  0
BLOCK_RECORD
  5
96F
330
1
100
AcDbSymbolTableRecord
100
AcDbBlockTableRecord
  2
*D12
340
0
  0
BLOCK_RECORD
  5
97B
330
1
100
AcDbSymbolTableRecord
100
AcDbBlockTableRecord
  2
*D13
340
0
  0
ENDTAB
  0
ENDSEC
  0
SECTION
  2
BLOCKS
  0
BLOCK
  5
20
330
1F
100
AcDbEntity
  8
0
100
AcDbBlockBegin
  2
*Model_Space
 70
     0
 10
0.0
 20
0.0
 30
0.0
  3
*Model_Space
  1

  0
ENDBLK
  5
21
330
1F
100
AcDbEntity
  8
0
100
AcDbBlockEnd
  0
BLOCK
  5
75
330
73
100
AcDbEntity
 67
     1
  8
0
100
AcDbBlockBegin
  2
*Paper_Space
 70
     0
 10
0.0
 20
0.0
 30
0.0
  3
*Paper_Space
  1

  0
ENDBLK
  5
76
330
73
100
AcDbEntity
 67
     1
  8
0
100
AcDbBlockEnd
  0
BLOCK
  5
980
330
8E4
100
AcDbEntity
  8
0
100
AcDbBlockBegin
  2
*D0
 70
     1
 10
0.0
 20
0.0
 30
0.0
  3
*D0
  1

  0
POINT
  5
8DB
330
8E4
100
AcDbEntity
  8
DEFPOINTS
  6
ByBlock
 62
     0
380
     1
100
AcDbPoint
 10
238.3143310546876
 20
1044.558858008396
 30
0.0
  0
POINT
  5
8DC
330
8E4
100
AcDbEntity
  8
DEFPOINTS
  6
ByBlock
 62
     0
380
     1
100
AcDbPoint
 10
960.1931762695314
 20
1044.558858008396
 30
0.0
  0
LINE
  5
8DD
330
8E4
100
AcDbEntity
  8
0
  6
ByBlock
 62
     0
370
    -2
380
     1
100
AcDbLine
 10
238.3143310546876
 20
1045.183858008396
 30
0.0
 11
238.3143310546876
 21
1238.240254581906
 31
0.0
  0
LINE
  5
8DE
330
8E4
100
AcDbEntity
  8
0
  6
ByBlock
 62
     0
370
    -2
380
     1
100
AcDbLine
 10
960.1931762695314
 20
1045.183858008396
 30
0.0
 11
960.1931762695314
 21
1238.240254581906
 31
0.0
  0
LINE
  5
8DF
330
8E4
100
AcDbEntity
  8
0
  6
ByBlock
 62
     0
370
    -2
380
     1
100
AcDbLine
 10
240.8143310546876
 20
1236.990254581906
 30
0.0
 11
957.6931762695314
 21
1236.990254581906
 31
0.0
  0
SOLID
  5
8E0
330
8E4
100
AcDbEntity
  8
0
  6
ByBlock
 62
     0
380
     1
100
AcDbTrace
 10
238.3143310546876
 20
1236.990254581906
 30
0.0
 11
240.8143310546876
 21
1236.573587915239
 31
0.0
 12
240.8143310546876
 22
1237.406921248573
 32
0.0
 13
240.8143310546876
 23
1237.406921248573
 33
0.0
  0
SOLID
  5
8E1
330
8E4
100
AcDbEntity
  8
0
  6
ByBlock
 62
     0
380
     1
100
AcDbTrace
 10
960.1931762695314
 20
1236.990254581906
 30
0.0
 11
957.6931762695314
 21
1236.573587915239
 31
0.0
 12
957.6931762695314
 22
1237.406921248573
 32
0.0
 13
957.6931762695314
 23
1237.406921248573
 33
0.0
  0
MTEXT
  5
8E2
330
8E4
100
AcDbEntity
  8
0
  6
ByBlock
 62
     0
370
    -2
380
     1
100
AcDbMText
 10
599.2537536621095
 20
1239.073587915239
 30
0.0
 40
2.5
 41
0.0
 71
     5
 72
     1
  1
\A1;721,88
 73
     1
 44
1.0
  0
ENDBLK
  5
981
330
8E4
100
AcDbEntity
  8
0
100
AcDbBlockEnd
  0
BLOCK
  5
982
330
8EF
100
AcDbEntity
  8
0
100
AcDbBlockBegin
  2
*D1
 70
     1
 10
0.0
 20
0.0
 30
0.0
  3
*D1
  1

  0
POINT
  5
8E6
330
8EF
100
AcDbEntity
  8
DEFPOINTS
  6
ByBlock
 62
     0
380
     1
100
AcDbPoint
 10
238.3143310546876
 20
1044.558858008396
 30
0.0
  0
POINT
  5
8E7
330
8EF
100
AcDbEntity
  8
DEFPOINTS
  6
ByBlock
 62
     0
380
     1
100
AcDbPoint
 10
960.1931762695314
 20
1044.558858008396
 30
0.0
  0
LINE
  5
8E8
330
8EF
100
AcDbEntity
  8
0
  6
ByBlock
 62
     0
370
    -2
380
     1
100
AcDbLine
 10
238.3143310546876
 20
1045.183858008396
 30
0.0
 11
238.3143310546876
 21
1238.240254581906
 31
0.0
  0
LINE
  5
8E9
330
8EF
100
AcDbEntity
  8
0
  6
ByBlock
 62
     0
370
    -2
380
     1
100
AcDbLine
 10
960.1931762695314
 20
1045.183858008396
 30
0.0
 11
960.1931762695314
 21
1238.240254581906
 31
0.0
  0
LINE
  5
8EA
330
8EF
100
AcDbEntity
  8
0
  6
ByBlock
 62
     0
370
    -2
380
     1
100
AcDbLine
 10
248.3143310546876
 20
1236.990254581906
 30
0.0
 11
950.1931762695314
 21
1236.990254581906
 31
0.0
  0
SOLID
  5
8EB
330
8EF
100
AcDbEntity
  8
0
  6
ByBlock
 62
     0
380
     1
100
AcDbTrace
 10
238.3143310546876
 20
1236.990254581906
 30
0.0
 11
248.3143310546876
 21
1235.323587915239
 31
0.0
 12
248.3143310546876
 22
1238.656921248573
 32
0.0
 13
248.3143310546876
 23
1238.656921248573
 33
0.0
  0
SOLID
  5
8EC
330
8EF
100
AcDbEntity
  8
0
  6
ByBlock
 62
     0
380
     1
100
AcDbTrace
 10
960.1931762695314
 20
1236.990254581906
 30
0.0
 11
950.1931762695314
 21
1235.323587915239
 31
0.0
 12
950.1931762695314
 22
1238.656921248573
 32
0.0
 13
950.1931762695314
 23
1238.656921248573
 33
0.0
  0
MTEXT
  5
8ED
330
8EF
100
AcDbEntity
  8
0
  6
ByBlock
 62
     0
370
    -2
380
     1
100
AcDbMText
 10
599.2537536621095
 20
1264.990254581906
 30
0.0
 40
36.0
 41
0.0
 71
     5
 72
     1
  1
\A1;722
 73
     1
 44
1.0
  0
ENDBLK
  5
983
330
8EF
100
AcDbEntity
  8
0
100
AcDbBlockEnd
  0
BLOCK
  5
984
330
8FA
100
AcDbEntity
  8
0
100
AcDbBlockBegin
  2
*D2
 70
     1
 10
0.0
 20
0.0
 30
0.0
  3
*D2
  1

  0
POINT
  5
8F1
330
8FA
100
AcDbEntity
  8
DEFPOINTS
  6
ByBlock
 62
     0
380
     1
100
AcDbPoint
 10
238.3143310546876
 20
1044.558858008396
 30
0.0
  0
POINT
  5
8F2
330
8FA
100
AcDbEntity
  8
DEFPOINTS
  6
ByBlock
 62
     0
380
     1
100
AcDbPoint
 10
960.1931762695314
 20
1044.558858008396
 30
0.0
  0
LINE
  5
8F3
330
8FA
100
AcDbEntity
  8
0
  6
ByBlock
 62
     0
370
    -2
380
     1
100
AcDbLine
 10
238.3143310546876
 20
1045.183858008396
 30
0.0
 11
238.3143310546876
 21
1238.240254581906
 31
0.0
  0
LINE
  5
8F4
330
8FA
100
AcDbEntity
  8
0
  6
ByBlock
 62
     0
370
    -2
380
     1
100
AcDbLine
 10
960.1931762695314
 20
1045.183858008396
 30
0.0
 11
960.1931762695314
 21
1238.240254581906
 31
0.0
  0
LINE
  5
8F5
330
8FA
100
AcDbEntity
  8
0
  6
ByBlock
 62
     0
370
    -2
380
     1
100
AcDbLine
 10
248.3143310546876
 20
1236.990254581906
 30
0.0
 11
950.1931762695314
 21
1236.990254581906
 31
0.0
  0
SOLID
  5
8F6
330
8FA
100
AcDbEntity
  8
0
  6
ByBlock
 62
     0
380
     1
100
AcDbTrace
 10
238.3143310546876
 20
1236.990254581906
 30
0.0
 11
248.3143310546876
 21
1235.323587915239
 31
0.0
 12
248.3143310546876
 22
1238.656921248573
 32
0.0
 13
248.3143310546876
 23
1238.656921248573
 33
0.0
  0
SOLID
  5
8F7
330
8FA
100
AcDbEntity
  8
0
  6
ByBlock
 62
     0
380
     1
100
AcDbTrace
 10
960.1931762695314
 20
1236.990254581906
 30
0.0
 11
950.1931762695314
 21
1235.323587915239
 31
0.0
 12
950.1931762695314
 22
1238.656921248573
 32
0.0
 13
950.1931762695314
 23
1238.656921248573
 33
0.0
  0
MTEXT
  5
8F8
330
8FA
100
AcDbEntity
  8
0
  6
ByBlock
 62
     0
370
    -2
380
     1
100
AcDbMText
 10
599.2537536621095
 20
1264.990254581906
 30
0.0
 40
36.0
 41
0.0
 71
     5
 72
     1
  1
\A1;722
 73
     1
 44
1.0
  0
ENDBLK
  5
985
330
8FA
100
AcDbEntity
  8
0
100
AcDbBlockEnd
  0
BLOCK
  5
986
330
906
100
AcDbEntity
  8
0
100
AcDbBlockBegin
  2
*D3
 70
     1
 10
0.0
 20
0.0
 30
0.0
  3
*D3
  1

  0
POINT
  5
8FD
330
906
100
AcDbEntity
  8
DEFPOINTS
  6
ByBlock
 62
     0
380
     1
100
AcDbPoint
 10
957.6931762695314
 20
1200.058858008396
 30
0.0
  0
POINT
  5
8FE
330
906
100
AcDbEntity
  8
DEFPOINTS
  6
ByBlock
 62
     0
380
     1
100
AcDbPoint
 10
599.2537536621095
 20
896.558858008396
 30
0.0
  0
LINE
  5
8FF
330
906
100
AcDbEntity
  8
0
  6
ByBlock
 62
     0
370
    -2
380
     1
100
AcDbLine
 10
958.3181762695314
 20
1200.058858008396
 30
0.0
 11
1019.592428796913
 21
1200.058858008396
 31
0.0
  0
LINE
  5
900
330
906
100
AcDbEntity
  8
0
  6
ByBlock
 62
     0
370
    -2
380
     1
100
AcDbLine
 10
599.8787536621095
 20
896.558858008396
 30
0.0
 11
1019.592428796913
 21
896.558858008396
 31
0.0
  0
LINE
  5
901
330
906
100
AcDbEntity
  8
0
  6
ByBlock
 62
     0
370
    -2
380
     1
100
AcDbLine
 10
1018.342428796913
 20
1197.558858008396
 30
0.0
 11
1018.342428796913
 21
899.058858008396
 31
0.0
  0
SOLID
  5
902
330
906
100
AcDbEntity
  8
0
  6
ByBlock
 62
     0
380
     1
100
AcDbTrace
 10
1018.342428796913
 20
1200.058858008396
 30
0.0
 11
1017.925762130246
 21
1197.558858008396
 31
0.0
 12
1018.759095463579
 22
1197.558858008396
 32
0.0
 13
1018.759095463579
 23
1197.558858008396
 33
0.0
  0
SOLID
  5
903
330
906
100
AcDbEntity
  8
0
  6
ByBlock
 62
     0
380
     1
100
AcDbTrace
 10
1018.342428796913
 20
896.558858008396
 30
0.0
 11
1017.925762130246
 21
899.058858008396
 31
0.0
 12
1018.759095463579
 22
899.058858008396
 32
0.0
 13
1018.759095463579
 23
899.058858008396
 33
0.0
  0
MTEXT
  5
904
330
906
100
AcDbEntity
  8
0
  6
ByBlock
 62
     0
370
    -2
380
     1
100
AcDbMText
 10
1016.259095463579
 20
1048.308858008396
 30
0.0
 40
2.5
 41
0.0
 71
     5
 72
     1
  1
\A1;303,5
 11
6.123031769111886E-17
 21
1.0
 31
0.0
 73
     1
 44
1.0
  0
ENDBLK
  5
987
330
906
100
AcDbEntity
  8
0
100
AcDbBlockEnd
  0
BLOCK
  5
988
330
911
100
AcDbEntity
  8
0
100
AcDbBlockBegin
  2
*D4
 70
     1
 10
0.0
 20
0.0
 30
0.0
  3
*D4
  1

  0
POINT
  5
908
330
911
100
AcDbEntity
  8
DEFPOINTS
  6
ByBlock
 62
     0
380
     1
100
AcDbPoint
 10
957.6931762695314
 20
1200.058858008396
 30
0.0
  0
POINT
  5
909
330
911
100
AcDbEntity
  8
DEFPOINTS
  6
ByBlock
 62
     0
380
     1
100
AcDbPoint
 10
599.2537536621095
 20
896.558858008396
 30
0.0
  0
LINE
  5
90A
330
911
100
AcDbEntity
  8
0
  6
ByBlock
 62
     0
370
    -2
380
     1
100
AcDbLine
 10
958.3181762695314
 20
1200.058858008396
 30
0.0
 11
1019.592428796913
 21
1200.058858008396
 31
0.0
  0
LINE
  5
90B
330
911
100
AcDbEntity
  8
0
  6
ByBlock
 62
     0
370
    -2
380
     1
100
AcDbLine
 10
599.8787536621095
 20
896.558858008396
 30
0.0
 11
1019.592428796913
 21
896.558858008396
 31
0.0
  0
LINE
  5
90C
330
911
100
AcDbEntity
  8
0
  6
ByBlock
 62
     0
370
    -2
380
     1
100
AcDbLine
 10
1018.342428796913
 20
1190.058858008396
 30
0.0
 11
1018.342428796913
 21
906.558858008396
 31
0.0
  0
SOLID
  5
90D
330
911
100
AcDbEntity
  8
0
  6
ByBlock
 62
     0
380
     1
100
AcDbTrace
 10
1018.342428796913
 20
1200.058858008396
 30
0.0
 11
1016.675762130246
 21
1190.058858008396
 31
0.0
 12
1020.009095463579
 22
1190.058858008396
 32
0.0
 13
1020.009095463579
 23
1190.058858008396
 33
0.0
  0
SOLID
  5
90E
330
911
100
AcDbEntity
  8
0
  6
ByBlock
 62
     0
380
     1
100
AcDbTrace
 10
1018.342428796913
 20
896.558858008396
 30
0.0
 11
1016.675762130246
 21
906.558858008396
 31
0.0
 12
1020.009095463579
 22
906.558858008396
 32
0.0
 13
1020.009095463579
 23
906.558858008396
 33
0.0
  0
MTEXT
  5
90F
330
911
100
AcDbEntity
  8
0
  6
ByBlock
 62
     0
370
    -2
380
     1
100
AcDbMText
 10
990.3424287969126
 20
1048.308858008396
 30
0.0
 40
36.0
 41
0.0
 71
     5
 72
     1
  1
\A1;303
 11
6.123031769111886E-17
 21
1.0
 31
0.0
 73
     1
 44
1.0
  0
ENDBLK
  5
989
330
911
100
AcDbEntity
  8
0
100
AcDbBlockEnd
  0
BLOCK
  5
98A
330
91C
100
AcDbEntity
  8
0
100
AcDbBlockBegin
  2
*D5
 70
     1
 10
0.0
 20
0.0
 30
0.0
  3
*D5
  1

  0
POINT
  5
913
330
91C
100
AcDbEntity
  8
DEFPOINTS
  6
ByBlock
 62
     0
380
     1
100
AcDbPoint
 10
957.6931762695314
 20
1200.058858008396
 30
0.0
  0
POINT
  5
914
330
91C
100
AcDbEntity
  8
DEFPOINTS
  6
ByBlock
 62
     0
380
     1
100
AcDbPoint
 10
599.2537536621095
 20
896.558858008396
 30
0.0
  0
LINE
  5
915
330
91C
100
AcDbEntity
  8
0
  6
ByBlock
 62
     0
370
    -2
380
     1
100
AcDbLine
 10
958.3181762695314
 20
1200.058858008396
 30
0.0
 11
1104.56547579068
 21
1200.058858008396
 31
0.0
  0
LINE
  5
916
330
91C
100
AcDbEntity
  8
0
  6
ByBlock
 62
     0
370
    -2
380
     1
100
AcDbLine
 10
599.8787536621095
 20
896.558858008396
 30
0.0
 11
1104.56547579068
 21
896.558858008396
 31
0.0
  0
LINE
  5
917
330
91C
100
AcDbEntity
  8
0
  6
ByBlock
 62
     0
370
    -2
380
     1
100
AcDbLine
 10
1103.31547579068
 20
1190.058858008396
 30
0.0
 11
1103.31547579068
 21
906.558858008396
 31
0.0
  0
SOLID
  5
918
330
91C
100
AcDbEntity
  8
0
  6
ByBlock
 62
     0
380
     1
100
AcDbTrace
 10
1103.31547579068
 20
1200.058858008396
 30
0.0
 11
1101.648809124013
 21
1190.058858008396
 31
0.0
 12
1104.982142457347
 22
1190.058858008396
 32
0.0
 13
1104.982142457347
 23
1190.058858008396
 33
0.0
  0
SOLID
  5
919
330
91C
100
AcDbEntity
  8
0
  6
ByBlock
 62
     0
380
     1
100
AcDbTrace
 10
1103.31547579068
 20
896.558858008396
 30
0.0
 11
1101.648809124013
 21
906.558858008396
 31
0.0
 12
1104.982142457347
 22
906.558858008396
 32
0.0
 13
1104.982142457347
 23
906.558858008396
 33
0.0
  0
MTEXT
  5
91A
330
91C
100
AcDbEntity
  8
0
  6
ByBlock
 62
     0
370
    -2
380
     1
100
AcDbMText
 10
1075.31547579068
 20
1048.308858008396
 30
0.0
 40
36.0
 41
0.0
 71
     5
 72
     1
  1
\A1;303
 11
6.123031769111886E-17
 21
1.0
 31
0.0
 73
     1
 44
1.0
  0
ENDBLK
  5
98B
330
91C
100
AcDbEntity
  8
0
100
AcDbBlockEnd
  0
BLOCK
  5
98C
330
927
100
AcDbEntity
  8
0
100
AcDbBlockBegin
  2
*D6
 70
     1
 10
0.0
 20
0.0
 30
0.0
  3
*D6
  1

  0
POINT
  5
91E
330
927
100
AcDbEntity
  8
DEFPOINTS
  6
ByBlock
 62
     0
380
     1
100
AcDbPoint
 10
957.6931762695314
 20
1200.058858008396
 30
0.0
  0
POINT
  5
91F
330
927
100
AcDbEntity
  8
DEFPOINTS
  6
ByBlock
 62
     0
380
     1
100
AcDbPoint
 10
599.2537536621095
 20
896.558858008396
 30
0.0
  0
LINE
  5
920
330
927
100
AcDbEntity
  8
0
  6
ByBlock
 62
     0
370
    -2
380
     1
100
AcDbLine
 10
958.3181762695314
 20
1200.058858008396
 30
0.0
 11
1024.411176993709
 21
1200.058858008396
 31
0.0
  0
LINE
  5
921
330
927
100
AcDbEntity
  8
0
  6
ByBlock
 62
     0
370
    -2
380
     1
100
AcDbLine
 10
599.8787536621095
 20
896.558858008396
 30
0.0
 11
1024.411176993709
 21
896.558858008396
 31
0.0
  0
LINE
  5
922
330
927
100
AcDbEntity
  8
0
  6
ByBlock
 62
     0
370
    -2
380
     1
100
AcDbLine
 10
1023.161176993709
 20
1190.058858008396
 30
0.0
 11
1023.161176993709
 21
906.558858008396
 31
0.0
  0
SOLID
  5
923
330
927
100
AcDbEntity
  8
0
  6
ByBlock
 62
     0
380
     1
100
AcDbTrace
 10
1023.161176993709
 20
1200.058858008396
 30
0.0
 11
1021.494510327042
 21
1190.058858008396
 31
0.0
 12
1024.827843660375
 22
1190.058858008396
 32
0.0
 13
1024.827843660375
 23
1190.058858008396
 33
0.0
  0
SOLID
  5
924
330
927
100
AcDbEntity
  8
0
  6
ByBlock
 62
     0
380
     1
100
AcDbTrace
 10
1023.161176993709
 20
896.558858008396
 30
0.0
 11
1021.494510327042
 21
906.558858008396
 31
0.0
 12
1024.827843660375
 22
906.558858008396
 32
0.0
 13
1024.827843660375
 23
906.558858008396
 33
0.0
  0
MTEXT
  5
925
330
927
100
AcDbEntity
  8
0
  6
ByBlock
 62
     0
370
    -2
380
     1
100
AcDbMText
 10
995.1611769937085
 20
1048.308858008396
 30
0.0
 40
36.0
 41
0.0
 71
     5
 72
     1
  1
\A1;303
 11
6.123031769111886E-17
 21
1.0
 31
0.0
 73
     1
 44
1.0
  0
ENDBLK
  5
98D
330
927
100
AcDbEntity
  8
0
100
AcDbBlockEnd
  0
BLOCK
  5
98E
330
932
100
AcDbEntity
  8
0
100
AcDbBlockBegin
  2
*D7
 70
     1
 10
0.0
 20
0.0
 30
0.0
  3
*D7
  1

  0
POINT
  5
929
330
932
100
AcDbEntity
  8
DEFPOINTS
  6
ByBlock
 62
     0
380
     1
100
AcDbPoint
 10
957.6931762695314
 20
1200.058858008396
 30
0.0
  0
POINT
  5
92A
330
932
100
AcDbEntity
  8
DEFPOINTS
  6
ByBlock
 62
     0
380
     1
100
AcDbPoint
 10
599.2537536621095
 20
896.558858008396
 30
0.0
  0
LINE
  5
92B
330
932
100
AcDbEntity
  8
0
  6
ByBlock
 62
     0
370
    -2
380
     1
100
AcDbLine
 10
958.3181762695314
 20
1200.058858008396
 30
0.0
 11
1024.411176993709
 21
1200.058858008396
 31
0.0
  0
LINE
  5
92C
330
932
100
AcDbEntity
  8
0
  6
ByBlock
 62
     0
370
    -2
380
     1
100
AcDbLine
 10
599.8787536621095
 20
896.558858008396
 30
0.0
 11
1024.411176993709
 21
896.558858008396
 31
0.0
  0
LINE
  5
92D
330
932
100
AcDbEntity
  8
0
  6
ByBlock
 62
     0
370
    -2
380
     1
100
AcDbLine
 10
1023.161176993709
 20
1190.058858008396
 30
0.0
 11
1023.161176993709
 21
906.558858008396
 31
0.0
  0
SOLID
  5
92E
330
932
100
AcDbEntity
  8
0
  6
ByBlock
 62
     0
380
     1
100
AcDbTrace
 10
1023.161176993709
 20
1200.058858008396
 30
0.0
 11
1021.494510327042
 21
1190.058858008396
 31
0.0
 12
1024.827843660375
 22
1190.058858008396
 32
0.0
 13
1024.827843660375
 23
1190.058858008396
 33
0.0
  0
SOLID
  5
92F
330
932
100
AcDbEntity
  8
0
  6
ByBlock
 62
     0
380
     1
100
AcDbTrace
 10
1023.161176993709
 20
896.558858008396
 30
0.0
 11
1021.494510327042
 21
906.558858008396
 31
0.0
 12
1024.827843660375
 22
906.558858008396
 32
0.0
 13
1024.827843660375
 23
906.558858008396
 33
0.0
  0
MTEXT
  5
930
330
932
100
AcDbEntity
  8
0
  6
ByBlock
 62
     0
370
    -2
380
     1
100
AcDbMText
 10
995.1611769937085
 20
1048.308858008396
 30
0.0
 40
36.0
 41
0.0
 71
     5
 72
     1
  1
\A1;303
 11
6.123031769111886E-17
 21
1.0
 31
0.0
 73
     1
 44
1.0
  0
ENDBLK
  5
98F
330
932
100
AcDbEntity
  8
0
100
AcDbBlockEnd
  0
BLOCK
  5
990
330
93E
100
AcDbEntity
  8
0
100
AcDbBlockBegin
  2
*D8
 70
     1
 10
0.0
 20
0.0
 30
0.0
  3
*D8
  1

  0
POINT
  5
935
330
93E
100
AcDbEntity
  8
DEFPOINTS
  6
ByBlock
 62
     0
380
     1
100
AcDbPoint
 10
599.2537536621094
 20
658.8075561523438
 30
0.0
  0
POINT
  5
936
330
93E
100
AcDbEntity
  8
DEFPOINTS
  6
ByBlock
 62
     0
380
     1
100
AcDbPoint
 10
599.2537536621094
 20
613.8075561523438
 30
0.0
  0
LINE
  5
937
330
93E
100
AcDbEntity
  8
0
  6
ByBlock
 62
     0
370
    -2
380
     1
100
AcDbLine
 10
599.8787536621094
 20
658.8075561523438
 30
0.0
 11
1235.946149663612
 21
658.8075561523438
 31
0.0
  0
LINE
  5
938
330
93E
100
AcDbEntity
  8
0
  6
ByBlock
 62
     0
370
    -2
380
     1
100
AcDbLine
 10
599.8787536621094
 20
613.8075561523438
 30
0.0
 11
1235.946149663612
 21
613.8075561523438
 31
0.0
  0
LINE
  5
939
330
93E
100
AcDbEntity
  8
0
  6
ByBlock
 62
     0
370
    -2
380
     1
100
AcDbLine
 10
1234.696149663612
 20
656.3075561523438
 30
0.0
 11
1234.696149663612
 21
616.3075561523438
 31
0.0
  0
SOLID
  5
93A
330
93E
100
AcDbEntity
  8
0
  6
ByBlock
 62
     0
380
     1
100
AcDbTrace
 10
1234.696149663612
 20
658.8075561523438
 30
0.0
 11
1234.279482996945
 21
656.3075561523438
 31
0.0
 12
1235.112816330278
 22
656.3075561523438
 32
0.0
 13
1235.112816330278
 23
656.3075561523438
 33
0.0
  0
SOLID
  5
93B
330
93E
100
AcDbEntity
  8
0
  6
ByBlock
 62
     0
380
     1
100
AcDbTrace
 10
1234.696149663612
 20
613.8075561523438
 30
0.0
 11
1234.279482996945
 21
616.3075561523438
 31
0.0
 12
1235.112816330278
 22
616.3075561523438
 32
0.0
 13
1235.112816330278
 23
616.3075561523438
 33
0.0
  0
MTEXT
  5
93C
330
93E
100
AcDbEntity
  8
0
  6
ByBlock
 62
     0
370
    -2
380
     1
100
AcDbMText
 10
1232.821149663612
 20
636.3075561523438
 30
0.0
 40
2.5
 41
0.0
 71
     5
 72
     1
  1
\A1;45
 11
6.123031769111886E-17
 21
1.0
 31
0.0
 73
     1
 44
1.0
  0
ENDBLK
  5
991
330
93E
100
AcDbEntity
  8
0
100
AcDbBlockEnd
  0
BLOCK
  5
992
330
94B
100
AcDbEntity
  8
0
100
AcDbBlockBegin
  2
*D9
 70
     1
 10
0.0
 20
0.0
 30
0.0
  3
*D9
  1

  0
POINT
  5
941
330
94B
100
AcDbEntity
  8
DEFPOINTS
  6
ByBlock
 62
     0
380
     1
100
AcDbPoint
 10
599.2537536621094
 20
658.8075561523438
 30
0.0
  0
POINT
  5
942
330
94B
100
AcDbEntity
  8
DEFPOINTS
  6
ByBlock
 62
     0
380
     1
100
AcDbPoint
 10
599.2537536621094
 20
613.8075561523438
 30
0.0
  0
LINE
  5
943
330
94B
100
AcDbEntity
  8
0
  6
ByBlock
 62
     0
370
    -2
380
     1
100
AcDbLine
 10
599.8787536621094
 20
658.8075561523438
 30
0.0
 11
1024.411176993709
 21
658.8075561523438
 31
0.0
  0
LINE
  5
944
330
94B
100
AcDbEntity
  8
0
  6
ByBlock
 62
     0
370
    -2
380
     1
100
AcDbLine
 10
599.8787536621094
 20
613.8075561523438
 30
0.0
 11
1024.411176993709
 21
613.8075561523438
 31
0.0
  0
LINE
  5
945
330
94B
100
AcDbEntity
  8
0
  6
ByBlock
 62
     0
370
    -2
380
     1
100
AcDbLine
 10
1023.161176993709
 20
656.3075561523438
 30
0.0
 11
1023.161176993709
 21
616.3075561523438
 31
0.0
  0
LINE
  5
946
330
94B
100
AcDbEntity
  8
0
  6
ByBlock
 62
     0
370
    -2
380
     1
100
AcDbLine
 10
1023.161176993709
 20
658.8075561523438
 30
0.0
 11
1023.161176993709
 21
735.6068584956358
 31
0.0
  0
SOLID
  5
947
330
94B
100
AcDbEntity
  8
0
  6
ByBlock
 62
     0
380
     1
100
AcDbTrace
 10
1023.161176993709
 20
658.8075561523438
 30
0.0
 11
1022.744510327042
 21
656.3075561523438
 31
0.0
 12
1023.577843660375
 22
656.3075561523438
 32
0.0
 13
1023.577843660375
 23
656.3075561523438
 33
0.0
  0
SOLID
  5
948
330
94B
100
AcDbEntity
  8
0
  6
ByBlock
 62
     0
380
     1
100
AcDbTrace
 10
1023.161176993709
 20
613.8075561523438
 30
0.0
 11
1022.744510327042
 21
616.3075561523438
 31
0.0
 12
1023.577843660375
 22
616.3075561523438
 32
0.0
 13
1023.577843660375
 23
616.3075561523438
 33
0.0
  0
MTEXT
  5
949
330
94B
100
AcDbEntity
  8
0
  6
ByBlock
 62
     0
370
    -2
380
     1
100
AcDbMText
 10
1021.286176993709
 20
733.7318584956358
 30
0.0
 40
2.5
 41
0.0
 71
     5
 72
     1
  1
\A1;45
 11
6.123031769111886E-17
 21
1.0
 31
0.0
 73
     1
 44
1.0
  0
ENDBLK
  5
993
330
94B
100
AcDbEntity
  8
0
100
AcDbBlockEnd
  0
BLOCK
  5
994
330
957
100
AcDbEntity
  8
0
100
AcDbBlockBegin
  2
*D10
 70
     1
 10
0.0
 20
0.0
 30
0.0
  3
*D10
  1

  0
POINT
  5
94D
330
957
100
AcDbEntity
  8
DEFPOINTS
  6
ByBlock
 62
     0
380
     1
100
AcDbPoint
 10
599.2537536621094
 20
658.8075561523438
 30
0.0
  0
POINT
  5
94E
330
957
100
AcDbEntity
  8
DEFPOINTS
  6
ByBlock
 62
     0
380
     1
100
AcDbPoint
 10
599.2537536621094
 20
613.8075561523438
 30
0.0
  0
LINE
  5
94F
330
957
100
AcDbEntity
  8
0
  6
ByBlock
 62
     0
370
    -2
380
     1
100
AcDbLine
 10
599.8787536621094
 20
658.8075561523438
 30
0.0
 11
1024.411176993709
 21
658.8075561523438
 31
0.0
  0
LINE
  5
950
330
957
100
AcDbEntity
  8
0
  6
ByBlock
 62
     0
370
    -2
380
     1
100
AcDbLine
 10
599.8787536621094
 20
613.8075561523438
 30
0.0
 11
1024.411176993709
 21
613.8075561523438
 31
0.0
  0
LINE
  5
951
330
957
100
AcDbEntity
  8
0
  6
ByBlock
 62
     0
370
    -2
380
     1
100
AcDbLine
 10
1023.161176993709
 20
648.8075561523438
 30
0.0
 11
1023.161176993709
 21
623.8075561523438
 31
0.0
  0
LINE
  5
952
330
957
100
AcDbEntity
  8
0
  6
ByBlock
 62
     0
370
    -2
380
     1
100
AcDbLine
 10
1023.161176993709
 20
658.8075561523438
 30
0.0
 11
1023.161176993709
 21
761.7318584956358
 31
0.0
  0
SOLID
  5
953
330
957
100
AcDbEntity
  8
0
  6
ByBlock
 62
     0
380
     1
100
AcDbTrace
 10
1023.161176993709
 20
658.8075561523438
 30
0.0
 11
1021.494510327042
 21
648.8075561523438
 31
0.0
 12
1024.827843660375
 22
648.8075561523438
 32
0.0
 13
1024.827843660375
 23
648.8075561523438
 33
0.0
  0
SOLID
  5
954
330
957
100
AcDbEntity
  8
0
  6
ByBlock
 62
     0
380
     1
100
AcDbTrace
 10
1023.161176993709
 20
613.8075561523438
 30
0.0
 11
1021.494510327042
 21
623.8075561523438
 31
0.0
 12
1024.827843660375
 22
623.8075561523438
 32
0.0
 13
1024.827843660375
 23
623.8075561523438
 33
0.0
  0
MTEXT
  5
955
330
957
100
AcDbEntity
  8
0
  6
ByBlock
 62
     0
370
    -2
380
     1
100
AcDbMText
 10
995.1611769937085
 20
733.7318584956358
 30
0.0
 40
36.0
 41
0.0
 71
     5
 72
     1
  1
\A1;45
 11
6.123031769111886E-17
 21
1.0
 31
0.0
 73
     1
 44
1.0
  0
ENDBLK
  5
995
330
957
100
AcDbEntity
  8
0
100
AcDbBlockEnd
  0
BLOCK
  5
996
330
963
100
AcDbEntity
  8
0
100
AcDbBlockBegin
  2
*D11
 70
     1
 10
0.0
 20
0.0
 30
0.0
  3
*D11
  1

  0
POINT
  5
959
330
963
100
AcDbEntity
  8
DEFPOINTS
  6
ByBlock
 62
     0
380
     1
100
AcDbPoint
 10
599.2537536621094
 20
658.8075561523438
 30
0.0
  0
POINT
  5
95A
330
963
100
AcDbEntity
  8
DEFPOINTS
  6
ByBlock
 62
     0
380
     1
100
AcDbPoint
 10
599.2537536621094
 20
613.8075561523438
 30
0.0
  0
LINE
  5
95B
330
963
100
AcDbEntity
  8
0
  6
ByBlock
 62
     0
370
    -2
380
     1
100
AcDbLine
 10
599.8787536621094
 20
658.8075561523438
 30
0.0
 11
1024.411176993709
 21
658.8075561523438
 31
0.0
  0
LINE
  5
95C
330
963
100
AcDbEntity
  8
0
  6
ByBlock
 62
     0
370
    -2
380
     1
100
AcDbLine
 10
599.8787536621094
 20
613.8075561523438
 30
0.0
 11
1024.411176993709
 21
613.8075561523438
 31
0.0
  0
LINE
  5
95D
330
963
100
AcDbEntity
  8
0
  6
ByBlock
 62
     0
370
    -2
380
     1
100
AcDbLine
 10
1023.161176993709
 20
648.8075561523438
 30
0.0
 11
1023.161176993709
 21
623.8075561523438
 31
0.0
  0
LINE
  5
95E
330
963
100
AcDbEntity
  8
0
  6
ByBlock
 62
     0
370
    -2
380
     1
100
AcDbLine
 10
1023.161176993709
 20
658.8075561523438
 30
0.0
 11
1023.161176993709
 21
738.2697073239898
 31
0.0
  0
SOLID
  5
95F
330
963
100
AcDbEntity
  8
0
  6
ByBlock
 62
     0
380
     1
100
AcDbTrace
 10
1023.161176993709
 20
658.8075561523438
 30
0.0
 11
1021.494510327042
 21
648.8075561523438
 31
0.0
 12
1024.827843660375
 22
648.8075561523438
 32
0.0
 13
1024.827843660375
 23
648.8075561523438
 33
0.0
  0
SOLID
  5
960
330
963
100
AcDbEntity
  8
0
  6
ByBlock
 62
     0
380
     1
100
AcDbTrace
 10
1023.161176993709
 20
613.8075561523438
 30
0.0
 11
1021.494510327042
 21
623.8075561523438
 31
0.0
 12
1024.827843660375
 22
623.8075561523438
 32
0.0
 13
1024.827843660375
 23
623.8075561523438
 33
0.0
  0
MTEXT
  5
961
330
963
100
AcDbEntity
  8
0
  6
ByBlock
 62
     0
370
    -2
380
     1
100
AcDbMText
 10
995.1611769937085
 20
710.2697073239898
 30
0.0
 40
36.0
 41
0.0
 71
     5
 72
     1
  1
\A1;45
 11
6.123031769111886E-17
 21
1.0
 31
0.0
 73
     1
 44
1.0
  0
ENDBLK
  5
997
330
963
100
AcDbEntity
  8
0
100
AcDbBlockEnd
  0
BLOCK
  5
998
330
96F
100
AcDbEntity
  8
0
100
AcDbBlockBegin
  2
*D12
 70
     1
 10
0.0
 20
0.0
 30
0.0
  3
*D12
  1

  0
POINT
  5
965
330
96F
100
AcDbEntity
  8
DEFPOINTS
  6
ByBlock
 62
     0
380
     1
100
AcDbPoint
 10
599.2537536621094
 20
658.8075561523438
 30
0.0
  0
POINT
  5
966
330
96F
100
AcDbEntity
  8
DEFPOINTS
  6
ByBlock
 62
     0
380
     1
100
AcDbPoint
 10
599.2537536621094
 20
613.8075561523438
 30
0.0
  0
LINE
  5
967
330
96F
100
AcDbEntity
  8
0
  6
ByBlock
 62
     0
370
    -2
380
     1
100
AcDbLine
 10
599.8787536621094
 20
658.8075561523438
 30
0.0
 11
1024.411176993709
 21
658.8075561523438
 31
0.0
  0
LINE
  5
968
330
96F
100
AcDbEntity
  8
0
  6
ByBlock
 62
     0
370
    -2
380
     1
100
AcDbLine
 10
599.8787536621094
 20
613.8075561523438
 30
0.0
 11
1024.411176993709
 21
613.8075561523438
 31
0.0
  0
LINE
  5
969
330
96F
100
AcDbEntity
  8
0
  6
ByBlock
 62
     0
370
    -2
380
     1
100
AcDbLine
 10
1023.161176993709
 20
648.8075561523438
 30
0.0
 11
1023.161176993709
 21
623.8075561523438
 31
0.0
  0
LINE
  5
96A
330
96F
100
AcDbEntity
  8
0
  6
ByBlock
 62
     0
370
    -2
380
     1
100
AcDbLine
 10
1023.161176993709
 20
658.8075561523438
 30
0.0
 11
1023.161176993709
 21
738.2697073239898
 31
0.0
  0
SOLID
  5
96B
330
96F
100
AcDbEntity
  8
0
  6
ByBlock
 62
     0
380
     1
100
AcDbTrace
 10
1023.161176993709
 20
658.8075561523438
 30
0.0
 11
1021.494510327042
 21
648.8075561523438
 31
0.0
 12
1024.827843660375
 22
648.8075561523438
 32
0.0
 13
1024.827843660375
 23
648.8075561523438
 33
0.0
  0
SOLID
  5
96C
330
96F
100
AcDbEntity
  8
0
  6
ByBlock
 62
     0
380
     1
100
AcDbTrace
 10
1023.161176993709
 20
613.8075561523438
 30
0.0
 11
1021.494510327042
 21
623.8075561523438
 31
0.0
 12
1024.827843660375
 22
623.8075561523438
 32
0.0
 13
1024.827843660375
 23
623.8075561523438
 33
0.0
  0
MTEXT
  5
96D
330
96F
100
AcDbEntity
  8
0
  6
ByBlock
 62
     0
370
    -2
380
     1
100
AcDbMText
 10
995.1611769937085
 20
710.2697073239898
 30
0.0
 40
36.0
 41
0.0
 71
     5
 72
     1
  1
\A1;45
 11
6.123031769111886E-17
 21
1.0
 31
0.0
 73
     1
 44
1.0
  0
ENDBLK
  5
999
330
96F
100
AcDbEntity
  8
0
100
AcDbBlockEnd
  0
BLOCK
  5
99A
330
97B
100
AcDbEntity
  8
0
100
AcDbBlockBegin
  2
*D13
 70
     1
 10
0.0
 20
0.0
 30
0.0
  3
*D13
  1

  0
POINT
  5
971
330
97B
100
AcDbEntity
  8
DEFPOINTS
  6
ByBlock
 62
     0
380
     1
100
AcDbPoint
 10
599.2537536621094
 20
737.5029662601019
 30
0.0
  0
POINT
  5
972
330
97B
100
AcDbEntity
  8
DEFPOINTS
  6
ByBlock
 62
     0
380
     1
100
AcDbPoint
 10
599.2537536621094
 20
692.5029662601019
 30
0.0
  0
LINE
  5
973
330
97B
100
AcDbEntity
  8
0
  6
ByBlock
 62
     0
370
    -2
380
     1
100
AcDbLine
 10
599.8787536621094
 20
737.5029662601019
 30
0.0
 11
1024.411176993709
 21
737.5029662601019
 31
0.0
  0
LINE
  5
974
330
97B
100
AcDbEntity
  8
0
  6
ByBlock
 62
     0
370
    -2
380
     1
100
AcDbLine
 10
599.8787536621094
 20
692.5029662601019
 30
0.0
 11
1024.411176993709
 21
692.5029662601019
 31
0.0
  0
LINE
  5
975
330
97B
100
AcDbEntity
  8
0
  6
ByBlock
 62
     0
370
    -2
380
     1
100
AcDbLine
 10
1023.161176993709
 20
727.5029662601019
 30
0.0
 11
1023.161176993709
 21
702.5029662601019
 31
0.0
  0
LINE
  5
976
330
97B
100
AcDbEntity
  8
0
  6
ByBlock
 62
     0
370
    -2
380
     1
100
AcDbLine
 10
1023.161176993709
 20
737.5029662601019
 30
0.0
 11
1023.161176993709
 21
816.9651174317479
 31
0.0
  0
SOLID
  5
977
330
97B
100
AcDbEntity
  8
0
  6
ByBlock
 62
     0
380
     1
100
AcDbTrace
 10
1023.161176993709
 20
737.5029662601019
 30
0.0
 11
1021.494510327042
 21
727.5029662601019
 31
0.0
 12
1024.827843660375
 22
727.5029662601019
 32
0.0
 13
1024.827843660375
 23
727.5029662601019
 33
0.0
  0
SOLID
  5
978
330
97B
100
AcDbEntity
  8
0
  6
ByBlock
 62
     0
380
     1
100
AcDbTrace
 10
1023.161176993709
 20
692.5029662601019
 30
0.0
 11
1021.494510327042
 21
702.5029662601019
 31
0.0
 12
1024.827843660375
 22
702.5029662601019
 32
0.0
 13
1024.827843660375
 23
702.5029662601019
 33
0.0
  0
MTEXT
  5
979
330
97B
100
AcDbEntity
  8
0
  6
ByBlock
 62
     0
370
    -2
380
     1
100
AcDbMText
 10
995.1611769937085
 20
788.9651174317479
 30
0.0
 40
36.0
 41
0.0
 71
     5
 72
     1
  1
\A1;45
 11
6.123031769111886E-17
 21
1.0
 31
0.0
 73
     1
 44
1.0
  0
ENDBLK
  5
99B
330
97B
100
AcDbEntity
  8
0
100
AcDbBlockEnd
  0
ENDSEC
  0
SECTION
  2
ENTITIES
  0
LINE
  5
7B4
330
1F
100
AcDbEntity
  8
0
 62
     7
370
    60
390
F
100
AcDbLine
 10
960.1931762695312
 20
692.5029662601019
 30
0.0
 11
960.1931762695312
 21
737.5029662601019
 31
0.0
  0
LINE
  5
7B5
330
1F
100
AcDbEntity
  8
0
 62
     7
 48
0.125
370
    60
390
F
100
AcDbLine
 10
955.1931762695312
 20
737.5029662601019
 30
0.0
 11
960.1931762695312
 21
737.5029662601019
 31
0.0
  0
LINE
  5
7B6
330
1F
100
AcDbEntity
  8
0
 62
     7
 48
0.125
370
    60
390
F
100
AcDbLine
 10
955.1931762695312
 20
692.5029662601019
 30
0.0
 11
960.1931762695312
 21
692.5029662601019
 31
0.0
  0
CIRCLE
  5
7B7
330
1F
100
AcDbEntity
  8
0
 62
     7
370
    60
390
F
100
AcDbCircle
 10
599.2537841796875
 20
715.0029662601019
 30
0.0
 40
7.0
  0
CIRCLE
  5
7B8
330
1F
100
AcDbEntity
  8
0
 62
     7
370
    60
390
F
100
AcDbCircle
 10
899.2537231445312
 20
715.0029662601019
 30
0.0
 40
5.25
  0
CIRCLE
  5
7B9
330
1F
100
AcDbEntity
  8
0
 62
     7
370
    60
390
F
100
AcDbCircle
 10
799.2537231445312
 20
715.0029662601019
 30
0.0
 40
5.249999999999999
  0
CIRCLE
  5
7BA
330
1F
100
AcDbEntity
  8
0
 62
     7
370
    60
390
F
100
AcDbCircle
 10
719.2537841796875
 20
715.0029662601019
 30
0.0
 40
5.25
  0
CIRCLE
  5
7BB
330
1F
100
AcDbEntity
  8
0
 62
     7
370
    60
390
F
100
AcDbCircle
 10
659.2537841796875
 20
715.0029662601019
 30
0.0
 40
5.25
  0
LINE
  5
7BD
330
1F
100
AcDbEntity
  8
0
 62
     7
370
    60
390
F
100
AcDbLine
 10
238.3143310546875
 20
692.5029662601019
 30
0.0
 11
238.3143310546875
 21
737.5029662601019
 31
0.0
  0
LINE
  5
7BE
330
1F
100
AcDbEntity
  8
0
 62
     7
 48
0.125
370
    60
390
F
100
AcDbLine
 10
238.3143310546875
 20
692.5029662601019
 30
0.0
 11
243.3143310546875
 21
692.5029662601019
 31
0.0
  0
LINE
  5
7BF
330
1F
100
AcDbEntity
  8
0
 62
     7
 48
0.125
370
    60
390
F
100
AcDbLine
 10
238.3143310546875
 20
737.5029662601019
 30
0.0
 11
243.3143310546875
 21
737.5029662601019
 31
0.0
  0
CIRCLE
  5
7C0
330
1F
100
AcDbEntity
  8
0
 62
     7
370
    60
390
F
100
AcDbCircle
 10
299.2537231445312
 20
715.0029662601019
 30
0.0
 40
5.25
  0
CIRCLE
  5
7C1
330
1F
100
AcDbEntity
  8
0
 62
     7
370
    60
390
F
100
AcDbCircle
 10
399.2537231445312
 20
715.0029662601019
 30
0.0
 40
5.249999999999999
  0
CIRCLE
  5
7C2
330
1F
100
AcDbEntity
  8
0
 62
     7
370
    60
390
F
100
AcDbCircle
 10
479.2537536621094
 20
715.0029662601019
 30
0.0
 40
5.25
  0
CIRCLE
  5
7C3
330
1F
100
AcDbEntity
  8
0
 62
     7
370
    60
390
F
100
AcDbCircle
 10
539.2537841796875
 20
715.0029662601019
 30
0.0
 40
5.25
  0
LINE
  5
7C4
330
1F
100
AcDbEntity
  8
0
 62
     7
 48
0.25
370
    60
390
F
100
AcDbLine
 10
253.3143310546875
 20
737.5029662601019
 30
0.0
 11
243.3143310546875
 21
737.5029662601019
 31
0.0
  0
LINE
  5
7C5
330
1F
100
AcDbEntity
  8
0
 62
     7
370
    60
390
F
100
AcDbLine
 10
945.1931762695312
 20
737.5029662601019
 30
0.0
 11
253.3143310546875
 21
737.5029662601019
 31
0.0
  0
LINE
  5
7C6
330
1F
100
AcDbEntity
  8
0
 62
     7
 48
0.25
370
    60
390
F
100
AcDbLine
 10
955.1931762695312
 20
737.5029662601019
 30
0.0
 11
945.1931762695312
 21
737.5029662601019
 31
0.0
  0
LINE
  5
7C7
330
1F
100
AcDbEntity
  8
0
 62
     7
370
    60
390
F
100
AcDbLine
 10
945.1931762695312
 20
692.5029662601019
 30
0.0
 11
253.3143310546875
 21
692.5029662601019
 31
0.0
  0
LINE
  5
7C8
330
1F
100
AcDbEntity
  8
0
 62
     7
370
    60
390
F
100
AcDbLine
 10
945.1931762695312
 20
692.5029662601019
 30
0.0
 11
945.1931762695312
 21
737.5029662601019
 31
0.0
  0
LINE
  5
7C9
330
1F
100
AcDbEntity
  8
0
 62
     7
370
    60
390
F
100
AcDbLine
 10
253.3143310546875
 20
692.5029662601019
 30
0.0
 11
253.3143310546875
 21
737.5029662601019
 31
0.0
  0
LINE
  5
7CA
330
1F
100
AcDbEntity
  8
0
 62
     7
 48
0.25
370
    60
390
F
100
AcDbLine
 10
955.1931762695312
 20
692.5029662601019
 30
0.0
 11
945.1931762695312
 21
692.5029662601019
 31
0.0
  0
LINE
  5
7CB
330
1F
100
AcDbEntity
  8
0
 62
     7
 48
0.25
370
    60
390
F
100
AcDbLine
 10
253.3143310546875
 20
692.5029662601019
 30
0.0
 11
243.3143310546875
 21
692.5029662601019
 31
0.0
  0
LINE
  5
899
330
1F
100
AcDbEntity
  8
0
 62
     7
370
    60
390
F
100
AcDbLine
 10
243.3143310546876
 20
911.5588580083961
 30
0.0
 11
243.3143310546876
 21
1177.558858008396
 31
0.0
  0
LINE
  5
89A
330
1F
100
AcDbEntity
  8
0
 62
     7
370
    60
390
F
100
AcDbLine
 10
243.3143310546876
 20
1200.058858008396
 30
0.0
 11
243.3143310546876
 21
1177.558858008396
 31
0.0
  0
LINE
  5
89B
330
1F
100
AcDbEntity
  8
0
 62
     7
370
    60
390
F
100
AcDbLine
 10
238.3143310546876
 20
911.5588580083961
 30
0.0
 11
238.3143310546876
 21
1177.558858008396
 31
0.0
  0
LINE
  5
89C
330
1F
100
AcDbEntity
  8
0
 62
     7
370
    60
390
F
100
AcDbLine
 10
238.3143310546876
 20
1200.058858008396
 30
0.0
 11
238.3143310546876
 21
1177.558858008396
 31
0.0
  0
LINE
  5
89E
330
1F
100
AcDbEntity
  8
0
 62
     7
370
    60
390
F
100
AcDbLine
 10
955.1931762695314
 20
1200.058858008396
 30
0.0
 11
955.1931762695314
 21
1177.558858008396
 31
0.0
  0
LINE
  5
89F
330
1F
100
AcDbEntity
  8
0
 62
     7
370
    60
390
F
100
AcDbLine
 10
955.1931762695314
 20
911.5588580083959
 30
0.0
 11
955.1931762695314
 21
1177.558858008396
 31
0.0
  0
LINE
  5
8A0
330
1F
100
AcDbEntity
  8
0
 62
     7
370
    60
390
F
100
AcDbLine
 10
960.1931762695314
 20
1200.058858008396
 30
0.0
 11
960.1931762695314
 21
1177.558858008396
 31
0.0
  0
LINE
  5
8A1
330
1F
100
AcDbEntity
  8
0
 62
     7
370
    60
390
F
100
AcDbLine
 10
960.1931762695314
 20
911.5588580083959
 30
0.0
 11
960.1931762695314
 21
1177.558858008396
 31
0.0
  0
LINE
  5
8A3
330
1F
100
AcDbEntity
  8
0
 62
     7
370
    60
390
F
100
AcDbLine
 10
253.3143310546876
 20
896.5588580083961
 30
0.0
 11
945.1931762695314
 21
896.5588580083959
 31
0.0
  0
ARC
  5
8A4
330
1F
100
AcDbEntity
  8
0
 62
     7
370
    60
390
F
100
AcDbCircle
 10
945.1931762695314
 20
911.5588580083959
 30
0.0
 40
15.0
100
AcDbArc
 50
270.0000025044781
 51
0.0000050089563345
  0
ARC
  5
8A5
330
1F
100
AcDbEntity
  8
0
 62
     7
370
    60
390
F
100
AcDbCircle
 10
945.1931762695314
 20
911.5588580083959
 30
0.0
 40
10.0
100
AcDbArc
 50
270.0000025044781
 51
0.0000050089563345
  0
LINE
  5
8A6
330
1F
100
AcDbEntity
  8
0
 62
     7
370
    60
390
F
100
AcDbLine
 10
253.3143310546876
 20
901.5588580083961
 30
0.0
 11
945.1931762695314
 21
901.5588580083959
 31
0.0
  0
ARC
  5
8A7
330
1F
100
AcDbEntity
  8
0
 62
     7
370
    60
390
F
100
AcDbCircle
 10
253.3143310546876
 20
911.5588580083961
 30
0.0
 40
10.0
100
AcDbArc
 50
180.0
 51
270.0000025044781
  0
ARC
  5
8A8
330
1F
100
AcDbEntity
  8
0
 62
     7
370
    60
390
F
100
AcDbCircle
 10
253.3143310546876
 20
911.5588580083961
 30
0.0
 40
15.0
100
AcDbArc
 50
180.0
 51
270.0000025044781
  0
LINE
  5
8A9
330
1F
100
AcDbEntity
  8
0
 62
     7
 48
0.125
370
    60
390
F
100
AcDbLine
 10
243.3143310546876
 20
1200.058858008396
 30
0.0
 11
238.3143310546876
 21
1200.058858008396
 31
0.0
  0
LINE
  5
8AA
330
1F
100
AcDbEntity
  8
0
 62
     7
 48
0.125
370
    60
390
F
100
AcDbLine
 10
960.1931762695314
 20
1200.058858008396
 30
0.0
 11
955.1931762695314
 21
1200.058858008396
 31
0.0
  0
DIMENSION
  5
8D9
330
1F
100
AcDbEntity
  8
0
370
    25
100
AcDbDimension
  2
*D2
 10
960.1931762695314
 20
1236.990254581906
 30
0.0
 11
599.2537536621095
 21
1264.990254581906
 31
0.0
 70
    32
 71
     5
 41
2.5
 42
721.8788452148438
  3
Standard
100
AcDbAlignedDimension
 13
238.3143310546876
 23
1044.558858008396
 33
0.0
 14
960.1931762695314
 24
1044.558858008396
 34
0.0
100
AcDbRotatedDimension
1001
ACAD
1000
DSTYLE
1002
{
1070
    41
1040
10.0
1070
    42
1040
0.625
1070
    43
1040
3.75
1070
    44
1040
1.25
1070
    73
1070
     0
1070
    74
1070
     0
1070
    77
1070
     1
1070
    78
1070
     8
1070
   140
1040
36.0
1070
   141
1040
2.5
1070
   143
1040
0.03937007874016
1070
   147
1040
10.0
1070
   171
1070
     3
1070
   172
1070
     1
1070
   271
1070
     0
1070
   272
1070
     2
1070
   274
1070
     3
1070
   278
1070
    44
1070
   283
1070
     0
1070
   284
1070
     8
1070
   289
1070
     0
1002
}
  0
DIMENSION
  5
8FB
330
1F
100
AcDbEntity
  8
0
370
    25
100
AcDbDimension
  2
*D7
 10
1023.161176993709
 20
896.558858008396
 30
0.0
 11
995.1611769937085
 21
1048.308858008396
 31
0.0
 70
   160
 71
     5
 41
2.5
 42
303.4999999999999
  3
Standard
100
AcDbAlignedDimension
 13
957.6931762695314
 23
1200.058858008396
 33
0.0
 14
599.2537536621095
 24
896.558858008396
 34
0.0
 50
90.0
100
AcDbRotatedDimension
1001
ACAD
1000
DSTYLE
1002
{
1070
    41
1040
10.0
1070
    42
1040
0.625
1070
    43
1040
3.75
1070
    44
1040
1.25
1070
    73
1070
     0
1070
    74
1070
     0
1070
    77
1070
     1
1070
    78
1070
     8
1070
   140
1040
36.0
1070
   141
1040
2.5
1070
   143
1040
0.03937007874016
1070
   147
1040
10.0
1070
   171
1070
     3
1070
   172
1070
     1
1070
   271
1070
     0
1070
   272
1070
     2
1070
   274
1070
     3
1070
   278
1070
    44
1070
   283
1070
     0
1070
   284
1070
     8
1070
   289
1070
     0
1002
}
  0
DIMENSION
  5
933
330
1F
100
AcDbEntity
  8
0
370
    25
100
AcDbDimension
  2
*D13
 10
1023.161176993709
 20
692.5029662601019
 30
0.0
 11
995.1611769937085
 21
788.9651174317479
 31
0.0
 70
   160
 71
     5
 41
2.5
 42
45.0
  3
Standard
100
AcDbAlignedDimension
 13
599.2537536621094
 23
737.5029662601019
 33
0.0
 14
599.2537536621094
 24
692.5029662601019
 34
0.0
 50
90.0
100
AcDbRotatedDimension
1001
ACAD
1000
DSTYLE
1002
{
1070
    41
1040
10.0
1070
    42
1040
0.625
1070
    43
1040
3.75
1070
    44
1040
1.25
1070
    73
1070
     0
1070
    74
1070
     0
1070
    77
1070
     1
1070
    78
1070
     8
1070
   140
1040
36.0
1070
   141
1040
2.5
1070
   143
1040
0.03937007874016
1070
   147
1040
10.0
1070
   171
1070
     3
1070
   172
1070
     1
1070
   271
1070
     0
1070
   272
1070
     2
1070
   274
1070
     3
1070
   278
1070
    44
1070
   283
1070
     0
1070
   284
1070
     8
1070
   289
1070
     0
1002
}
  0
VIEWPORT
  5
8AB
330
73
100
AcDbEntity
 67
     1
  8
0
 62
     0
370
     0
390
F
100
AcDbViewport
 10
0.0
 20
0.0
 30
0.0
 40
1000.0
 41
1000.0
 68
     1
 69
     1
 12
0.0
 22
0.0
 13
0.0
 23
0.0
 14
1.0
 24
1.0
 15
1.0
 25
1.0
 16
0.0
 26
0.0
 36
1.0
 17
0.0
 27
0.0
 37
0.0
 42
50.0
 43
0.0
 44
0.0
 45
1000.0
 50
0.0
 51
0.0
 72
   100
 90
   557056
  1

281
     0
 71
     0
 74
     0
110
0.0
120
0.0
130
0.0
111
1.0
121
0.0
131
0.0
112
0.0
122
1.0
132
0.0
 79
     0
146
0.0
170
     0
  0
ENDSEC
  0
SECTION
  2
OBJECTS
  0
DICTIONARY
  5
C
330
0
100
AcDbDictionary
281
     1
  3
ACAD_COLOR
350
6C
  3
ACAD_GROUP
350
D
  3
ACAD_LAYOUT
350
1A
  3
ACAD_MATERIAL
350
6B
  3
ACAD_MLEADERSTYLE
350
8D4
  3
ACAD_MLINESTYLE
350
17
  3
ACAD_PLOTSETTINGS
350
19
  3
ACAD_PLOTSTYLENAME
350
E
  3
ACAD_SCALELIST
350
99
  3
ACAD_TABLESTYLE
350
92
  3
ACAD_WIPEOUT_VARS
350
97F
  3
AcDbVariableDictionary
350
59
  0
DICTIONARY
  5
6C
102
{ACAD_REACTORS
330
C
102
}
330
C
100
AcDbDictionary
281
     1
  0
DICTIONARY
  5
D
102
{ACAD_REACTORS
330
C
102
}
330
C
100
AcDbDictionary
281
     1
  0
DICTIONARY
  5
1A
102
{ACAD_REACTORS
330
C
102
}
330
C
100
AcDbDictionary
281
     1
  3
Layout1
350
74
  3
Model
350
22
  0
DICTIONARY
  5
6B
102
{ACAD_REACTORS
330
C
102
}
330
C
100
AcDbDictionary
281
     1
  0
DICTIONARY
  5
8D4
102
{ACAD_REACTORS
330
C
102
}
330
C
100
AcDbDictionary
281
     1
  0
DICTIONARY
  5
17
102
{ACAD_REACTORS
330
C
102
}
330
C
100
AcDbDictionary
281
     1
  3
Standard
350
18
  0
DICTIONARY
  5
19
102
{ACAD_REACTORS
330
C
102
}
330
C
100
AcDbDictionary
281
     1
  0
ACDBDICTIONARYWDFLT
  5
E
102
{ACAD_REACTORS
330
C
102
}
330
C
100
AcDbDictionary
281
     1
  3
Normal
350
F
100
AcDbDictionaryWithDefault
340
F
  0
DICTIONARY
  5
99
102
{ACAD_REACTORS
330
C
102
}
330
C
100
AcDbDictionary
281
     1
  3
A0
350
8AF
  3
A1
350
8B0
  3
A2
350
8B1
  3
A3
350
8B2
  3
A4
350
8B3
  3
A5
350
8B4
  3
A6
350
8B5
  3
A7
350
8B6
  3
A8
350
8B7
  3
A9
350
8B8
  3
B0
350
8B9
  3
B1
350
8BA
  3
B2
350
8BB
  3
B3
350
8BC
  3
B4
350
8BD
  3
B5
350
8BE
  3
B6
350
8BF
  3
B7
350
8C0
  3
B8
350
8C1
  3
B9
350
8C2
  3
C0
350
8C3
  3
C1
350
8C4
  3
C2
350
8C5
  3
C3
350
8C6
  3
C4
350
8C7
  3
C5
350
8C8
  3
C6
350
8C9
  3
C7
350
8CA
  3
C8
350
8CB
  3
C9
350
8CC
  3
D0
350
8CD
  3
D1
350
8CE
  3
D2
350
8CF
  0
DICTIONARY
  5
92
102
{ACAD_REACTORS
330
C
102
}
330
C
100
AcDbDictionary
281
     1
  3
Standard
350
93
  0
WIPEOUTVARIABLES
  5
97F
102
{ACAD_REACTORS
330
C
102
}
330
C
100
AcDbWipeoutVariables
 70
     1
  0
DICTIONARY
  5
59
102
{ACAD_REACTORS
330
C
102
}
330
C
100
AcDbDictionary
281
     1
  3
CANNOSCALE
350
8D1
  3
CTABLESTYLE
350
98
  3
DIMASSOC
350
5A
  3
HIDETEXT
350
5E
  3
LIGHTINGUNITS
350
8D2
  0
LAYOUT
  5
74
102
{ACAD_REACTORS
330
1A
102
}
330
1A
100
AcDbPlotSettings
  1

  2
none_device
  4
none_user_media
  6

 40
0.0
 41
0.0
 42
0.0
 43
0.0
 44
0.0
 45
0.0
 46
0.0
 47
0.0
 48
0.0
 49
0.0
140
0.0
141
0.0
142
1.0
143
1.0
 70
   544
 72
     0
 73
     0
 74
     0
  7

 75
    16
 76
     0
 77
     2
 78
   300
147
1.0
148
0.0
149
0.0
100
AcDbLayout
  1
Layout1
 70
     1
 71
     0
 10
0.0
 20
0.0
 11
420.0
 21
297.0
 12
0.0
 22
0.0
 32
0.0
 14
0.0
 24
0.0
 34
0.0
 15
960.1931762695312
 25
745.2379760742188
 35
2.0
146
0.0
 13
0.0
 23
0.0
 33
0.0
 16
1.0
 26
0.0
 36
0.0
 17
0.0
 27
1.0
 37
0.0
 76
     0
330
73
331
8AB
  0
LAYOUT
  5
22
102
{ACAD_REACTORS
330
1A
102
}
330
1A
100
AcDbPlotSettings
  1

  2
none_device
  4
none_user_media
  6

 40
6.349999904632568
 41
6.349999904632568
 42
6.350006103515625
 43
6.350006103515625
 44
215.8999938964844
 45
279.3999938964844
 46
0.0
 47
0.0
 48
0.0
 49
0.0
140
0.0
141
0.0
142
1.0
143
1.0
 70
 11936
 72
     0
 73
     0
 74
     0
  7

 75
     0
 76
     0
 77
     2
 78
   300
147
0.1471673912321922
148
0.0
149
0.0
100
AcDbLayout
  1
Model
 70
     1
 71
     1
 10
0.0
 20
0.0
 11
420.0
 21
297.0
 12
0.0
 22
0.0
 32
0.0
 14
238.3143310546875
 24
419.1548589828757
 34
0.0
 15
1235.946149663612
 25
1282.990254581906
 35
0.0
146
0.0
 13
0.0
 23
0.0
 33
0.0
 16
1.0
 26
0.0
 36
0.0
 17
0.0
 27
1.0
 37
0.0
 76
     0
330
1F
331
97
  0
MLINESTYLE
  5
18
102
{ACAD_REACTORS
330
17
102
}
330
17
100
AcDbMlineStyle
  2
Standard
 70
     0
  3

 62
     0
 51
90.0
 52
90.0
 71
     2
 49
0.5
 62
   256
  6
BYLAYER
 49
-0.5
 62
   256
  6
BYLAYER
  0
ACDBPLACEHOLDER
  5
F
102
{ACAD_REACTORS
330
E
102
}
330
E
  0
SCALE
  5
8AF
102
{ACAD_REACTORS
330
99
102
}
330
99
100
AcDbScale
 70
     0
300
1:1
140
1.0
141
1.0
290
     1
  0
SCALE
  5
8B0
102
{ACAD_REACTORS
330
99
102
}
330
99
100
AcDbScale
 70
     0
300
1:2
140
1.0
141
2.0
290
     0
  0
SCALE
  5
8B1
102
{ACAD_REACTORS
330
99
102
}
330
99
100
AcDbScale
 70
     0
300
1:4
140
1.0
141
4.0
290
     0
  0
SCALE
  5
8B2
102
{ACAD_REACTORS
330
99
102
}
330
99
100
AcDbScale
 70
     0
300
1:5
140
1.0
141
5.0
290
     0
  0
SCALE
  5
8B3
102
{ACAD_REACTORS
330
99
102
}
330
99
100
AcDbScale
 70
     0
300
1:8
140
1.0
141
8.0
290
     0
  0
SCALE
  5
8B4
102
{ACAD_REACTORS
330
99
102
}
330
99
100
AcDbScale
 70
     0
300
1:10
140
1.0
141
10.0
290
     0
  0
SCALE
  5
8B5
102
{ACAD_REACTORS
330
99
102
}
330
99
100
AcDbScale
 70
     0
300
1:16
140
1.0
141
16.0
290
     0
  0
SCALE
  5
8B6
102
{ACAD_REACTORS
330
99
102
}
330
99
100
AcDbScale
 70
     0
300
1:20
140
1.0
141
20.0
290
     0
  0
SCALE
  5
8B7
102
{ACAD_REACTORS
330
99
102
}
330
99
100
AcDbScale
 70
     0
300
1:30
140
1.0
141
30.0
290
     0
  0
SCALE
  5
8B8
102
{ACAD_REACTORS
330
99
102
}
330
99
100
AcDbScale
 70
     0
300
1:40
140
1.0
141
40.0
290
     0
  0
SCALE
  5
8B9
102
{ACAD_REACTORS
330
99
102
}
330
99
100
AcDbScale
 70
     0
300
1:50
140
1.0
141
50.0
290
     0
  0
SCALE
  5
8BA
102
{ACAD_REACTORS
330
99
102
}
330
99
100
AcDbScale
 70
     0
300
1:100
140
1.0
141
100.0
290
     0
  0
SCALE
  5
8BB
102
{ACAD_REACTORS
330
99
102
}
330
99
100
AcDbScale
 70
     0
300
2:1
140
2.0
141
1.0
290
     0
  0
SCALE
  5
8BC
102
{ACAD_REACTORS
330
99
102
}
330
99
100
AcDbScale
 70
     0
300
4:1
140
4.0
141
1.0
290
     0
  0
SCALE
  5
8BD
102
{ACAD_REACTORS
330
99
102
}
330
99
100
AcDbScale
 70
     0
300
8:1
140
8.0
141
1.0
290
     0
  0
SCALE
  5
8BE
102
{ACAD_REACTORS
330
99
102
}
330
99
100
AcDbScale
 70
     0
300
10:1
140
10.0
141
1.0
290
     0
  0
SCALE
  5
8BF
102
{ACAD_REACTORS
330
99
102
}
330
99
100
AcDbScale
 70
     0
300
100:1
140
100.0
141
1.0
290
     0
  0
SCALE
  5
8C0
102
{ACAD_REACTORS
330
99
102
}
330
99
100
AcDbScale
 70
     0
300
1/128" = 1'-0"
140
0.0078125
141
12.0
290
     0
  0
SCALE
  5
8C1
102
{ACAD_REACTORS
330
99
102
}
330
99
100
AcDbScale
 70
     0
300
1/64" = 1'-0"
140
0.015625
141
12.0
290
     0
  0
SCALE
  5
8C2
102
{ACAD_REACTORS
330
99
102
}
330
99
100
AcDbScale
 70
     0
300
1/32" = 1'-0"
140
0.03125
141
12.0
290
     0
  0
SCALE
  5
8C3
102
{ACAD_REACTORS
330
99
102
}
330
99
100
AcDbScale
 70
     0
300
1/16" = 1'-0"
140
0.0625
141
12.0
290
     0
  0
SCALE
  5
8C4
102
{ACAD_REACTORS
330
99
102
}
330
99
100
AcDbScale
 70
     0
300
3/32" = 1'-0"
140
0.09375
141
12.0
290
     0
  0
SCALE
  5
8C5
102
{ACAD_REACTORS
330
99
102
}
330
99
100
AcDbScale
 70
     0
300
1/8" = 1'-0"
140
0.125
141
12.0
290
     0
  0
SCALE
  5
8C6
102
{ACAD_REACTORS
330
99
102
}
330
99
100
AcDbScale
 70
     0
300
3/16" = 1'-0"
140
0.1875
141
12.0
290
     0
  0
SCALE
  5
8C7
102
{ACAD_REACTORS
330
99
102
}
330
99
100
AcDbScale
 70
     0
300
1/4" = 1'-0"
140
0.25
141
12.0
290
     0
  0
SCALE
  5
8C8
102
{ACAD_REACTORS
330
99
102
}
330
99
100
AcDbScale
 70
     0
300
3/8" = 1'-0"
140
0.375
141
12.0
290
     0
  0
SCALE
  5
8C9
102
{ACAD_REACTORS
330
99
102
}
330
99
100
AcDbScale
 70
     0
300
1/2" = 1'-0"
140
0.5
141
12.0
290
     0
  0
SCALE
  5
8CA
102
{ACAD_REACTORS
330
99
102
}
330
99
100
AcDbScale
 70
     0
300
3/4" = 1'-0"
140
0.75
141
12.0
290
     0
  0
SCALE
  5
8CB
102
{ACAD_REACTORS
330
99
102
}
330
99
100
AcDbScale
 70
     0
300
1" = 1'-0"
140
1.0
141
12.0
290
     0
  0
SCALE
  5
8CC
102
{ACAD_REACTORS
330
99
102
}
330
99
100
AcDbScale
 70
     0
300
1-1/2" = 1'-0"
140
1.5
141
12.0
290
     0
  0
SCALE
  5
8CD
102
{ACAD_REACTORS
330
99
102
}
330
99
100
AcDbScale
 70
     0
300
3" = 1'-0"
140
3.0
141
12.0
290
     0
  0
SCALE
  5
8CE
102
{ACAD_REACTORS
330
99
102
}
330
99
100
AcDbScale
 70
     0
300
6" = 1'-0"
140
6.0
141
12.0
290
     0
  0
SCALE
  5
8CF
102
{ACAD_REACTORS
330
99
102
}
330
99
100
AcDbScale
 70
     0
300
1'-0" = 1'-0"
140
12.0
141
12.0
290
     0
  0
TABLESTYLE
  5
93
102
{ACAD_REACTORS
330
92
102
}
102
{ACAD_XDICTIONARY
360
99C
102
}
330
92
100
AcDbTableStyle
  3
Standard
 70
     0
 71
     0
 40
0.06
 41
0.06
280
     0
281
     0
  7
Standard
140
0.18
170
     2
 62
     0
 63
     7
283
     0
274
    -2
284
     1
 64
     0
275
    -2
285
     1
 65
     0
276
    -2
286
     1
 66
     0
277
    -2
287
     1
 67
     0
278
    -2
288
     1
 68
     0
279
    -2
289
     1
 69
     0
  7
Standard
140
0.25
170
     5
 62
     0
 63
     7
283
     0
274
    -2
284
     1
 64
     0
275
    -2
285
     1
 65
     0
276
    -2
286
     1
 66
     0
277
    -2
287
     1
 67
     0
278
    -2
288
     1
 68
     0
279
    -2
289
     1
 69
     0
  7
Standard
140
0.18
170
     5
 62
     0
 63
     7
283
     0
274
    -2
284
     1
 64
     0
275
    -2
285
     1
 65
     0
276
    -2
286
     1
 66
     0
277
    -2
287
     1
 67
     0
278
    -2
288
     1
 68
     0
279
    -2
289
     1
 69
     0
  0
DICTIONARYVAR
  5
8D1
102
{ACAD_REACTORS
330
59
102
}
330
59
100
DictionaryVariables
280
     0
  1

  0
DICTIONARYVAR
  5
98
102
{ACAD_REACTORS
330
59
102
}
330
59
100
DictionaryVariables
280
     0
  1
Standard
  0
DICTIONARYVAR
  5
5A
102
{ACAD_REACTORS
330
59
102
}
330
59
100
DictionaryVariables
280
     0
  1
2
  0
DICTIONARYVAR
  5
5E
102
{ACAD_REACTORS
330
59
102
}
330
59
100
DictionaryVariables
280
     0
  1
1
  0
DICTIONARYVAR
  5
8D2
102
{ACAD_REACTORS
330
59
102
}
330
59
100
DictionaryVariables
280
     0
  1
0
  0
DICTIONARY
  5
99C
330
93
100
AcDbDictionary
280
     1
281
     1
  3
ACAD_XREC_ROUNDTRIP
360
99D
  0
XRECORD
  5
99D
102
{ACAD_REACTORS
330
99C
102
}
330
99C
100
AcDbXrecord
280
     1
102
ACAD_ROUNDTRIP_PRE2007_TABLESTYLE
 90
      512
 91
        0
  1

 92
      512
 93
        0
  2

 94
      512
 95
        0
  3

  0
ENDSEC
  0
EOF
