  0
SECTION
  2
HEADER
  9
$ACADVER
  1
AC1018
  9
$ACADMAINTVER
 70
     0
  9
$DWGCODEPAGE
  3
ANSI_1252
  9
$LASTSAVEDBY
  1
BelottiMc
  9
$INSBASE
 10
0.0
 20
0.0
 30
0.0
  9
$EXTMIN
 10
-192.1392572106913
 20
130.0428017616508
 30
0.0
  9
$EXTMAX
 10
136.1235668191734
 20
397.2406478706377
 30
0.0
  9
$LIMMIN
 10
0.0
 20
0.0
  9
$LIMMAX
 10
420.0
 20
297.0
  9
$ORTHOMODE
 70
     0
  9
$REGENMODE
 70
     1
  9
$FILLMODE
 70
     1
  9
$QTEXTMODE
 70
     0
  9
$MIRRTEXT
 70
     1
  9
$LTSCALE
 40
1.0
  9
$ATTMODE
 70
     1
  9
$TEXTSIZE
 40
0.2
  9
$TRACEWID
 40
1.0
  9
$TEXTSTYLE
  7
Standard
  9
$CLAYER
  8
0
  9
$CELTYPE
  6
ByLayer
  9
$CECOLOR
 62
   256
  9
$CELTSCALE
 40
1.0
  9
$DISPSILH
 70
     0
  9
$DIMSCALE
 40
1.0
  9
$DIMASZ
 40
2.5
  9
$DIMEXO
 40
0.625
  9
$DIMDLI
 40
3.75
  9
$DIMRND
 40
0.0
  9
$DIMDLE
 40
0.0
  9
$DIMEXE
 40
1.25
  9
$DIMTP
 40
0.0
  9
$DIMTM
 40
0.0
  9
$DIMTXT
 40
2.5
  9
$DIMCEN
 40
2.5
  9
$DIMTSZ
 40
0.0
  9
$DIMTOL
 70
     0
  9
$DIMLIM
 70
     0
  9
$DIMTIH
 70
     0
  9
$DIMTOH
 70
     0
  9
$DIMSE1
 70
     0
  9
$DIMSE2
 70
     0
  9
$DIMTAD
 70
     1
  9
$DIMZIN
 70
     8
  9
$DIMBLK
  1

  9
$DIMASO
 70
     1
  9
$DIMSHO
 70
     1
  9
$DIMPOST
  1

  9
$DIMAPOST
  1

  9
$DIMALT
 70
     0
  9
$DIMALTD
 70
     3
  9
$DIMALTF
 40
0.03937
  9
$DIMLFAC
 40
1.0
  9
$DIMTOFL
 70
     1
  9
$DIMTVP
 40
0.0
  9
$DIMTIX
 70
     0
  9
$DIMSOXD
 70
     0
  9
$DIMSAH
 70
     0
  9
$DIMBLK1
  1

  9
$DIMBLK2
  1

  9
$DIMSTYLE
  2
Standard
  9
$DIMCLRD
 70
     0
  9
$DIMCLRE
 70
     0
  9
$DIMCLRT
 70
     0
  9
$DIMTFAC
 40
1.0
  9
$DIMGAP
 40
0.625
  9
$DIMJUST
 70
     0
  9
$DIMSD1
 70
     0
  9
$DIMSD2
 70
     0
  9
$DIMTOLJ
 70
     0
  9
$DIMTZIN
 70
     8
  9
$DIMALTZ
 70
     0
  9
$DIMALTTZ
 70
     0
  9
$DIMUPT
 70
     0
  9
$DIMDEC
 70
     2
  9
$DIMTDEC
 70
     2
  9
$DIMALTU
 70
     2
  9
$DIMALTTD
 70
     3
  9
$DIMTXSTY
  7
Standard
  9
$DIMAUNIT
 70
     0
  9
$DIMADEC
 70
     0
  9
$DIMALTRND
 40
0.0
  9
$DIMAZIN
 70
     0
  9
$DIMDSEP
 70
    44
  9
$DIMATFIT
 70
     0
  9
$DIMFRAC
 70
     0
  9
$DIMLDRBLK
  1

  9
$DIMLUNIT
 70
     2
  9
$DIMLWD
 70
    -2
  9
$DIMLWE
 70
    -2
  9
$DIMTMOVE
 70
     0
  9
$LUNITS
 70
     2
  9
$LUPREC
 70
     4
  9
$SKETCHINC
 40
1.0
  9
$FILLETRAD
 40
2.5
  9
$AUNITS
 70
     0
  9
$AUPREC
 70
     0
  9
$MENU
  1
.
  9
$ELEVATION
 40
0.0
  9
$PELEVATION
 40
0.0
  9
$THICKNESS
 40
0.0
  9
$LIMCHECK
 70
     0
  9
$CHAMFERA
 40
2.5
  9
$CHAMFERB
 40
2.5
  9
$CHAMFERC
 40
0.0
  9
$CHAMFERD
 40
0.0
  9
$SKPOLY
 70
     0
  9
$TDCREATE
 40
2447893.083333333
  9
$TDUCREATE
 40
2447893.0
  9
$TDUPDATE
 40
2456770.623307234
  9
$TDUUPDATE
 40
2456770.539973901
  9
$TDINDWG
 40
0.0080208218
  9
$TDUSRTIMER
 40
0.0079745255
  9
$USRTIMER
 70
     1
  9
$ANGBASE
 50
0.0
  9
$ANGDIR
 70
     0
  9
$PDMODE
 70
     0
  9
$PDSIZE
 40
0.0
  9
$PLINEWID
 40
0.0
  9
$SPLFRAME
 70
     0
  9
$SPLINETYPE
 70
     6
  9
$SPLINESEGS
 70
     8
  9
$HANDSEED
  5
1035C
  9
$SURFTAB1
 70
     6
  9
$SURFTAB2
 70
     6
  9
$SURFTYPE
 70
     6
  9
$SURFU
 70
     6
  9
$SURFV
 70
     6
  9
$UCSBASE
  2

  9
$UCSNAME
  2

  9
$UCSORG
 10
0.0
 20
0.0
 30
0.0
  9
$UCSXDIR
 10
1.0
 20
0.0
 30
0.0
  9
$UCSYDIR
 10
0.0
 20
1.0
 30
0.0
  9
$UCSORTHOREF
  2

  9
$UCSORTHOVIEW
 70
     0
  9
$UCSORGTOP
 10
0.0
 20
0.0
 30
0.0
  9
$UCSORGBOTTOM
 10
0.0
 20
0.0
 30
0.0
  9
$UCSORGLEFT
 10
0.0
 20
0.0
 30
0.0
  9
$UCSORGRIGHT
 10
0.0
 20
0.0
 30
0.0
  9
$UCSORGFRONT
 10
0.0
 20
0.0
 30
0.0
  9
$UCSORGBACK
 10
0.0
 20
0.0
 30
0.0
  9
$PUCSBASE
  2

  9
$PUCSNAME
  2

  9
$PUCSORG
 10
0.0
 20
0.0
 30
0.0
  9
$PUCSXDIR
 10
1.0
 20
0.0
 30
0.0
  9
$PUCSYDIR
 10
0.0
 20
1.0
 30
0.0
  9
$PUCSORTHOREF
  2

  9
$PUCSORTHOVIEW
 70
     0
  9
$PUCSORGTOP
 10
0.0
 20
0.0
 30
0.0
  9
$PUCSORGBOTTOM
 10
0.0
 20
0.0
 30
0.0
  9
$PUCSORGLEFT
 10
0.0
 20
0.0
 30
0.0
  9
$PUCSORGRIGHT
 10
0.0
 20
0.0
 30
0.0
  9
$PUCSORGFRONT
 10
0.0
 20
0.0
 30
0.0
  9
$PUCSORGBACK
 10
0.0
 20
0.0
 30
0.0
  9
$USERI1
 70
     0
  9
$USERI2
 70
     0
  9
$USERI3
 70
     0
  9
$USERI4
 70
     0
  9
$USERI5
 70
     0
  9
$USERR1
 40
0.0
  9
$USERR2
 40
0.0
  9
$USERR3
 40
0.0
  9
$USERR4
 40
0.0
  9
$USERR5
 40
0.0
  9
$WORLDVIEW
 70
     1
  9
$SHADEDGE
 70
     3
  9
$SHADEDIF
 70
    70
  9
$TILEMODE
 70
     1
  9
$MAXACTVP
 70
    48
  9
$PINSBASE
 10
0.0
 20
0.0
 30
0.0
  9
$PLIMCHECK
 70
     0
  9
$PEXTMIN
 10
0.0
 20
0.0
 30
0.0
  9
$PEXTMAX
 10
420.0
 20
297.0
 30
2.0
  9
$PLIMMIN
 10
0.0
 20
0.0
  9
$PLIMMAX
 10
420.0
 20
297.0
  9
$UNITMODE
 70
     0
  9
$VISRETAIN
 70
     0
  9
$PLINEGEN
 70
     0
  9
$PSLTSCALE
 70
     1
  9
$TREEDEPTH
 70
  3020
  9
$CMLSTYLE
  2
Standard
  9
$CMLJUST
 70
     0
  9
$CMLSCALE
 40
20.0
  9
$PROXYGRAPHICS
 70
     1
  9
$MEASUREMENT
 70
     1
  9
$CELWEIGHT
370
    -1
  9
$ENDCAPS
280
     0
  9
$JOINSTYLE
280
     0
  9
$LWDISPLAY
290
     0
  9
$INSUNITS
 70
     0
  9
$HYPERLINKBASE
  1

  9
$STYLESHEET
  1

  9
$XEDIT
290
     1
  9
$CEPSNTYPE
380
     0
  9
$PSTYLEMODE
290
     0
  9
$FINGERPRINTGUID
  2

  9
$VERSIONGUID
  2

  9
$EXTNAMES
290
     0
  9
$PSVPSCALE
 40
0.0
  9
$OLESTARTUP
290
     0
  9
$SORTENTS
280
   127
  9
$INDEXCTL
280
     0
  9
$HIDETEXT
280
     1
  9
$XCLIPFRAME
290
     0
  9
$HALOGAP
280
     0
  9
$OBSCOLOR
 70
   257
  9
$OBSLTYPE
280
     0
  9
$INTERSECTIONDISPLAY
280
     0
  9
$INTERSECTIONCOLOR
 70
   257
  9
$DIMASSOC
280
     2
  9
$PROJECTNAME
  1

  0
ENDSEC
  0
SECTION
  2
CLASSES
  0
CLASS
  1
ACDBDICTIONARYWDFLT
  2
AcDbDictionaryWithDefault
  3
ObjectDBX Classes
 90
        0
 91
        4
280
     0
281
     0
  0
CLASS
  1
ACDBPLACEHOLDER
  2
AcDbPlaceHolder
  3
ObjectDBX Classes
 90
        0
 91
        1
280
     0
281
     0
  0
CLASS
  1
LAYOUT
  2
AcDbLayout
  3
ObjectDBX Classes
 90
        0
 91
        1
280
     0
281
     0
  0
CLASS
  1
DICTIONARYVAR
  2
AcDbDictionaryVar
  3
ObjectDBX Classes
 90
        0
 91
        4
280
     0
281
     0
  0
CLASS
  1
TABLESTYLE
  2
AcDbTableStyle
  3
ObjectDBX Classes
 90
     4095
 91
        5
280
     0
281
     0
  0
CLASS
  1
SCALE
  2
AcDbScale
  3
ObjectDBX Classes
 90
     1153
 91
      103
280
     0
281
     0
  0
CLASS
  1
MATERIAL
  2
AcDbMaterial
  3
ObjectDBX Classes
 90
     1153
 91
       10
280
     0
281
     0
  0
CLASS
  1
VISUALSTYLE
  2
AcDbVisualStyle
  3
ObjectDBX Classes
 90
     4095
 91
       52
280
     0
281
     0
  0
CLASS
  1
WIPEOUTVARIABLES
  2
AcDbWipeoutVariables
  3
WipeOut|AutoCAD Express Tool|expresstools@autodesk.com
 90
        0
 91
        4
280
     0
281
     0
  0
ENDSEC
  0
SECTION
  2
TABLES
  0
TABLE
  2
VPORT
  5
8
102
{ACAD_XDICTIONARY
360
1035A
102
}
330
0
100
AcDbSymbolTable
 70
     2
  0
VPORT
  5
97
330
8
100
AcDbSymbolTableRecord
100
AcDbViewportTableRecord
  2
*ACTIVE
 70
     0
 10
0.0
 20
0.0
 11
1.0
 21
1.0
 12
101.8217202516266
 22
205.2245210025575
 13
0.0
 23
0.0
 14
1.0
 24
1.0
 15
0.5
 25
0.5
 16
0.0
 26
0.0
 36
1.0
 17
0.0
 27
0.0
 37
0.0
 40
1044.182553320782
 41
0.688564
 42
50.0
 43
0.0
 44
0.0
 50
0.0
 51
0.0
 71
     0
 72
   100
 73
     1
 74
     1
 75
     0
 76
     0
 77
     0
 78
     0
281
     0
 65
     1
110
0.0
120
0.0
130
0.0
111
1.0
121
0.0
131
0.0
112
0.0
122
1.0
132
0.0
 79
     0
146
0.0
  0
ENDTAB
  0
TABLE
  2
LTYPE
  5
5
330
0
100
AcDbSymbolTable
 70
     2
  0
LTYPE
  5
14
330
5
100
AcDbSymbolTableRecord
100
AcDbLinetypeTableRecord
  2
ByBlock
 70
     0
  3

 72
    65
 73
     0
 40
0.0
  0
LTYPE
  5
15
330
5
100
AcDbSymbolTableRecord
100
AcDbLinetypeTableRecord
  2
ByLayer
 70
     0
  3

 72
    65
 73
     0
 40
0.0
  0
LTYPE
  5
16
330
5
100
AcDbSymbolTableRecord
100
AcDbLinetypeTableRecord
  2
Continuous
 70
     0
  3
Solid line
 72
    65
 73
     0
 40
0.0
  0
LTYPE
  5
1031C
330
5
100
AcDbSymbolTableRecord
100
AcDbLinetypeTableRecord
  2
DASHDOT
 70
     0
  3
 __ . __ . __ . __ . __ . __ . __ . 
 72
    65
 73
     4
 40
18.5
 49
12.0
 74
     0
 49
-3.0
 74
     0
 49
0.5
 74
     0
 49
-3.0
 74
     0
  0
ENDTAB
  0
TABLE
  2
LAYER
  5
2
330
0
100
AcDbSymbolTable
 70
     2
  0
LAYER
  5
10
330
2
100
AcDbSymbolTableRecord
100
AcDbLayerTableRecord
  2
0
 70
     0
 62
     7
  6
Continuous
370
    -3
390
F
  0
LAYER
  5
10259
330
2
100
AcDbSymbolTableRecord
100
AcDbLayerTableRecord
  2
DEFPOINTS
 70
     0
 62
     7
  6
Continuous
290
     0
370
    -3
390
F
  0
ENDTAB
  0
TABLE
  2
STYLE
  5
3
330
0
100
AcDbSymbolTable
 70
     1
  0
STYLE
  5
11
330
3
100
AcDbSymbolTableRecord
100
AcDbTextStyleTableRecord
  2
Standard
 70
     0
 40
0.0
 41
1.0
 50
0.0
 71
     0
 42
2.5
  3
txt
  4

  0
ENDTAB
  0
TABLE
  2
VIEW
  5
6
330
0
100
AcDbSymbolTable
 70
     0
  0
ENDTAB
  0
TABLE
  2
UCS
  5
7
330
0
100
AcDbSymbolTable
 70
     0
  0
ENDTAB
  0
TABLE
  2
APPID
  5
9
330
0
100
AcDbSymbolTable
 70
     1
  0
APPID
  5
12
330
9
100
AcDbSymbolTableRecord
100
AcDbRegAppTableRecord
  2
ACAD
 70
     0
  0
ENDTAB
  0
TABLE
  2
DIMSTYLE
  5
A
330
0
100
AcDbSymbolTable
 70
     1
100
AcDbDimStyleTable
  0
DIMSTYLE
105
27
102
{ACAD_REACTORS
330
1025A
330
1028B
330
102D7
102
}
330
A
100
AcDbSymbolTableRecord
100
AcDbDimStyleTableRecord
  2
Standard
 70
     0
340
11
  0
ENDTAB
  0
TABLE
  2
BLOCK_RECORD
  5
1
330
0
100
AcDbSymbolTable
 70
    14
  0
BLOCK_RECORD
  5
1F
330
1
100
AcDbSymbolTableRecord
100
AcDbBlockTableRecord
  2
*Model_Space
340
22
  0
BLOCK_RECORD
  5
73
330
1
100
AcDbSymbolTableRecord
100
AcDbBlockTableRecord
  2
*Paper_Space
340
74
  0
BLOCK_RECORD
  5
10265
330
1
100
AcDbSymbolTableRecord
100
AcDbBlockTableRecord
  2
*D0
340
0
  0
BLOCK_RECORD
  5
10270
330
1
100
AcDbSymbolTableRecord
100
AcDbBlockTableRecord
  2
*D1
340
0
  0
BLOCK_RECORD
  5
1027D
330
1
100
AcDbSymbolTableRecord
100
AcDbBlockTableRecord
  2
*D2
340
0
  0
BLOCK_RECORD
  5
1028A
330
1
100
AcDbSymbolTableRecord
100
AcDbBlockTableRecord
  2
*D3
340
0
  0
BLOCK_RECORD
  5
10297
330
1
100
AcDbSymbolTableRecord
100
AcDbBlockTableRecord
  2
*D4
340
0
  0
BLOCK_RECORD
  5
102A2
330
1
100
AcDbSymbolTableRecord
100
AcDbBlockTableRecord
  2
*D5
340
0
  0
BLOCK_RECORD
  5
102AD
330
1
100
AcDbSymbolTableRecord
100
AcDbBlockTableRecord
  2
*D6
340
0
  0
BLOCK_RECORD
  5
102B9
330
1
100
AcDbSymbolTableRecord
100
AcDbBlockTableRecord
  2
*D7
340
0
  0
BLOCK_RECORD
  5
102E2
330
1
100
AcDbSymbolTableRecord
100
AcDbBlockTableRecord
  2
*D8
340
0
  0
BLOCK_RECORD
  5
102EE
330
1
100
AcDbSymbolTableRecord
100
AcDbBlockTableRecord
  2
*D9
340
0
  0
BLOCK_RECORD
  5
102F9
330
1
100
AcDbSymbolTableRecord
100
AcDbBlockTableRecord
  2
*D10
340
0
  0
BLOCK_RECORD
  5
10304
330
1
100
AcDbSymbolTableRecord
100
AcDbBlockTableRecord
  2
*D11
340
0
  0
BLOCK_RECORD
  5
1030F
330
1
100
AcDbSymbolTableRecord
100
AcDbBlockTableRecord
  2
*D12
340
0
  0
BLOCK_RECORD
  5
1031A
330
1
100
AcDbSymbolTableRecord
100
AcDbBlockTableRecord
  2
*D13
340
0
  0
ENDTAB
  0
ENDSEC
  0
SECTION
  2
BLOCKS
  0
BLOCK
  5
20
330
1F
100
AcDbEntity
  8
0
100
AcDbBlockBegin
  2
*Model_Space
 70
     0
 10
0.0
 20
0.0
 30
0.0
  3
*Model_Space
  1

  0
ENDBLK
  5
21
330
1F
100
AcDbEntity
  8
0
100
AcDbBlockEnd
  0
BLOCK
  5
75
330
73
100
AcDbEntity
 67
     1
  8
0
100
AcDbBlockBegin
  2
*Paper_Space
 70
     0
 10
0.0
 20
0.0
 30
0.0
  3
*Paper_Space
  1

  0
ENDBLK
  5
76
330
73
100
AcDbEntity
 67
     1
  8
0
100
AcDbBlockEnd
  0
BLOCK
  5
10336
330
10265
100
AcDbEntity
  8
0
100
AcDbBlockBegin
  2
*D0
 70
     1
 10
0.0
 20
0.0
 30
0.0
  3
*D0
  1

  0
POINT
  5
1025C
330
10265
100
AcDbEntity
  8
DEFPOINTS
  6
ByBlock
 62
     0
380
     1
100
AcDbPoint
 10
-46.61465010293629
 20
264.7670272507293
 30
0.0
  0
POINT
  5
1025D
330
10265
100
AcDbEntity
  8
DEFPOINTS
  6
ByBlock
 62
     0
380
     1
100
AcDbPoint
 10
80.91019897429348
 20
267.0707104112256
 30
0.0
  0
LINE
  5
1025E
330
10265
100
AcDbEntity
  8
0
  6
ByBlock
 62
     0
370
    -2
380
     1
100
AcDbLine
 10
-46.61465010293629
 20
265.3920272507293
 30
0.0
 11
-46.61465010293629
 21
283.9216626441858
 31
0.0
  0
LINE
  5
1025F
330
10265
100
AcDbEntity
  8
0
  6
ByBlock
 62
     0
370
    -2
380
     1
100
AcDbLine
 10
80.91019897429348
 20
267.6957104112256
 30
0.0
 11
80.91019897429348
 21
283.9216626441858
 31
0.0
  0
LINE
  5
10260
330
10265
100
AcDbEntity
  8
0
  6
ByBlock
 62
     0
370
    -2
380
     1
100
AcDbLine
 10
-44.11465010293629
 20
282.6716626441858
 30
0.0
 11
78.41019897429348
 21
282.6716626441858
 31
0.0
  0
SOLID
  5
10261
330
10265
100
AcDbEntity
  8
0
  6
ByBlock
 62
     0
380
     1
100
AcDbTrace
 10
-46.61465010293629
 20
282.6716626441858
 30
0.0
 11
-44.11465010293629
 21
282.2549959775191
 31
0.0
 12
-44.11465010293629
 22
283.0883293108525
 32
0.0
 13
-44.11465010293629
 23
283.0883293108525
 33
0.0
  0
SOLID
  5
10262
330
10265
100
AcDbEntity
  8
0
  6
ByBlock
 62
     0
380
     1
100
AcDbTrace
 10
80.91019897429348
 20
282.6716626441858
 30
0.0
 11
78.41019897429348
 21
282.2549959775191
 31
0.0
 12
78.41019897429348
 22
283.0883293108525
 32
0.0
 13
78.41019897429348
 23
283.0883293108525
 33
0.0
  0
MTEXT
  5
10263
330
10265
100
AcDbEntity
  8
0
  6
ByBlock
 62
     0
370
    -2
380
     1
100
AcDbMText
 10
17.14777443567859
 20
284.7549959775191
 30
0.0
 40
2.5
 41
0.0
 71
     5
 72
     1
  1
\A1;127,52
 73
     1
 44
1.0
  0
ENDBLK
  5
10337
330
10265
100
AcDbEntity
  8
0
100
AcDbBlockEnd
  0
BLOCK
  5
10338
330
10270
100
AcDbEntity
  8
0
100
AcDbBlockBegin
  2
*D1
 70
     1
 10
0.0
 20
0.0
 30
0.0
  3
*D1
  1

  0
POINT
  5
10267
330
10270
100
AcDbEntity
  8
DEFPOINTS
  6
ByBlock
 62
     0
380
     1
100
AcDbPoint
 10
-46.61465010293629
 20
264.7670272507293
 30
0.0
  0
POINT
  5
10268
330
10270
100
AcDbEntity
  8
DEFPOINTS
  6
ByBlock
 62
     0
380
     1
100
AcDbPoint
 10
80.91019897429348
 20
267.0707104112256
 30
0.0
  0
LINE
  5
10269
330
10270
100
AcDbEntity
  8
0
  6
ByBlock
 62
     0
370
    -2
380
     1
100
AcDbLine
 10
-46.61465010293629
 20
265.3920272507293
 30
0.0
 11
-46.61465010293629
 21
283.9216626441858
 31
0.0
  0
LINE
  5
1026A
330
10270
100
AcDbEntity
  8
0
  6
ByBlock
 62
     0
370
    -2
380
     1
100
AcDbLine
 10
80.91019897429348
 20
267.6957104112256
 30
0.0
 11
80.91019897429348
 21
283.9216626441858
 31
0.0
  0
LINE
  5
1026B
330
10270
100
AcDbEntity
  8
0
  6
ByBlock
 62
     0
370
    -2
380
     1
100
AcDbLine
 10
-36.61465010293629
 20
282.6716626441858
 30
0.0
 11
70.91019897429348
 21
282.6716626441858
 31
0.0
  0
SOLID
  5
1026C
330
10270
100
AcDbEntity
  8
0
  6
ByBlock
 62
     0
380
     1
100
AcDbTrace
 10
-46.61465010293629
 20
282.6716626441858
 30
0.0
 11
-36.61465010293629
 21
281.0049959775191
 31
0.0
 12
-36.61465010293629
 22
284.3383293108525
 32
0.0
 13
-36.61465010293629
 23
284.3383293108525
 33
0.0
  0
SOLID
  5
1026D
330
10270
100
AcDbEntity
  8
0
  6
ByBlock
 62
     0
380
     1
100
AcDbTrace
 10
80.91019897429348
 20
282.6716626441858
 30
0.0
 11
70.91019897429348
 21
281.0049959775191
 31
0.0
 12
70.91019897429348
 22
284.3383293108525
 32
0.0
 13
70.91019897429348
 23
284.3383293108525
 33
0.0
  0
MTEXT
  5
1026E
330
10270
100
AcDbEntity
  8
0
  6
ByBlock
 62
     0
370
    -2
380
     1
100
AcDbMText
 10
17.14777443567859
 20
310.6716626441858
 30
0.0
 40
36.0
 41
0.0
 71
     5
 72
     1
  1
\A1;128
 73
     1
 44
1.0
  0
ENDBLK
  5
10339
330
10270
100
AcDbEntity
  8
0
100
AcDbBlockEnd
  0
BLOCK
  5
1033A
330
1027D
100
AcDbEntity
  8
0
100
AcDbBlockBegin
  2
*D2
 70
     1
 10
0.0
 20
0.0
 30
0.0
  3
*D2
  1

  0
POINT
  5
10272
330
1027D
100
AcDbEntity
  8
DEFPOINTS
  6
ByBlock
 62
     0
380
     1
100
AcDbPoint
 10
-46.61465010293629
 20
264.7670272507293
 30
0.0
  0
POINT
  5
10273
330
1027D
100
AcDbEntity
  8
DEFPOINTS
  6
ByBlock
 62
     0
380
     1
100
AcDbPoint
 10
80.91019897429348
 20
267.0707104112256
 30
0.0
  0
LINE
  5
10274
330
1027D
100
AcDbEntity
  8
0
  6
ByBlock
 62
     0
370
    -2
380
     1
100
AcDbLine
 10
-46.61465010293629
 20
265.3920272507293
 30
0.0
 11
-46.61465010293629
 21
283.9216626441858
 31
0.0
  0
LINE
  5
10275
330
1027D
100
AcDbEntity
  8
0
  6
ByBlock
 62
     0
370
    -2
380
     1
100
AcDbLine
 10
80.91019897429348
 20
267.6957104112256
 30
0.0
 11
80.91019897429348
 21
283.9216626441858
 31
0.0
  0
LINE
  5
10276
330
1027D
100
AcDbEntity
  8
0
  6
ByBlock
 62
     0
370
    -2
380
     1
100
AcDbLine
 10
-56.61465010293629
 20
282.6716626441858
 30
0.0
 11
-66.61465010293628
 21
282.6716626441858
 31
0.0
  0
LINE
  5
10277
330
1027D
100
AcDbEntity
  8
0
  6
ByBlock
 62
     0
370
    -2
380
     1
100
AcDbLine
 10
90.91019897429348
 20
282.6716626441858
 30
0.0
 11
100.9101989742935
 21
282.6716626441858
 31
0.0
  0
SOLID
  5
10278
330
1027D
100
AcDbEntity
  8
0
  6
ByBlock
 62
     0
380
     1
100
AcDbTrace
 10
-46.61465010293629
 20
282.6716626441858
 30
0.0
 11
-56.61465010293629
 21
281.0049959775191
 31
0.0
 12
-56.61465010293629
 22
284.3383293108525
 32
0.0
 13
-56.61465010293629
 23
284.3383293108525
 33
0.0
  0
SOLID
  5
10279
330
1027D
100
AcDbEntity
  8
0
  6
ByBlock
 62
     0
380
     1
100
AcDbTrace
 10
80.91019897429348
 20
282.6716626441858
 30
0.0
 11
90.91019897429348
 21
281.0049959775191
 31
0.0
 12
90.91019897429348
 22
284.3383293108525
 32
0.0
 13
90.91019897429348
 23
284.3383293108525
 33
0.0
  0
LINE
  5
1027A
330
1027D
100
AcDbEntity
  8
0
  6
ByBlock
 62
     0
370
    -2
380
     1
100
AcDbLine
 10
-46.61465010293629
 20
282.6716626441858
 30
0.0
 11
80.91019897429348
 21
282.6716626441858
 31
0.0
  0
MTEXT
  5
1027B
330
1027D
100
AcDbEntity
  8
0
  6
ByBlock
 62
     0
370
    -2
380
     1
100
AcDbMText
 10
17.14777443567859
 20
310.6716626441858
 30
0.0
 40
36.0
 41
0.0
 71
     5
 72
     1
  1
1000
 73
     1
 44
1.0
  0
ENDBLK
  5
1033B
330
1027D
100
AcDbEntity
  8
0
100
AcDbBlockEnd
  0
BLOCK
  5
1033C
330
1028A
100
AcDbEntity
  8
0
100
AcDbBlockBegin
  2
*D3
 70
     1
 10
0.0
 20
0.0
 30
0.0
  3
*D3
  1

  0
POINT
  5
1027F
330
1028A
100
AcDbEntity
  8
DEFPOINTS
  6
ByBlock
 62
     0
380
     1
100
AcDbPoint
 10
-46.61465010293629
 20
264.7670272507293
 30
0.0
  0
POINT
  5
10280
330
1028A
100
AcDbEntity
  8
DEFPOINTS
  6
ByBlock
 62
     0
380
     1
100
AcDbPoint
 10
80.91019897429348
 20
267.0707104112256
 30
0.0
  0
LINE
  5
10281
330
1028A
100
AcDbEntity
  8
0
  6
ByBlock
 62
     0
370
    -2
380
     1
100
AcDbLine
 10
-46.61465010293629
 20
265.3920272507293
 30
0.0
 11
-46.61465010293629
 21
283.9216626441858
 31
0.0
  0
LINE
  5
10282
330
1028A
100
AcDbEntity
  8
0
  6
ByBlock
 62
     0
370
    -2
380
     1
100
AcDbLine
 10
80.91019897429348
 20
267.6957104112256
 30
0.0
 11
80.91019897429348
 21
283.9216626441858
 31
0.0
  0
LINE
  5
10283
330
1028A
100
AcDbEntity
  8
0
  6
ByBlock
 62
     0
370
    -2
380
     1
100
AcDbLine
 10
-56.61465010293629
 20
282.6716626441858
 30
0.0
 11
-66.61465010293628
 21
282.6716626441858
 31
0.0
  0
LINE
  5
10284
330
1028A
100
AcDbEntity
  8
0
  6
ByBlock
 62
     0
370
    -2
380
     1
100
AcDbLine
 10
90.91019897429348
 20
282.6716626441858
 30
0.0
 11
100.9101989742935
 21
282.6716626441858
 31
0.0
  0
SOLID
  5
10285
330
1028A
100
AcDbEntity
  8
0
  6
ByBlock
 62
     0
380
     1
100
AcDbTrace
 10
-46.61465010293629
 20
282.6716626441858
 30
0.0
 11
-56.61465010293629
 21
281.0049959775191
 31
0.0
 12
-56.61465010293629
 22
284.3383293108525
 32
0.0
 13
-56.61465010293629
 23
284.3383293108525
 33
0.0
  0
SOLID
  5
10286
330
1028A
100
AcDbEntity
  8
0
  6
ByBlock
 62
     0
380
     1
100
AcDbTrace
 10
80.91019897429348
 20
282.6716626441858
 30
0.0
 11
90.91019897429348
 21
281.0049959775191
 31
0.0
 12
90.91019897429348
 22
284.3383293108525
 32
0.0
 13
90.91019897429348
 23
284.3383293108525
 33
0.0
  0
LINE
  5
10287
330
1028A
100
AcDbEntity
  8
0
  6
ByBlock
 62
     0
370
    -2
380
     1
100
AcDbLine
 10
-46.61465010293629
 20
282.6716626441858
 30
0.0
 11
80.91019897429348
 21
282.6716626441858
 31
0.0
  0
MTEXT
  5
10288
330
1028A
100
AcDbEntity
  8
0
  6
ByBlock
 62
     0
370
    -2
380
     1
100
AcDbMText
 10
17.14777443567859
 20
310.6716626441858
 30
0.0
 40
36.0
 41
0.0
 71
     5
 72
     1
  1
1000
 73
     1
 44
1.0
  0
ENDBLK
  5
1033D
330
1028A
100
AcDbEntity
  8
0
100
AcDbBlockEnd
  0
BLOCK
  5
1033E
330
10297
100
AcDbEntity
  8
0
100
AcDbBlockBegin
  2
*D4
 70
     1
 10
0.0
 20
0.0
 30
0.0
  3
*D4
  1

  0
LINE
  5
1028D
330
10297
100
AcDbEntity
  8
0
  6
ByBlock
 62
     0
370
    -2
380
     1
100
AcDbLine
 10
-89.31955476150826
 20
268.2068652024571
 30
0.0
 11
-91.01624952139576
 21
270.0429553123837
 31
0.0
  0
LINE
  5
1028E
330
10297
100
AcDbEntity
  8
0
  6
ByBlock
 62
     0
370
    -2
380
     1
100
AcDbLine
 10
-91.01624952139576
 20
270.0429553123837
 30
0.0
 11
-97.23746364098331
 21
276.7752857154479
 31
0.0
  0
LINE
  5
1028F
330
10297
100
AcDbEntity
  8
0
  6
ByBlock
 62
     0
370
    -2
380
     1
100
AcDbLine
 10
-81.51475886602553
 20
259.7608506967945
 30
0.0
 11
-79.81806410613801
 21
257.9247605868679
 31
0.0
  0
LINE
  5
10290
330
10297
100
AcDbEntity
  8
0
  6
ByBlock
 62
     0
370
    -2
380
     1
100
AcDbLine
 10
-87.62286000162075
 20
266.3707750925305
 30
0.0
 11
-83.21145362591304
 21
261.5969408067211
 31
0.0
  0
SOLID
  5
10291
330
10297
100
AcDbEntity
  8
0
  6
ByBlock
 62
     0
380
     1
100
AcDbTrace
 10
-83.21145362591304
 20
261.5969408067211
 30
0.0
 11
-81.20874384770443
 21
260.0436331567758
 31
0.0
 12
-81.82077388434662
 22
259.4780682368133
 32
0.0
 13
-81.82077388434662
 23
259.4780682368133
 33
0.0
  0
SOLID
  5
10292
330
10297
100
AcDbEntity
  8
0
  6
ByBlock
 62
     0
380
     1
100
AcDbTrace
 10
-87.62286000162075
 20
266.3707750925305
 30
0.0
 11
-89.01353974318717
 21
268.4896476624384
 31
0.0
 12
-89.62556977982936
 22
267.9240827424758
 32
0.0
 13
-89.62556977982936
 23
267.9240827424758
 33
0.0
  0
MTEXT
  5
10293
330
10297
100
AcDbEntity
  8
0
  6
ByBlock
 62
     0
370
    -2
380
     1
100
AcDbMText
 10
-92.74978899874458
 20
274.6816415838314
 30
0.0
 40
2.5
 41
0.0
 71
     5
 72
     1
  1
\A1;%%c6,5
 11
0.678677903955004
 21
-0.734436043970639
 31
0.0
 73
     1
 44
1.0
  0
POINT
  5
10294
330
10297
100
AcDbEntity
  8
DEFPOINTS
  6
ByBlock
 62
     0
380
     1
100
AcDbPoint
 10
-83.21145362591304
 20
261.5969408067211
 30
0.0
  0
POINT
  5
10295
330
10297
100
AcDbEntity
  8
DEFPOINTS
  6
ByBlock
 62
     0
380
     1
100
AcDbPoint
 10
-87.62286000162075
 20
266.3707750925305
 30
0.0
  0
ENDBLK
  5
1033F
330
10297
100
AcDbEntity
  8
0
100
AcDbBlockEnd
  0
BLOCK
  5
10340
330
102A2
100
AcDbEntity
  8
0
100
AcDbBlockBegin
  2
*D5
 70
     1
 10
0.0
 20
0.0
 30
0.0
  3
*D5
  1

  0
LINE
  5
10299
330
102A2
100
AcDbEntity
  8
0
  6
ByBlock
 62
     0
370
    -2
380
     1
100
AcDbLine
 10
-94.40963904117079
 20
273.7151355322369
 30
0.0
 11
-155.4906503971211
 21
339.8143794895944
 31
0.0
  0
LINE
  5
1029A
330
102A2
100
AcDbEntity
  8
0
  6
ByBlock
 62
     0
370
    -2
380
     1
100
AcDbLine
 10
-76.424674586363
 20
254.2525803670148
 30
0.0
 11
-69.63789554681296
 21
246.9082199273084
 31
0.0
  0
LINE
  5
1029B
330
102A2
100
AcDbEntity
  8
0
  6
ByBlock
 62
     0
370
    -2
380
     1
100
AcDbLine
 10
-87.62286000162075
 20
266.3707750925305
 30
0.0
 11
-83.21145362591304
 21
261.5969408067211
 31
0.0
  0
SOLID
  5
1029C
330
102A2
100
AcDbEntity
  8
0
  6
ByBlock
 62
     0
380
     1
100
AcDbTrace
 10
-83.21145362591304
 20
261.5969408067211
 30
0.0
 11
-75.2006145130786
 21
255.3837102069398
 31
0.0
 12
-77.6487346596474
 22
253.1214505270897
 32
0.0
 13
-77.6487346596474
 23
253.1214505270897
 33
0.0
  0
SOLID
  5
1029D
330
102A2
100
AcDbEntity
  8
0
  6
ByBlock
 62
     0
380
     1
100
AcDbTrace
 10
-87.62286000162075
 20
266.3707750925305
 30
0.0
 11
-93.18557896788639
 21
274.8462653721619
 31
0.0
 12
-95.63369911445518
 22
272.5840056923119
 32
0.0
 13
-95.63369911445518
 23
272.5840056923119
 33
0.0
  0
MTEXT
  5
1029E
330
102A2
100
AcDbEntity
  8
0
  6
ByBlock
 62
     0
370
    -2
380
     1
100
AcDbMText
 10
-107.7793250077431
 20
329.4399190415089
 30
0.0
 40
36.0
 41
0.0
 71
     5
 72
     1
  1
\A1;%%c7
 11
0.678677903955004
 21
-0.734436043970639
 31
0.0
 73
     1
 44
1.0
  0
POINT
  5
1029F
330
102A2
100
AcDbEntity
  8
DEFPOINTS
  6
ByBlock
 62
     0
380
     1
100
AcDbPoint
 10
-83.21145362591304
 20
261.5969408067211
 30
0.0
  0
POINT
  5
102A0
330
102A2
100
AcDbEntity
  8
DEFPOINTS
  6
ByBlock
 62
     0
380
     1
100
AcDbPoint
 10
-87.62286000162075
 20
266.3707750925305
 30
0.0
  0
ENDBLK
  5
10341
330
102A2
100
AcDbEntity
  8
0
100
AcDbBlockEnd
  0
BLOCK
  5
10342
330
102AD
100
AcDbEntity
  8
0
100
AcDbBlockBegin
  2
*D6
 70
     1
 10
0.0
 20
0.0
 30
0.0
  3
*D6
  1

  0
LINE
  5
102A4
330
102AD
100
AcDbEntity
  8
0
  6
ByBlock
 62
     0
370
    -2
380
     1
100
AcDbLine
 10
-94.40963904117079
 20
273.7151355322369
 30
0.0
 11
-192.1392572106913
 21
379.4739258640089
 31
0.0
  0
LINE
  5
102A5
330
102AD
100
AcDbEntity
  8
0
  6
ByBlock
 62
     0
370
    -2
380
     1
100
AcDbLine
 10
-76.424674586363
 20
254.2525803670148
 30
0.0
 11
-69.63789554681296
 21
246.9082199273084
 31
0.0
  0
LINE
  5
102A6
330
102AD
100
AcDbEntity
  8
0
  6
ByBlock
 62
     0
370
    -2
380
     1
100
AcDbLine
 10
-87.62286000162075
 20
266.3707750925305
 30
0.0
 11
-83.21145362591304
 21
261.5969408067211
 31
0.0
  0
SOLID
  5
102A7
330
102AD
100
AcDbEntity
  8
0
  6
ByBlock
 62
     0
380
     1
100
AcDbTrace
 10
-83.21145362591304
 20
261.5969408067211
 30
0.0
 11
-75.2006145130786
 21
255.3837102069398
 31
0.0
 12
-77.6487346596474
 22
253.1214505270897
 32
0.0
 13
-77.6487346596474
 23
253.1214505270897
 33
0.0
  0
SOLID
  5
102A8
330
102AD
100
AcDbEntity
  8
0
  6
ByBlock
 62
     0
380
     1
100
AcDbTrace
 10
-87.62286000162075
 20
266.3707750925305
 30
0.0
 11
-93.18557896788639
 21
274.8462653721619
 31
0.0
 12
-95.63369911445518
 22
272.5840056923119
 32
0.0
 13
-95.63369911445518
 23
272.5840056923119
 33
0.0
  0
MTEXT
  5
102A9
330
102AD
100
AcDbEntity
  8
0
  6
ByBlock
 62
     0
370
    -2
380
     1
100
AcDbMText
 10
-126.1036284145282
 20
349.2696922287162
 30
0.0
 40
36.0
 41
0.0
 71
     5
 72
     1
  1
\A1;%%c6,5
 11
0.678677903955004
 21
-0.734436043970639
 31
0.0
 73
     1
 44
1.0
  0
POINT
  5
102AA
330
102AD
100
AcDbEntity
  8
DEFPOINTS
  6
ByBlock
 62
     0
380
     1
100
AcDbPoint
 10
-83.21145362591304
 20
261.5969408067211
 30
0.0
  0
POINT
  5
102AB
330
102AD
100
AcDbEntity
  8
DEFPOINTS
  6
ByBlock
 62
     0
380
     1
100
AcDbPoint
 10
-87.62286000162075
 20
266.3707750925305
 30
0.0
  0
ENDBLK
  5
10343
330
102AD
100
AcDbEntity
  8
0
100
AcDbBlockEnd
  0
BLOCK
  5
10344
330
102B9
100
AcDbEntity
  8
0
100
AcDbBlockBegin
  2
*D7
 70
     1
 10
0.0
 20
0.0
 30
0.0
  3
*D7
  1

  0
LINE
  5
102AF
330
102B9
100
AcDbEntity
  8
0
  6
ByBlock
 62
     0
370
    -2
380
     1
100
AcDbLine
 10
-94.40963904117079
 20
273.7151355322369
 30
0.0
 11
-101.1964180807208
 21
281.0594959719432
 31
0.0
  0
LINE
  5
102B0
330
102B9
100
AcDbEntity
  8
0
  6
ByBlock
 62
     0
370
    -2
380
     1
100
AcDbLine
 10
-101.1964180807208
 20
281.0594959719432
 30
0.0
 11
-192.1392572106913
 21
379.4739258640089
 31
0.0
  0
LINE
  5
102B1
330
102B9
100
AcDbEntity
  8
0
  6
ByBlock
 62
     0
370
    -2
380
     1
100
AcDbLine
 10
-76.424674586363
 20
254.2525803670148
 30
0.0
 11
-69.63789554681296
 21
246.9082199273084
 31
0.0
  0
LINE
  5
102B2
330
102B9
100
AcDbEntity
  8
0
  6
ByBlock
 62
     0
370
    -2
380
     1
100
AcDbLine
 10
-87.62286000162075
 20
266.3707750925305
 30
0.0
 11
-83.21145362591304
 21
261.5969408067211
 31
0.0
  0
SOLID
  5
102B3
330
102B9
100
AcDbEntity
  8
0
  6
ByBlock
 62
     0
380
     1
100
AcDbTrace
 10
-83.21145362591304
 20
261.5969408067211
 30
0.0
 11
-75.2006145130786
 21
255.3837102069398
 31
0.0
 12
-77.6487346596474
 22
253.1214505270897
 32
0.0
 13
-77.6487346596474
 23
253.1214505270897
 33
0.0
  0
SOLID
  5
102B4
330
102B9
100
AcDbEntity
  8
0
  6
ByBlock
 62
     0
380
     1
100
AcDbTrace
 10
-87.62286000162075
 20
266.3707750925305
 30
0.0
 11
-93.18557896788639
 21
274.8462653721619
 31
0.0
 12
-95.63369911445518
 22
272.5840056923119
 32
0.0
 13
-95.63369911445518
 23
272.5840056923119
 33
0.0
  0
MTEXT
  5
102B5
330
102B9
100
AcDbEntity
  8
0
  6
ByBlock
 62
     0
370
    -2
380
     1
100
AcDbMText
 10
-126.1036284145282
 20
349.2696922287162
 30
0.0
 40
36.0
 41
0.0
 71
     5
 72
     1
  1
\A1;%%c6,5
 11
0.678677903955004
 21
-0.734436043970639
 31
0.0
 73
     1
 44
1.0
  0
POINT
  5
102B6
330
102B9
100
AcDbEntity
  8
DEFPOINTS
  6
ByBlock
 62
     0
380
     1
100
AcDbPoint
 10
-83.21145362591304
 20
261.5969408067211
 30
0.0
  0
POINT
  5
102B7
330
102B9
100
AcDbEntity
  8
DEFPOINTS
  6
ByBlock
 62
     0
380
     1
100
AcDbPoint
 10
-87.62286000162075
 20
266.3707750925305
 30
0.0
  0
ENDBLK
  5
10345
330
102B9
100
AcDbEntity
  8
0
100
AcDbBlockEnd
  0
BLOCK
  5
10346
330
102E2
100
AcDbEntity
  8
0
100
AcDbBlockBegin
  2
*D8
 70
     1
 10
0.0
 20
0.0
 30
0.0
  3
*D8
  1

  0
POINT
  5
102D9
330
102E2
100
AcDbEntity
  8
DEFPOINTS
  6
ByBlock
 62
     0
380
     1
100
AcDbPoint
 10
24.75001759029378
 20
182.5428017616508
 30
0.0
  0
POINT
  5
102DA
330
102E2
100
AcDbEntity
  8
DEFPOINTS
  6
ByBlock
 62
     0
380
     1
100
AcDbPoint
 10
24.75001759029378
 20
142.5428017616508
 30
0.0
  0
LINE
  5
102DB
330
102E2
100
AcDbEntity
  8
0
  6
ByBlock
 62
     0
370
    -2
380
     1
100
AcDbLine
 10
24.12501759029378
 20
182.5428017616508
 30
0.0
 11
-5.728236832173948
 21
182.5428017616508
 31
0.0
  0
LINE
  5
102DC
330
102E2
100
AcDbEntity
  8
0
  6
ByBlock
 62
     0
370
    -2
380
     1
100
AcDbLine
 10
24.12501759029378
 20
142.5428017616508
 30
0.0
 11
-5.728236832173948
 21
142.5428017616508
 31
0.0
  0
LINE
  5
102DD
330
102E2
100
AcDbEntity
  8
0
  6
ByBlock
 62
     0
370
    -2
380
     1
100
AcDbLine
 10
-4.478236832173948
 20
180.0428017616508
 30
0.0
 11
-4.478236832173948
 21
145.0428017616508
 31
0.0
  0
SOLID
  5
102DE
330
102E2
100
AcDbEntity
  8
0
  6
ByBlock
 62
     0
380
     1
100
AcDbTrace
 10
-4.478236832173948
 20
182.5428017616508
 30
0.0
 11
-4.894903498840616
 21
180.0428017616508
 31
0.0
 12
-4.06157016550728
 22
180.0428017616508
 32
0.0
 13
-4.06157016550728
 23
180.0428017616508
 33
0.0
  0
SOLID
  5
102DF
330
102E2
100
AcDbEntity
  8
0
  6
ByBlock
 62
     0
380
     1
100
AcDbTrace
 10
-4.478236832173948
 20
142.5428017616508
 30
0.0
 11
-4.894903498840616
 21
145.0428017616508
 31
0.0
 12
-4.06157016550728
 22
145.0428017616508
 32
0.0
 13
-4.06157016550728
 23
145.0428017616508
 33
0.0
  0
MTEXT
  5
102E0
330
102E2
100
AcDbEntity
  8
0
  6
ByBlock
 62
     0
370
    -2
380
     1
100
AcDbMText
 10
-6.353236832173948
 20
162.5428017616508
 30
0.0
 40
2.5
 41
0.0
 71
     5
 72
     1
  1
\A1;40
 11
6.123031769111886E-17
 21
1.0
 31
0.0
 73
     1
 44
1.0
  0
ENDBLK
  5
10347
330
102E2
100
AcDbEntity
  8
0
100
AcDbBlockEnd
  0
BLOCK
  5
10348
330
102EE
100
AcDbEntity
  8
0
100
AcDbBlockBegin
  2
*D9
 70
     1
 10
0.0
 20
0.0
 30
0.0
  3
*D9
  1

  0
POINT
  5
102E4
330
102EE
100
AcDbEntity
  8
DEFPOINTS
  6
ByBlock
 62
     0
380
     1
100
AcDbPoint
 10
24.75001759029378
 20
182.5428017616508
 30
0.0
  0
POINT
  5
102E5
330
102EE
100
AcDbEntity
  8
DEFPOINTS
  6
ByBlock
 62
     0
380
     1
100
AcDbPoint
 10
24.75001759029378
 20
142.5428017616508
 30
0.0
  0
LINE
  5
102E6
330
102EE
100
AcDbEntity
  8
0
  6
ByBlock
 62
     0
370
    -2
380
     1
100
AcDbLine
 10
24.12501759029378
 20
182.5428017616508
 30
0.0
 11
-5.728236832173948
 21
182.5428017616508
 31
0.0
  0
LINE
  5
102E7
330
102EE
100
AcDbEntity
  8
0
  6
ByBlock
 62
     0
370
    -2
380
     1
100
AcDbLine
 10
24.12501759029378
 20
142.5428017616508
 30
0.0
 11
-5.728236832173948
 21
142.5428017616508
 31
0.0
  0
LINE
  5
102E8
330
102EE
100
AcDbEntity
  8
0
  6
ByBlock
 62
     0
370
    -2
380
     1
100
AcDbLine
 10
-4.478236832173948
 20
172.5428017616508
 30
0.0
 11
-4.478236832173948
 21
152.5428017616508
 31
0.0
  0
LINE
  5
102E9
330
102EE
100
AcDbEntity
  8
0
  6
ByBlock
 62
     0
370
    -2
380
     1
100
AcDbLine
 10
-4.478236832173948
 20
142.5428017616508
 30
0.0
 11
-4.478236832173948
 21
76.54280176165082
 31
0.0
  0
SOLID
  5
102EA
330
102EE
100
AcDbEntity
  8
0
  6
ByBlock
 62
     0
380
     1
100
AcDbTrace
 10
-4.478236832173948
 20
182.5428017616508
 30
0.0
 11
-6.14490349884062
 21
172.5428017616508
 31
0.0
 12
-2.811570165507277
 22
172.5428017616508
 32
0.0
 13
-2.811570165507277
 23
172.5428017616508
 33
0.0
  0
SOLID
  5
102EB
330
102EE
100
AcDbEntity
  8
0
  6
ByBlock
 62
     0
380
     1
100
AcDbTrace
 10
-4.478236832173948
 20
142.5428017616508
 30
0.0
 11
-6.14490349884062
 21
152.5428017616508
 31
0.0
 12
-2.811570165507277
 22
152.5428017616508
 32
0.0
 13
-2.811570165507277
 23
152.5428017616508
 33
0.0
  0
MTEXT
  5
102EC
330
102EE
100
AcDbEntity
  8
0
  6
ByBlock
 62
     0
370
    -2
380
     1
100
AcDbMText
 10
-32.47823683217395
 20
104.5428017616508
 30
0.0
 40
36.0
 41
0.0
 71
     5
 72
     1
  1
\A1;40
 11
6.123031769111886E-17
 21
1.0
 31
0.0
 73
     1
 44
1.0
  0
ENDBLK
  5
10349
330
102EE
100
AcDbEntity
  8
0
100
AcDbBlockEnd
  0
BLOCK
  5
1034A
330
102F9
100
AcDbEntity
  8
0
100
AcDbBlockBegin
  2
*D10
 70
     1
 10
0.0
 20
0.0
 30
0.0
  3
*D10
  1

  0
POINT
  5
102F0
330
102F9
100
AcDbEntity
  8
DEFPOINTS
  6
ByBlock
 62
     0
380
     1
100
AcDbPoint
 10
24.75001759029378
 20
182.5428017616508
 30
0.0
  0
POINT
  5
102F1
330
102F9
100
AcDbEntity
  8
DEFPOINTS
  6
ByBlock
 62
     0
380
     1
100
AcDbPoint
 10
24.75001759029378
 20
142.5428017616508
 30
0.0
  0
LINE
  5
102F2
330
102F9
100
AcDbEntity
  8
0
  6
ByBlock
 62
     0
370
    -2
380
     1
100
AcDbLine
 10
24.12501759029378
 20
182.5428017616508
 30
0.0
 11
-5.728236832173948
 21
182.5428017616508
 31
0.0
  0
LINE
  5
102F3
330
102F9
100
AcDbEntity
  8
0
  6
ByBlock
 62
     0
370
    -2
380
     1
100
AcDbLine
 10
24.12501759029378
 20
142.5428017616508
 30
0.0
 11
-5.728236832173948
 21
142.5428017616508
 31
0.0
  0
LINE
  5
102F4
330
102F9
100
AcDbEntity
  8
0
  6
ByBlock
 62
     0
370
    -2
380
     1
100
AcDbLine
 10
-4.478236832173948
 20
182.5428017616508
 30
0.0
 11
-4.478236832173948
 21
142.5428017616508
 31
0.0
  0
SOLID
  5
102F5
330
102F9
100
AcDbEntity
  8
0
  6
ByBlock
 62
     0
380
     1
100
AcDbTrace
 10
-4.478236832173948
 20
182.5428017616508
 30
0.0
 11
-6.14490349884062
 21
172.5428017616508
 31
0.0
 12
-2.811570165507277
 22
172.5428017616508
 32
0.0
 13
-2.811570165507277
 23
172.5428017616508
 33
0.0
  0
SOLID
  5
102F6
330
102F9
100
AcDbEntity
  8
0
  6
ByBlock
 62
     0
380
     1
100
AcDbTrace
 10
-4.478236832173948
 20
142.5428017616508
 30
0.0
 11
-6.14490349884062
 21
152.5428017616508
 31
0.0
 12
-2.811570165507277
 22
152.5428017616508
 32
0.0
 13
-2.811570165507277
 23
152.5428017616508
 33
0.0
  0
MTEXT
  5
102F7
330
102F9
100
AcDbEntity
  8
0
  6
ByBlock
 62
     0
370
    -2
380
     1
100
AcDbMText
 10
-32.47823683217395
 20
162.5428017616508
 30
0.0
 40
36.0
 41
0.0
 71
     5
 72
     1
  1
\A1;40
 11
6.123031769111886E-17
 21
1.0
 31
0.0
 73
     1
 44
1.0
  0
ENDBLK
  5
1034B
330
102F9
100
AcDbEntity
  8
0
100
AcDbBlockEnd
  0
BLOCK
  5
1034C
330
10304
100
AcDbEntity
  8
0
100
AcDbBlockBegin
  2
*D11
 70
     1
 10
0.0
 20
0.0
 30
0.0
  3
*D11
  1

  0
POINT
  5
102FB
330
10304
100
AcDbEntity
  8
DEFPOINTS
  6
ByBlock
 62
     0
380
     1
100
AcDbPoint
 10
24.75001759029378
 20
182.5428017616508
 30
0.0
  0
POINT
  5
102FC
330
10304
100
AcDbEntity
  8
DEFPOINTS
  6
ByBlock
 62
     0
380
     1
100
AcDbPoint
 10
24.75001759029378
 20
142.5428017616508
 30
0.0
  0
LINE
  5
102FD
330
10304
100
AcDbEntity
  8
0
  6
ByBlock
 62
     0
370
    -2
380
     1
100
AcDbLine
 10
24.12501759029378
 20
182.5428017616508
 30
0.0
 11
-5.728236832173948
 21
182.5428017616508
 31
0.0
  0
LINE
  5
102FE
330
10304
100
AcDbEntity
  8
0
  6
ByBlock
 62
     0
370
    -2
380
     1
100
AcDbLine
 10
24.12501759029378
 20
142.5428017616508
 30
0.0
 11
-5.728236832173948
 21
142.5428017616508
 31
0.0
  0
LINE
  5
102FF
330
10304
100
AcDbEntity
  8
0
  6
ByBlock
 62
     0
370
    -2
380
     1
100
AcDbLine
 10
-4.478236832173948
 20
182.5428017616508
 30
0.0
 11
-4.478236832173948
 21
142.5428017616508
 31
0.0
  0
SOLID
  5
10300
330
10304
100
AcDbEntity
  8
0
  6
ByBlock
 62
     0
380
     1
100
AcDbTrace
 10
-4.478236832173948
 20
182.5428017616508
 30
0.0
 11
-6.14490349884062
 21
172.5428017616508
 31
0.0
 12
-2.811570165507277
 22
172.5428017616508
 32
0.0
 13
-2.811570165507277
 23
172.5428017616508
 33
0.0
  0
SOLID
  5
10301
330
10304
100
AcDbEntity
  8
0
  6
ByBlock
 62
     0
380
     1
100
AcDbTrace
 10
-4.478236832173948
 20
142.5428017616508
 30
0.0
 11
-6.14490349884062
 21
152.5428017616508
 31
0.0
 12
-2.811570165507277
 22
152.5428017616508
 32
0.0
 13
-2.811570165507277
 23
152.5428017616508
 33
0.0
  0
MTEXT
  5
10302
330
10304
100
AcDbEntity
  8
0
  6
ByBlock
 62
     0
370
    -2
380
     1
100
AcDbMText
 10
-32.47823683217395
 20
162.5428017616508
 30
0.0
 40
36.0
 41
0.0
 71
     5
 72
     1
  1
\A1;40
 11
6.123031769111886E-17
 21
1.0
 31
0.0
 73
     1
 44
1.0
  0
ENDBLK
  5
1034D
330
10304
100
AcDbEntity
  8
0
100
AcDbBlockEnd
  0
BLOCK
  5
1034E
330
1030F
100
AcDbEntity
  8
0
100
AcDbBlockBegin
  2
*D12
 70
     1
 10
0.0
 20
0.0
 30
0.0
  3
*D12
  1

  0
POINT
  5
10306
330
1030F
100
AcDbEntity
  8
DEFPOINTS
  6
ByBlock
 62
     0
380
     1
100
AcDbPoint
 10
30.81219759029377
 20
177.0428017616508
 30
0.0
  0
POINT
  5
10307
330
1030F
100
AcDbEntity
  8
DEFPOINTS
  6
ByBlock
 62
     0
380
     1
100
AcDbPoint
 10
30.81219759029378
 20
137.0428017616508
 30
0.0
  0
LINE
  5
10308
330
1030F
100
AcDbEntity
  8
0
  6
ByBlock
 62
     0
370
    -2
380
     1
100
AcDbLine
 10
30.18719759029377
 20
177.0428017616508
 30
0.0
 11
0.3339431678260496
 21
177.0428017616508
 31
0.0
  0
LINE
  5
10309
330
1030F
100
AcDbEntity
  8
0
  6
ByBlock
 62
     0
370
    -2
380
     1
100
AcDbLine
 10
30.18719759029378
 20
137.0428017616508
 30
0.0
 11
0.3339431678260496
 21
137.0428017616508
 31
0.0
  0
LINE
  5
1030A
330
1030F
100
AcDbEntity
  8
0
  6
ByBlock
 62
     0
370
    -2
380
     1
100
AcDbLine
 10
1.58394316782605
 20
177.0428017616508
 30
0.0
 11
1.58394316782605
 21
137.0428017616508
 31
0.0
  0
SOLID
  5
1030B
330
1030F
100
AcDbEntity
  8
0
  6
ByBlock
 62
     0
380
     1
100
AcDbTrace
 10
1.58394316782605
 20
177.0428017616508
 30
0.0
 11
-0.0827234988406218
 21
167.0428017616508
 31
0.0
 12
3.250609834492721
 22
167.0428017616508
 32
0.0
 13
3.250609834492721
 23
167.0428017616508
 33
0.0
  0
SOLID
  5
1030C
330
1030F
100
AcDbEntity
  8
0
  6
ByBlock
 62
     0
380
     1
100
AcDbTrace
 10
1.58394316782605
 20
137.0428017616508
 30
0.0
 11
-0.0827234988406218
 21
147.0428017616508
 31
0.0
 12
3.250609834492721
 22
147.0428017616508
 32
0.0
 13
3.250609834492721
 23
147.0428017616508
 33
0.0
  0
MTEXT
  5
1030D
330
1030F
100
AcDbEntity
  8
0
  6
ByBlock
 62
     0
370
    -2
380
     1
100
AcDbMText
 10
-26.41605683217395
 20
157.0428017616508
 30
0.0
 40
36.0
 41
0.0
 71
     5
 72
     1
  1
\A1;40
 11
6.123031769111886E-17
 21
1.0
 31
0.0
 73
     1
 44
1.0
  0
ENDBLK
  5
1034F
330
1030F
100
AcDbEntity
  8
0
100
AcDbBlockEnd
  0
BLOCK
  5
10350
330
1031A
100
AcDbEntity
  8
0
100
AcDbBlockBegin
  2
*D13
 70
     1
 10
0.0
 20
0.0
 30
0.0
  3
*D13
  1

  0
POINT
  5
10311
330
1031A
100
AcDbEntity
  8
DEFPOINTS
  6
ByBlock
 62
     0
380
     1
100
AcDbPoint
 10
25.29165998636082
 20
197.0428017616508
 30
0.0
  0
POINT
  5
10312
330
1031A
100
AcDbEntity
  8
DEFPOINTS
  6
ByBlock
 62
     0
380
     1
100
AcDbPoint
 10
25.29165998636083
 20
157.0428017616508
 30
0.0
  0
LINE
  5
10313
330
1031A
100
AcDbEntity
  8
0
  6
ByBlock
 62
     0
370
    -2
380
     1
100
AcDbLine
 10
24.66665998636082
 20
197.0428017616508
 30
0.0
 11
-5.186594436106901
 21
197.0428017616508
 31
0.0
  0
LINE
  5
10314
330
1031A
100
AcDbEntity
  8
0
  6
ByBlock
 62
     0
370
    -2
380
     1
100
AcDbLine
 10
24.66665998636083
 20
157.0428017616508
 30
0.0
 11
-5.186594436106901
 21
157.0428017616508
 31
0.0
  0
LINE
  5
10315
330
1031A
100
AcDbEntity
  8
0
  6
ByBlock
 62
     0
370
    -2
380
     1
100
AcDbLine
 10
-3.936594436106901
 20
197.0428017616508
 30
0.0
 11
-3.936594436106901
 21
157.0428017616508
 31
0.0
  0
SOLID
  5
10316
330
1031A
100
AcDbEntity
  8
0
  6
ByBlock
 62
     0
380
     1
100
AcDbTrace
 10
-3.936594436106901
 20
197.0428017616508
 30
0.0
 11
-5.603261102773573
 21
187.0428017616508
 31
0.0
 12
-2.26992776944023
 22
187.0428017616508
 32
0.0
 13
-2.26992776944023
 23
187.0428017616508
 33
0.0
  0
SOLID
  5
10317
330
1031A
100
AcDbEntity
  8
0
  6
ByBlock
 62
     0
380
     1
100
AcDbTrace
 10
-3.936594436106901
 20
157.0428017616508
 30
0.0
 11
-5.603261102773573
 21
167.0428017616508
 31
0.0
 12
-2.26992776944023
 22
167.0428017616508
 32
0.0
 13
-2.26992776944023
 23
167.0428017616508
 33
0.0
  0
MTEXT
  5
10318
330
1031A
100
AcDbEntity
  8
0
  6
ByBlock
 62
     0
370
    -2
380
     1
100
AcDbMText
 10
-31.9365944361069
 20
177.0428017616508
 30
0.0
 40
36.0
 41
0.0
 71
     5
 72
     1
  1
\A1;40
 11
6.123031769111886E-17
 21
1.0
 31
0.0
 73
     1
 44
1.0
  0
ENDBLK
  5
10351
330
1031A
100
AcDbEntity
  8
0
100
AcDbBlockEnd
  0
ENDSEC
  0
SECTION
  2
ENTITIES
  0
POINT
  5
10126
330
1F
100
AcDbEntity
  8
0
 62
     7
370
    60
100
AcDbPoint
 10
80.30664452565185
 20
264.8755216810192
 30
0.0
  0
POINT
  5
10127
330
1F
100
AcDbEntity
  8
0
 62
     7
370
    60
100
AcDbPoint
 10
-46.61465010293629
 20
264.7670272507293
 30
0.0
  0
POINT
  5
10128
330
1F
100
AcDbEntity
  8
0
 62
     7
370
    60
100
AcDbPoint
 10
-92.25516856243078
 20
265.9787314346054
 30
0.0
  0
LINE
  5
10129
330
1F
100
AcDbEntity
  8
0
  6
DASHDOT
 62
     7
 48
0.4625
370
    60
100
AcDbLine
 10
-16.2231081478079
 20
273.2930095509942
 30
0.0
 11
-16.20729404637665
 21
254.7930163100712
 31
0.0
  0
LINE
  5
1012A
330
1F
100
AcDbEntity
  8
0
  6
DASHDOT
 62
     7
 48
0.4625
370
    60
100
AcDbLine
 10
-11.22313297457706
 20
273.2972836128013
 30
0.0
 11
-11.20731887314582
 21
254.7972903718783
 31
0.0
  0
LINE
  5
1012B
330
1F
100
AcDbEntity
  8
0
 62
     7
370
    60
100
AcDbLine
 10
60.40089096834784
 20
265.5531931661334
 30
0.0
 11
60.40024985612766
 21
266.3031928921168
 31
0.0
  0
LINE
  5
1012C
330
1F
100
AcDbEntity
  8
0
 62
     7
370
    60
100
AcDbLine
 10
60.40024985612766
 20
266.3031928921168
 30
0.0
 11
60.39960874390747
 21
267.0531926181001
 31
0.0
  0
LINE
  5
1012D
330
1F
100
AcDbEntity
  8
0
 62
     7
370
    60
100
AcDbLine
 10
81.63483657451393
 20
269.7063098061786
 30
0.0
 11
78.65660702813773
 21
258.8741090094321
 31
0.0
  0
LINE
  5
1012E
330
1F
100
AcDbEntity
  8
0
 62
     7
370
    60
100
AcDbLine
 10
99.16939332396954
 20
258.5619935593514
 30
0.0
 11
102.1476228712005
 21
269.3941933560983
 31
0.0
  0
ARC
  5
1012F
330
1F
100
AcDbEntity
  8
0
 62
     7
370
    60
100
AcDbCircle
 10
86.45593242085415
 20
268.3807794731712
 30
0.0
 40
5.0
100
AcDbArc
 50
90.0489823718459
 51
164.6268173718459
  0
LINE
  5
10130
330
1F
100
AcDbEntity
  8
0
 62
     7
370
    60
100
AcDbLine
 10
78.66002629331204
 20
254.8741104708541
 30
0.0
 11
78.65660702813773
 21
258.8741090094321
 31
0.0
  0
LINE
  5
10131
330
1F
100
AcDbEntity
  8
0
 62
     7
370
    60
100
AcDbLine
 10
78.66002629331204
 20
254.8741104708541
 30
0.0
 11
94.35257155995201
 21
254.8875247191368
 31
0.0
  0
ARC
  5
10132
330
1F
100
AcDbEntity
  8
0
 62
     7
370
    60
100
AcDbCircle
 10
94.3482974784841
 20
259.8875228923592
 30
0.0
 40
5.0
100
AcDbArc
 50
270.0489773718459
 51
344.6268153718459
  0
LINE
  5
10133
330
1F
100
AcDbEntity
  8
0
 62
     7
370
    60
100
AcDbLine
 10
102.1442036060262
 20
273.3941918946762
 30
0.0
 11
102.1476228712005
 21
269.3941933560983
 31
0.0
  0
LINE
  5
10134
330
1F
100
AcDbEntity
  8
0
 62
     7
370
    60
100
AcDbLine
 10
102.1442036060262
 20
273.3941918946762
 30
0.0
 11
86.45165833938624
 21
273.3807776463936
 31
0.0
  0
LINE
  5
10139
330
1F
100
AcDbEntity
  8
0
 62
     7
370
    60
100
AcDbLine
 10
-46.6140089907161
 20
264.0170275247459
 30
0.0
 11
-46.61465010293629
 21
264.7670272507293
 31
0.0
  0
LINE
  5
1013A
330
1F
100
AcDbEntity
  8
0
 62
     7
370
    60
100
AcDbLine
 10
-46.61336787849591
 20
263.2670277987625
 30
0.0
 11
-46.6140089907161
 21
264.0170275247459
 31
0.0
  0
LINE
  5
1013B
330
1F
100
AcDbEntity
  8
0
 62
     7
370
    60
100
AcDbLine
 10
60.40089096834784
 20
265.5531931661334
 30
0.0
 11
80.49770062586494
 21
265.5703722527541
 31
0.0
  0
LINE
  5
1013C
330
1F
100
AcDbEntity
  8
0
 62
     7
370
    60
100
AcDbLine
 10
60.39960874390747
 20
267.0531926181001
 30
0.0
 11
80.91020626306707
 21
267.0707104174508
 31
0.0
  0
ARC
  5
1013D
330
1F
100
AcDbEntity
  8
0
 62
     7
370
    60
100
AcDbCircle
 10
127.9021162488319
 20
264.1662068065967
 30
0.0
 40
8.239635
100
AcDbArc
 50
260.9546353718459
 51
100.9546393718459
  0
ARC
  5
1013E
330
1F
100
AcDbEntity
  8
0
 62
     7
370
    60
100
AcDbCircle
 10
127.9021162488319
 20
264.1662068065967
 30
0.0
 40
6.762648
100
AcDbArc
 50
258.9454983718459
 51
98.94549837184591
  0
LINE
  5
1013F
330
1F
100
AcDbEntity
  8
0
 62
     7
370
    60
100
AcDbLine
 10
126.6067035630224
 20
256.0290344937652
 30
0.0
 11
99.76763159035396
 21
260.7378437381278
 31
0.0
  0
LINE
  5
10140
330
1F
100
AcDbEntity
  8
0
 62
     7
370
    60
100
AcDbLine
 10
126.3363016527649
 20
272.2556922783054
 30
0.0
 11
101.7357711591196
 21
267.8962827512744
 31
0.0
  0
LINE
  5
10141
330
1F
100
AcDbEntity
  8
0
 62
     7
370
    60
100
AcDbLine
 10
126.605421338582
 20
257.5290339457319
 30
0.0
 11
100.1610006998649
 21
262.1686005191869
 31
0.0
  0
LINE
  5
10142
330
1F
100
AcDbEntity
  8
0
 62
     7
370
    60
100
AcDbLine
 10
126.8505373553914
 20
270.8466003405432
 30
0.0
 11
101.3021831120048
 21
266.3192055369531
 31
0.0
  0
LINE
  5
10143
330
1F
100
AcDbEntity
  8
0
 62
     7
370
    60
100
AcDbLine
 10
-46.61465010293629
 20
264.7670272507293
 30
0.0
 11
-16.21586520930405
 21
264.7930126368553
 31
0.0
  0
LINE
  5
10144
330
1F
100
AcDbEntity
  8
0
 62
     7
370
    60
100
AcDbLine
 10
-11.21586703608163
 20
264.7972867183232
 30
0.0
 11
80.30664452565185
 21
264.8755216810192
 31
0.0
  0
LINE
  5
10145
330
1F
100
AcDbEntity
  8
0
 62
     7
370
    60
100
AcDbLine
 10
-46.61336787849591
 20
263.2670277987625
 30
0.0
 11
-16.21458298486368
 21
263.2930131848885
 31
0.0
  0
LINE
  5
10146
330
1F
100
AcDbEntity
  8
0
 62
     7
370
    60
100
AcDbLine
 10
-11.21458481164126
 20
263.2972872663564
 30
0.0
 11
79.89413890127194
 21
263.375168516328
 31
0.0
  0
CIRCLE
  5
10147
330
1F
100
AcDbEntity
  8
0
 62
     7
370
    60
100
AcDbCircle
 10
-85.4171568137669
 20
263.9838579496258
 30
0.0
 40
3.25
  0
LINE
  5
1014D
330
1F
100
AcDbEntity
  8
0
 62
     7
370
    60
100
AcDbLine
 10
-76.61129486414626
 20
260.8291071912938
 30
0.0
 11
-76.6167011968099
 21
267.1536598805828
 31
0.0
  0
LINE
  5
10153
330
1F
100
AcDbEntity
  8
0
 62
     7
370
    60
100
AcDbLine
 10
-76.61129486414626
 20
260.8291071912938
 30
0.0
 11
-76.61121987709653
 21
260.7413842233439
 31
0.0
  0
LINE
  5
10154
330
1F
100
AcDbEntity
  8
0
 62
     7
370
    60
100
AcDbLine
 10
-70.61400022218376
 20
263.9965119336999
 30
0.0
 11
-70.61015354886264
 21
259.4965135777998
 31
0.0
  0
LINE
  5
10155
330
1F
100
AcDbEntity
  8
0
 62
     7
370
    60
100
AcDbLine
 10
-70.61784689550487
 20
268.4965102896001
 30
0.0
 11
-70.61400022218376
 21
263.9965119336999
 31
0.0
  0
LINE
  5
1015A
330
1F
100
AcDbEntity
  8
0
 62
     7
370
    60
100
AcDbLine
 10
-68.61400095289478
 20
263.9982215662871
 30
0.0
 11
-68.61015427957368
 21
259.4982232103869
 31
0.0
  0
LINE
  5
1015B
330
1F
100
AcDbEntity
  8
0
 62
     7
370
    60
100
AcDbLine
 10
-68.6178476262159
 20
268.4982199221873
 30
0.0
 11
-68.61400095289478
 21
263.9982215662871
 31
0.0
  0
LINE
  5
1015C
330
1F
100
AcDbEntity
  8
0
 62
     7
370
    60
100
AcDbLine
 10
-46.6140089907161
 20
264.0170275247459
 30
0.0
 11
-46.61653069621772
 21
266.9670234469482
 31
0.0
  0
LINE
  5
1015D
330
1F
100
AcDbEntity
  8
0
 62
     7
370
    60
100
AcDbLine
 10
-46.61148728606931
 20
261.0670326025432
 30
0.0
 11
-46.6140089907161
 21
264.0170275247459
 31
0.0
  0
LINE
  5
10160
330
1F
100
AcDbEntity
  8
0
 62
     7
370
    60
100
AcDbLine
 10
-76.6167761830048
 20
267.241381848533
 30
0.0
 11
-76.6167011968099
 21
267.1536598805828
 31
0.0
  0
ARC
  5
10161
330
1F
100
AcDbEntity
  8
0
 62
     7
370
    60
100
AcDbCircle
 10
-89.09645932510377
 20
265.959916543854
 30
0.0
 40
3.158778
100
AcDbArc
 50
80.8875543718459
 51
179.6586433718459
  0
ARC
  5
10162
330
1F
100
AcDbEntity
  8
0
 62
     7
370
    60
100
AcDbCircle
 10
-89.09307561601317
 20
262.0015129900791
 30
0.0
 40
3.158778
100
AcDbArc
 50
179.6586433718459
 51
278.4297343718459
  0
LINE
  5
10163
330
1F
100
AcDbEntity
  8
0
 62
     7
370
    60
100
AcDbLine
 10
-70.61122206922963
 20
260.7465131211054
 30
0.0
 11
-76.61121987709653
 21
260.7413842233439
 31
0.0
  0
ARC
  5
10164
330
1F
100
AcDbEntity
  8
0
 62
     7
370
    60
100
AcDbCircle
 10
-70.11015373154041
 20
259.4969409859465
 30
0.0
 40
0.5
100
AcDbArc
 50
180.0489743718459
 51
270.0489773718459
  0
ARC
  5
10165
330
1F
100
AcDbEntity
  8
0
 62
     7
370
    60
100
AcDbCircle
 10
-70.11784707818263
 20
268.4969376977469
 30
0.0
 40
0.5
100
AcDbArc
 50
90.0489723718459
 51
180.0489743718459
  0
LINE
  5
10166
330
1F
100
AcDbEntity
  8
0
 62
     7
370
    60
100
AcDbLine
 10
-69.10972668874912
 20
258.9977959849179
 30
0.0
 11
-70.10972632339362
 21
258.9969411686243
 31
0.0
  0
LINE
  5
10167
330
1F
100
AcDbEntity
  8
0
 62
     7
370
    60
100
AcDbLine
 10
-69.11827485168493
 20
268.9977923313627
 30
0.0
 11
-70.11827448632943
 21
268.9969375150691
 31
0.0
  0
ARC
  5
10168
330
1F
100
AcDbEntity
  8
0
 62
     7
370
    60
100
AcDbCircle
 10
-69.11015409689591
 20
259.4977958022401
 30
0.0
 40
0.5
100
AcDbArc
 50
270.0489773718459
 51
0.0489803718459204
  0
ARC
  5
10169
330
1F
100
AcDbEntity
  8
0
 62
     7
370
    60
100
AcDbCircle
 10
-69.11784744353814
 20
268.4977925140405
 30
0.0
 40
0.5
100
AcDbArc
 50
0.0489803718459204
 51
90.0489723718459
  0
ARC
  5
1016A
330
1F
100
AcDbEntity
  8
0
 62
     7
370
    60
100
AcDbCircle
 10
-46.81652762314772
 20
266.966852486254
 30
0.0
 40
0.2
100
AcDbArc
 50
0.0489803718459204
 51
90.0489823718459
  0
ARC
  5
1016B
330
1F
100
AcDbEntity
  8
0
 62
     7
370
    60
100
AcDbCircle
 10
-46.81148421299931
 20
261.0668616418489
 30
0.0
 40
0.2
100
AcDbArc
 50
270.0489773718459
 51
0.0489803718459204
  0
LINE
  5
1016C
330
1F
100
AcDbEntity
  8
0
 62
     7
370
    60
100
AcDbLine
 10
-68.61669361909067
 20
267.1482144154194
 30
0.0
 11
-46.81669858384199
 21
267.166849413184
 31
0.0
  0
LINE
  5
1016D
330
1F
100
AcDbEntity
  8
0
 62
     7
370
    60
100
AcDbLine
 10
-68.61130828755373
 20
260.8482297171544
 30
0.0
 11
-46.81131325230504
 21
260.8668647149189
 31
0.0
  0
LINE
  5
1016E
330
1F
100
AcDbEntity
  8
0
 62
     7
370
    60
100
AcDbLine
 10
-70.6167783751379
 20
267.2465107462945
 30
0.0
 11
-76.6167761830048
 21
267.241381848533
 31
0.0
  0
LINE
  5
1016F
330
1F
100
AcDbEntity
  8
0
 62
     7
370
    60
100
AcDbLine
 10
-88.63000144398495
 20
258.8768616918179
 30
0.0
 11
-76.61121987709653
 21
260.7413842233439
 31
0.0
  0
LINE
  5
10170
330
1F
100
AcDbEntity
  8
0
 62
     7
370
    60
100
AcDbLine
 10
-92.25516856243078
 20
265.9787314346054
 30
0.0
 11
-92.25178485334018
 21
262.0203278808305
 31
0.0
  0
LINE
  5
10171
330
1F
100
AcDbEntity
  8
0
 62
     7
370
    60
100
AcDbLine
 10
-76.6167761830048
 20
267.241381848533
 30
0.0
 11
-88.59619523978648
 21
269.0788293172572
 31
0.0
  0
DIMENSION
  5
1025A
330
1F
100
AcDbEntity
  8
0
370
    25
100
AcDbDimension
  2
*D3
 10
80.91019897429348
 20
282.6716626441858
 30
0.0
 11
17.14777443567859
 21
310.6716626441858
 31
0.0
 70
    32
  1
1000
 71
     5
 41
2.5
 42
127.5248490772298
  3
Standard
100
AcDbAlignedDimension
 13
-46.61465010293629
 23
264.7670272507293
 33
0.0
 14
80.91019897429348
 24
267.0707104112256
 34
0.0
100
AcDbRotatedDimension
1001
ACAD
1000
DSTYLE
1002
{
1070
    41
1040
10.0
1070
    42
1040
0.625
1070
    43
1040
3.75
1070
    44
1040
1.25
1070
    73
1070
     0
1070
    74
1070
     0
1070
    77
1070
     1
1070
    78
1070
     8
1070
   140
1040
36.0
1070
   141
1040
2.5
1070
   143
1040
0.03937
1070
   147
1040
10.0
1070
   171
1070
     3
1070
   172
1070
     1
1070
   271
1070
     0
1070
   272
1070
     2
1070
   274
1070
     3
1070
   278
1070
    44
1070
   283
1070
     0
1070
   284
1070
     8
1070
   289
1070
     0
1002
}
  0
DIMENSION
  5
1028B
330
1F
100
AcDbEntity
  8
0
370
    25
100
AcDbDimension
  2
*D7
 10
-83.21145362591304
 20
261.5969408067211
 30
0.0
 11
-126.1036284145282
 21
349.2696922287162
 31
0.0
 70
    35
 71
     5
 41
0.0
 42
-1.0
  3
Standard
100
AcDbDiametricDimension
 15
-87.62286000162075
 25
266.3707750925305
 35
0.0
 40
0.0
1001
ACAD
1000
DSTYLE
1002
{
1070
    41
1040
10.0
1070
    42
1040
0.625
1070
    43
1040
3.75
1070
    44
1040
1.25
1070
    73
1070
     0
1070
    74
1070
     0
1070
    77
1070
     1
1070
    78
1070
     8
1070
   140
1040
36.0
1070
   141
1040
2.5
1070
   143
1040
0.03937
1070
   147
1040
10.0
1070
   171
1070
     3
1070
   172
1070
     1
1070
   271
1070
     1
1070
   272
1070
     2
1070
   274
1070
     3
1070
   278
1070
    44
1070
   283
1070
     0
1070
   284
1070
     8
1070
   289
1070
     0
1002
}
  0
POINT
  5
102BA
330
1F
100
AcDbEntity
  8
0
 62
     7
370
    60
390
F
100
AcDbPoint
 10
25.29166037905991
 20
197.0428017616508
 30
0.0
  0
POINT
  5
102BB
330
1F
100
AcDbEntity
  8
0
 62
     7
370
    60
390
F
100
AcDbPoint
 10
25.29166037905991
 20
157.0428017616508
 30
0.0
  0
POINT
  5
102BC
330
1F
100
AcDbEntity
  8
0
 62
     7
370
    60
390
F
100
AcDbPoint
 10
20.29166037905991
 20
183.0428017616508
 30
0.0
  0
LINE
  5
102BD
330
1F
100
AcDbEntity
  8
0
 62
     7
370
    60
390
F
100
AcDbLine
 10
15.51057037905991
 20
166.0428017616508
 30
0.0
 11
15.26057037905991
 21
166.0428017616508
 31
0.0
  0
LINE
  5
102BE
330
1F
100
AcDbEntity
  8
0
 62
     7
370
    60
390
F
100
AcDbLine
 10
15.51057037905991
 20
177.0428017616508
 30
0.0
 11
15.26057037905991
 21
177.0428017616508
 31
0.0
  0
LINE
  5
102BF
330
1F
100
AcDbEntity
  8
0
 62
     7
370
    60
390
F
100
AcDbLine
 10
15.26057037905991
 20
177.0428017616508
 30
0.0
 11
15.26057037905991
 21
166.0428017616508
 31
0.0
  0
LINE
  5
102C0
330
1F
100
AcDbEntity
  8
0
 62
     7
370
    60
390
F
100
AcDbLine
 10
15.51057037905991
 20
166.0428017616508
 30
0.0
 11
18.04166037905991
 21
166.0428017616508
 31
0.0
  0
LINE
  5
102C1
330
1F
100
AcDbEntity
  8
0
 62
     7
370
    60
390
F
100
AcDbLine
 10
15.51057037905991
 20
177.0428017616508
 30
0.0
 11
18.04166037905991
 21
177.0428017616508
 31
0.0
  0
LINE
  5
102C2
330
1F
100
AcDbEntity
  8
0
 62
     7
370
    60
390
F
100
AcDbLine
 10
18.54166037905991
 20
166.0428017616508
 30
0.0
 11
18.04166037905991
 21
166.0428017616508
 31
0.0
  0
LINE
  5
102C3
330
1F
100
AcDbEntity
  8
0
 62
     7
370
    60
390
F
100
AcDbLine
 10
18.54166037905991
 20
177.0428017616508
 30
0.0
 11
18.04166037905991
 21
177.0428017616508
 31
0.0
  0
LINE
  5
102C4
330
1F
100
AcDbEntity
  8
0
 62
     7
370
    60
390
F
100
AcDbLine
 10
21.07275037905991
 20
166.0428017616508
 30
0.0
 11
18.54166037905991
 21
166.0428017616508
 31
0.0
  0
LINE
  5
102C5
330
1F
100
AcDbEntity
  8
0
 62
     7
370
    60
390
F
100
AcDbLine
 10
21.07275037905991
 20
177.0428017616508
 30
0.0
 11
18.54166037905991
 21
177.0428017616508
 31
0.0
  0
LINE
  5
102C6
330
1F
100
AcDbEntity
  8
0
 62
     7
370
    60
390
F
100
AcDbLine
 10
21.32275037905991
 20
166.0428017616508
 30
0.0
 11
21.07275037905991
 21
166.0428017616508
 31
0.0
  0
LINE
  5
102C7
330
1F
100
AcDbEntity
  8
0
 62
     7
370
    60
390
F
100
AcDbLine
 10
21.32275037905991
 20
177.0428017616508
 30
0.0
 11
21.32275037905991
 21
166.0428017616508
 31
0.0
  0
LINE
  5
102C8
330
1F
100
AcDbEntity
  8
0
 62
     7
370
    60
390
F
100
AcDbLine
 10
21.32275037905991
 20
177.0428017616508
 30
0.0
 11
21.07275037905991
 21
177.0428017616508
 31
0.0
  0
LINE
  5
102C9
330
1F
100
AcDbEntity
  8
0
 62
     7
370
    60
390
F
100
AcDbLine
 10
18.29166037905991
 20
183.0428017616508
 30
0.0
 11
16.29166037905991
 21
183.0428017616508
 31
0.0
  0
LINE
  5
102CA
330
1F
100
AcDbEntity
  8
0
 62
     7
370
    60
390
F
100
AcDbLine
 10
18.29166037905991
 20
177.2427987616508
 30
0.0
 11
16.29166037905991
 21
177.2427987616508
 31
0.0
  0
LINE
  5
102CB
330
1F
100
AcDbEntity
  8
0
 62
     7
370
    60
390
F
100
AcDbLine
 10
20.29166037905991
 20
183.0428017616508
 30
0.0
 11
18.29166037905991
 21
183.0428017616508
 31
0.0
  0
LINE
  5
102CC
330
1F
100
AcDbEntity
  8
0
 62
     7
370
    60
390
F
100
AcDbLine
 10
20.29166037905991
 20
177.2427987616508
 30
0.0
 11
18.29166037905991
 21
177.2427987616508
 31
0.0
  0
ARC
  5
102CD
330
1F
100
AcDbEntity
  8
0
 62
     7
370
    60
390
F
100
AcDbCircle
 10
25.29166037905991
 20
188.0428017616508
 30
0.0
 40
5.0
100
AcDbArc
 50
0.0
 51
180.000005
  0
ARC
  5
102CE
330
1F
100
AcDbEntity
  8
0
 62
     7
370
    60
390
F
100
AcDbCircle
 10
25.29166037905991
 20
188.0428017616508
 30
0.0
 40
9.0
100
AcDbArc
 50
0.0
 51
180.000005
  0
LINE
  5
102CF
330
1F
100
AcDbEntity
  8
0
 62
     7
370
    60
390
F
100
AcDbLine
 10
30.29166037905991
 20
188.0428017616508
 30
0.0
 11
30.29166037905991
 21
166.0428017616508
 31
0.0
  0
LINE
  5
102D0
330
1F
100
AcDbEntity
  8
0
 62
     7
370
    60
390
F
100
AcDbLine
 10
34.29166037905991
 20
188.0428017616508
 30
0.0
 11
34.29166037905991
 21
166.0428017616508
 31
0.0
  0
ARC
  5
102D1
330
1F
100
AcDbEntity
  8
0
 62
     7
370
    60
390
F
100
AcDbCircle
 10
25.29166037905991
 20
166.0428017616508
 30
0.0
 40
5.000000000000004
100
AcDbArc
 50
180.0000049999998
 51
359.9999999999998
  0
ARC
  5
102D2
330
1F
100
AcDbEntity
  8
0
 62
     7
370
    60
390
F
100
AcDbCircle
 10
25.29166037905991
 20
166.0428017616508
 30
0.0
 40
8.999999999999998
100
AcDbArc
 50
179.9999950000001
 51
0.0000000000000369
  0
LINE
  5
102D3
330
1F
100
AcDbEntity
  8
0
 62
     7
370
    60
390
F
100
AcDbLine
 10
16.29166037905991
 20
183.0428017616508
 30
0.0
 11
16.29166037905991
 21
188.0428017616508
 31
0.0
  0
LINE
  5
102D4
330
1F
100
AcDbEntity
  8
0
 62
     7
370
    60
390
F
100
AcDbLine
 10
16.29166037905991
 20
177.0428017616508
 30
0.0
 11
16.29166037905991
 21
177.2427987616508
 31
0.0
  0
LINE
  5
102D5
330
1F
100
AcDbEntity
  8
0
 62
     7
370
    60
390
F
100
AcDbLine
 10
20.29166037905991
 20
183.0428017616508
 30
0.0
 11
20.29166037905991
 21
188.0428017616508
 31
0.0
  0
LINE
  5
102D6
330
1F
100
AcDbEntity
  8
0
 62
     7
370
    60
390
F
100
AcDbLine
 10
20.29166037905991
 20
177.0428017616508
 30
0.0
 11
20.29166037905991
 21
177.2427987616508
 31
0.0
  0
DIMENSION
  5
102D7
330
1F
100
AcDbEntity
  8
0
370
    25
100
AcDbDimension
  2
*D13
 10
-3.936594436106901
 20
157.0428017616508
 30
0.0
 11
-31.9365944361069
 21
177.0428017616508
 31
0.0
 70
   160
 71
     5
 41
2.5
 42
40.0
  3
Standard
100
AcDbAlignedDimension
 13
25.29165998636082
 23
197.0428017616508
 33
0.0
 14
25.29165998636083
 24
157.0428017616508
 34
0.0
 50
90.0
100
AcDbRotatedDimension
1001
ACAD
1000
DSTYLE
1002
{
1070
    41
1040
10.0
1070
    42
1040
0.625
1070
    43
1040
3.75
1070
    44
1040
1.25
1070
    73
1070
     0
1070
    74
1070
     0
1070
    77
1070
     1
1070
    78
1070
     8
1070
   140
1040
36.0
1070
   141
1040
2.5
1070
   143
1040
0.03937
1070
   147
1040
10.0
1070
   171
1070
     3
1070
   172
1070
     1
1070
   271
1070
     0
1070
   272
1070
     2
1070
   274
1070
     3
1070
   278
1070
    44
1070
   283
1070
     0
1070
   284
1070
     8
1070
   289
1070
     0
1002
}
  0
VIEWPORT
  5
101DF
330
73
100
AcDbEntity
 67
     1
  8
0
 62
     0
370
     0
390
F
100
AcDbViewport
 10
0.0
 20
0.0
 30
0.0
 40
1000.0
 41
1000.0
 68
     1
 69
     1
 12
0.0
 22
0.0
 13
0.0
 23
0.0
 14
1.0
 24
1.0
 15
1.0
 25
1.0
 16
0.0
 26
0.0
 36
1.0
 17
0.0
 27
0.0
 37
0.0
 42
50.0
 43
0.0
 44
0.0
 45
1000.0
 50
0.0
 51
0.0
 72
   100
 90
   557056
  1

281
     0
 71
     0
 74
     0
110
0.0
120
0.0
130
0.0
111
1.0
121
0.0
131
0.0
112
0.0
122
1.0
132
0.0
 79
     0
146
0.0
170
     0
  0
ENDSEC
  0
SECTION
  2
OBJECTS
  0
DICTIONARY
  5
C
330
0
100
AcDbDictionary
281
     1
  3
ACAD_COLOR
350
6C
  3
ACAD_DETAILVIEWSTYLE
350
10255
  3
ACAD_GROUP
350
D
  3
ACAD_LAYOUT
350
1A
  3
ACAD_MATERIAL
350
6B
  3
ACAD_MLEADERSTYLE
350
10253
  3
ACAD_MLINESTYLE
350
17
  3
ACAD_PLOTSETTINGS
350
19
  3
ACAD_PLOTSTYLENAME
350
E
  3
ACAD_SCALELIST
350
99
  3
ACAD_SECTIONVIEWSTYLE
350
10256
  3
ACAD_TABLESTYLE
350
92
  3
ACAD_VISUALSTYLE
350
10202
  3
ACAD_WIPEOUT_VARS
350
10335
  3
AcDbVariableDictionary
350
59
  0
DICTIONARY
  5
1035A
330
8
100
AcDbDictionary
280
     1
281
     1
  3
ACAD_XREC_ROUNDTRIP
360
1035B
  0
DICTIONARY
  5
6C
102
{ACAD_REACTORS
330
C
102
}
330
C
100
AcDbDictionary
281
     1
  0
DICTIONARY
  5
10255
102
{ACAD_REACTORS
330
C
102
}
330
C
100
AcDbDictionary
281
     1
  0
DICTIONARY
  5
D
102
{ACAD_REACTORS
330
C
102
}
330
C
100
AcDbDictionary
281
     1
  0
DICTIONARY
  5
1A
102
{ACAD_REACTORS
330
C
102
}
330
C
100
AcDbDictionary
281
     1
  3
Layout1
350
74
  3
Model
350
22
  0
DICTIONARY
  5
6B
102
{ACAD_REACTORS
330
C
102
}
330
C
100
AcDbDictionary
281
     1
  3
ByBlock
350
1021D
  3
ByLayer
350
1021C
  3
Global
350
1021E
  0
DICTIONARY
  5
10253
102
{ACAD_REACTORS
330
C
102
}
330
C
100
AcDbDictionary
281
     1
  0
DICTIONARY
  5
17
102
{ACAD_REACTORS
330
C
102
}
330
C
100
AcDbDictionary
281
     1
  3
Standard
350
18
  0
DICTIONARY
  5
19
102
{ACAD_REACTORS
330
C
102
}
330
C
100
AcDbDictionary
281
     1
  0
ACDBDICTIONARYWDFLT
  5
E
102
{ACAD_REACTORS
330
C
102
}
330
C
100
AcDbDictionary
281
     1
  3
Normal
350
F
100
AcDbDictionaryWithDefault
340
F
  0
DICTIONARY
  5
99
102
{ACAD_REACTORS
330
C
102
}
330
C
100
AcDbDictionary
281
     1
  3
A0
350
101E1
  3
A1
350
101E2
  3
A2
350
101E3
  3
A3
350
101E4
  3
A4
350
101E5
  3
A5
350
101E6
  3
A6
350
101E7
  3
A7
350
101E8
  3
A8
350
101E9
  3
A9
350
101EA
  3
B0
350
101EB
  3
B1
350
101EC
  3
B2
350
101ED
  3
B3
350
101EE
  3
B4
350
101EF
  3
B5
350
101F0
  3
B6
350
101F1
  3
B7
350
101F2
  3
B8
350
101F3
  3
B9
350
101F4
  3
C0
350
101F5
  3
C1
350
101F6
  3
C2
350
101F7
  3
C3
350
101F8
  3
C4
350
101F9
  3
C5
350
101FA
  3
C6
350
101FB
  3
C7
350
101FC
  3
C8
350
101FD
  3
C9
350
101FE
  3
D0
350
101FF
  3
D1
350
10200
  3
D2
350
10201
  0
DICTIONARY
  5
10256
102
{ACAD_REACTORS
330
C
102
}
330
C
100
AcDbDictionary
281
     1
  0
DICTIONARY
  5
92
102
{ACAD_REACTORS
330
C
102
}
330
C
100
AcDbDictionary
281
     1
  3
Standard
350
93
  0
DICTIONARY
  5
10202
102
{ACAD_REACTORS
330
C
102
}
330
C
100
AcDbDictionary
281
     1
  3
2dWireframe
350
10207
  3
Basic
350
1020A
  3
Brighten
350
1020E
  3
ColorChange
350
10212
  3
Conceptual
350
1020C
  3
Dim
350
1020D
  3
EdgeColorOff
350
10215
  3
Facepattern
350
10211
  3
Flat
350
10203
  3
FlatWithEdges
350
10204
  3
Gouraud
350
10205
  3
GouraudWithEdges
350
10206
  3
Hidden
350
10209
  3
JitterOff
350
10213
  3
Linepattern
350
10210
  3
OverhangOff
350
10214
  3
Realistic
350
1020B
  3
Shaded
350
1021A
  3
Shaded with edges
350
10219
  3
Shades of Gray
350
10216
  3
Sketchy
350
10217
  3
Thicken
350
1020F
  3
Wireframe
350
10208
  3
X-Ray
350
10218
  0
WIPEOUTVARIABLES
  5
10335
102
{ACAD_REACTORS
330
C
102
}
330
C
100
AcDbWipeoutVariables
 70
     1
  0
DICTIONARY
  5
59
102
{ACAD_REACTORS
330
C
102
}
330
C
100
AcDbDictionary
281
     1
  3
CANNOSCALE
350
10220
  3
CTABLESTYLE
350
98
  3
DIMASSOC
350
5A
  3
HIDETEXT
350
5E
  3
LIGHTINGUNITS
350
10221
  3
MSLTSCALE
350
10254
  0
XRECORD
  5
1035B
102
{ACAD_REACTORS
330
1035A
102
}
330
1035A
100
AcDbXrecord
280
     1
102
VTR_0.000_0.000_1.000_1.000_VISUALSTYLE
340
10207
102
VTR_0.000_0.000_1.000_1.000_GRIDDISPLAY
 70
     3
102
VTR_0.000_0.000_1.000_1.000_GRIDMAJOR
 70
     5
102
VTR_0.000_0.000_1.000_1.000_DEFAULTLIGHTING
280
     1
102
VTR_0.000_0.000_1.000_1.000_DEFAULTLIGHTINGTYPE
 70
     1
102
VTR_0.000_0.000_1.000_1.000_BRIGHTNESS
141
0.0
102
VTR_0.000_0.000_1.000_1.000_CONTRAST
142
0.0
  0
LAYOUT
  5
74
102
{ACAD_REACTORS
330
1A
102
}
330
1A
100
AcDbPlotSettings
  1

  2
none_device
  4
none_user_media
  6

 40
0.0
 41
0.0
 42
0.0
 43
0.0
 44
0.0
 45
0.0
 46
0.0
 47
0.0
 48
0.0
 49
0.0
140
0.0
141
0.0
142
1.0
143
1.0
 70
   544
 72
     0
 73
     0
 74
     0
  7

 75
    16
 76
     0
 77
     2
 78
   300
147
1.0
148
0.0
149
0.0
100
AcDbLayout
  1
Layout1
 70
     1
 71
     0
 10
0.0
 20
0.0
 11
420.0
 21
297.0
 12
0.0
 22
0.0
 32
0.0
 14
0.0
 24
0.0
 34
0.0
 15
420.0
 25
297.0
 35
2.0
146
0.0
 13
0.0
 23
0.0
 33
0.0
 16
1.0
 26
0.0
 36
0.0
 17
0.0
 27
1.0
 37
0.0
 76
     0
330
73
331
101DF
  0
LAYOUT
  5
22
102
{ACAD_REACTORS
330
1A
102
}
330
1A
100
AcDbPlotSettings
  1

  2
none_device
  4
none_user_media
  6

 40
6.349999904632568
 41
6.349999904632568
 42
6.350006103515625
 43
6.350006103515625
 44
215.8999938964844
 45
279.3999938964844
 46
0.0
 47
0.0
 48
0.0
 49
0.0
140
0.0
141
0.0
142
1.0
143
1.0
 70
 11936
 72
     0
 73
     0
 74
     0
  7

 75
     0
 76
     0
 77
     2
 78
   300
147
0.25541509675694
148
0.0
149
0.0
100
AcDbLayout
  1
Model
 70
     1
 71
     1
 10
0.0
 20
0.0
 11
420.0
 21
297.0
 12
0.0
 22
0.0
 32
0.0
 14
-192.1392572106913
 24
130.0428017616508
 34
0.0
 15
136.1235668191734
 25
397.2406478706377
 35
0.0
146
0.0
 13
0.0
 23
0.0
 33
0.0
 16
1.0
 26
0.0
 36
0.0
 17
0.0
 27
1.0
 37
0.0
 76
     0
330
1F
331
97
  0
MATERIAL
  5
1021D
102
{ACAD_REACTORS
330
6B
102
}
102
{ACAD_XDICTIONARY
360
10352
102
}
330
6B
100
AcDbMaterial
  1
ByBlock
  0
MATERIAL
  5
1021C
102
{ACAD_REACTORS
330
6B
102
}
102
{ACAD_XDICTIONARY
360
10354
102
}
330
6B
100
AcDbMaterial
  1
ByLayer
  0
MATERIAL
  5
1021E
102
{ACAD_REACTORS
330
6B
102
}
102
{ACAD_XDICTIONARY
360
10356
102
}
330
6B
100
AcDbMaterial
  1
Global
  0
MLINESTYLE
  5
18
102
{ACAD_REACTORS
330
17
102
}
330
17
100
AcDbMlineStyle
  2
Standard
 70
     0
  3

 62
     0
 51
90.0
 52
90.0
 71
     2
 49
0.5
 62
   256
  6
BYLAYER
 49
-0.5
 62
   256
  6
BYLAYER
  0
ACDBPLACEHOLDER
  5
F
102
{ACAD_REACTORS
330
E
102
}
330
E
  0
SCALE
  5
101E1
102
{ACAD_REACTORS
330
99
102
}
330
99
100
AcDbScale
 70
     0
300
1:1
140
1.0
141
1.0
290
     1
  0
SCALE
  5
101E2
102
{ACAD_REACTORS
330
99
102
}
330
99
100
AcDbScale
 70
     0
300
1:2
140
1.0
141
2.0
290
     0
  0
SCALE
  5
101E3
102
{ACAD_REACTORS
330
99
102
}
330
99
100
AcDbScale
 70
     0
300
1:4
140
1.0
141
4.0
290
     0
  0
SCALE
  5
101E4
102
{ACAD_REACTORS
330
99
102
}
330
99
100
AcDbScale
 70
     0
300
1:5
140
1.0
141
5.0
290
     0
  0
SCALE
  5
101E5
102
{ACAD_REACTORS
330
99
102
}
330
99
100
AcDbScale
 70
     0
300
1:8
140
1.0
141
8.0
290
     0
  0
SCALE
  5
101E6
102
{ACAD_REACTORS
330
99
102
}
330
99
100
AcDbScale
 70
     0
300
1:10
140
1.0
141
10.0
290
     0
  0
SCALE
  5
101E7
102
{ACAD_REACTORS
330
99
102
}
330
99
100
AcDbScale
 70
     0
300
1:16
140
1.0
141
16.0
290
     0
  0
SCALE
  5
101E8
102
{ACAD_REACTORS
330
99
102
}
330
99
100
AcDbScale
 70
     0
300
1:20
140
1.0
141
20.0
290
     0
  0
SCALE
  5
101E9
102
{ACAD_REACTORS
330
99
102
}
330
99
100
AcDbScale
 70
     0
300
1:30
140
1.0
141
30.0
290
     0
  0
SCALE
  5
101EA
102
{ACAD_REACTORS
330
99
102
}
330
99
100
AcDbScale
 70
     0
300
1:40
140
1.0
141
40.0
290
     0
  0
SCALE
  5
101EB
102
{ACAD_REACTORS
330
99
102
}
330
99
100
AcDbScale
 70
     0
300
1:50
140
1.0
141
50.0
290
     0
  0
SCALE
  5
101EC
102
{ACAD_REACTORS
330
99
102
}
330
99
100
AcDbScale
 70
     0
300
1:100
140
1.0
141
100.0
290
     0
  0
SCALE
  5
101ED
102
{ACAD_REACTORS
330
99
102
}
330
99
100
AcDbScale
 70
     0
300
2:1
140
2.0
141
1.0
290
     0
  0
SCALE
  5
101EE
102
{ACAD_REACTORS
330
99
102
}
330
99
100
AcDbScale
 70
     0
300
4:1
140
4.0
141
1.0
290
     0
  0
SCALE
  5
101EF
102
{ACAD_REACTORS
330
99
102
}
330
99
100
AcDbScale
 70
     0
300
8:1
140
8.0
141
1.0
290
     0
  0
SCALE
  5
101F0
102
{ACAD_REACTORS
330
99
102
}
330
99
100
AcDbScale
 70
     0
300
10:1
140
10.0
141
1.0
290
     0
  0
SCALE
  5
101F1
102
{ACAD_REACTORS
330
99
102
}
330
99
100
AcDbScale
 70
     0
300
100:1
140
100.0
141
1.0
290
     0
  0
SCALE
  5
101F2
102
{ACAD_REACTORS
330
99
102
}
330
99
100
AcDbScale
 70
     0
300
1/128" = 1'-0"
140
0.0078125
141
12.0
290
     0
  0
SCALE
  5
101F3
102
{ACAD_REACTORS
330
99
102
}
330
99
100
AcDbScale
 70
     0
300
1/64" = 1'-0"
140
0.015625
141
12.0
290
     0
  0
SCALE
  5
101F4
102
{ACAD_REACTORS
330
99
102
}
330
99
100
AcDbScale
 70
     0
300
1/32" = 1'-0"
140
0.03125
141
12.0
290
     0
  0
SCALE
  5
101F5
102
{ACAD_REACTORS
330
99
102
}
330
99
100
AcDbScale
 70
     0
300
1/16" = 1'-0"
140
0.0625
141
12.0
290
     0
  0
SCALE
  5
101F6
102
{ACAD_REACTORS
330
99
102
}
330
99
100
AcDbScale
 70
     0
300
3/32" = 1'-0"
140
0.09375
141
12.0
290
     0
  0
SCALE
  5
101F7
102
{ACAD_REACTORS
330
99
102
}
330
99
100
AcDbScale
 70
     0
300
1/8" = 1'-0"
140
0.125
141
12.0
290
     0
  0
SCALE
  5
101F8
102
{ACAD_REACTORS
330
99
102
}
330
99
100
AcDbScale
 70
     0
300
3/16" = 1'-0"
140
0.1875
141
12.0
290
     0
  0
SCALE
  5
101F9
102
{ACAD_REACTORS
330
99
102
}
330
99
100
AcDbScale
 70
     0
300
1/4" = 1'-0"
140
0.25
141
12.0
290
     0
  0
SCALE
  5
101FA
102
{ACAD_REACTORS
330
99
102
}
330
99
100
AcDbScale
 70
     0
300
3/8" = 1'-0"
140
0.375
141
12.0
290
     0
  0
SCALE
  5
101FB
102
{ACAD_REACTORS
330
99
102
}
330
99
100
AcDbScale
 70
     0
300
1/2" = 1'-0"
140
0.5
141
12.0
290
     0
  0
SCALE
  5
101FC
102
{ACAD_REACTORS
330
99
102
}
330
99
100
AcDbScale
 70
     0
300
3/4" = 1'-0"
140
0.75
141
12.0
290
     0
  0
SCALE
  5
101FD
102
{ACAD_REACTORS
330
99
102
}
330
99
100
AcDbScale
 70
     0
300
1" = 1'-0"
140
1.0
141
12.0
290
     0
  0
SCALE
  5
101FE
102
{ACAD_REACTORS
330
99
102
}
330
99
100
AcDbScale
 70
     0
300
1-1/2" = 1'-0"
140
1.5
141
12.0
290
     0
  0
SCALE
  5
101FF
102
{ACAD_REACTORS
330
99
102
}
330
99
100
AcDbScale
 70
     0
300
3" = 1'-0"
140
3.0
141
12.0
290
     0
  0
SCALE
  5
10200
102
{ACAD_REACTORS
330
99
102
}
330
99
100
AcDbScale
 70
     0
300
6" = 1'-0"
140
6.0
141
12.0
290
     0
  0
SCALE
  5
10201
102
{ACAD_REACTORS
330
99
102
}
330
99
100
AcDbScale
 70
     0
300
1'-0" = 1'-0"
140
12.0
141
12.0
290
     0
  0
TABLESTYLE
  5
93
102
{ACAD_REACTORS
330
92
102
}
102
{ACAD_XDICTIONARY
360
10358
102
}
330
92
100
AcDbTableStyle
  3
Standard
 70
     0
 71
     0
 40
0.06
 41
0.06
280
     0
281
     0
  7
Standard
140
0.18
170
     2
 62
     0
 63
     7
283
     0
274
    -2
284
     1
 64
     0
275
    -2
285
     1
 65
     0
276
    -2
286
     1
 66
     0
277
    -2
287
     1
 67
     0
278
    -2
288
     1
 68
     0
279
    -2
289
     1
 69
     0
  7
Standard
140
0.25
170
     5
 62
     0
 63
     7
283
     0
274
    -2
284
     1
 64
     0
275
    -2
285
     1
 65
     0
276
    -2
286
     1
 66
     0
277
    -2
287
     1
 67
     0
278
    -2
288
     1
 68
     0
279
    -2
289
     1
 69
     0
  7
Standard
140
0.18
170
     5
 62
     0
 63
     7
283
     0
274
    -2
284
     1
 64
     0
275
    -2
285
     1
 65
     0
276
    -2
286
     1
 66
     0
277
    -2
287
     1
 67
     0
278
    -2
288
     1
 68
     0
279
    -2
289
     1
 69
     0
  0
VISUALSTYLE
  5
10207
102
{ACAD_REACTORS
330
10202
102
}
330
10202
100
AcDbVisualStyle
  2
2dWireframe
 70
     4
 71
     0
 72
     2
 73
     0
 90
        0
 40
0.6
 41
30.0
 62
     5
 63
     7
421
 16777215
 74
     1
 91
        4
 64
     7
 65
   257
 75
     1
175
     1
 42
1.0
 92
        0
 66
   257
 43
1.0
 76
     1
 77
     6
 78
     2
 67
     7
 79
     5
170
     0
171
     0
290
     0
174
     0
 93
        1
 44
0.0
173
     0
291
     0
 45
0.0
1001
ACAD
1000
AcDbSavedByObjectVersion
1070
     0
  0
VISUALSTYLE
  5
1020A
102
{ACAD_REACTORS
330
10202
102
}
330
10202
100
AcDbVisualStyle
  2
Basic
 70
     7
 71
     1
 72
     0
 73
     1
 90
        0
 40
0.6
 41
30.0
 62
     5
 63
     7
421
 16777215
 74
     0
 91
        4
 64
     7
 65
   257
 75
     1
175
     1
 42
1.0
 92
        8
 66
     7
 43
1.0
 76
     1
 77
     6
 78
     2
 67
     7
 79
     5
170
     0
171
     0
290
     0
174
     0
 93
        1
 44
0.0
173
     0
291
     1
 45
0.0
1001
ACAD
1000
AcDbSavedByObjectVersion
1070
     0
  0
VISUALSTYLE
  5
1020E
102
{ACAD_REACTORS
330
10202
102
}
330
10202
100
AcDbVisualStyle
  2
Brighten
 70
    12
 71
     2
 72
     2
 73
     0
 90
        0
 40
0.6
 41
30.0
 62
     5
 63
     7
421
 16777215
 74
     1
 91
        4
 64
     7
 65
   257
 75
     1
175
     1
 42
1.0
 92
        8
 66
     7
 43
1.0
 76
     1
 77
     6
 78
     2
 67
     7
 79
     5
170
     0
171
     0
290
     0
174
     0
 93
        1
 44
50.0
173
     0
291
     1
 45
0.0
1001
ACAD
1000
AcDbSavedByObjectVersion
1070
     0
  0
VISUALSTYLE
  5
10212
102
{ACAD_REACTORS
330
10202
102
}
330
10202
100
AcDbVisualStyle
  2
ColorChange
 70
    16
 71
     2
 72
     2
 73
     3
 90
        0
 40
0.6
 41
30.0
 62
     5
 63
     8
421
  8421504
 74
     1
 91
        4
 64
     7
 65
   257
 75
     1
175
     1
 42
1.0
 92
        8
 66
     8
424
  8421504
 43
1.0
 76
     1
 77
     6
 78
     2
 67
     7
 79
     5
170
     0
171
     0
290
     0
174
     0
 93
        1
 44
0.0
173
     0
291
     1
 45
0.0
1001
ACAD
1000
AcDbSavedByObjectVersion
1070
     0
  0
VISUALSTYLE
  5
1020C
102
{ACAD_REACTORS
330
10202
102
}
330
10202
100
AcDbVisualStyle
  2
Conceptual
 70
     9
 71
     3
 72
     2
 73
     0
 90
        0
 40
0.6
 41
30.0
 62
     5
 63
     7
421
 16777215
 74
     2
 91
        2
 64
     7
 65
   257
 75
     1
175
     1
 42
179.0
 92
        8
 66
     7
 43
1.0
 76
     1
 77
     6
 78
     2
 67
     7
 79
     3
170
     0
171
     0
290
     0
174
     0
 93
        1
 44
0.0
173
     0
291
     0
 45
0.0
1001
ACAD
1000
AcDbSavedByObjectVersion
1070
     0
  0
VISUALSTYLE
  5
1020D
102
{ACAD_REACTORS
330
10202
102
}
330
10202
100
AcDbVisualStyle
  2
Dim
 70
    11
 71
     2
 72
     2
 73
     0
 90
        0
 40
0.6
 41
30.0
 62
     5
 63
     7
421
 16777215
 74
     1
 91
        4
 64
     7
 65
   257
 75
     1
175
     1
 42
1.0
 92
        8
 66
     7
 43
1.0
 76
     1
 77
     6
 78
     2
 67
     7
 79
     5
170
     0
171
     0
290
     0
174
     0
 93
        1
 44
-50.0
173
     0
291
     1
 45
0.0
1001
ACAD
1000
AcDbSavedByObjectVersion
1070
     0
  0
VISUALSTYLE
  5
10215
102
{ACAD_REACTORS
330
10202
102
}
330
10202
100
AcDbVisualStyle
  2
EdgeColorOff
 70
    22
 71
     2
 72
     2
 73
     0
 90
        0
 40
0.6
 41
30.0
 62
     5
 63
     7
421
 16777215
 74
     1
 91
        4
 64
     7
 65
   257
 75
     1
175
     1
 42
1.0
 92
        8
 66
     7
 43
1.0
 76
     1
 77
     6
 78
     2
 67
     7
 79
     5
170
     0
171
     0
290
     0
174
     0
 93
        1
 44
0.0
173
     0
291
     1
 45
0.0
1001
ACAD
1000
AcDbSavedByObjectVersion
1070
     0
  0
VISUALSTYLE
  5
10211
102
{ACAD_REACTORS
330
10202
102
}
330
10202
100
AcDbVisualStyle
  2
Facepattern
 70
    15
 71
     2
 72
     2
 73
     0
 90
        0
 40
0.6
 41
30.0
 62
     5
 63
     7
421
 16777215
 74
     1
 91
        4
 64
     7
 65
   257
 75
     1
175
     1
 42
1.0
 92
        8
 66
     7
 43
1.0
 76
     1
 77
     6
 78
     2
 67
     7
 79
     5
170
     0
171
     0
290
     0
174
     0
 93
        1
 44
0.0
173
     0
291
     1
 45
0.0
1001
ACAD
1000
AcDbSavedByObjectVersion
1070
     0
  0
VISUALSTYLE
  5
10203
102
{ACAD_REACTORS
330
10202
102
}
330
10202
100
AcDbVisualStyle
  2
Flat
 70
     0
 71
     2
 72
     1
 73
     1
 90
        2
 40
0.6
 41
30.0
 62
     5
 63
     7
421
 16777215
 74
     0
 91
        0
 64
     7
 65
   257
 75
     1
175
     1
 42
1.0
 92
        8
 66
     7
 43
1.0
 76
     1
 77
     6
 78
     2
 67
     7
 79
     5
170
     0
171
     0
290
     0
174
     0
 93
       13
 44
0.0
173
     0
291
     1
 45
0.0
1001
ACAD
1000
AcDbSavedByObjectVersion
1070
     0
  0
VISUALSTYLE
  5
10204
102
{ACAD_REACTORS
330
10202
102
}
330
10202
100
AcDbVisualStyle
  2
FlatWithEdges
 70
     1
 71
     2
 72
     1
 73
     1
 90
        2
 40
0.6
 41
30.0
 62
     5
 63
     7
421
 16777215
 74
     1
 91
        0
 64
     7
 65
   257
 75
     1
175
     1
 42
1.0
 92
        0
 66
   257
 43
1.0
 76
     1
 77
     6
 78
     2
 67
     7
 79
     5
170
     0
171
     0
290
     0
174
     0
 93
       13
 44
0.0
173
     0
291
     1
 45
0.0
1001
ACAD
1000
AcDbSavedByObjectVersion
1070
     0
  0
VISUALSTYLE
  5
10205
102
{ACAD_REACTORS
330
10202
102
}
330
10202
100
AcDbVisualStyle
  2
Gouraud
 70
     2
 71
     2
 72
     2
 73
     1
 90
        2
 40
0.6
 41
30.0
 62
     5
 63
     7
421
 16777215
 74
     0
 91
        0
 64
     7
 65
   257
 75
     1
175
     1
 42
1.0
 92
        0
 66
     7
 43
1.0
 76
     1
 77
     6
 78
     2
 67
     7
 79
     5
170
     0
171
     0
290
     0
174
     0
 93
       13
 44
0.0
173
     0
291
     1
 45
0.0
1001
ACAD
1000
AcDbSavedByObjectVersion
1070
     0
  0
VISUALSTYLE
  5
10206
102
{ACAD_REACTORS
330
10202
102
}
330
10202
100
AcDbVisualStyle
  2
GouraudWithEdges
 70
     3
 71
     2
 72
     2
 73
     1
 90
        2
 40
0.6
 41
30.0
 62
     5
 63
     7
421
 16777215
 74
     1
 91
        0
 64
     7
 65
   257
 75
     1
175
     1
 42
1.0
 92
        0
 66
   257
 43
1.0
 76
     1
 77
     6
 78
     2
 67
     7
 79
     5
170
     0
171
     0
290
     0
174
     0
 93
       13
 44
0.0
173
     0
291
     1
 45
0.0
1001
ACAD
1000
AcDbSavedByObjectVersion
1070
     0
  0
VISUALSTYLE
  5
10209
102
{ACAD_REACTORS
330
10202
102
}
330
10202
100
AcDbVisualStyle
  2
Hidden
 70
     6
 71
     1
 72
     2
 73
     2
 90
        0
 40
0.6
 41
30.0
 62
     5
 63
     7
421
 16777215
 74
     2
 91
        2
 64
     7
 65
   257
 75
     2
175
     1
 42
40.0
 92
        0
 66
   257
 43
1.0
 76
     1
 77
     6
 78
     2
 67
     7
 79
     3
170
     0
171
     0
290
     0
174
     0
 93
        1
 44
0.0
173
     0
291
     0
 45
0.0
1001
ACAD
1000
AcDbSavedByObjectVersion
1070
     0
  0
VISUALSTYLE
  5
10213
102
{ACAD_REACTORS
330
10202
102
}
330
10202
100
AcDbVisualStyle
  2
JitterOff
 70
    20
 71
     2
 72
     2
 73
     0
 90
        0
 40
0.6
 41
30.0
 62
     5
 63
     7
421
 16777215
 74
     1
 91
        4
 64
     7
 65
   257
 75
     1
175
     1
 42
1.0
 92
       10
 66
     7
 43
1.0
 76
     1
 77
     6
 78
     2
 67
     7
 79
     5
170
     0
171
     0
290
     0
174
     0
 93
        1
 44
0.0
173
     0
291
     1
 45
0.0
1001
ACAD
1000
AcDbSavedByObjectVersion
1070
     0
  0
VISUALSTYLE
  5
10210
102
{ACAD_REACTORS
330
10202
102
}
330
10202
100
AcDbVisualStyle
  2
Linepattern
 70
    14
 71
     2
 72
     2
 73
     0
 90
        0
 40
0.6
 41
30.0
 62
     5
 63
     7
421
 16777215
 74
     1
 91
        4
 64
     7
 65
   257
 75
     7
175
     7
 42
1.0
 92
        8
 66
     7
 43
1.0
 76
     1
 77
     6
 78
     2
 67
     7
 79
     5
170
     0
171
     0
290
     0
174
     0
 93
        1
 44
0.0
173
     0
291
     1
 45
0.0
1001
ACAD
1000
AcDbSavedByObjectVersion
1070
     0
  0
VISUALSTYLE
  5
10214
102
{ACAD_REACTORS
330
10202
102
}
330
10202
100
AcDbVisualStyle
  2
OverhangOff
 70
    21
 71
     2
 72
     2
 73
     0
 90
        0
 40
0.6
 41
30.0
 62
     5
 63
     7
421
 16777215
 74
     1
 91
        4
 64
     7
 65
   257
 75
     1
175
     1
 42
1.0
 92
        9
 66
     7
 43
1.0
 76
     1
 77
     6
 78
     2
 67
     7
 79
     5
170
     0
171
     0
290
     0
174
     0
 93
        1
 44
0.0
173
     0
291
     1
 45
0.0
1001
ACAD
1000
AcDbSavedByObjectVersion
1070
     0
  0
VISUALSTYLE
  5
1020B
102
{ACAD_REACTORS
330
10202
102
}
330
10202
100
AcDbVisualStyle
  2
Realistic
 70
     8
 71
     2
 72
     3
 73
     0
 90
        2
 40
0.6
 41
30.0
 62
     5
 63
     7
421
 16777215
 74
     0
 91
        0
 64
     7
 65
   257
 75
     1
175
     1
 42
1.0
 92
        8
 66
   257
 43
1.0
 76
     1
 77
     6
 78
     2
 67
     7
 79
     3
170
     0
171
     0
290
     0
174
     0
 93
       13
 44
0.0
173
     0
291
     0
 45
0.0
1001
ACAD
1000
AcDbSavedByObjectVersion
1070
     0
  0
VISUALSTYLE
  5
1021A
102
{ACAD_REACTORS
330
10202
102
}
330
10202
100
AcDbVisualStyle
  2
Shaded
 70
    27
 71
     2
 72
     2
 73
     1
 90
        2
 40
0.6
 41
30.0
 62
     5
 63
     7
421
 16777215
 74
     0
 91
        4
 64
     7
 65
   257
 75
     1
175
     1
 42
1.0
 92
        8
 66
   257
 43
1.0
 76
     1
 77
     6
 78
     2
 67
     8
425
  7895160
 79
     3
170
     0
171
     0
290
     0
174
     0
 93
        5
 44
0.0
173
     0
291
     0
 45
0.0
1001
ACAD
1000
AcDbSavedByObjectVersion
1070
     0
  0
VISUALSTYLE
  5
10219
102
{ACAD_REACTORS
330
10202
102
}
330
10202
100
AcDbVisualStyle
  2
Shaded with edges
 70
    26
 71
     2
 72
     2
 73
     1
 90
        2
 40
0.6
 41
30.0
 62
     5
 63
     7
421
 16777215
 74
     1
 91
       10
 64
     7
 65
   257
 75
     2
175
     1
 42
1.0
 92
        8
 66
   257
 43
1.0
 76
     1
 77
     6
 78
     2
 67
     7
 79
     3
170
     0
171
     0
290
     0
174
     0
 93
        5
 44
0.0
173
     0
291
     0
 45
0.0
1001
ACAD
1000
AcDbSavedByObjectVersion
1070
     0
  0
VISUALSTYLE
  5
10216
102
{ACAD_REACTORS
330
10202
102
}
330
10202
100
AcDbVisualStyle
  2
Shades of Gray
 70
    23
 71
     2
 72
     2
 73
     3
 90
        0
 40
0.6
 41
30.0
 62
     5
 63
     7
421
 16777215
 74
     2
 91
        2
 64
     7
 65
     7
 75
     1
175
     1
 42
40.0
 92
        8
 66
     7
 43
1.0
 76
     1
 77
     6
 78
     2
 67
     7
 79
     3
170
     0
171
     0
290
     0
174
     0
 93
        1
 44
0.0
173
     0
291
     0
 45
0.0
1001
ACAD
1000
AcDbSavedByObjectVersion
1070
     0
  0
VISUALSTYLE
  5
10217
102
{ACAD_REACTORS
330
10202
102
}
330
10202
100
AcDbVisualStyle
  2
Sketchy
 70
    24
 71
     1
 72
     2
 73
     2
 90
        0
 40
0.6
 41
30.0
 62
     5
 63
     7
421
 16777215
 74
     2
 91
        2
 64
     7
 65
     7
 75
     1
175
     1
 42
40.0
 92
       11
 66
     7
 43
1.0
 76
     1
 77
     6
 78
     2
 67
     7
 79
     6
170
     0
171
     0
290
     0
174
     0
 93
        1
 44
0.0
173
     0
291
     0
 45
0.0
1001
ACAD
1000
AcDbSavedByObjectVersion
1070
     0
  0
VISUALSTYLE
  5
1020F
102
{ACAD_REACTORS
330
10202
102
}
330
10202
100
AcDbVisualStyle
  2
Thicken
 70
    13
 71
     2
 72
     2
 73
     0
 90
        0
 40
0.6
 41
30.0
 62
     5
 63
     7
421
 16777215
 74
     1
 91
        4
 64
     7
 65
   257
 75
     1
175
     1
 42
1.0
 92
       12
 66
     7
 43
1.0
 76
     1
 77
     6
 78
     2
 67
     7
 79
     5
170
     0
171
     0
290
     0
174
     0
 93
        1
 44
0.0
173
     0
291
     1
 45
0.0
1001
ACAD
1000
AcDbSavedByObjectVersion
1070
     0
  0
VISUALSTYLE
  5
10208
102
{ACAD_REACTORS
330
10202
102
}
330
10202
100
AcDbVisualStyle
  2
Wireframe
 70
     5
 71
     0
 72
     2
 73
     0
 90
        0
 40
0.6
 41
30.0
 62
     5
 63
     7
421
 16777215
 74
     1
 91
        4
 64
     7
 65
   257
 75
     1
175
     1
 42
1.0
 92
        0
 66
   257
 43
1.0
 76
     1
 77
     6
 78
     2
 67
     7
 79
     3
170
     0
171
     0
290
     0
174
     0
 93
        1
 44
0.0
173
     0
291
     0
 45
0.0
1001
ACAD
1000
AcDbSavedByObjectVersion
1070
     0
  0
VISUALSTYLE
  5
10218
102
{ACAD_REACTORS
330
10202
102
}
330
10202
100
AcDbVisualStyle
  2
X-Ray
 70
    25
 71
     2
 72
     2
 73
     1
 90
        1
 40
0.5
 41
30.0
 62
     5
 63
     7
421
 16777215
 74
     1
 91
        0
 64
     7
 65
   257
 75
     1
175
     1
 42
1.0
 92
        8
 66
     7
 43
1.0
 76
     1
 77
     6
 78
     2
 67
     7
 79
     3
170
     0
171
     0
290
     0
174
     0
 93
       13
 44
0.0
173
     0
291
     0
 45
0.0
1001
ACAD
1000
AcDbSavedByObjectVersion
1070
     0
  0
DICTIONARYVAR
  5
10220
102
{ACAD_REACTORS
330
59
102
}
330
59
100
DictionaryVariables
280
     0
  1

  0
DICTIONARYVAR
  5
98
102
{ACAD_REACTORS
330
59
102
}
330
59
100
DictionaryVariables
280
     0
  1
Standard
  0
DICTIONARYVAR
  5
5A
102
{ACAD_REACTORS
330
59
102
}
330
59
100
DictionaryVariables
280
     0
  1
2
  0
DICTIONARYVAR
  5
5E
102
{ACAD_REACTORS
330
59
102
}
330
59
100
DictionaryVariables
280
     0
  1
1
  0
DICTIONARYVAR
  5
10221
102
{ACAD_REACTORS
330
59
102
}
330
59
100
DictionaryVariables
280
     0
  1
0
  0
DICTIONARYVAR
  5
10254
102
{ACAD_REACTORS
330
59
102
}
330
59
100
DictionaryVariables
280
     0
  1
1
  0
DICTIONARY
  5
10352
330
1021D
100
AcDbDictionary
280
     1
281
     1
  3
ACAD_XREC_ROUNDTRIP
360
10353
  0
DICTIONARY
  5
10354
330
1021C
100
AcDbDictionary
280
     1
281
     1
  3
ACAD_XREC_ROUNDTRIP
360
10355
  0
DICTIONARY
  5
10356
330
1021E
100
AcDbDictionary
280
     1
281
     1
  3
ACAD_XREC_ROUNDTRIP
360
10357
  0
DICTIONARY
  5
10358
330
93
100
AcDbDictionary
280
     1
281
     1
  3
ACAD_XREC_ROUNDTRIP
360
10359
  0
XRECORD
  5
10353
102
{ACAD_REACTORS
330
10352
102
}
330
10352
100
AcDbXrecord
280
     1
102
MATERIAL
148
0.0
149
0.0
149
0.0
 93
        0
 94
      127
282
     0
 72
     1
 77
     1
171
     1
175
     1
179
     1
273
     0
  0
XRECORD
  5
10355
102
{ACAD_REACTORS
330
10354
102
}
330
10354
100
AcDbXrecord
280
     1
102
MATERIAL
148
0.0
149
0.0
149
0.0
 93
        0
 94
      127
282
     0
 72
     1
 77
     1
171
     1
175
     1
179
     1
273
     0
  0
XRECORD
  5
10357
102
{ACAD_REACTORS
330
10356
102
}
330
10356
100
AcDbXrecord
280
     1
102
MATERIAL
148
0.0
149
0.0
149
0.0
 93
        0
 94
      127
282
     0
 72
     1
 77
     1
171
     1
175
     1
179
     1
273
     0
  0
XRECORD
  5
10359
102
{ACAD_REACTORS
330
10358
102
}
330
10358
100
AcDbXrecord
280
     1
102
ACAD_ROUNDTRIP_PRE2007_TABLESTYLE
 90
      512
 91
        0
  1

 92
      512
 93
        0
  2

 94
      512
 95
        0
  3

  0
ENDSEC
  0
EOF
