  0
SECTION
  2
HEADER
  9
$ACADVER
  1
AC1018
  9
$ACADMAINTVER
 70
     0
  9
$DWGCODEPAGE
  3
ANSI_1252
  9
$LASTSAVEDBY
  1
BelottiMc
  9
$INSBASE
 10
0.0
 20
0.0
 30
0.0
  9
$EXTMIN
 10
-322.8665428514069
 20
-678.1666497748297
 30
0.0
  9
$EXTMAX
 10
9292.17128873397
 20
5209.988383610877
 30
0.0
  9
$LIMMIN
 10
0.0
 20
0.0
  9
$LIMMAX
 10
0.0
 20
0.0
  9
$ORTHOMODE
 70
     0
  9
$REGENMODE
 70
     1
  9
$FILLMODE
 70
     1
  9
$QTEXTMODE
 70
     0
  9
$MIRRTEXT
 70
     0
  9
$LTSCALE
 40
1.0
  9
$ATTMODE
 70
     1
  9
$TEXTSIZE
 40
2.5
  9
$TRACEWID
 40
1.0
  9
$TEXTSTYLE
  7
Standard
  9
$CLAYER
  8
0
  9
$CELTYPE
  6
ByLayer
  9
$CECOLOR
 62
   256
  9
$CELTSCALE
 40
1.0
  9
$DISPSILH
 70
     0
  9
$DIMSCALE
 40
1.0
  9
$DIMASZ
 40
2.5
  9
$DIMEXO
 40
0.625
  9
$DIMDLI
 40
3.75
  9
$DIMRND
 40
0.0
  9
$DIMDLE
 40
0.0
  9
$DIMEXE
 40
1.25
  9
$DIMTP
 40
0.0
  9
$DIMTM
 40
0.0
  9
$DIMTXT
 40
2.5
  9
$DIMCEN
 40
2.5
  9
$DIMTSZ
 40
0.0
  9
$DIMTOL
 70
     0
  9
$DIMLIM
 70
     0
  9
$DIMTIH
 70
     0
  9
$DIMTOH
 70
     0
  9
$DIMSE1
 70
     0
  9
$DIMSE2
 70
     0
  9
$DIMTAD
 70
     1
  9
$DIMZIN
 70
     8
  9
$DIMBLK
  1

  9
$DIMASO
 70
     1
  9
$DIMSHO
 70
     1
  9
$DIMPOST
  1

  9
$DIMAPOST
  1

  9
$DIMALT
 70
     0
  9
$DIMALTD
 70
     3
  9
$DIMALTF
 40
0.03937007874016
  9
$DIMLFAC
 40
1.0
  9
$DIMTOFL
 70
     1
  9
$DIMTVP
 40
0.0
  9
$DIMTIX
 70
     0
  9
$DIMSOXD
 70
     0
  9
$DIMSAH
 70
     0
  9
$DIMBLK1
  1

  9
$DIMBLK2
  1

  9
$DIMSTYLE
  2
ISO-25
  9
$DIMCLRD
 70
     0
  9
$DIMCLRE
 70
     0
  9
$DIMCLRT
 70
     0
  9
$DIMTFAC
 40
1.0
  9
$DIMGAP
 40
0.625
  9
$DIMJUST
 70
     0
  9
$DIMSD1
 70
     0
  9
$DIMSD2
 70
     0
  9
$DIMTOLJ
 70
     0
  9
$DIMTZIN
 70
     8
  9
$DIMALTZ
 70
     0
  9
$DIMALTTZ
 70
     0
  9
$DIMUPT
 70
     0
  9
$DIMDEC
 70
     2
  9
$DIMTDEC
 70
     2
  9
$DIMALTU
 70
     2
  9
$DIMALTTD
 70
     3
  9
$DIMTXSTY
  7
Standard
  9
$DIMAUNIT
 70
     0
  9
$DIMADEC
 70
     0
  9
$DIMALTRND
 40
0.0
  9
$DIMAZIN
 70
     0
  9
$DIMDSEP
 70
    44
  9
$DIMATFIT
 70
     3
  9
$DIMFRAC
 70
     0
  9
$DIMLDRBLK
  1

  9
$DIMLUNIT
 70
     2
  9
$DIMLWD
 70
    -2
  9
$DIMLWE
 70
    -2
  9
$DIMTMOVE
 70
     0
  9
$LUNITS
 70
     2
  9
$LUPREC
 70
     4
  9
$SKETCHINC
 40
1.0
  9
$FILLETRAD
 40
0.0
  9
$AUNITS
 70
     0
  9
$AUPREC
 70
     0
  9
$MENU
  1
.
  9
$ELEVATION
 40
0.0
  9
$PELEVATION
 40
0.0
  9
$THICKNESS
 40
0.0
  9
$LIMCHECK
 70
     0
  9
$CHAMFERA
 40
0.0
  9
$CHAMFERB
 40
0.0
  9
$CHAMFERC
 40
0.0
  9
$CHAMFERD
 40
0.0
  9
$SKPOLY
 70
     0
  9
$TDCREATE
 40
2455097.778760891
  9
$TDUCREATE
 40
2455097.695427558
  9
$TDUPDATE
 40
2456491.618722592
  9
$TDUUPDATE
 40
2456491.535389259
  9
$TDINDWG
 40
0.0613633565
  9
$TDUSRTIMER
 40
0.0613608681
  9
$USRTIMER
 70
     1
  9
$ANGBASE
 50
0.0
  9
$ANGDIR
 70
     0
  9
$PDMODE
 70
     0
  9
$PDSIZE
 40
0.0
  9
$PLINEWID
 40
0.0
  9
$SPLFRAME
 70
     0
  9
$SPLINETYPE
 70
     6
  9
$SPLINESEGS
 70
     8
  9
$HANDSEED
  5
56B
  9
$SURFTAB1
 70
     6
  9
$SURFTAB2
 70
     6
  9
$SURFTYPE
 70
     6
  9
$SURFU
 70
     6
  9
$SURFV
 70
     6
  9
$UCSBASE
  2

  9
$UCSNAME
  2

  9
$UCSORG
 10
0.0
 20
0.0
 30
0.0
  9
$UCSXDIR
 10
1.0
 20
0.0
 30
0.0
  9
$UCSYDIR
 10
0.0
 20
1.0
 30
0.0
  9
$UCSORTHOREF
  2

  9
$UCSORTHOVIEW
 70
     0
  9
$UCSORGTOP
 10
0.0
 20
0.0
 30
0.0
  9
$UCSORGBOTTOM
 10
0.0
 20
0.0
 30
0.0
  9
$UCSORGLEFT
 10
0.0
 20
0.0
 30
0.0
  9
$UCSORGRIGHT
 10
0.0
 20
0.0
 30
0.0
  9
$UCSORGFRONT
 10
0.0
 20
0.0
 30
0.0
  9
$UCSORGBACK
 10
0.0
 20
0.0
 30
0.0
  9
$PUCSBASE
  2

  9
$PUCSNAME
  2

  9
$PUCSORG
 10
0.0
 20
0.0
 30
0.0
  9
$PUCSXDIR
 10
1.0
 20
0.0
 30
0.0
  9
$PUCSYDIR
 10
0.0
 20
1.0
 30
0.0
  9
$PUCSORTHOREF
  2

  9
$PUCSORTHOVIEW
 70
     0
  9
$PUCSORGTOP
 10
0.0
 20
0.0
 30
0.0
  9
$PUCSORGBOTTOM
 10
0.0
 20
0.0
 30
0.0
  9
$PUCSORGLEFT
 10
0.0
 20
0.0
 30
0.0
  9
$PUCSORGRIGHT
 10
0.0
 20
0.0
 30
0.0
  9
$PUCSORGFRONT
 10
0.0
 20
0.0
 30
0.0
  9
$PUCSORGBACK
 10
0.0
 20
0.0
 30
0.0
  9
$USERI1
 70
     0
  9
$USERI2
 70
     0
  9
$USERI3
 70
     0
  9
$USERI4
 70
     0
  9
$USERI5
 70
     0
  9
$USERR1
 40
0.0
  9
$USERR2
 40
0.0
  9
$USERR3
 40
0.0
  9
$USERR4
 40
0.0
  9
$USERR5
 40
0.0
  9
$WORLDVIEW
 70
     1
  9
$SHADEDGE
 70
     3
  9
$SHADEDIF
 70
    70
  9
$TILEMODE
 70
     1
  9
$MAXACTVP
 70
    64
  9
$PINSBASE
 10
0.0
 20
0.0
 30
0.0
  9
$PLIMCHECK
 70
     0
  9
$PEXTMIN
 10
0.0
 20
0.0
 30
0.0
  9
$PEXTMAX
 10
12.0
 20
9.0
 30
0.0
  9
$PLIMMIN
 10
0.0
 20
0.0
  9
$PLIMMAX
 10
12.0
 20
9.0
  9
$UNITMODE
 70
     0
  9
$VISRETAIN
 70
     1
  9
$PLINEGEN
 70
     0
  9
$PSLTSCALE
 70
     1
  9
$TREEDEPTH
 70
  3020
  9
$CMLSTYLE
  2
Standard
  9
$CMLJUST
 70
     0
  9
$CMLSCALE
 40
20.0
  9
$PROXYGRAPHICS
 70
     1
  9
$MEASUREMENT
 70
     1
  9
$CELWEIGHT
370
    -1
  9
$ENDCAPS
280
     0
  9
$JOINSTYLE
280
     0
  9
$LWDISPLAY
290
     0
  9
$INSUNITS
 70
     4
  9
$HYPERLINKBASE
  1

  9
$STYLESHEET
  1

  9
$XEDIT
290
     1
  9
$CEPSNTYPE
380
     0
  9
$PSTYLEMODE
290
     1
  9
$FINGERPRINTGUID
  2
{5559452E-1E62-4159-8551-BF76FFF3E7E8}
  9
$VERSIONGUID
  2
{85B6FFB2-291A-4341-A7ED-26C9813BE047}
  9
$EXTNAMES
290
     1
  9
$PSVPSCALE
 40
0.0
  9
$OLESTARTUP
290
     0
  9
$SORTENTS
280
   127
  9
$INDEXCTL
280
     0
  9
$HIDETEXT
280
     1
  9
$XCLIPFRAME
290
     0
  9
$HALOGAP
280
     0
  9
$OBSCOLOR
 70
   257
  9
$OBSLTYPE
280
     0
  9
$INTERSECTIONDISPLAY
280
     0
  9
$INTERSECTIONCOLOR
 70
   257
  9
$DIMASSOC
280
     2
  9
$PROJECTNAME
  1

  0
ENDSEC
  0
SECTION
  2
CLASSES
  0
CLASS
  1
ACDBDICTIONARYWDFLT
  2
AcDbDictionaryWithDefault
  3
ObjectDBX Classes
 90
        0
 91
        4
280
     0
281
     0
  0
CLASS
  1
ACDBPLACEHOLDER
  2
AcDbPlaceHolder
  3
ObjectDBX Classes
 90
        0
 91
        1
280
     0
281
     0
  0
CLASS
  1
LAYOUT
  2
AcDbLayout
  3
ObjectDBX Classes
 90
        0
 91
        1
280
     0
281
     0
  0
CLASS
  1
DICTIONARYVAR
  2
AcDbDictionaryVar
  3
ObjectDBX Classes
 90
        0
 91
        4
280
     0
281
     0
  0
CLASS
  1
TABLESTYLE
  2
AcDbTableStyle
  3
ObjectDBX Classes
 90
     4095
 91
        7
280
     0
281
     0
  0
CLASS
  1
SCALE
  2
AcDbScale
  3
ObjectDBX Classes
 90
     1153
 91
      103
280
     0
281
     0
  0
CLASS
  1
MATERIAL
  2
AcDbMaterial
  3
ObjectDBX Classes
 90
     1153
 91
       10
280
     0
281
     0
  0
CLASS
  1
MLEADERSTYLE
  2
AcDbMLeaderStyle
  3
ACDB_MLEADERSTYLE_CLASS
 90
     4095
 91
        6
280
     0
281
     0
  0
CLASS
  1
CELLSTYLEMAP
  2
AcDbCellStyleMap
  3
ObjectDBX Classes
 90
     1152
 91
        5
280
     0
281
     0
  0
CLASS
  1
VISUALSTYLE
  2
AcDbVisualStyle
  3
ObjectDBX Classes
 90
     4095
 91
       36
280
     0
281
     0
  0
ENDSEC
  0
SECTION
  2
TABLES
  0
TABLE
  2
VPORT
  5
8
102
{ACAD_XDICTIONARY
360
569
102
}
330
0
100
AcDbSymbolTable
 70
     2
  0
VPORT
  5
97
330
8
100
AcDbSymbolTableRecord
100
AcDbViewportTableRecord
  2
*Active
 70
     0
 10
0.0
 20
0.0
 11
1.0
 21
1.0
 12
3676.197353811158
 22
3890.796855516091
 13
0.0
 23
0.0
 14
10.0
 24
10.0
 15
10.0
 25
10.0
 16
0.0
 26
0.0
 36
1.0
 17
0.0
 27
0.0
 37
0.0
 40
6368.984283738518
 41
2.004836759371221
 42
50.0
 43
0.0
 44
0.0
 50
0.0
 51
0.0
 71
     0
 72
  1000
 73
     1
 74
     3
 75
     0
 76
     0
 77
     0
 78
     0
281
     0
 65
     1
110
0.0
120
0.0
130
0.0
111
1.0
121
0.0
131
0.0
112
0.0
122
1.0
132
0.0
 79
     0
146
0.0
  0
ENDTAB
  0
TABLE
  2
LTYPE
  5
5
330
0
100
AcDbSymbolTable
 70
     3
  0
LTYPE
  5
14
330
5
100
AcDbSymbolTableRecord
100
AcDbLinetypeTableRecord
  2
ByBlock
 70
     0
  3

 72
    65
 73
     0
 40
0.0
  0
LTYPE
  5
15
330
5
100
AcDbSymbolTableRecord
100
AcDbLinetypeTableRecord
  2
ByLayer
 70
     0
  3

 72
    65
 73
     0
 40
0.0
  0
LTYPE
  5
16
330
5
100
AcDbSymbolTableRecord
100
AcDbLinetypeTableRecord
  2
Continuous
 70
     0
  3
Solid line
 72
    65
 73
     0
 40
0.0
  0
LTYPE
  5
524
330
5
100
AcDbSymbolTableRecord
100
AcDbLinetypeTableRecord
  2
DOT
 70
     0
  3
 . . . . . . . . . . . . . . . .
 72
    65
 73
     2
 40
3.5
 49
0.5
 74
     0
 49
-3.0
 74
     0
  0
LTYPE
  5
525
330
5
100
AcDbSymbolTableRecord
100
AcDbLinetypeTableRecord
  2
DASHDOT
 70
     0
  3
 __ . __ . __ . __ . __ . __ . __ . 
 72
    65
 73
     4
 40
18.5
 49
12.0
 74
     0
 49
-3.0
 74
     0
 49
0.5
 74
     0
 49
-3.0
 74
     0
  0
ENDTAB
  0
TABLE
  2
LAYER
  5
2
330
0
100
AcDbSymbolTable
 70
     2
  0
LAYER
  5
10
330
2
100
AcDbSymbolTableRecord
100
AcDbLayerTableRecord
  2
0
 70
     0
 62
     7
  6
Continuous
370
    -3
390
F
  0
LAYER
  5
110
330
2
100
AcDbSymbolTableRecord
100
AcDbLayerTableRecord
  2
DEFPOINTS
 70
     0
 62
     7
  6
Continuous
290
     0
370
    -3
390
F
  0
ENDTAB
  0
TABLE
  2
STYLE
  5
3
330
0
100
AcDbSymbolTable
 70
     1
  0
STYLE
  5
11
330
3
100
AcDbSymbolTableRecord
100
AcDbTextStyleTableRecord
  2
Standard
 70
     0
 40
0.0
 41
1.0
 50
0.0
 71
     0
 42
2.5
  3
txt
  4

  0
ENDTAB
  0
TABLE
  2
VIEW
  5
6
330
0
100
AcDbSymbolTable
 70
     0
  0
ENDTAB
  0
TABLE
  2
UCS
  5
7
330
0
100
AcDbSymbolTable
 70
     0
  0
ENDTAB
  0
TABLE
  2
APPID
  5
9
330
0
100
AcDbSymbolTable
 70
     4
  0
APPID
  5
12
330
9
100
AcDbSymbolTableRecord
100
AcDbRegAppTableRecord
  2
ACAD
 70
     0
  0
APPID
  5
521
330
9
100
AcDbSymbolTableRecord
100
AcDbRegAppTableRecord
  2
PROGE_PRINT_SETTINGS
 70
     0
  0
APPID
  5
522
330
9
100
AcDbSymbolTableRecord
100
AcDbRegAppTableRecord
  2
ACAD_MLEADERVER
 70
     0
  0
APPID
  5
523
330
9
100
AcDbSymbolTableRecord
100
AcDbRegAppTableRecord
  2
ACAD_EXEMPT_FROM_CAD_STANDARDS
 70
     0
  0
ENDTAB
  0
TABLE
  2
DIMSTYLE
  5
A
330
0
100
AcDbSymbolTable
 70
     2
100
AcDbDimStyleTable
  0
DIMSTYLE
105
27
330
A
100
AcDbSymbolTableRecord
100
AcDbDimStyleTableRecord
  2
Standard
 70
     0
278
     0
340
11
  0
DIMSTYLE
105
29
102
{ACAD_REACTORS
330
4C6
330
4E8
102
}
330
A
100
AcDbSymbolTableRecord
100
AcDbDimStyleTableRecord
  2
ISO-25
 70
     0
 41
2.5
 42
0.625
 43
3.75
 44
1.25
 73
     0
 74
     0
 77
     1
 78
     8
140
2.5
141
2.5
143
0.03937007874016
147
0.625
171
     3
172
     1
271
     2
272
     2
274
     3
278
    44
283
     0
284
     8
340
11
  0
ENDTAB
  0
TABLE
  2
BLOCK_RECORD
  5
1
330
0
100
AcDbSymbolTable
 70
    27
  0
BLOCK_RECORD
  5
1F
330
1
100
AcDbSymbolTableRecord
100
AcDbBlockTableRecord
  2
*Model_Space
340
22
  0
BLOCK_RECORD
  5
73
330
1
100
AcDbSymbolTableRecord
100
AcDbBlockTableRecord
  2
*Paper_Space
340
142
  0
BLOCK_RECORD
  5
D1
330
1
100
AcDbSymbolTableRecord
100
AcDbBlockTableRecord
  2
*Paper_Space0
340
74
  0
BLOCK_RECORD
  5
11B
330
1
100
AcDbSymbolTableRecord
100
AcDbBlockTableRecord
  2
*D1
340
0
  0
BLOCK_RECORD
  5
126
330
1
100
AcDbSymbolTableRecord
100
AcDbBlockTableRecord
  2
*D2
340
0
  0
BLOCK_RECORD
  5
131
330
1
100
AcDbSymbolTableRecord
100
AcDbBlockTableRecord
  2
*D3
340
0
  0
BLOCK_RECORD
  5
13C
330
1
100
AcDbSymbolTableRecord
100
AcDbBlockTableRecord
  2
*D4
340
0
  0
BLOCK_RECORD
  5
186
330
1
100
AcDbSymbolTableRecord
100
AcDbBlockTableRecord
  2
*D5
340
0
  0
BLOCK_RECORD
  5
1B5
330
1
100
AcDbSymbolTableRecord
100
AcDbBlockTableRecord
  2
*D6
340
0
  0
BLOCK_RECORD
  5
1CD
330
1
100
AcDbSymbolTableRecord
100
AcDbBlockTableRecord
  2
*D7
340
0
  0
BLOCK_RECORD
  5
20C
330
1
100
AcDbSymbolTableRecord
100
AcDbBlockTableRecord
  2
*D8
340
0
  0
BLOCK_RECORD
  5
220
330
1
100
AcDbSymbolTableRecord
100
AcDbBlockTableRecord
  2
*D9
340
0
  0
BLOCK_RECORD
  5
262
330
1
100
AcDbSymbolTableRecord
100
AcDbBlockTableRecord
  2
*D10
340
0
  0
BLOCK_RECORD
  5
28E
330
1
100
AcDbSymbolTableRecord
100
AcDbBlockTableRecord
  2
A$C73FC2B41
340
0
1001
ACAD
1000
DesignCenter Data
1002
{
1070
     1
1070
     4
1002
}
  0
BLOCK_RECORD
  5
293
330
1
100
AcDbSymbolTableRecord
100
AcDbBlockTableRecord
  2
A$C11E54516
340
0
1001
ACAD
1000
DesignCenter Data
1002
{
1070
     1
1070
     4
1002
}
  0
BLOCK_RECORD
  5
2F8
330
1
100
AcDbSymbolTableRecord
100
AcDbBlockTableRecord
  2
*D13
340
0
  0
BLOCK_RECORD
  5
30A
330
1
100
AcDbSymbolTableRecord
100
AcDbBlockTableRecord
  2
*D14
340
0
  0
BLOCK_RECORD
  5
33B
330
1
100
AcDbSymbolTableRecord
100
AcDbBlockTableRecord
  2
*D15
340
0
  0
BLOCK_RECORD
  5
34D
330
1
100
AcDbSymbolTableRecord
100
AcDbBlockTableRecord
  2
*D16
340
0
  0
BLOCK_RECORD
  5
386
330
1
100
AcDbSymbolTableRecord
100
AcDbBlockTableRecord
  2
*D17
340
0
  0
BLOCK_RECORD
  5
398
330
1
100
AcDbSymbolTableRecord
100
AcDbBlockTableRecord
  2
*D18
340
0
  0
BLOCK_RECORD
  5
4D1
330
1
100
AcDbSymbolTableRecord
100
AcDbBlockTableRecord
  2
*D19
340
0
  0
BLOCK_RECORD
  5
4DC
330
1
100
AcDbSymbolTableRecord
100
AcDbBlockTableRecord
  2
*D20
340
0
  0
BLOCK_RECORD
  5
4E7
330
1
100
AcDbSymbolTableRecord
100
AcDbBlockTableRecord
  2
*D21
340
0
  0
BLOCK_RECORD
  5
4F3
330
1
100
AcDbSymbolTableRecord
100
AcDbBlockTableRecord
  2
*D22
340
0
  0
BLOCK_RECORD
  5
4FE
330
1
100
AcDbSymbolTableRecord
100
AcDbBlockTableRecord
  2
*D23
340
0
  0
BLOCK_RECORD
  5
509
330
1
100
AcDbSymbolTableRecord
100
AcDbBlockTableRecord
  2
*D24
340
0
  0
BLOCK_RECORD
  5
514
330
1
100
AcDbSymbolTableRecord
100
AcDbBlockTableRecord
  2
*D25
340
0
  0
BLOCK_RECORD
  5
51F
330
1
100
AcDbSymbolTableRecord
100
AcDbBlockTableRecord
  2
*D26
340
0
  0
ENDTAB
  0
ENDSEC
  0
SECTION
  2
BLOCKS
  0
BLOCK
  5
20
330
1F
100
AcDbEntity
  8
0
100
AcDbBlockBegin
  2
*Model_Space
 70
     0
 10
0.0
 20
0.0
 30
0.0
  3
*Model_Space
  1

  0
ENDBLK
  5
21
330
1F
100
AcDbEntity
  8
0
100
AcDbBlockEnd
  0
BLOCK
  5
75
330
73
100
AcDbEntity
 67
     1
  8
0
100
AcDbBlockBegin
  2
*Paper_Space
 70
     0
 10
0.0
 20
0.0
 30
0.0
  3
*Paper_Space
  1

  0
ENDBLK
  5
76
330
73
100
AcDbEntity
 67
     1
  8
0
100
AcDbBlockEnd
  0
BLOCK
  5
52B
330
D1
100
AcDbEntity
  8
0
100
AcDbBlockBegin
  2
*Paper_Space0
 70
     0
 10
0.0
 20
0.0
 30
0.0
  3
*Paper_Space0
  1

  0
VIEWPORT
  5
14D
330
D1
100
AcDbEntity
  8
0
100
AcDbViewport
 10
7.799999999999998
 20
4.5
 30
0.0
 40
15.64
 41
9.0
 68
     1
 69
     1
 12
6.0
 22
4.5
 13
0.0
 23
0.0
 14
0.5
 24
0.5
 15
0.5
 25
0.5
 16
0.0
 26
0.0
 36
1.0
 17
0.0
 27
0.0
 37
0.0
 42
50.0
 43
0.0
 44
0.0
 45
12.0
 50
0.0
 51
0.0
 72
   100
 90
   557152
  1

281
     0
 71
     1
 74
     0
110
0.0
120
0.0
130
0.0
111
1.0
121
0.0
131
0.0
112
0.0
122
1.0
132
0.0
 79
     0
146
0.0
170
     0
  0
ENDBLK
  5
52C
330
D1
100
AcDbEntity
  8
0
100
AcDbBlockEnd
  0
BLOCK
  5
52D
330
11B
100
AcDbEntity
  8
0
100
AcDbBlockBegin
  2
*D1
 70
     1
 10
0.0
 20
0.0
 30
0.0
  3
*D1
  1

  0
POINT
  5
112
330
11B
100
AcDbEntity
  8
DEFPOINTS
  6
ByBlock
 62
     7
380
     1
100
AcDbPoint
 10
120.3099085645997
 20
161.465519297586
 30
0.0
  0
POINT
  5
113
330
11B
100
AcDbEntity
  8
DEFPOINTS
  6
ByBlock
 62
     7
380
     1
100
AcDbPoint
 10
486.9784085645997
 20
163.7655331642645
 30
0.0
  0
LINE
  5
114
330
11B
100
AcDbEntity
  8
0
  6
ByBlock
 62
     7
370
    -2
380
     1
100
AcDbLine
 10
120.3099085645997
 20
160.840519297586
 30
0.0
 11
120.3099085645997
 21
129.3716022889843
 31
0.0
  0
LINE
  5
115
330
11B
100
AcDbEntity
  8
0
  6
ByBlock
 62
     7
370
    -2
380
     1
100
AcDbLine
 10
486.9784085645997
 20
163.1405331642645
 30
0.0
 11
486.9784085645997
 21
129.3716022889843
 31
0.0
  0
LINE
  5
116
330
11B
100
AcDbEntity
  8
0
  6
ByBlock
 62
     7
370
    -2
380
     1
100
AcDbLine
 10
130.3099085645997
 20
130.6216022889843
 30
0.0
 11
476.9784085645997
 21
130.6216022889843
 31
0.0
  0
SOLID
  5
117
330
11B
100
AcDbEntity
  8
0
  6
ByBlock
 62
     7
380
     1
100
AcDbTrace
 10
120.3099085645997
 20
130.6216022889843
 30
0.0
 11
130.3099085645997
 21
128.9549356223176
 31
0.0
 12
130.3099085645997
 22
132.2882689556509
 32
0.0
 13
130.3099085645997
 23
132.2882689556509
 33
0.0
  0
SOLID
  5
118
330
11B
100
AcDbEntity
  8
0
  6
ByBlock
 62
     7
380
     1
100
AcDbTrace
 10
486.9784085645997
 20
130.6216022889843
 30
0.0
 11
476.9784085645997
 21
128.9549356223176
 31
0.0
 12
476.9784085645997
 22
132.2882689556509
 32
0.0
 13
476.9784085645997
 23
132.2882689556509
 33
0.0
  0
MTEXT
  5
119
330
11B
100
AcDbEntity
  8
0
  6
ByBlock
 62
     0
370
    -2
380
     1
100
AcDbMText
 10
303.6441585645997
 20
142.6216022889843
 30
0.0
 40
14.0
 41
0.0
 71
     5
 72
     1
  1
5500
 73
     1
 44
1.0
  0
ENDBLK
  5
52E
330
11B
100
AcDbEntity
  8
0
100
AcDbBlockEnd
  0
BLOCK
  5
52F
330
126
100
AcDbEntity
  8
0
100
AcDbBlockBegin
  2
*D2
 70
     1
 10
0.0
 20
0.0
 30
0.0
  3
*D2
  1

  0
POINT
  5
11D
330
126
100
AcDbEntity
  8
DEFPOINTS
  6
ByBlock
 62
     7
380
     1
100
AcDbPoint
 10
120.3099085645997
 20
163.7655296975805
 30
0.0
  0
POINT
  5
11E
330
126
100
AcDbEntity
  8
DEFPOINTS
  6
ByBlock
 62
     7
380
     1
100
AcDbPoint
 10
153.6432415645997
 20
175.2493743732154
 30
0.0
  0
LINE
  5
11F
330
126
100
AcDbEntity
  8
0
  6
ByBlock
 62
     7
370
    -2
380
     1
100
AcDbLine
 10
120.3099085645997
 20
164.3905296975805
 30
0.0
 11
120.3099085645997
 21
186.1144844309275
 31
0.0
  0
LINE
  5
120
330
126
100
AcDbEntity
  8
0
  6
ByBlock
 62
     7
370
    -2
380
     1
100
AcDbLine
 10
153.6432415645997
 20
175.8743743732154
 30
0.0
 11
153.6432415645997
 21
186.1144844309275
 31
0.0
  0
LINE
  5
121
330
126
100
AcDbEntity
  8
0
  6
ByBlock
 62
     7
370
    -2
380
     1
100
AcDbLine
 10
120.3099085645997
 20
184.8644844309275
 30
0.0
 11
153.6432415645997
 21
184.8644844309275
 31
0.0
  0
SOLID
  5
122
330
126
100
AcDbEntity
  8
0
  6
ByBlock
 62
     7
380
     1
100
AcDbTrace
 10
120.3099085645997
 20
184.8644844309275
 30
0.0
 11
130.3099085645997
 21
183.1978177642608
 31
0.0
 12
130.3099085645997
 22
186.5311510975941
 32
0.0
 13
130.3099085645997
 23
186.5311510975941
 33
0.0
  0
SOLID
  5
123
330
126
100
AcDbEntity
  8
0
  6
ByBlock
 62
     7
380
     1
100
AcDbTrace
 10
153.6432415645997
 20
184.8644844309275
 30
0.0
 11
143.6432415645997
 21
183.1978177642608
 31
0.0
 12
143.6432415645997
 22
186.5311510975941
 32
0.0
 13
143.6432415645997
 23
186.5311510975941
 33
0.0
  0
MTEXT
  5
124
330
126
100
AcDbEntity
  8
0
  6
ByBlock
 62
     0
370
    -2
380
     1
100
AcDbMText
 10
136.9765750645997
 20
196.8644844309275
 30
0.0
 40
14.0
 41
0.0
 71
     5
 72
     1
  1
500
 73
     1
 44
1.0
  0
ENDBLK
  5
530
330
126
100
AcDbEntity
  8
0
100
AcDbBlockEnd
  0
BLOCK
  5
531
330
131
100
AcDbEntity
  8
0
100
AcDbBlockBegin
  2
*D3
 70
     1
 10
0.0
 20
0.0
 30
0.0
  3
*D3
  1

  0
POINT
  5
128
330
131
100
AcDbEntity
  8
DEFPOINTS
  6
ByBlock
 62
     7
380
     1
100
AcDbPoint
 10
138.1554021268315
 20
142.0960018005848
 30
0.0
  0
POINT
  5
129
330
131
100
AcDbEntity
  8
DEFPOINTS
  6
ByBlock
 62
     7
380
     1
100
AcDbPoint
 10
171.4887351268314
 20
153.5798464762197
 30
0.0
  0
LINE
  5
12A
330
131
100
AcDbEntity
  8
0
  6
ByBlock
 62
     7
370
    -2
380
     1
100
AcDbLine
 10
138.1554021268315
 20
142.7210018005848
 30
0.0
 11
138.1554021268315
 21
164.4449565339318
 31
0.0
  0
LINE
  5
12B
330
131
100
AcDbEntity
  8
0
  6
ByBlock
 62
     7
370
    -2
380
     1
100
AcDbLine
 10
171.4887351268314
 20
154.2048464762197
 30
0.0
 11
171.4887351268314
 21
164.4449565339318
 31
0.0
  0
LINE
  5
12C
330
131
100
AcDbEntity
  8
0
  6
ByBlock
 62
     7
370
    -2
380
     1
100
AcDbLine
 10
138.1554021268315
 20
163.1949565339318
 30
0.0
 11
171.4887351268314
 21
163.1949565339318
 31
0.0
  0
SOLID
  5
12D
330
131
100
AcDbEntity
  8
0
  6
ByBlock
 62
     7
380
     1
100
AcDbTrace
 10
138.1554021268315
 20
163.1949565339318
 30
0.0
 11
148.1554021268315
 21
161.5282898672651
 31
0.0
 12
148.1554021268315
 22
164.8616232005984
 32
0.0
 13
148.1554021268315
 23
164.8616232005984
 33
0.0
  0
SOLID
  5
12E
330
131
100
AcDbEntity
  8
0
  6
ByBlock
 62
     7
380
     1
100
AcDbTrace
 10
171.4887351268314
 20
163.1949565339318
 30
0.0
 11
161.4887351268314
 21
161.5282898672651
 31
0.0
 12
161.4887351268314
 22
164.8616232005984
 32
0.0
 13
161.4887351268314
 23
164.8616232005984
 33
0.0
  0
MTEXT
  5
12F
330
131
100
AcDbEntity
  8
0
  6
ByBlock
 62
     0
370
    -2
380
     1
100
AcDbMText
 10
154.8220686268314
 20
175.1949565339318
 30
0.0
 40
14.0
 41
0.0
 71
     5
 72
     1
  1
500
 73
     1
 44
1.0
  0
ENDBLK
  5
532
330
131
100
AcDbEntity
  8
0
100
AcDbBlockEnd
  0
BLOCK
  5
533
330
13C
100
AcDbEntity
  8
0
100
AcDbBlockBegin
  2
*D4
 70
     1
 10
0.0
 20
0.0
 30
0.0
  3
*D4
  1

  0
POINT
  5
133
330
13C
100
AcDbEntity
  8
DEFPOINTS
  6
ByBlock
 62
     7
380
     1
100
AcDbPoint
 10
138.1554021268315
 20
139.7959914005903
 30
0.0
  0
POINT
  5
134
330
13C
100
AcDbEntity
  8
DEFPOINTS
  6
ByBlock
 62
     7
380
     1
100
AcDbPoint
 10
504.8239021268313
 20
142.0960052672688
 30
0.0
  0
LINE
  5
135
330
13C
100
AcDbEntity
  8
0
  6
ByBlock
 62
     7
370
    -2
380
     1
100
AcDbLine
 10
138.1554021268315
 20
139.1709914005903
 30
0.0
 11
138.1554021268315
 21
107.7020743919886
 31
0.0
  0
LINE
  5
136
330
13C
100
AcDbEntity
  8
0
  6
ByBlock
 62
     7
370
    -2
380
     1
100
AcDbLine
 10
504.8239021268313
 20
141.4710052672688
 30
0.0
 11
504.8239021268313
 21
107.7020743919886
 31
0.0
  0
LINE
  5
137
330
13C
100
AcDbEntity
  8
0
  6
ByBlock
 62
     7
370
    -2
380
     1
100
AcDbLine
 10
148.1554021268315
 20
108.9520743919886
 30
0.0
 11
494.8239021268315
 21
108.9520743919886
 31
0.0
  0
SOLID
  5
138
330
13C
100
AcDbEntity
  8
0
  6
ByBlock
 62
     7
380
     1
100
AcDbTrace
 10
138.1554021268315
 20
108.9520743919886
 30
0.0
 11
148.1554021268315
 21
107.2854077253219
 31
0.0
 12
148.1554021268315
 22
110.6187410586552
 32
0.0
 13
148.1554021268315
 23
110.6187410586552
 33
0.0
  0
SOLID
  5
139
330
13C
100
AcDbEntity
  8
0
  6
ByBlock
 62
     7
380
     1
100
AcDbTrace
 10
504.8239021268313
 20
108.9520743919886
 30
0.0
 11
494.8239021268315
 21
107.2854077253219
 31
0.0
 12
494.8239021268315
 22
110.6187410586552
 32
0.0
 13
494.8239021268315
 23
110.6187410586552
 33
0.0
  0
MTEXT
  5
13A
330
13C
100
AcDbEntity
  8
0
  6
ByBlock
 62
     0
370
    -2
380
     1
100
AcDbMText
 10
321.4896521268315
 20
120.9520743919886
 30
0.0
 40
14.0
 41
0.0
 71
     5
 72
     1
  1
5500
 73
     1
 44
1.0
  0
ENDBLK
  5
534
330
13C
100
AcDbEntity
  8
0
100
AcDbBlockEnd
  0
BLOCK
  5
535
330
186
100
AcDbEntity
  8
0
100
AcDbBlockBegin
  2
*D5
 70
     1
 10
0.0
 20
0.0
 30
0.0
  3
*D5
  1

  0
LINE
  5
189
330
186
100
AcDbEntity
  8
0
 62
     0
370
    -2
100
AcDbLine
 10
504.8239021268313
 20
123.9615398296287
 30
0.0
 11
504.8239021268313
 21
63.58398606216872
 31
0.0
  0
LINE
  5
18A
330
186
100
AcDbEntity
  8
0
 62
     0
370
    -2
100
AcDbLine
 10
138.1554021268315
 20
123.9615398296287
 30
0.0
 11
138.1554021268315
 21
63.58398606216872
 31
0.0
  0
LINE
  5
18B
330
186
100
AcDbEntity
  8
0
 62
     0
370
    -2
100
AcDbLine
 10
502.3239021268315
 20
64.83398606216872
 30
0.0
 11
140.6554021268315
 21
64.83398606216872
 31
0.0
  0
SOLID
  5
18C
330
186
100
AcDbEntity
  8
0
 62
     0
100
AcDbTrace
 10
502.3239021268315
 20
65.25065272883539
 30
0.0
 11
502.3239021268315
 21
64.41731939550205
 31
0.0
 12
504.8239021268313
 22
64.83398606216872
 32
0.0
 13
504.8239021268313
 23
64.83398606216872
 33
0.0
  0
SOLID
  5
18D
330
186
100
AcDbEntity
  8
0
 62
     0
100
AcDbTrace
 10
140.6554021268315
 20
65.25065272883539
 30
0.0
 11
140.6554021268315
 21
64.41731939550205
 31
0.0
 12
138.1554021268315
 22
64.83398606216872
 32
0.0
 13
138.1554021268315
 23
64.83398606216872
 33
0.0
  0
MTEXT
  5
18E
330
186
100
AcDbEntity
  8
0
 62
     0
100
AcDbMText
 10
321.4896521268315
 20
66.91731939550205
 30
0.0
 40
2.5
 41
0.0
 71
     5
 72
     1
  1
366,67
 73
     1
 44
1.0
  0
POINT
  5
18F
330
186
100
AcDbEntity
  8
DEFPOINTS
 62
     0
100
AcDbPoint
 10
504.8239021268313
 20
124.5865398296287
 30
0.0
  0
POINT
  5
190
330
186
100
AcDbEntity
  8
DEFPOINTS
 62
     0
100
AcDbPoint
 10
138.1554021268315
 20
124.5865398296287
 30
0.0
  0
POINT
  5
191
330
186
100
AcDbEntity
  8
DEFPOINTS
 62
     0
100
AcDbPoint
 10
138.1554021268315
 20
64.83398606216872
 30
0.0
  0
ENDBLK
  5
536
330
186
100
AcDbEntity
  8
0
100
AcDbBlockEnd
  0
BLOCK
  5
537
330
1B5
100
AcDbEntity
  8
0
100
AcDbBlockBegin
  2
*D6
 70
     1
 10
0.0
 20
0.0
 30
0.0
  3
*D6
  1

  0
LINE
  5
484
330
1B5
100
AcDbEntity
  8
0
 62
     0
370
    -2
100
AcDbLine
 10
-31.25
 20
74.0
 30
0.0
 11
-229.1165428514067
 21
74.00000000000007
 31
0.0
  0
LINE
  5
485
330
1B5
100
AcDbEntity
  8
0
 62
     0
370
    -2
100
AcDbLine
 10
-31.2000000844592
 20
-73.99998310816325
 30
0.0
 11
-229.1165428514068
 21
-73.99998310816318
 31
0.0
  0
LINE
  5
486
330
1B5
100
AcDbEntity
  8
0
 62
     0
370
    -2
100
AcDbLine
 10
-166.6165428514067
 20
199.0
 30
0.0
 11
-166.6165428514067
 21
324.0000000000001
 31
0.0
  0
LINE
  5
487
330
1B5
100
AcDbEntity
  8
0
 62
     0
370
    -2
100
AcDbLine
 10
-166.6165428514068
 20
-198.9999831081632
 30
0.0
 11
-166.6165428514069
 21
-678.1666497748297
 31
0.0
  0
LINE
  5
488
330
1B5
100
AcDbEntity
  8
0
 62
     0
370
    -2
100
AcDbLine
 10
-166.6165428514067
 20
74.00000000000004
 30
0.0
 11
-166.6165428514068
 21
-73.99998310816318
 31
0.0
  0
SOLID
  5
489
330
1B5
100
AcDbEntity
  8
0
 62
     0
100
AcDbTrace
 10
-187.44987618474
 20
199.0
 30
0.0
 11
-145.7832095180734
 21
199.0
 31
0.0
 12
-166.6165428514067
 22
74.00000000000004
 32
0.0
 13
-166.6165428514067
 23
74.00000000000004
 33
0.0
  0
SOLID
  5
48A
330
1B5
100
AcDbEntity
  8
0
 62
     0
100
AcDbTrace
 10
-187.4498761847401
 20
-198.9999831081632
 30
0.0
 11
-145.7832095180735
 21
-198.9999831081632
 31
0.0
 12
-166.6165428514068
 22
-73.99998310816318
 32
0.0
 13
-166.6165428514068
 23
-73.99998310816318
 33
0.0
  0
MTEXT
  5
48B
330
1B5
100
AcDbEntity
  8
0
 62
     0
100
AcDbMText
 10
-260.3665428514069
 20
-501.0833164414965
 30
0.0
 40
125.0
 41
0.0
 71
     5
 72
     1
  1
148
 11
1.000000000000000E-16
 21
1.0
 31
0.0
 73
     1
 44
1.0
  0
POINT
  5
48C
330
1B5
100
AcDbEntity
  8
DEFPOINTS
 62
     0
100
AcDbPoint
 10
0.0000000000000013
 20
74.0
 30
0.0
  0
POINT
  5
48D
330
1B5
100
AcDbEntity
  8
DEFPOINTS
 62
     0
100
AcDbPoint
 10
0.0499999155407971
 20
-73.99998310816325
 30
0.0
  0
POINT
  5
48E
330
1B5
100
AcDbEntity
  8
DEFPOINTS
 62
     0
100
AcDbPoint
 10
-166.6165428514068
 20
-73.99998310816318
 30
0.0
  0
ENDBLK
  5
538
330
1B5
100
AcDbEntity
  8
0
100
AcDbBlockEnd
  0
BLOCK
  5
539
330
1CD
100
AcDbEntity
  8
0
100
AcDbBlockBegin
  2
*D7
 70
     1
 10
0.0
 20
0.0
 30
0.0
  3
*D7
  1

  0
LINE
  5
48F
330
1CD
100
AcDbEntity
  8
0
 62
     0
370
    -2
100
AcDbLine
 10
0.0000000000000032
 20
105.25
 30
0.0
 11
0.0000000000000345
 21
615.2833319053702
 31
0.0
  0
LINE
  5
490
330
1CD
100
AcDbEntity
  8
0
 62
     0
370
    -2
100
AcDbLine
 10
800.0
 20
231.25
 30
0.0
 11
800.0
 21
615.2833319053702
 31
0.0
  0
LINE
  5
491
330
1CD
100
AcDbEntity
  8
0
 62
     0
370
    -2
100
AcDbLine
 10
125.0
 20
552.7833319053703
 30
0.0
 11
675.0
 21
552.7833319053703
 31
0.0
  0
SOLID
  5
492
330
1CD
100
AcDbEntity
  8
0
 62
     0
100
AcDbTrace
 10
125.0
 20
573.6166652387037
 30
0.0
 11
125.0
 21
531.9499985720367
 31
0.0
 12
0.0000000000000306
 22
552.7833319053703
 32
0.0
 13
0.0000000000000306
 23
552.7833319053703
 33
0.0
  0
SOLID
  5
493
330
1CD
100
AcDbEntity
  8
0
 62
     0
100
AcDbTrace
 10
675.0
 20
573.6166652387037
 30
0.0
 11
675.0
 21
531.9499985720367
 31
0.0
 12
800.0
 22
552.7833319053703
 32
0.0
 13
800.0
 23
552.7833319053703
 33
0.0
  0
MTEXT
  5
494
330
1CD
100
AcDbEntity
  8
0
 62
     0
100
AcDbMText
 10
400.0
 20
646.5333319053702
 30
0.0
 40
125.0
 41
0.0
 71
     5
 72
     1
  1
800
 73
     1
 44
1.0
  0
POINT
  5
495
330
1CD
100
AcDbEntity
  8
DEFPOINTS
 62
     0
100
AcDbPoint
 10
0.0000000000000013
 20
74.0
 30
0.0
  0
POINT
  5
496
330
1CD
100
AcDbEntity
  8
DEFPOINTS
 62
     0
100
AcDbPoint
 10
800.0
 20
200.0
 30
0.0
  0
POINT
  5
497
330
1CD
100
AcDbEntity
  8
DEFPOINTS
 62
     0
100
AcDbPoint
 10
800.0
 20
552.7833319053703
 30
0.0
  0
ENDBLK
  5
53A
330
1CD
100
AcDbEntity
  8
0
100
AcDbBlockEnd
  0
BLOCK
  5
53B
330
20C
100
AcDbEntity
  8
0
100
AcDbBlockBegin
  2
*D8
 70
     1
 10
0.0
 20
0.0
 30
0.0
  3
*D8
  1

  0
LINE
  5
20E
330
20C
100
AcDbEntity
  8
0
 62
     0
370
    -2
100
AcDbLine
 10
-62.5
 20
57.50000000000002
 30
0.0
 11
-291.6165428514069
 21
57.50000000000007
 31
0.0
  0
LINE
  5
20F
330
20C
100
AcDbEntity
  8
0
 62
     0
370
    -2
100
AcDbLine
 10
-62.5
 20
-57.49999999999998
 30
0.0
 11
-291.6165428514069
 21
-57.49999999999992
 31
0.0
  0
LINE
  5
210
330
20C
100
AcDbEntity
  8
0
 62
     0
370
    -2
100
AcDbLine
 10
-166.6165428514068
 20
307.5000000000001
 30
0.0
 11
-166.6165428514067
 21
557.5
 31
0.0
  0
LINE
  5
211
330
20C
100
AcDbEntity
  8
0
 62
     0
370
    -2
100
AcDbLine
 10
-166.6165428514069
 20
-307.4999999999999
 30
0.0
 11
-166.616542851407
 21
-1182.5
 31
0.0
  0
LINE
  5
212
330
20C
100
AcDbEntity
  8
0
 62
     0
370
    -2
100
AcDbLine
 10
-166.6165428514068
 20
57.50000000000003
 30
0.0
 11
-166.6165428514068
 21
-57.49999999999996
 31
0.0
  0
SOLID
  5
213
330
20C
100
AcDbEntity
  8
0
 62
     0
100
AcDbTrace
 10
-208.2832095180735
 20
307.5000000000001
 30
0.0
 11
-124.9498761847401
 21
307.5
 31
0.0
 12
-166.6165428514068
 22
57.50000000000003
 32
0.0
 13
-166.6165428514068
 23
57.50000000000003
 33
0.0
  0
SOLID
  5
214
330
20C
100
AcDbEntity
  8
0
 62
     0
100
AcDbTrace
 10
-208.2832095180735
 20
-307.4999999999999
 30
0.0
 11
-124.9498761847402
 21
-307.5
 31
0.0
 12
-166.6165428514068
 22
-57.49999999999996
 32
0.0
 13
-166.6165428514068
 23
-57.49999999999996
 33
0.0
  0
MTEXT
  5
215
330
20C
100
AcDbEntity
  8
0
 62
     0
100
AcDbMText
 10
-354.1165428514069
 20
-870.0
 30
0.0
 40
250.0
 41
0.0
 71
     5
 72
     1
  1
115
 11
1.000000000000000E-16
 21
1.0
 31
0.0
 73
     1
 44
1.0
  0
POINT
  5
216
330
20C
100
AcDbEntity
  8
DEFPOINTS
 62
     0
100
AcDbPoint
 10
0.0000000000000035
 20
57.5
 30
0.0
  0
POINT
  5
217
330
20C
100
AcDbEntity
  8
DEFPOINTS
 62
     0
100
AcDbPoint
 10
-0.0000000000000106
 20
-57.5
 30
0.0
  0
POINT
  5
218
330
20C
100
AcDbEntity
  8
DEFPOINTS
 62
     0
100
AcDbPoint
 10
-166.6165428514068
 20
-57.49999999999996
 30
0.0
  0
ENDBLK
  5
53C
330
20C
100
AcDbEntity
  8
0
100
AcDbBlockEnd
  0
BLOCK
  5
53D
330
220
100
AcDbEntity
  8
0
100
AcDbBlockBegin
  2
*D9
 70
     1
 10
0.0
 20
0.0
 30
0.0
  3
*D9
  1

  0
LINE
  5
4A6
330
220
100
AcDbEntity
  8
0
 62
     0
370
    -2
100
AcDbLine
 10
8831.25
 20
29.99999999999999
 30
0.0
 11
9292.17128873397
 21
29.99999999999986
 31
0.0
  0
LINE
  5
4A7
330
220
100
AcDbEntity
  8
0
 62
     0
370
    -2
100
AcDbLine
 10
8831.25
 20
-30.00000000000001
 30
0.0
 11
9292.17128873397
 21
-30.00000000000014
 31
0.0
  0
LINE
  5
4A8
330
220
100
AcDbEntity
  8
0
 62
     0
370
    -2
100
AcDbLine
 10
9229.67128873397
 20
154.9999999999999
 30
0.0
 11
9229.67128873397
 21
279.9999999999999
 31
0.0
  0
LINE
  5
4A9
330
220
100
AcDbEntity
  8
0
 62
     0
370
    -2
100
AcDbLine
 10
9229.67128873397
 20
-155.0000000000001
 30
0.0
 11
9229.67128873397
 21
-530.0000000000001
 31
0.0
  0
LINE
  5
4AA
330
220
100
AcDbEntity
  8
0
 62
     0
370
    -2
100
AcDbLine
 10
9229.67128873397
 20
29.99999999999988
 30
0.0
 11
9229.67128873397
 21
-30.00000000000012
 31
0.0
  0
SOLID
  5
4AB
330
220
100
AcDbEntity
  8
0
 62
     0
100
AcDbTrace
 10
9208.837955400637
 20
154.9999999999999
 30
0.0
 11
9250.504622067305
 21
154.9999999999999
 31
0.0
 12
9229.67128873397
 22
29.99999999999988
 32
0.0
 13
9229.67128873397
 23
29.99999999999988
 33
0.0
  0
SOLID
  5
4AC
330
220
100
AcDbEntity
  8
0
 62
     0
100
AcDbTrace
 10
9208.837955400637
 20
-155.0000000000001
 30
0.0
 11
9250.504622067305
 21
-155.0000000000001
 31
0.0
 12
9229.67128873397
 22
-30.00000000000012
 32
0.0
 13
9229.67128873397
 23
-30.00000000000012
 33
0.0
  0
MTEXT
  5
4AD
330
220
100
AcDbEntity
  8
0
 62
     0
100
AcDbMText
 10
9135.92128873397
 20
-404.9999999999986
 30
0.0
 40
125.0
 41
0.0
 71
     5
 72
     1
  1
60
 11
1.000000000000000E-16
 21
1.0
 31
0.0
 73
     1
 44
1.0
  0
POINT
  5
4AE
330
220
100
AcDbEntity
  8
DEFPOINTS
 62
     0
100
AcDbPoint
 10
8800.0
 20
30.0
 30
0.0
  0
POINT
  5
4AF
330
220
100
AcDbEntity
  8
DEFPOINTS
 62
     0
100
AcDbPoint
 10
8800.0
 20
-30.0
 30
0.0
  0
POINT
  5
4B0
330
220
100
AcDbEntity
  8
DEFPOINTS
 62
     0
100
AcDbPoint
 10
9229.67128873397
 20
-30.00000000000012
 30
0.0
  0
ENDBLK
  5
53E
330
220
100
AcDbEntity
  8
0
100
AcDbBlockEnd
  0
BLOCK
  5
53F
330
262
100
AcDbEntity
  8
0
100
AcDbBlockBegin
  2
*D10
 70
     1
 10
0.0
 20
0.0
 30
0.0
  3
*D10
  1

  0
LINE
  5
26F
330
262
100
AcDbEntity
  8
0
 62
     0
370
    -2
100
AcDbLine
 10
879.4673051405244
 20
-737.6571598863411
 30
0.0
 11
879.4673051405244
 21
-683.8388298091686
 31
0.0
  0
LINE
  5
270
330
262
100
AcDbEntity
  8
0
 62
     0
370
    -2
100
AcDbLine
 10
1011.467305140524
 20
-737.6571598863411
 30
0.0
 11
1011.467305140524
 21
-683.8388298091686
 31
0.0
  0
LINE
  5
271
330
262
100
AcDbEntity
  8
0
 62
     0
370
    -2
100
AcDbLine
 10
881.9673051405244
 20
-685.0888298091684
 30
0.0
 11
1008.967305140524
 21
-685.0888298091684
 31
0.0
  0
SOLID
  5
272
330
262
100
AcDbEntity
  8
0
 62
     0
100
AcDbTrace
 10
881.9673051405244
 20
-684.6721631425017
 30
0.0
 11
881.9673051405244
 21
-685.5054964758352
 31
0.0
 12
879.4673051405244
 22
-685.0888298091684
 32
0.0
 13
879.4673051405244
 23
-685.0888298091684
 33
0.0
  0
SOLID
  5
273
330
262
100
AcDbEntity
  8
0
 62
     0
100
AcDbTrace
 10
1008.967305140524
 20
-684.6721631425017
 30
0.0
 11
1008.967305140524
 21
-685.5054964758352
 31
0.0
 12
1011.467305140524
 22
-685.0888298091684
 32
0.0
 13
1011.467305140524
 23
-685.0888298091684
 33
0.0
  0
MTEXT
  5
274
330
262
100
AcDbEntity
  8
0
 62
     0
100
AcDbMText
 10
945.4673051405244
 20
-683.2138298091686
 30
0.0
 40
2.5
 41
0.0
 71
     5
 72
     1
  1
132
 73
     1
 44
1.0
  0
POINT
  5
275
330
262
100
AcDbEntity
  8
DEFPOINTS
 62
     0
100
AcDbPoint
 10
879.4673051405244
 20
-738.2821598863411
 30
0.0
  0
POINT
  5
276
330
262
100
AcDbEntity
  8
DEFPOINTS
 62
     0
100
AcDbPoint
 10
1011.467305140524
 20
-738.2821598863411
 30
0.0
  0
POINT
  5
277
330
262
100
AcDbEntity
  8
DEFPOINTS
 62
     0
100
AcDbPoint
 10
1011.467305140524
 20
-685.0888298091684
 30
0.0
  0
ENDBLK
  5
540
330
262
100
AcDbEntity
  8
0
100
AcDbBlockEnd
  0
BLOCK
  5
541
330
28E
100
AcDbEntity
  8
0
100
AcDbBlockBegin
  2
A$C73FC2B41
 70
     0
 10
0.0
 20
0.0
 30
0.0
  3
A$C73FC2B41
  1

  0
LINE
  5
28F
330
28E
100
AcDbEntity
  8
0
  6
DASHDOT
 62
     7
370
    25
100
AcDbLine
 10
-0.0000057836696215
 20
400.0000011436203
 30
0.0
 11
-0.0000057836696215
 21
0.0000011436204659
 31
0.0
  0
ENDBLK
  5
542
330
28E
100
AcDbEntity
  8
0
100
AcDbBlockEnd
  0
BLOCK
  5
543
330
293
100
AcDbEntity
  8
0
100
AcDbBlockBegin
  2
A$C11E54516
 70
     0
 10
0.0
 20
0.0
 30
0.0
  3
A$C11E54516
  1

  0
LINE
  5
294
330
293
100
AcDbEntity
  8
0
  6
DASHDOT
 62
     7
370
    25
100
AcDbLine
 10
-0.0000057836696215
 20
400.0000011436203
 30
0.0
 11
-0.0000057836696215
 21
0.0000011436204659
 31
0.0
  0
ENDBLK
  5
544
330
293
100
AcDbEntity
  8
0
100
AcDbBlockEnd
  0
BLOCK
  5
545
330
2F8
100
AcDbEntity
  8
0
100
AcDbBlockBegin
  2
*D13
 70
     1
 10
0.0
 20
0.0
 30
0.0
  3
*D13
  1

  0
LINE
  5
2FA
330
2F8
100
AcDbEntity
  8
0
 62
     0
370
    -2
100
AcDbLine
 10
0.0000000000000054
 20
88.75
 30
0.0
 11
0.0000000000000377
 21
615.2833319053707
 31
0.0
  0
LINE
  5
2FB
330
2F8
100
AcDbEntity
  8
0
 62
     0
370
    -2
100
AcDbLine
 10
500.0
 20
88.75
 30
0.0
 11
500.0
 21
615.2833319053707
 31
0.0
  0
LINE
  5
2FC
330
2F8
100
AcDbEntity
  8
0
 62
     0
370
    -2
100
AcDbLine
 10
125.0
 20
552.7833319053707
 30
0.0
 11
375.0
 21
552.7833319053707
 31
0.0
  0
SOLID
  5
2FD
330
2F8
100
AcDbEntity
  8
0
 62
     0
100
AcDbTrace
 10
125.0
 20
573.6166652387038
 30
0.0
 11
125.0
 21
531.9499985720373
 31
0.0
 12
0.0000000000000338
 22
552.7833319053707
 32
0.0
 13
0.0000000000000338
 23
552.7833319053707
 33
0.0
  0
SOLID
  5
2FE
330
2F8
100
AcDbEntity
  8
0
 62
     0
100
AcDbTrace
 10
375.0
 20
573.6166652387038
 30
0.0
 11
375.0
 21
531.9499985720373
 31
0.0
 12
500.0
 22
552.7833319053707
 32
0.0
 13
500.0
 23
552.7833319053707
 33
0.0
  0
MTEXT
  5
2FF
330
2F8
100
AcDbEntity
  8
0
 62
     0
100
AcDbMText
 10
250.0
 20
646.5333319053707
 30
0.0
 40
125.0
 41
0.0
 71
     5
 72
     1
  1
500
 73
     1
 44
1.0
  0
POINT
  5
300
330
2F8
100
AcDbEntity
  8
DEFPOINTS
 62
     0
100
AcDbPoint
 10
0.0000000000000035
 20
57.5
 30
0.0
  0
POINT
  5
301
330
2F8
100
AcDbEntity
  8
DEFPOINTS
 62
     0
100
AcDbPoint
 10
500.0
 20
57.5
 30
0.0
  0
POINT
  5
302
330
2F8
100
AcDbEntity
  8
DEFPOINTS
 62
     0
100
AcDbPoint
 10
500.0
 20
552.7833319053707
 30
0.0
  0
ENDBLK
  5
546
330
2F8
100
AcDbEntity
  8
0
100
AcDbBlockEnd
  0
BLOCK
  5
547
330
30A
100
AcDbEntity
  8
0
100
AcDbBlockBegin
  2
*D14
 70
     1
 10
0.0
 20
0.0
 30
0.0
  3
*D14
  1

  0
LINE
  5
416
330
30A
100
AcDbEntity
  8
0
 62
     0
370
    -2
100
AcDbLine
 10
-0.0000000000000019
 20
-88.75
 30
0.0
 11
-0.0000000000000268
 21
-494.6429542573432
 31
0.0
  0
LINE
  5
417
330
30A
100
AcDbEntity
  8
0
 62
     0
370
    -2
100
AcDbLine
 10
600.0
 20
-231.25
 30
0.0
 11
600.0
 21
-494.6429542573432
 31
0.0
  0
LINE
  5
418
330
30A
100
AcDbEntity
  8
0
 62
     0
370
    -2
100
AcDbLine
 10
125.0
 20
-432.1429542573432
 30
0.0
 11
475.0
 21
-432.1429542573432
 31
0.0
  0
SOLID
  5
419
330
30A
100
AcDbEntity
  8
0
 62
     0
100
AcDbTrace
 10
125.0
 20
-411.3096209240097
 30
0.0
 11
125.0
 21
-452.9762875906765
 31
0.0
 12
-0.0000000000000229
 22
-432.1429542573432
 32
0.0
 13
-0.0000000000000229
 23
-432.1429542573432
 33
0.0
  0
SOLID
  5
41A
330
30A
100
AcDbEntity
  8
0
 62
     0
100
AcDbTrace
 10
475.0
 20
-411.3096209240097
 30
0.0
 11
475.0
 21
-452.9762875906765
 31
0.0
 12
600.0
 22
-432.1429542573432
 32
0.0
 13
600.0
 23
-432.1429542573432
 33
0.0
  0
MTEXT
  5
41B
330
30A
100
AcDbEntity
  8
0
 62
     0
100
AcDbMText
 10
300.0
 20
-338.3929542573433
 30
0.0
 40
125.0
 41
0.0
 71
     5
 72
     1
  1
600
 73
     1
 44
1.0
  0
POINT
  5
41C
330
30A
100
AcDbEntity
  8
DEFPOINTS
 62
     0
100
AcDbPoint
 10
0.0
 20
-57.5
 30
0.0
  0
POINT
  5
41D
330
30A
100
AcDbEntity
  8
DEFPOINTS
 62
     0
100
AcDbPoint
 10
600.0
 20
-200.0
 30
0.0
  0
POINT
  5
41E
330
30A
100
AcDbEntity
  8
DEFPOINTS
 62
     0
100
AcDbPoint
 10
600.0
 20
-432.1429542573432
 30
0.0
  0
ENDBLK
  5
548
330
30A
100
AcDbEntity
  8
0
100
AcDbBlockEnd
  0
BLOCK
  5
549
330
33B
100
AcDbEntity
  8
0
100
AcDbBlockBegin
  2
*D15
 70
     1
 10
0.0
 20
0.0
 30
0.0
  3
*D15
  1

  0
LINE
  5
33D
330
33B
100
AcDbEntity
  8
0
 62
     0
370
    -2
100
AcDbLine
 10
-0.0000000000000019
 20
-88.75
 30
0.0
 11
-0.0000000000000268
 21
-494.6429542573432
 31
0.0
  0
LINE
  5
33E
330
33B
100
AcDbEntity
  8
0
 62
     0
370
    -2
100
AcDbLine
 10
350.0
 20
-231.25
 30
0.0
 11
350.0
 21
-494.6429542573432
 31
0.0
  0
LINE
  5
33F
330
33B
100
AcDbEntity
  8
0
 62
     0
370
    -2
100
AcDbLine
 10
125.0
 20
-432.1429542573432
 30
0.0
 11
225.0
 21
-432.1429542573432
 31
0.0
  0
SOLID
  5
340
330
33B
100
AcDbEntity
  8
0
 62
     0
100
AcDbTrace
 10
125.0
 20
-411.3096209240097
 30
0.0
 11
125.0
 21
-452.9762875906765
 31
0.0
 12
-0.0000000000000229
 22
-432.1429542573432
 32
0.0
 13
-0.0000000000000229
 23
-432.1429542573432
 33
0.0
  0
SOLID
  5
341
330
33B
100
AcDbEntity
  8
0
 62
     0
100
AcDbTrace
 10
225.0
 20
-411.3096209240097
 30
0.0
 11
225.0
 21
-452.9762875906765
 31
0.0
 12
350.0
 22
-432.1429542573432
 32
0.0
 13
350.0
 23
-432.1429542573432
 33
0.0
  0
MTEXT
  5
342
330
33B
100
AcDbEntity
  8
0
 62
     0
100
AcDbMText
 10
175.0
 20
-338.3929542573433
 30
0.0
 40
125.0
 41
0.0
 71
     5
 72
     1
  1
350
 73
     1
 44
1.0
  0
POINT
  5
343
330
33B
100
AcDbEntity
  8
DEFPOINTS
 62
     0
100
AcDbPoint
 10
0.0
 20
-57.5
 30
0.0
  0
POINT
  5
344
330
33B
100
AcDbEntity
  8
DEFPOINTS
 62
     0
100
AcDbPoint
 10
350.0
 20
-200.0
 30
0.0
  0
POINT
  5
345
330
33B
100
AcDbEntity
  8
DEFPOINTS
 62
     0
100
AcDbPoint
 10
350.0
 20
-432.1429542573432
 30
0.0
  0
ENDBLK
  5
54A
330
33B
100
AcDbEntity
  8
0
100
AcDbBlockEnd
  0
BLOCK
  5
54B
330
34D
100
AcDbEntity
  8
0
100
AcDbBlockBegin
  2
*D16
 70
     1
 10
0.0
 20
0.0
 30
0.0
  3
*D16
  1

  0
LINE
  5
41F
330
34D
100
AcDbEntity
  8
0
 62
     0
370
    -2
100
AcDbLine
 10
-0.0000000000000126
 20
-88.75
 30
0.0
 11
-0.0000000000000471
 21
-652.9830341749328
 31
0.0
  0
LINE
  5
420
330
34D
100
AcDbEntity
  8
0
 62
     0
370
    -2
100
AcDbLine
 10
1800.0
 20
-231.25
 30
0.0
 11
1800.0
 21
-652.9830341749328
 31
0.0
  0
LINE
  5
421
330
34D
100
AcDbEntity
  8
0
 62
     0
370
    -2
100
AcDbLine
 10
124.9999999999999
 20
-590.4830341749328
 30
0.0
 11
1675.0
 21
-590.4830341749328
 31
0.0
  0
SOLID
  5
422
330
34D
100
AcDbEntity
  8
0
 62
     0
100
AcDbTrace
 10
124.9999999999999
 20
-569.6497008415994
 30
0.0
 11
124.9999999999999
 21
-611.3163675082662
 31
0.0
 12
-0.0000000000000433
 22
-590.4830341749328
 32
0.0
 13
-0.0000000000000433
 23
-590.4830341749328
 33
0.0
  0
SOLID
  5
423
330
34D
100
AcDbEntity
  8
0
 62
     0
100
AcDbTrace
 10
1675.0
 20
-569.6497008415994
 30
0.0
 11
1675.0
 21
-611.3163675082662
 31
0.0
 12
1800.0
 22
-590.4830341749328
 32
0.0
 13
1800.0
 23
-590.4830341749328
 33
0.0
  0
MTEXT
  5
424
330
34D
100
AcDbEntity
  8
0
 62
     0
100
AcDbMText
 10
832.1328031950434
 20
-496.7330341749327
 30
0.0
 40
125.0
 41
0.0
 71
     5
 72
     1
  1
1800
 73
     1
 44
1.0
  0
POINT
  5
425
330
34D
100
AcDbEntity
  8
DEFPOINTS
 62
     0
100
AcDbPoint
 10
-0.0000000000000107
 20
-57.5
 30
0.0
  0
POINT
  5
426
330
34D
100
AcDbEntity
  8
DEFPOINTS
 62
     0
100
AcDbPoint
 10
1800.0
 20
-200.0
 30
0.0
  0
POINT
  5
427
330
34D
100
AcDbEntity
  8
DEFPOINTS
 62
     0
100
AcDbPoint
 10
1800.0
 20
-590.4830341749328
 30
0.0
  0
ENDBLK
  5
54C
330
34D
100
AcDbEntity
  8
0
100
AcDbBlockEnd
  0
BLOCK
  5
54D
330
386
100
AcDbEntity
  8
0
100
AcDbBlockBegin
  2
*D17
 70
     1
 10
0.0
 20
0.0
 30
0.0
  3
*D17
  1

  0
LINE
  5
388
330
386
100
AcDbEntity
  8
0
 62
     0
370
    -2
100
AcDbLine
 10
0.0000000000000054
 20
88.75
 30
0.0
 11
0.0000000000000377
 21
615.2833319053707
 31
0.0
  0
LINE
  5
389
330
386
100
AcDbEntity
  8
0
 62
     0
370
    -2
100
AcDbLine
 10
500.0
 20
231.25
 30
0.0
 11
500.0
 21
615.2833319053707
 31
0.0
  0
LINE
  5
38A
330
386
100
AcDbEntity
  8
0
 62
     0
370
    -2
100
AcDbLine
 10
125.0
 20
552.7833319053707
 30
0.0
 11
375.0
 21
552.7833319053707
 31
0.0
  0
SOLID
  5
38B
330
386
100
AcDbEntity
  8
0
 62
     0
100
AcDbTrace
 10
125.0
 20
573.6166652387038
 30
0.0
 11
125.0
 21
531.9499985720373
 31
0.0
 12
0.0000000000000338
 22
552.7833319053707
 32
0.0
 13
0.0000000000000338
 23
552.7833319053707
 33
0.0
  0
SOLID
  5
38C
330
386
100
AcDbEntity
  8
0
 62
     0
100
AcDbTrace
 10
375.0
 20
573.6166652387038
 30
0.0
 11
375.0
 21
531.9499985720373
 31
0.0
 12
500.0
 22
552.7833319053707
 32
0.0
 13
500.0
 23
552.7833319053707
 33
0.0
  0
MTEXT
  5
38D
330
386
100
AcDbEntity
  8
0
 62
     0
100
AcDbMText
 10
250.0
 20
646.5333319053707
 30
0.0
 40
125.0
 41
0.0
 71
     5
 72
     1
  1
500
 73
     1
 44
1.0
  0
POINT
  5
38E
330
386
100
AcDbEntity
  8
DEFPOINTS
 62
     0
100
AcDbPoint
 10
0.0000000000000035
 20
57.5
 30
0.0
  0
POINT
  5
38F
330
386
100
AcDbEntity
  8
DEFPOINTS
 62
     0
100
AcDbPoint
 10
500.0
 20
200.0
 30
0.0
  0
POINT
  5
390
330
386
100
AcDbEntity
  8
DEFPOINTS
 62
     0
100
AcDbPoint
 10
500.0
 20
552.7833319053707
 30
0.0
  0
ENDBLK
  5
54E
330
386
100
AcDbEntity
  8
0
100
AcDbBlockEnd
  0
BLOCK
  5
54F
330
398
100
AcDbEntity
  8
0
100
AcDbBlockBegin
  2
*D18
 70
     1
 10
0.0
 20
0.0
 30
0.0
  3
*D18
  1

  0
LINE
  5
4BA
330
398
100
AcDbEntity
  8
0
 62
     0
370
    -2
100
AcDbLine
 10
800.0
 20
231.25
 30
0.0
 11
800.0
 21
615.2833319053707
 31
0.0
  0
LINE
  5
4BB
330
398
100
AcDbEntity
  8
0
 62
     0
370
    -2
100
AcDbLine
 10
8800.0
 20
61.25
 30
0.0
 11
8800.0
 21
615.2833319053707
 31
0.0
  0
LINE
  5
4BC
330
398
100
AcDbEntity
  8
0
 62
     0
370
    -2
100
AcDbLine
 10
925.0
 20
552.7833319053707
 30
0.0
 11
8675.0
 21
552.7833319053707
 31
0.0
  0
SOLID
  5
4BD
330
398
100
AcDbEntity
  8
0
 62
     0
100
AcDbTrace
 10
925.0
 20
573.616665238704
 30
0.0
 11
925.0
 21
531.9499985720373
 31
0.0
 12
800.0
 22
552.7833319053707
 32
0.0
 13
800.0
 23
552.7833319053707
 33
0.0
  0
SOLID
  5
4BE
330
398
100
AcDbEntity
  8
0
 62
     0
100
AcDbTrace
 10
8675.0
 20
573.616665238704
 30
0.0
 11
8675.0
 21
531.9499985720373
 31
0.0
 12
8800.0
 22
552.7833319053707
 32
0.0
 13
8800.0
 23
552.7833319053707
 33
0.0
  0
MTEXT
  5
4BF
330
398
100
AcDbEntity
  8
0
 62
     0
100
AcDbMText
 10
4800.0
 20
646.5333319053707
 30
0.0
 40
125.0
 41
0.0
 71
     5
 72
     1
  1
8000
 73
     1
 44
1.0
  0
POINT
  5
4C0
330
398
100
AcDbEntity
  8
DEFPOINTS
 62
     0
100
AcDbPoint
 10
800.0
 20
200.0
 30
0.0
  0
POINT
  5
4C1
330
398
100
AcDbEntity
  8
DEFPOINTS
 62
     0
100
AcDbPoint
 10
8800.0
 20
30.0
 30
0.0
  0
POINT
  5
4C2
330
398
100
AcDbEntity
  8
DEFPOINTS
 62
     0
100
AcDbPoint
 10
8800.0
 20
552.7833319053707
 30
0.0
  0
ENDBLK
  5
550
330
398
100
AcDbEntity
  8
0
100
AcDbBlockEnd
  0
BLOCK
  5
551
330
4D1
100
AcDbEntity
  8
0
100
AcDbBlockBegin
  2
*D19
 70
     1
 10
0.0
 20
0.0
 30
0.0
  3
*D19
  1

  0
POINT
  5
4C8
330
4D1
100
AcDbEntity
  8
DEFPOINTS
  6
ByBlock
 62
     0
380
     1
100
AcDbPoint
 10
-170.0128697487762
 20
4891.912070874141
 30
0.0
  0
POINT
  5
4C9
330
4D1
100
AcDbEntity
  8
DEFPOINTS
  6
ByBlock
 62
     0
380
     1
100
AcDbPoint
 10
629.9871302512238
 20
4870.191290685401
 30
0.0
  0
LINE
  5
4CA
330
4D1
100
AcDbEntity
  8
0
  6
ByBlock
 62
     0
370
    -2
380
     1
100
AcDbLine
 10
-170.0128697487762
 20
4892.537070874141
 30
0.0
 11
-170.0128697487762
 21
5208.113383610877
 31
0.0
  0
LINE
  5
4CB
330
4D1
100
AcDbEntity
  8
0
  6
ByBlock
 62
     0
370
    -2
380
     1
100
AcDbLine
 10
629.9871302512238
 20
4870.816290685401
 30
0.0
 11
629.9871302512238
 21
5208.113383610877
 31
0.0
  0
LINE
  5
4CC
330
4D1
100
AcDbEntity
  8
0
  6
ByBlock
 62
     0
370
    -2
380
     1
100
AcDbLine
 10
-167.5128697487762
 20
5206.863383610877
 30
0.0
 11
627.4871302512238
 21
5206.863383610877
 31
0.0
  0
SOLID
  5
4CD
330
4D1
100
AcDbEntity
  8
0
  6
ByBlock
 62
     0
380
     1
100
AcDbTrace
 10
-170.0128697487762
 20
5206.863383610877
 30
0.0
 11
-167.5128697487762
 21
5206.44671694421
 31
0.0
 12
-167.5128697487762
 22
5207.280050277544
 32
0.0
 13
-167.5128697487762
 23
5207.280050277544
 33
0.0
  0
SOLID
  5
4CE
330
4D1
100
AcDbEntity
  8
0
  6
ByBlock
 62
     0
380
     1
100
AcDbTrace
 10
629.9871302512238
 20
5206.863383610877
 30
0.0
 11
627.4871302512238
 21
5206.44671694421
 31
0.0
 12
627.4871302512238
 22
5207.280050277544
 32
0.0
 13
627.4871302512238
 23
5207.280050277544
 33
0.0
  0
MTEXT
  5
4CF
330
4D1
100
AcDbEntity
  8
0
  6
ByBlock
 62
     0
370
    -2
380
     1
100
AcDbMText
 10
229.9871302512238
 20
5208.738383610877
 30
0.0
 40
2.5
 41
0.0
 71
     5
 72
     1
  1
\A1;800
 73
     1
 44
1.0
  0
ENDBLK
  5
552
330
4D1
100
AcDbEntity
  8
0
100
AcDbBlockEnd
  0
BLOCK
  5
553
330
4DC
100
AcDbEntity
  8
0
100
AcDbBlockBegin
  2
*D20
 70
     1
 10
0.0
 20
0.0
 30
0.0
  3
*D20
  1

  0
POINT
  5
4D3
330
4DC
100
AcDbEntity
  8
DEFPOINTS
  6
ByBlock
 62
     0
380
     1
100
AcDbPoint
 10
-170.0128697487762
 20
4891.912070874141
 30
0.0
  0
POINT
  5
4D4
330
4DC
100
AcDbEntity
  8
DEFPOINTS
  6
ByBlock
 62
     0
380
     1
100
AcDbPoint
 10
629.9871302512238
 20
4870.191290685401
 30
0.0
  0
LINE
  5
4D5
330
4DC
100
AcDbEntity
  8
0
  6
ByBlock
 62
     0
370
    -2
380
     1
100
AcDbLine
 10
-170.0128697487762
 20
4892.537070874141
 30
0.0
 11
-170.0128697487762
 21
5208.113383610877
 31
0.0
  0
LINE
  5
4D6
330
4DC
100
AcDbEntity
  8
0
  6
ByBlock
 62
     0
370
    -2
380
     1
100
AcDbLine
 10
629.9871302512238
 20
4870.816290685401
 30
0.0
 11
629.9871302512238
 21
5208.113383610877
 31
0.0
  0
LINE
  5
4D7
330
4DC
100
AcDbEntity
  8
0
  6
ByBlock
 62
     0
370
    -2
380
     1
100
AcDbLine
 10
-160.0128697487762
 20
5206.863383610877
 30
0.0
 11
619.9871302512238
 21
5206.863383610877
 31
0.0
  0
SOLID
  5
4D8
330
4DC
100
AcDbEntity
  8
0
  6
ByBlock
 62
     0
380
     1
100
AcDbTrace
 10
-170.0128697487762
 20
5206.863383610877
 30
0.0
 11
-160.0128697487762
 21
5205.19671694421
 31
0.0
 12
-160.0128697487762
 22
5208.530050277544
 32
0.0
 13
-160.0128697487762
 23
5208.530050277544
 33
0.0
  0
SOLID
  5
4D9
330
4DC
100
AcDbEntity
  8
0
  6
ByBlock
 62
     0
380
     1
100
AcDbTrace
 10
629.9871302512238
 20
5206.863383610877
 30
0.0
 11
619.9871302512238
 21
5205.19671694421
 31
0.0
 12
619.9871302512238
 22
5208.530050277544
 32
0.0
 13
619.9871302512238
 23
5208.530050277544
 33
0.0
  0
MTEXT
  5
4DA
330
4DC
100
AcDbEntity
  8
0
  6
ByBlock
 62
     0
370
    -2
380
     1
100
AcDbMText
 10
229.9871302512238
 20
5234.863383610877
 30
0.0
 40
36.0
 41
0.0
 71
     5
 72
     1
  1
\A1;800
 73
     1
 44
1.0
  0
ENDBLK
  5
554
330
4DC
100
AcDbEntity
  8
0
100
AcDbBlockEnd
  0
BLOCK
  5
555
330
4E7
100
AcDbEntity
  8
0
100
AcDbBlockBegin
  2
*D21
 70
     1
 10
0.0
 20
0.0
 30
0.0
  3
*D21
  1

  0
POINT
  5
4DE
330
4E7
100
AcDbEntity
  8
DEFPOINTS
  6
ByBlock
 62
     0
380
     1
100
AcDbPoint
 10
-170.0128697487762
 20
4891.912070874141
 30
0.0
  0
POINT
  5
4DF
330
4E7
100
AcDbEntity
  8
DEFPOINTS
  6
ByBlock
 62
     0
380
     1
100
AcDbPoint
 10
629.9871302512238
 20
4870.191290685401
 30
0.0
  0
LINE
  5
4E0
330
4E7
100
AcDbEntity
  8
0
  6
ByBlock
 62
     0
370
    -2
380
     1
100
AcDbLine
 10
-170.0128697487762
 20
4892.537070874141
 30
0.0
 11
-170.0128697487762
 21
5117.610132824459
 31
0.0
  0
LINE
  5
4E1
330
4E7
100
AcDbEntity
  8
0
  6
ByBlock
 62
     0
370
    -2
380
     1
100
AcDbLine
 10
629.9871302512238
 20
4870.816290685401
 30
0.0
 11
629.9871302512238
 21
5117.610132824459
 31
0.0
  0
LINE
  5
4E2
330
4E7
100
AcDbEntity
  8
0
  6
ByBlock
 62
     0
370
    -2
380
     1
100
AcDbLine
 10
-160.0128697487762
 20
5116.360132824459
 30
0.0
 11
619.9871302512238
 21
5116.360132824459
 31
0.0
  0
SOLID
  5
4E3
330
4E7
100
AcDbEntity
  8
0
  6
ByBlock
 62
     0
380
     1
100
AcDbTrace
 10
-170.0128697487762
 20
5116.360132824459
 30
0.0
 11
-160.0128697487762
 21
5114.693466157792
 31
0.0
 12
-160.0128697487762
 22
5118.026799491126
 32
0.0
 13
-160.0128697487762
 23
5118.026799491126
 33
0.0
  0
SOLID
  5
4E4
330
4E7
100
AcDbEntity
  8
0
  6
ByBlock
 62
     0
380
     1
100
AcDbTrace
 10
629.9871302512238
 20
5116.360132824459
 30
0.0
 11
619.9871302512238
 21
5114.693466157792
 31
0.0
 12
619.9871302512238
 22
5118.026799491126
 32
0.0
 13
619.9871302512238
 23
5118.026799491126
 33
0.0
  0
MTEXT
  5
4E5
330
4E7
100
AcDbEntity
  8
0
  6
ByBlock
 62
     0
370
    -2
380
     1
100
AcDbMText
 10
229.9871302512238
 20
5144.360132824459
 30
0.0
 40
36.0
 41
0.0
 71
     5
 72
     1
  1
\A1;800
 73
     1
 44
1.0
  0
ENDBLK
  5
556
330
4E7
100
AcDbEntity
  8
0
100
AcDbBlockEnd
  0
BLOCK
  5
557
330
4F3
100
AcDbEntity
  8
0
100
AcDbBlockBegin
  2
*D22
 70
     1
 10
0.0
 20
0.0
 30
0.0
  3
*D22
  1

  0
POINT
  5
4EA
330
4F3
100
AcDbEntity
  8
DEFPOINTS
  6
ByBlock
 62
     0
380
     1
100
AcDbPoint
 10
-170.0128697487762
 20
4881.452744748273
 30
0.0
  0
POINT
  5
4EB
330
4F3
100
AcDbEntity
  8
DEFPOINTS
  6
ByBlock
 62
     0
380
     1
100
AcDbPoint
 10
8629.987130251224
 20
4870.396288154962
 30
0.0
  0
LINE
  5
4EC
330
4F3
100
AcDbEntity
  8
0
  6
ByBlock
 62
     0
370
    -2
380
     1
100
AcDbLine
 10
-170.0128697487762
 20
4880.827744748273
 30
0.0
 11
-170.0128697487762
 21
4482.508879142363
 31
0.0
  0
LINE
  5
4ED
330
4F3
100
AcDbEntity
  8
0
  6
ByBlock
 62
     0
370
    -2
380
     1
100
AcDbLine
 10
8629.987130251224
 20
4869.771288154962
 30
0.0
 11
8629.987130251224
 21
4482.508879142363
 31
0.0
  0
LINE
  5
4EE
330
4F3
100
AcDbEntity
  8
0
  6
ByBlock
 62
     0
370
    -2
380
     1
100
AcDbLine
 10
-167.5128697487762
 20
4483.758879142363
 30
0.0
 11
8627.487130251224
 21
4483.758879142363
 31
0.0
  0
SOLID
  5
4EF
330
4F3
100
AcDbEntity
  8
0
  6
ByBlock
 62
     0
380
     1
100
AcDbTrace
 10
-170.0128697487762
 20
4483.758879142363
 30
0.0
 11
-167.5128697487762
 21
4483.342212475696
 31
0.0
 12
-167.5128697487762
 22
4484.17554580903
 32
0.0
 13
-167.5128697487762
 23
4484.17554580903
 33
0.0
  0
SOLID
  5
4F0
330
4F3
100
AcDbEntity
  8
0
  6
ByBlock
 62
     0
380
     1
100
AcDbTrace
 10
8629.987130251224
 20
4483.758879142363
 30
0.0
 11
8627.487130251224
 21
4483.342212475696
 31
0.0
 12
8627.487130251224
 22
4484.17554580903
 32
0.0
 13
8627.487130251224
 23
4484.17554580903
 33
0.0
  0
MTEXT
  5
4F1
330
4F3
100
AcDbEntity
  8
0
  6
ByBlock
 62
     0
370
    -2
380
     1
100
AcDbMText
 10
4229.987130251224
 20
4485.633879142363
 30
0.0
 40
2.5
 41
0.0
 71
     5
 72
     1
  1
\A1;8800
 73
     1
 44
1.0
  0
ENDBLK
  5
558
330
4F3
100
AcDbEntity
  8
0
100
AcDbBlockEnd
  0
BLOCK
  5
559
330
4FE
100
AcDbEntity
  8
0
100
AcDbBlockBegin
  2
*D23
 70
     1
 10
0.0
 20
0.0
 30
0.0
  3
*D23
  1

  0
POINT
  5
4F5
330
4FE
100
AcDbEntity
  8
DEFPOINTS
  6
ByBlock
 62
     0
380
     1
100
AcDbPoint
 10
-170.0128697487762
 20
4881.452744748273
 30
0.0
  0
POINT
  5
4F6
330
4FE
100
AcDbEntity
  8
DEFPOINTS
  6
ByBlock
 62
     0
380
     1
100
AcDbPoint
 10
8629.987130251224
 20
4870.396288154962
 30
0.0
  0
LINE
  5
4F7
330
4FE
100
AcDbEntity
  8
0
  6
ByBlock
 62
     0
370
    -2
380
     1
100
AcDbLine
 10
-170.0128697487762
 20
4880.827744748273
 30
0.0
 11
-170.0128697487762
 21
4482.508879142363
 31
0.0
  0
LINE
  5
4F8
330
4FE
100
AcDbEntity
  8
0
  6
ByBlock
 62
     0
370
    -2
380
     1
100
AcDbLine
 10
8629.987130251224
 20
4869.771288154962
 30
0.0
 11
8629.987130251224
 21
4482.508879142363
 31
0.0
  0
LINE
  5
4F9
330
4FE
100
AcDbEntity
  8
0
  6
ByBlock
 62
     0
370
    -2
380
     1
100
AcDbLine
 10
-160.0128697487762
 20
4483.758879142363
 30
0.0
 11
8619.987130251224
 21
4483.758879142363
 31
0.0
  0
SOLID
  5
4FA
330
4FE
100
AcDbEntity
  8
0
  6
ByBlock
 62
     0
380
     1
100
AcDbTrace
 10
-170.0128697487762
 20
4483.758879142363
 30
0.0
 11
-160.0128697487762
 21
4482.092212475696
 31
0.0
 12
-160.0128697487762
 22
4485.42554580903
 32
0.0
 13
-160.0128697487762
 23
4485.42554580903
 33
0.0
  0
SOLID
  5
4FB
330
4FE
100
AcDbEntity
  8
0
  6
ByBlock
 62
     0
380
     1
100
AcDbTrace
 10
8629.987130251224
 20
4483.758879142363
 30
0.0
 11
8619.987130251224
 21
4482.092212475696
 31
0.0
 12
8619.987130251224
 22
4485.42554580903
 32
0.0
 13
8619.987130251224
 23
4485.42554580903
 33
0.0
  0
MTEXT
  5
4FC
330
4FE
100
AcDbEntity
  8
0
  6
ByBlock
 62
     0
370
    -2
380
     1
100
AcDbMText
 10
4229.987130251224
 20
4511.758879142363
 30
0.0
 40
36.0
 41
0.0
 71
     5
 72
     1
  1
\A1;8800
 73
     1
 44
1.0
  0
ENDBLK
  5
55A
330
4FE
100
AcDbEntity
  8
0
100
AcDbBlockEnd
  0
BLOCK
  5
55B
330
509
100
AcDbEntity
  8
0
100
AcDbBlockBegin
  2
*D24
 70
     1
 10
0.0
 20
0.0
 30
0.0
  3
*D24
  1

  0
POINT
  5
500
330
509
100
AcDbEntity
  8
DEFPOINTS
  6
ByBlock
 62
     0
380
     1
100
AcDbPoint
 10
-170.0128697487762
 20
4891.912070874141
 30
0.0
  0
POINT
  5
501
330
509
100
AcDbEntity
  8
DEFPOINTS
  6
ByBlock
 62
     0
380
     1
100
AcDbPoint
 10
629.9871302512238
 20
4870.191290685401
 30
0.0
  0
LINE
  5
502
330
509
100
AcDbEntity
  8
0
  6
ByBlock
 62
     0
370
    -2
380
     1
100
AcDbLine
 10
-170.0128697487762
 20
4892.537070874141
 30
0.0
 11
-170.0128697487762
 21
5117.610132824459
 31
0.0
  0
LINE
  5
503
330
509
100
AcDbEntity
  8
0
  6
ByBlock
 62
     0
370
    -2
380
     1
100
AcDbLine
 10
629.9871302512238
 20
4870.816290685401
 30
0.0
 11
629.9871302512238
 21
5117.610132824459
 31
0.0
  0
LINE
  5
504
330
509
100
AcDbEntity
  8
0
  6
ByBlock
 62
     0
370
    -2
380
     1
100
AcDbLine
 10
-160.0128697487762
 20
5116.360132824459
 30
0.0
 11
619.9871302512238
 21
5116.360132824459
 31
0.0
  0
SOLID
  5
505
330
509
100
AcDbEntity
  8
0
  6
ByBlock
 62
     0
380
     1
100
AcDbTrace
 10
-170.0128697487762
 20
5116.360132824459
 30
0.0
 11
-160.0128697487762
 21
5114.693466157792
 31
0.0
 12
-160.0128697487762
 22
5118.026799491126
 32
0.0
 13
-160.0128697487762
 23
5118.026799491126
 33
0.0
  0
SOLID
  5
506
330
509
100
AcDbEntity
  8
0
  6
ByBlock
 62
     0
380
     1
100
AcDbTrace
 10
629.9871302512238
 20
5116.360132824459
 30
0.0
 11
619.9871302512238
 21
5114.693466157792
 31
0.0
 12
619.9871302512238
 22
5118.026799491126
 32
0.0
 13
619.9871302512238
 23
5118.026799491126
 33
0.0
  0
MTEXT
  5
507
330
509
100
AcDbEntity
  8
0
  6
ByBlock
 62
     0
370
    -2
380
     1
100
AcDbMText
 10
229.9871302512238
 20
5144.360132824459
 30
0.0
 40
36.0
 41
0.0
 71
     5
 72
     1
  1
\A1;800
 73
     1
 44
1.0
  0
ENDBLK
  5
55C
330
509
100
AcDbEntity
  8
0
100
AcDbBlockEnd
  0
BLOCK
  5
55D
330
514
100
AcDbEntity
  8
0
100
AcDbBlockBegin
  2
*D25
 70
     1
 10
0.0
 20
0.0
 30
0.0
  3
*D25
  1

  0
POINT
  5
50B
330
514
100
AcDbEntity
  8
DEFPOINTS
  6
ByBlock
 62
     0
380
     1
100
AcDbPoint
 10
-170.0128697487762
 20
4881.452744748273
 30
0.0
  0
POINT
  5
50C
330
514
100
AcDbEntity
  8
DEFPOINTS
  6
ByBlock
 62
     0
380
     1
100
AcDbPoint
 10
8629.987130251224
 20
4870.396288154962
 30
0.0
  0
LINE
  5
50D
330
514
100
AcDbEntity
  8
0
  6
ByBlock
 62
     0
370
    -2
380
     1
100
AcDbLine
 10
-170.0128697487762
 20
4880.827744748273
 30
0.0
 11
-170.0128697487762
 21
4482.508879142363
 31
0.0
  0
LINE
  5
50E
330
514
100
AcDbEntity
  8
0
  6
ByBlock
 62
     0
370
    -2
380
     1
100
AcDbLine
 10
8629.987130251224
 20
4869.771288154962
 30
0.0
 11
8629.987130251224
 21
4482.508879142363
 31
0.0
  0
LINE
  5
50F
330
514
100
AcDbEntity
  8
0
  6
ByBlock
 62
     0
370
    -2
380
     1
100
AcDbLine
 10
-160.0128697487762
 20
4483.758879142363
 30
0.0
 11
8619.987130251224
 21
4483.758879142363
 31
0.0
  0
SOLID
  5
510
330
514
100
AcDbEntity
  8
0
  6
ByBlock
 62
     0
380
     1
100
AcDbTrace
 10
-170.0128697487762
 20
4483.758879142363
 30
0.0
 11
-160.0128697487762
 21
4482.092212475696
 31
0.0
 12
-160.0128697487762
 22
4485.42554580903
 32
0.0
 13
-160.0128697487762
 23
4485.42554580903
 33
0.0
  0
SOLID
  5
511
330
514
100
AcDbEntity
  8
0
  6
ByBlock
 62
     0
380
     1
100
AcDbTrace
 10
8629.987130251224
 20
4483.758879142363
 30
0.0
 11
8619.987130251224
 21
4482.092212475696
 31
0.0
 12
8619.987130251224
 22
4485.42554580903
 32
0.0
 13
8619.987130251224
 23
4485.42554580903
 33
0.0
  0
MTEXT
  5
512
330
514
100
AcDbEntity
  8
0
  6
ByBlock
 62
     0
370
    -2
380
     1
100
AcDbMText
 10
4229.987130251224
 20
4511.758879142363
 30
0.0
 40
36.0
 41
0.0
 71
     5
 72
     1
  1
\A1;8800
 73
     1
 44
1.0
  0
ENDBLK
  5
55E
330
514
100
AcDbEntity
  8
0
100
AcDbBlockEnd
  0
BLOCK
  5
55F
330
51F
100
AcDbEntity
  8
0
100
AcDbBlockBegin
  2
*D26
 70
     1
 10
0.0
 20
0.0
 30
0.0
  3
*D26
  1

  0
POINT
  5
516
330
51F
100
AcDbEntity
  8
DEFPOINTS
  6
ByBlock
 62
     0
380
     1
100
AcDbPoint
 10
-170.0128697487762
 20
4891.912070874141
 30
0.0
  0
POINT
  5
517
330
51F
100
AcDbEntity
  8
DEFPOINTS
  6
ByBlock
 62
     0
380
     1
100
AcDbPoint
 10
629.9871302512238
 20
4870.191290685401
 30
0.0
  0
LINE
  5
518
330
51F
100
AcDbEntity
  8
0
  6
ByBlock
 62
     0
370
    -2
380
     1
100
AcDbLine
 10
-170.0128697487762
 20
4892.537070874141
 30
0.0
 11
-170.0128697487762
 21
5117.610132824459
 31
0.0
  0
LINE
  5
519
330
51F
100
AcDbEntity
  8
0
  6
ByBlock
 62
     0
370
    -2
380
     1
100
AcDbLine
 10
629.9871302512238
 20
4870.816290685401
 30
0.0
 11
629.9871302512238
 21
5117.610132824459
 31
0.0
  0
LINE
  5
51A
330
51F
100
AcDbEntity
  8
0
  6
ByBlock
 62
     0
370
    -2
380
     1
100
AcDbLine
 10
-160.0128697487762
 20
5116.360132824459
 30
0.0
 11
619.9871302512238
 21
5116.360132824459
 31
0.0
  0
SOLID
  5
51B
330
51F
100
AcDbEntity
  8
0
  6
ByBlock
 62
     0
380
     1
100
AcDbTrace
 10
-170.0128697487762
 20
5116.360132824459
 30
0.0
 11
-160.0128697487762
 21
5114.693466157792
 31
0.0
 12
-160.0128697487762
 22
5118.026799491126
 32
0.0
 13
-160.0128697487762
 23
5118.026799491126
 33
0.0
  0
SOLID
  5
51C
330
51F
100
AcDbEntity
  8
0
  6
ByBlock
 62
     0
380
     1
100
AcDbTrace
 10
629.9871302512238
 20
5116.360132824459
 30
0.0
 11
619.9871302512238
 21
5114.693466157792
 31
0.0
 12
619.9871302512238
 22
5118.026799491126
 32
0.0
 13
619.9871302512238
 23
5118.026799491126
 33
0.0
  0
MTEXT
  5
51D
330
51F
100
AcDbEntity
  8
0
  6
ByBlock
 62
     0
370
    -2
380
     1
100
AcDbMText
 10
229.9871302512238
 20
5144.360132824459
 30
0.0
 40
36.0
 41
0.0
 71
     5
 72
     1
  1
\A1;800
 73
     1
 44
1.0
  0
ENDBLK
  5
560
330
51F
100
AcDbEntity
  8
0
100
AcDbBlockEnd
  0
ENDSEC
  0
SECTION
  2
ENTITIES
  0
LINE
  5
10E
330
1F
100
AcDbEntity
  8
0
  6
DASHDOT
 62
     7
370
    25
100
AcDbLine
 10
8629.987130251224
 20
4865.362973519547
 30
0.0
 11
-270.0128697487762
 21
4865.362973519547
 31
0.0
  0
LINE
  5
1A3
330
1F
100
AcDbEntity
  8
0
 62
     7
370
    60
100
AcDbLine
 10
-170.0128697487762
 20
4939.362973519547
 30
0.0
 11
-170.0128697487762
 21
4791.362973519547
 31
0.0
  0
LINE
  5
1AB
330
1F
100
AcDbEntity
  8
0
 62
     7
370
    60
100
AcDbLine
 10
8629.987130251224
 20
4835.362973519547
 30
0.0
 11
8629.987130251224
 21
4895.362973519547
 31
0.0
  0
LINE
  5
1AC
330
1F
100
AcDbEntity
  8
0
 62
     7
370
    60
100
AcDbLine
 10
8629.987130251224
 20
4895.362973519547
 30
0.0
 11
-170.0128697487762
 21
4939.362973519547
 31
0.0
  0
LINE
  5
1AD
330
1F
100
AcDbEntity
  8
0
 62
     7
370
    60
100
AcDbLine
 10
-169.9628698332354
 20
4791.362990411384
 30
0.0
 11
8629.987130251224
 21
4835.362973519547
 31
0.0
  0
LINE
  5
1B3
330
1F
100
AcDbEntity
  8
0
  6
DASHDOT
 62
     7
370
    25
100
AcDbLine
 10
629.9871302512238
 20
5065.362973519546
 30
0.0
 11
629.9871302512238
 21
4665.362973519547
 31
0.0
  0
ARC
  5
428
330
1F
100
AcDbEntity
  8
0
 62
     7
370
    60
100
AcDbCircle
 10
359.9871302512238
 20
4865.362973519547
 30
0.0
 40
23.0
100
AcDbArc
 50
90.0
 51
270.0
  0
ARC
  5
429
330
1F
100
AcDbEntity
  8
0
 62
     7
370
    60
100
AcDbCircle
 10
499.9871302512238
 20
4865.362973519547
 30
0.0
 40
23.0
100
AcDbArc
 50
270.0
 51
90.0
  0
LINE
  5
42B
330
1F
100
AcDbEntity
  8
0
 62
     7
370
    60
100
AcDbLine
 10
499.9871302512238
 20
4888.362973519547
 30
0.0
 11
359.9871302512238
 21
4888.362973519547
 31
0.0
  0
LINE
  5
42D
330
1F
100
AcDbEntity
  8
0
 62
     7
370
    60
100
AcDbLine
 10
359.9871302512238
 20
4842.362973519547
 30
0.0
 11
499.9871302512238
 21
4842.362973519547
 31
0.0
  0
ARC
  5
438
330
1F
100
AcDbEntity
  8
0
 62
     7
370
    60
100
AcDbCircle
 10
1559.987130251224
 20
4865.362973519547
 30
0.0
 40
23.0
100
AcDbArc
 50
90.0
 51
270.0
  0
ARC
  5
439
330
1F
100
AcDbEntity
  8
0
 62
     7
370
    60
100
AcDbCircle
 10
1699.987130251224
 20
4865.362973519547
 30
0.0
 40
23.0
100
AcDbArc
 50
270.0
 51
90.0
  0
LINE
  5
43A
330
1F
100
AcDbEntity
  8
0
 62
     7
370
    60
100
AcDbLine
 10
1699.987130251224
 20
4888.362973519547
 30
0.0
 11
1559.987130251224
 21
4888.362973519547
 31
0.0
  0
LINE
  5
43B
330
1F
100
AcDbEntity
  8
0
 62
     7
370
    60
100
AcDbLine
 10
1559.987130251224
 20
4842.362973519547
 30
0.0
 11
1699.987130251224
 21
4842.362973519547
 31
0.0
  0
DIMENSION
  5
4C6
330
1F
100
AcDbEntity
  8
0
370
    25
100
AcDbDimension
  2
*D26
 10
629.9871302512238
 20
5116.360132824459
 30
0.0
 11
229.9871302512238
 21
5144.360132824459
 31
0.0
 70
   160
 71
     5
 41
2.5
 42
800.0
  3
ISO-25
100
AcDbAlignedDimension
 13
-170.0128697487762
 23
4891.912070874141
 33
0.0
 14
629.9871302512238
 24
4870.191290685401
 34
0.0
100
AcDbRotatedDimension
1001
ACAD
1000
DSTYLE
1002
{
1070
    41
1040
10.0
1070
   140
1040
36.0
1070
   147
1040
10.0
1070
   271
1070
     0
1070
   289
1070
     0
1002
}
  0
DIMENSION
  5
4E8
330
1F
100
AcDbEntity
  8
0
370
    25
100
AcDbDimension
  2
*D25
 10
8629.987130251224
 20
4483.758879142363
 30
0.0
 11
4229.987130251224
 21
4511.758879142363
 31
0.0
 70
    32
 71
     5
 41
2.5
 42
8800.0
  3
ISO-25
100
AcDbAlignedDimension
 13
-170.0128697487762
 23
4881.452744748273
 33
0.0
 14
8629.987130251224
 24
4870.396288154962
 34
0.0
100
AcDbRotatedDimension
1001
ACAD
1000
DSTYLE
1002
{
1070
    41
1040
10.0
1070
   140
1040
36.0
1070
   147
1040
10.0
1070
   271
1070
     0
1070
   289
1070
     0
1002
}
  0
VIEWPORT
  5
BB
330
73
100
AcDbEntity
 67
     1
  8
0
100
AcDbViewport
 10
7.799999999999998
 20
4.5
 30
0.0
 40
15.64
 41
9.0
 68
     1
 69
     1
 12
6.0
 22
4.5
 13
0.0
 23
0.0
 14
0.5
 24
0.5
 15
0.5
 25
0.5
 16
0.0
 26
0.0
 36
1.0
 17
0.0
 27
0.0
 37
0.0
 42
50.0
 43
0.0
 44
0.0
 45
12.0
 50
0.0
 51
0.0
 72
   100
 90
   557152
  1

281
     0
 71
     1
 74
     0
110
0.0
120
0.0
130
0.0
111
1.0
121
0.0
131
0.0
112
0.0
122
1.0
132
0.0
 79
     0
146
0.0
170
     0
  0
ENDSEC
  0
SECTION
  2
OBJECTS
  0
DICTIONARY
  5
C
330
0
100
AcDbDictionary
281
     1
  3
ACAD_COLOR
350
6C
  3
ACAD_GROUP
350
D
  3
ACAD_LAYOUT
350
1A
  3
ACAD_MATERIAL
350
6B
  3
ACAD_MLEADERSTYLE
350
14E
  3
ACAD_MLINESTYLE
350
17
  3
ACAD_PLOTSETTINGS
350
19
  3
ACAD_PLOTSTYLENAME
350
E
  3
ACAD_SCALELIST
350
99
  3
ACAD_TABLESTYLE
350
92
  3
ACAD_VISUALSTYLE
350
16F
  3
ACDB_RECOMPOSE_DATA
350
462
  3
AcDbVariableDictionary
350
59
  0
DICTIONARY
  5
569
330
8
100
AcDbDictionary
280
     1
281
     1
  3
ACAD_XREC_ROUNDTRIP
360
56A
  0
DICTIONARY
  5
6C
102
{ACAD_REACTORS
330
C
102
}
330
C
100
AcDbDictionary
281
     1
  0
DICTIONARY
  5
D
102
{ACAD_REACTORS
330
C
102
}
330
C
100
AcDbDictionary
281
     1
  0
DICTIONARY
  5
1A
102
{ACAD_REACTORS
330
C
102
}
330
C
100
AcDbDictionary
281
     1
  3
Layout1
350
74
  3
Layout2
350
142
  3
Model
350
22
  0
DICTIONARY
  5
6B
102
{ACAD_REACTORS
330
C
102
}
330
C
100
AcDbDictionary
281
     1
  3
ByBlock
350
15F
  3
ByLayer
350
157
  3
Global
350
167
  0
DICTIONARY
  5
14E
102
{ACAD_REACTORS
330
C
102
}
330
C
100
AcDbDictionary
281
     1
  3
Standard
350
181
  0
DICTIONARY
  5
17
102
{ACAD_REACTORS
330
C
102
}
330
C
100
AcDbDictionary
281
     1
  3
Standard
350
18
  0
DICTIONARY
  5
19
102
{ACAD_REACTORS
330
C
102
}
330
C
100
AcDbDictionary
281
     1
  0
ACDBDICTIONARYWDFLT
  5
E
102
{ACAD_REACTORS
330
C
102
}
330
C
100
AcDbDictionary
281
     1
  3
Normal
350
F
100
AcDbDictionaryWithDefault
340
F
  0
DICTIONARY
  5
99
102
{ACAD_REACTORS
330
C
102
}
330
C
100
AcDbDictionary
281
     1
  3
A0
350
D5
  3
A1
350
D6
  3
A2
350
D7
  3
A3
350
D8
  3
A4
350
D9
  3
A5
350
DA
  3
A6
350
DB
  3
A7
350
DC
  3
A8
350
DD
  3
A9
350
DE
  3
B0
350
DF
  3
B1
350
E0
  3
B2
350
E1
  3
B3
350
E2
  3
B4
350
E3
  3
B5
350
E4
  3
B6
350
E5
  3
B7
350
E6
  3
B8
350
E7
  3
B9
350
E8
  3
C0
350
E9
  3
C1
350
EA
  3
C2
350
EB
  3
C3
350
EC
  3
C4
350
ED
  3
C5
350
EE
  3
C6
350
EF
  3
C7
350
F0
  3
C8
350
F1
  3
C9
350
F2
  3
D0
350
F3
  3
D1
350
F4
  3
D2
350
F5
  0
DICTIONARY
  5
92
102
{ACAD_REACTORS
330
C
102
}
330
C
100
AcDbDictionary
281
     1
  3
Standard
350
180
  0
DICTIONARY
  5
16F
102
{ACAD_REACTORS
330
C
102
}
330
C
100
AcDbDictionary
281
     1
  3
2dWireframe
350
175
  3
3D Hidden
350
177
  3
3dWireframe
350
176
  3
Basic
350
174
  3
Brighten
350
17B
  3
ColorChange
350
17F
  3
Conceptual
350
178
  3
Dim
350
17A
  3
Facepattern
350
17E
  3
Flat
350
170
  3
FlatWithEdges
350
171
  3
Gouraud
350
172
  3
GouraudWithEdges
350
173
  3
Linepattern
350
17D
  3
Realistic
350
179
  3
Thicken
350
17C
  0
XRECORD
  5
462
102
{ACAD_REACTORS
330
C
102
}
330
C
100
AcDbXrecord
280
     1
 90
        1
330
180
  0
DICTIONARY
  5
59
102
{ACAD_REACTORS
330
C
102
}
330
C
100
AcDbDictionary
281
     1
  3
CANNOSCALE
350
3C3
  3
CMLEADERSTYLE
350
3C1
  3
CTABLESTYLE
350
52A
  3
DIMASSOC
350
5A
  3
HIDETEXT
350
5E
  3
LAYEREVAL
350
3C5
  3
LAYERNOTIFY
350
3C6
  3
LIGHTINGUNITS
350
3C4
  3
MSLTSCALE
350
3C2
  0
XRECORD
  5
56A
102
{ACAD_REACTORS
330
569
102
}
330
569
100
AcDbXrecord
280
     1
102
VTR_0.000_0.000_1.000_1.000_VISUALSTYLE
340
175
102
VTR_0.000_0.000_1.000_1.000_GRIDDISPLAY
 70
     3
102
VTR_0.000_0.000_1.000_1.000_GRIDMAJOR
 70
     5
102
VTR_0.000_0.000_1.000_1.000_DEFAULTLIGHTING
280
     1
102
VTR_0.000_0.000_1.000_1.000_DEFAULTLIGHTINGTYPE
 70
     1
102
VTR_0.000_0.000_1.000_1.000_BRIGHTNESS
141
0.0
102
VTR_0.000_0.000_1.000_1.000_CONTRAST
142
0.0
  0
LAYOUT
  5
74
102
{ACAD_REACTORS
330
1A
102
}
330
1A
100
AcDbPlotSettings
  1

  2
none_device
  4
none_user_media
  6

 40
0.0
 41
0.0
 42
0.0
 43
0.0
 44
0.0
 45
0.0
 46
-10.42666666666667
 47
-6.0
 48
0.0
 49
0.0
140
0.0
141
0.0
142
1.0
143
1.0
 70
   692
 72
     1
 73
     0
 74
     0
  7

 75
    16
 76
     0
 77
     2
 78
   300
147
1.0
148
4.426666666666668
149
1.5
100
AcDbLayout
  1
Layout1
 70
     1
 71
     1
 10
0.0
 20
0.0
 11
0.0
 21
0.0
 12
0.0
 22
0.0
 32
0.0
 14
0.0
 24
0.0
 34
0.0
 15
0.0
 25
0.0
 35
0.0
146
0.0
 13
0.0
 23
0.0
 33
0.0
 16
1.0
 26
0.0
 36
0.0
 17
0.0
 27
1.0
 37
0.0
 76
     0
330
D1
331
14D
1001
PROGE_PRINT_SETTINGS
1070
    73
1070
     1
  0
LAYOUT
  5
142
102
{ACAD_REACTORS
330
1A
102
}
330
1A
100
AcDbPlotSettings
  1

  2
none_device
  4
none_user_media
  6

 40
0.0
 41
0.0
 42
0.0
 43
0.0
 44
0.0
 45
0.0
 46
88.56200000000003
 47
136.531
 48
0.0
 49
0.0
140
0.0
141
0.0
142
1.0
143
1.0
 70
   692
 72
     1
 73
     0
 74
     0
  7

 75
    16
 76
     0
 77
     2
 78
   300
147
1.0
148
0.0
149
0.0
100
AcDbLayout
  1
Layout2
 70
     1
 71
     2
 10
0.0
 20
0.0
 11
12.0
 21
9.0
 12
0.0
 22
0.0
 32
0.0
 14
0.0
 24
0.0
 34
0.0
 15
12.0
 25
9.0
 35
0.0
146
0.0
 13
0.0
 23
0.0
 33
0.0
 16
1.0
 26
0.0
 36
0.0
 17
0.0
 27
1.0
 37
0.0
 76
     0
330
73
331
BB
1001
PROGE_PRINT_SETTINGS
1070
    73
1070
     1
  0
LAYOUT
  5
22
102
{ACAD_REACTORS
330
1A
102
}
330
1A
100
AcDbPlotSettings
  1

  2
none_device
  4
Letter_(8.50_x_11.00_Inches)
  6

 40
6.35
 41
6.35
 42
6.35000508
 43
6.35000508
 44
215.9
 45
279.4
 46
0.0
 47
0.0
 48
0.0
 49
0.0
140
0.0
141
0.0
142
1.0
143
47.87691809190594
 70
 11952
 72
     1
 73
     1
 74
     0
  7

 75
     0
 76
     0
 77
     2
 78
   300
147
0.0208868916349288
148
0.1311165230791651
149
0.096403374003771
100
AcDbLayout
  1
Model
 70
     1
 71
     0
 10
0.0
 20
0.0
 11
0.0
 21
0.0
 12
0.0
 22
0.0
 32
0.0
 14
-322.8665428514069
 24
-678.1666497748297
 34
0.0
 15
9292.17128873397
 25
5209.988383610877
 35
0.0
146
0.0
 13
0.0
 23
0.0
 33
0.0
 16
1.0
 26
0.0
 36
0.0
 17
0.0
 27
1.0
 37
0.0
 76
     0
330
1F
331
97
  0
MATERIAL
  5
15F
102
{ACAD_REACTORS
330
6B
102
}
102
{ACAD_XDICTIONARY
360
561
102
}
330
6B
100
AcDbMaterial
  1
ByBlock
 72
     0
 43
0.0008202099737533
 43
0.0
 43
0.0
 43
0.0
 43
0.0
 43
0.0008202099737533
 43
0.0
 43
0.0
 43
0.0
 43
0.0
 43
1.0
 43
0.0
 43
0.0
 43
0.0
 43
0.0
 43
1.0
 77
     0
 47
0.0008202099737533
 47
0.0
 47
0.0
 47
0.0
 47
0.0
 47
0.0008202099737533
 47
0.0
 47
0.0
 47
0.0
 47
0.0
 47
1.0
 47
0.0
 47
0.0
 47
0.0
 47
0.0
 47
1.0
171
     0
 49
0.0008202099737533
 49
0.0
 49
0.0
 49
0.0
 49
0.0
 49
0.0008202099737533
 49
0.0
 49
0.0
 49
0.0
 49
0.0
 49
1.0
 49
0.0
 49
0.0
 49
0.0
 49
0.0
 49
1.0
175
     0
142
0.0008202099737533
142
0.0
142
0.0
142
0.0
142
0.0
142
0.0008202099737533
142
0.0
142
0.0
142
0.0
142
0.0
142
1.0
142
0.0
142
0.0
142
0.0
142
0.0
142
1.0
179
     0
144
0.0008202099737533
144
0.0
144
0.0
144
0.0
144
0.0
144
0.0008202099737533
144
0.0
144
0.0
144
0.0
144
0.0
144
1.0
144
0.0
144
0.0
144
0.0
144
0.0
144
1.0
147
0.0008202099737533
147
0.0
147
0.0
147
0.0
147
0.0
147
0.0008202099737533
147
0.0
147
0.0
147
0.0
147
0.0
147
1.0
147
0.0
147
0.0
147
0.0
147
0.0
147
1.0
  0
MATERIAL
  5
157
102
{ACAD_REACTORS
330
6B
102
}
102
{ACAD_XDICTIONARY
360
563
102
}
330
6B
100
AcDbMaterial
  1
ByLayer
 72
     0
 43
0.0008202099737533
 43
0.0
 43
0.0
 43
0.0
 43
0.0
 43
0.0008202099737533
 43
0.0
 43
0.0
 43
0.0
 43
0.0
 43
1.0
 43
0.0
 43
0.0
 43
0.0
 43
0.0
 43
1.0
 77
     0
 47
0.0008202099737533
 47
0.0
 47
0.0
 47
0.0
 47
0.0
 47
0.0008202099737533
 47
0.0
 47
0.0
 47
0.0
 47
0.0
 47
1.0
 47
0.0
 47
0.0
 47
0.0
 47
0.0
 47
1.0
171
     0
 49
0.0008202099737533
 49
0.0
 49
0.0
 49
0.0
 49
0.0
 49
0.0008202099737533
 49
0.0
 49
0.0
 49
0.0
 49
0.0
 49
1.0
 49
0.0
 49
0.0
 49
0.0
 49
0.0
 49
1.0
175
     0
142
0.0008202099737533
142
0.0
142
0.0
142
0.0
142
0.0
142
0.0008202099737533
142
0.0
142
0.0
142
0.0
142
0.0
142
1.0
142
0.0
142
0.0
142
0.0
142
0.0
142
1.0
179
     0
144
0.0008202099737533
144
0.0
144
0.0
144
0.0
144
0.0
144
0.0008202099737533
144
0.0
144
0.0
144
0.0
144
0.0
144
1.0
144
0.0
144
0.0
144
0.0
144
0.0
144
1.0
147
0.0008202099737533
147
0.0
147
0.0
147
0.0
147
0.0
147
0.0008202099737533
147
0.0
147
0.0
147
0.0
147
0.0
147
1.0
147
0.0
147
0.0
147
0.0
147
0.0
147
1.0
  0
MATERIAL
  5
167
102
{ACAD_REACTORS
330
6B
102
}
102
{ACAD_XDICTIONARY
360
565
102
}
330
6B
100
AcDbMaterial
  1
Global
 72
     0
 43
0.0008202099737533
 43
0.0
 43
0.0
 43
0.0
 43
0.0
 43
0.0008202099737533
 43
0.0
 43
0.0
 43
0.0
 43
0.0
 43
1.0
 43
0.0
 43
0.0
 43
0.0
 43
0.0
 43
1.0
 77
     0
 47
0.0008202099737533
 47
0.0
 47
0.0
 47
0.0
 47
0.0
 47
0.0008202099737533
 47
0.0
 47
0.0
 47
0.0
 47
0.0
 47
1.0
 47
0.0
 47
0.0
 47
0.0
 47
0.0
 47
1.0
171
     0
 49
0.0008202099737533
 49
0.0
 49
0.0
 49
0.0
 49
0.0
 49
0.0008202099737533
 49
0.0
 49
0.0
 49
0.0
 49
0.0
 49
1.0
 49
0.0
 49
0.0
 49
0.0
 49
0.0
 49
1.0
175
     0
142
0.0008202099737533
142
0.0
142
0.0
142
0.0
142
0.0
142
0.0008202099737533
142
0.0
142
0.0
142
0.0
142
0.0
142
1.0
142
0.0
142
0.0
142
0.0
142
0.0
142
1.0
179
     0
144
0.0008202099737533
144
0.0
144
0.0
144
0.0
144
0.0
144
0.0008202099737533
144
0.0
144
0.0
144
0.0
144
0.0
144
1.0
144
0.0
144
0.0
144
0.0
144
0.0
144
1.0
147
0.0008202099737533
147
0.0
147
0.0
147
0.0
147
0.0
147
0.0008202099737533
147
0.0
147
0.0
147
0.0
147
0.0
147
1.0
147
0.0
147
0.0
147
0.0
147
0.0
147
1.0
  0
MLEADERSTYLE
  5
181
102
{ACAD_REACTORS
330
14E
102
}
330
14E
100
AcDbMLeaderStyle
170
     2
171
     1
172
     0
 90
        2
 40
0.0
 41
0.0
173
     1
 91
-1056964608
340
14
 92
       -2
290
     1
 42
2.0
291
     1
 43
0.36
  3
Standard
341
0
 44
4.0
300

342
11
174
     1
178
     6
175
     1
176
     0
 93
-1056964608
 45
4.0
292
     0
297
     0
 46
4.0
343
0
 94
-1056964608
 47
1.0
 49
1.0
140
1.0
293
     1
141
0.0
294
     1
177
     0
142
1.0
295
     0
296
     0
143
0.125
1001
ACAD_MLEADERVER
1070
     2
  0
MLINESTYLE
  5
18
102
{ACAD_REACTORS
330
17
102
}
330
17
100
AcDbMlineStyle
  2
STANDARD
 70
     0
  3

 62
   256
 51
90.0
 52
90.0
 71
     2
 49
0.5
 62
   256
  6
BYLAYER
 49
-0.5
 62
   256
  6
BYLAYER
  0
ACDBPLACEHOLDER
  5
F
102
{ACAD_REACTORS
330
E
102
}
330
E
  0
SCALE
  5
D5
102
{ACAD_REACTORS
330
99
102
}
330
99
100
AcDbScale
 70
     0
300
1:1
140
1.0
141
1.0
290
     1
  0
SCALE
  5
D6
102
{ACAD_REACTORS
330
99
102
}
330
99
100
AcDbScale
 70
     0
300
1:2
140
1.0
141
2.0
290
     0
  0
SCALE
  5
D7
102
{ACAD_REACTORS
330
99
102
}
330
99
100
AcDbScale
 70
     0
300
1:4
140
1.0
141
4.0
290
     0
  0
SCALE
  5
D8
102
{ACAD_REACTORS
330
99
102
}
330
99
100
AcDbScale
 70
     0
300
1:5
140
1.0
141
5.0
290
     0
  0
SCALE
  5
D9
102
{ACAD_REACTORS
330
99
102
}
330
99
100
AcDbScale
 70
     0
300
1:8
140
1.0
141
8.0
290
     0
  0
SCALE
  5
DA
102
{ACAD_REACTORS
330
99
102
}
330
99
100
AcDbScale
 70
     0
300
1:10
140
1.0
141
10.0
290
     0
  0
SCALE
  5
DB
102
{ACAD_REACTORS
330
99
102
}
330
99
100
AcDbScale
 70
     0
300
1:16
140
1.0
141
16.0
290
     0
  0
SCALE
  5
DC
102
{ACAD_REACTORS
330
99
102
}
330
99
100
AcDbScale
 70
     0
300
1:20
140
1.0
141
20.0
290
     0
  0
SCALE
  5
DD
102
{ACAD_REACTORS
330
99
102
}
330
99
100
AcDbScale
 70
     0
300
1:30
140
1.0
141
30.0
290
     0
  0
SCALE
  5
DE
102
{ACAD_REACTORS
330
99
102
}
330
99
100
AcDbScale
 70
     0
300
1:40
140
1.0
141
40.0
290
     0
  0
SCALE
  5
DF
102
{ACAD_REACTORS
330
99
102
}
330
99
100
AcDbScale
 70
     0
300
1:50
140
1.0
141
50.0
290
     0
  0
SCALE
  5
E0
102
{ACAD_REACTORS
330
99
102
}
330
99
100
AcDbScale
 70
     0
300
1:100
140
1.0
141
100.0
290
     0
  0
SCALE
  5
E1
102
{ACAD_REACTORS
330
99
102
}
330
99
100
AcDbScale
 70
     0
300
2:1
140
2.0
141
1.0
290
     0
  0
SCALE
  5
E2
102
{ACAD_REACTORS
330
99
102
}
330
99
100
AcDbScale
 70
     0
300
4:1
140
4.0
141
1.0
290
     0
  0
SCALE
  5
E3
102
{ACAD_REACTORS
330
99
102
}
330
99
100
AcDbScale
 70
     0
300
8:1
140
8.0
141
1.0
290
     0
  0
SCALE
  5
E4
102
{ACAD_REACTORS
330
99
102
}
330
99
100
AcDbScale
 70
     0
300
10:1
140
10.0
141
1.0
290
     0
  0
SCALE
  5
E5
102
{ACAD_REACTORS
330
99
102
}
330
99
100
AcDbScale
 70
     0
300
100:1
140
100.0
141
1.0
290
     0
  0
SCALE
  5
E6
102
{ACAD_REACTORS
330
99
102
}
330
99
100
AcDbScale
 70
     0
300
1/128" = 1'-0"
140
0.0078125
141
12.0
290
     0
  0
SCALE
  5
E7
102
{ACAD_REACTORS
330
99
102
}
330
99
100
AcDbScale
 70
     0
300
1/64" = 1'-0"
140
0.015625
141
12.0
290
     0
  0
SCALE
  5
E8
102
{ACAD_REACTORS
330
99
102
}
330
99
100
AcDbScale
 70
     0
300
1/32" = 1'-0"
140
0.03125
141
12.0
290
     0
  0
SCALE
  5
E9
102
{ACAD_REACTORS
330
99
102
}
330
99
100
AcDbScale
 70
     0
300
1/16" = 1'-0"
140
0.0625
141
12.0
290
     0
  0
SCALE
  5
EA
102
{ACAD_REACTORS
330
99
102
}
330
99
100
AcDbScale
 70
     0
300
3/32" = 1'-0"
140
0.09375
141
12.0
290
     0
  0
SCALE
  5
EB
102
{ACAD_REACTORS
330
99
102
}
330
99
100
AcDbScale
 70
     0
300
1/8" = 1'-0"
140
0.125
141
12.0
290
     0
  0
SCALE
  5
EC
102
{ACAD_REACTORS
330
99
102
}
330
99
100
AcDbScale
 70
     0
300
3/16" = 1'-0"
140
0.1875
141
12.0
290
     0
  0
SCALE
  5
ED
102
{ACAD_REACTORS
330
99
102
}
330
99
100
AcDbScale
 70
     0
300
1/4" = 1'-0"
140
0.25
141
12.0
290
     0
  0
SCALE
  5
EE
102
{ACAD_REACTORS
330
99
102
}
330
99
100
AcDbScale
 70
     0
300
3/8" = 1'-0"
140
0.375
141
12.0
290
     0
  0
SCALE
  5
EF
102
{ACAD_REACTORS
330
99
102
}
330
99
100
AcDbScale
 70
     0
300
1/2" = 1'-0"
140
0.5
141
12.0
290
     0
  0
SCALE
  5
F0
102
{ACAD_REACTORS
330
99
102
}
330
99
100
AcDbScale
 70
     0
300
3/4" = 1'-0"
140
0.75
141
12.0
290
     0
  0
SCALE
  5
F1
102
{ACAD_REACTORS
330
99
102
}
330
99
100
AcDbScale
 70
     0
300
1" = 1'-0"
140
1.0
141
12.0
290
     0
  0
SCALE
  5
F2
102
{ACAD_REACTORS
330
99
102
}
330
99
100
AcDbScale
 70
     0
300
1-1/2" = 1'-0"
140
1.5
141
12.0
290
     0
  0
SCALE
  5
F3
102
{ACAD_REACTORS
330
99
102
}
330
99
100
AcDbScale
 70
     0
300
3" = 1'-0"
140
3.0
141
12.0
290
     0
  0
SCALE
  5
F4
102
{ACAD_REACTORS
330
99
102
}
330
99
100
AcDbScale
 70
     0
300
6" = 1'-0"
140
6.0
141
12.0
290
     0
  0
SCALE
  5
F5
102
{ACAD_REACTORS
330
99
102
}
330
99
100
AcDbScale
 70
     0
300
1'-0" = 1'-0"
140
12.0
141
12.0
290
     0
  0
TABLESTYLE
  5
180
102
{ACAD_REACTORS
330
92
102
}
102
{ACAD_XDICTIONARY
360
567
102
}
330
92
100
AcDbTableStyle
  3
Standard
 70
     0
 71
     0
 40
1.5
 41
1.5
280
     0
281
     0
  7
Standard
140
4.5
170
     2
 62
     0
 63
     7
283
     0
274
    -2
284
     1
 64
     0
275
    -2
285
     1
 65
     0
276
    -2
286
     1
 66
     0
277
    -2
287
     1
 67
     0
278
    -2
288
     1
 68
     0
279
    -2
289
     1
 69
     0
  7
Standard
140
6.0
170
     5
 62
     0
 63
     7
283
     0
274
    -2
284
     1
 64
     0
275
    -2
285
     1
 65
     0
276
    -2
286
     1
 66
     0
277
    -2
287
     1
 67
     0
278
    -2
288
     1
 68
     0
279
    -2
289
     1
 69
     0
  7
Standard
140
4.5
170
     5
 62
     0
 63
     7
283
     0
274
    -2
284
     1
 64
     0
275
    -2
285
     1
 65
     0
276
    -2
286
     1
 66
     0
277
    -2
287
     1
 67
     0
278
    -2
288
     1
 68
     0
279
    -2
289
     1
 69
     0
  0
VISUALSTYLE
  5
175
102
{ACAD_REACTORS
330
16F
102
}
330
16F
100
AcDbVisualStyle
  2
2dWireframe
 70
     4
 71
     0
 72
     2
 73
     0
 90
        0
 40
-0.6
 41
-30.0
 62
     5
 63
     7
421
 16777215
 74
     1
 91
        4
 64
     7
 65
   257
 75
     1
175
     1
 42
1.0
 92
        0
 66
   257
 43
1.0
 76
     1
 77
     6
 78
     2
 67
     7
 79
     5
170
     0
171
     0
290
     0
174
     0
 93
        1
 44
0.0
173
     0
291
     0
 45
0.0
1001
ACAD
1000
AcDbSavedByObjectVersion
1070
     0
  0
VISUALSTYLE
  5
177
102
{ACAD_REACTORS
330
16F
102
}
330
16F
100
AcDbVisualStyle
  2
3D Hidden
 70
     6
 71
     1
 72
     2
 73
     2
 90
        0
 40
-0.6
 41
-30.0
 62
     5
 63
     7
421
 16777215
 74
     2
 91
        2
 64
     7
 65
   257
 75
     2
175
     1
 42
40.0
 92
        0
 66
   257
 43
1.0
 76
     1
 77
     6
 78
     2
 67
     7
 79
     3
170
     0
171
     0
290
     0
174
     0
 93
        1
 44
0.0
173
     0
291
     0
 45
0.0
1001
ACAD
1000
AcDbSavedByObjectVersion
1070
     0
  0
VISUALSTYLE
  5
176
102
{ACAD_REACTORS
330
16F
102
}
330
16F
100
AcDbVisualStyle
  2
3dWireframe
 70
     5
 71
     0
 72
     2
 73
     0
 90
        0
 40
-0.6
 41
-30.0
 62
     5
 63
     7
421
 16777215
 74
     1
 91
        4
 64
     7
 65
   257
 75
     1
175
     1
 42
1.0
 92
        0
 66
   257
 43
1.0
 76
     1
 77
     6
 78
     2
 67
     7
 79
     5
170
     0
171
     0
290
     0
174
     0
 93
        1
 44
0.0
173
     0
291
     0
 45
0.0
1001
ACAD
1000
AcDbSavedByObjectVersion
1070
     0
  0
VISUALSTYLE
  5
174
102
{ACAD_REACTORS
330
16F
102
}
330
16F
100
AcDbVisualStyle
  2
Basic
 70
     7
 71
     1
 72
     0
 73
     1
 90
        0
 40
-0.6
 41
-30.0
 62
     5
 63
     7
421
 16777215
 74
     0
 91
        4
 64
     7
 65
   257
 75
     1
175
     1
 42
1.0
 92
        8
 66
     7
 43
1.0
 76
     1
 77
     6
 78
     2
 67
     7
 79
     5
170
     0
171
     0
290
     0
174
     0
 93
        1
 44
0.0
173
     0
291
     1
 45
0.0
1001
ACAD
1000
AcDbSavedByObjectVersion
1070
     0
  0
VISUALSTYLE
  5
17B
102
{ACAD_REACTORS
330
16F
102
}
330
16F
100
AcDbVisualStyle
  2
Brighten
 70
    12
 71
     2
 72
     2
 73
     0
 90
        0
 40
-0.6
 41
-30.0
 62
     5
 63
     7
421
 16777215
 74
     1
 91
        4
 64
     7
 65
   257
 75
     1
175
     1
 42
1.0
 92
        8
 66
     7
 43
1.0
 76
     1
 77
     6
 78
     2
 67
     7
 79
     5
170
     0
171
     0
290
     0
174
     0
 93
        1
 44
50.0
173
     0
291
     1
 45
0.0
1001
ACAD
1000
AcDbSavedByObjectVersion
1070
     0
  0
VISUALSTYLE
  5
17F
102
{ACAD_REACTORS
330
16F
102
}
330
16F
100
AcDbVisualStyle
  2
ColorChange
 70
    16
 71
     2
 72
     2
 73
     3
 90
        0
 40
-0.6
 41
-30.0
 62
     5
 63
     8
421
  8421504
 74
     1
 91
        4
 64
     7
 65
   257
 75
     1
175
     1
 42
1.0
 92
        8
 66
     8
424
  8421504
 43
1.0
 76
     1
 77
     6
 78
     2
 67
     7
 79
     5
170
     0
171
     0
290
     0
174
     0
 93
        1
 44
0.0
173
     0
291
     1
 45
0.0
1001
ACAD
1000
AcDbSavedByObjectVersion
1070
     0
  0
VISUALSTYLE
  5
178
102
{ACAD_REACTORS
330
16F
102
}
330
16F
100
AcDbVisualStyle
  2
Conceptual
 70
     9
 71
     3
 72
     2
 73
     0
 90
        0
 40
-0.6
 41
-30.0
 62
     5
 63
     7
421
 16777215
 74
     2
 91
        2
 64
     7
 65
   257
 75
     1
175
     1
 42
40.0
 92
        8
 66
     7
 43
1.0
 76
     1
 77
     6
 78
     2
 67
     7
 79
     3
170
     0
171
     0
290
     0
174
     0
 93
        1
 44
0.0
173
     0
291
     0
 45
0.0
1001
ACAD
1000
AcDbSavedByObjectVersion
1070
     0
  0
VISUALSTYLE
  5
17A
102
{ACAD_REACTORS
330
16F
102
}
330
16F
100
AcDbVisualStyle
  2
Dim
 70
    11
 71
     2
 72
     2
 73
     0
 90
        0
 40
-0.6
 41
-30.0
 62
     5
 63
     7
421
 16777215
 74
     1
 91
        4
 64
     7
 65
   257
 75
     1
175
     1
 42
1.0
 92
        8
 66
     7
 43
1.0
 76
     1
 77
     6
 78
     2
 67
     7
 79
     5
170
     0
171
     0
290
     0
174
     0
 93
        1
 44
-50.0
173
     0
291
     1
 45
0.0
1001
ACAD
1000
AcDbSavedByObjectVersion
1070
     0
  0
VISUALSTYLE
  5
17E
102
{ACAD_REACTORS
330
16F
102
}
330
16F
100
AcDbVisualStyle
  2
Facepattern
 70
    15
 71
     2
 72
     2
 73
     0
 90
        0
 40
-0.6
 41
-30.0
 62
     5
 63
     7
421
 16777215
 74
     1
 91
        4
 64
     7
 65
   257
 75
     1
175
     1
 42
1.0
 92
        8
 66
     7
 43
1.0
 76
     1
 77
     6
 78
     2
 67
     7
 79
     5
170
     0
171
     0
290
     0
174
     0
 93
        1
 44
0.0
173
     0
291
     1
 45
0.0
1001
ACAD
1000
AcDbSavedByObjectVersion
1070
     0
  0
VISUALSTYLE
  5
170
102
{ACAD_REACTORS
330
16F
102
}
330
16F
100
AcDbVisualStyle
  2
Flat
 70
     0
 71
     2
 72
     1
 73
     1
 90
        2
 40
-0.6
 41
30.0
 62
     5
 63
     7
421
 16777215
 74
     0
 91
        4
 64
     7
 65
   257
 75
     1
175
     1
 42
1.0
 92
        8
 66
     7
 43
1.0
 76
     1
 77
     6
 78
     2
 67
     7
 79
     5
170
     0
171
     0
290
     0
174
     0
 93
       13
 44
0.0
173
     0
291
     1
 45
0.0
1001
ACAD
1000
AcDbSavedByObjectVersion
1070
     0
  0
VISUALSTYLE
  5
171
102
{ACAD_REACTORS
330
16F
102
}
330
16F
100
AcDbVisualStyle
  2
FlatWithEdges
 70
     1
 71
     2
 72
     1
 73
     1
 90
        2
 40
-0.6
 41
30.0
 62
     5
 63
     7
421
 16777215
 74
     1
 91
        4
 64
     7
 65
   257
 75
     1
175
     1
 42
1.0
 92
        0
 66
   257
 43
1.0
 76
     1
 77
     6
 78
     2
 67
     7
 79
     5
170
     0
171
     0
290
     0
174
     0
 93
       13
 44
0.0
173
     0
291
     1
 45
0.0
1001
ACAD
1000
AcDbSavedByObjectVersion
1070
     0
  0
VISUALSTYLE
  5
172
102
{ACAD_REACTORS
330
16F
102
}
330
16F
100
AcDbVisualStyle
  2
Gouraud
 70
     2
 71
     2
 72
     2
 73
     1
 90
        2
 40
-0.6
 41
30.0
 62
     5
 63
     7
421
 16777215
 74
     0
 91
        4
 64
     7
 65
   257
 75
     1
175
     1
 42
1.0
 92
        0
 66
     7
 43
1.0
 76
     1
 77
     6
 78
     2
 67
     7
 79
     5
170
     0
171
     0
290
     0
174
     0
 93
       13
 44
0.0
173
     0
291
     1
 45
0.0
1001
ACAD
1000
AcDbSavedByObjectVersion
1070
     0
  0
VISUALSTYLE
  5
173
102
{ACAD_REACTORS
330
16F
102
}
330
16F
100
AcDbVisualStyle
  2
GouraudWithEdges
 70
     3
 71
     2
 72
     2
 73
     1
 90
        2
 40
-0.6
 41
30.0
 62
     5
 63
     7
421
 16777215
 74
     1
 91
        4
 64
     7
 65
   257
 75
     1
175
     1
 42
1.0
 92
        0
 66
   257
 43
1.0
 76
     1
 77
     6
 78
     2
 67
     7
 79
     5
170
     0
171
     0
290
     0
174
     0
 93
       13
 44
0.0
173
     0
291
     1
 45
0.0
1001
ACAD
1000
AcDbSavedByObjectVersion
1070
     0
  0
VISUALSTYLE
  5
17D
102
{ACAD_REACTORS
330
16F
102
}
330
16F
100
AcDbVisualStyle
  2
Linepattern
 70
    14
 71
     2
 72
     2
 73
     0
 90
        0
 40
-0.6
 41
-30.0
 62
     5
 63
     7
421
 16777215
 74
     1
 91
        4
 64
     7
 65
   257
 75
     7
175
     7
 42
1.0
 92
        8
 66
     7
 43
1.0
 76
     1
 77
     6
 78
     2
 67
     7
 79
     5
170
     0
171
     0
290
     0
174
     0
 93
        1
 44
0.0
173
     0
291
     1
 45
0.0
1001
ACAD
1000
AcDbSavedByObjectVersion
1070
     0
  0
VISUALSTYLE
  5
179
102
{ACAD_REACTORS
330
16F
102
}
330
16F
100
AcDbVisualStyle
  2
Realistic
 70
     8
 71
     2
 72
     2
 73
     0
 90
        0
 40
-0.6
 41
-30.0
 62
     5
 63
     7
421
 16777215
 74
     1
 91
        0
 64
     7
 65
   257
 75
     1
175
     1
 42
1.0
 92
        8
 66
     8
424
  7895160
 43
1.0
 76
     1
 77
     6
 78
     2
 67
     7
 79
     5
170
     0
171
     0
290
     0
174
     0
 93
       13
 44
0.0
173
     0
291
     0
 45
0.0
1001
ACAD
1000
AcDbSavedByObjectVersion
1070
     0
  0
VISUALSTYLE
  5
17C
102
{ACAD_REACTORS
330
16F
102
}
330
16F
100
AcDbVisualStyle
  2
Thicken
 70
    13
 71
     2
 72
     2
 73
     0
 90
        0
 40
-0.6
 41
-30.0
 62
     5
 63
     7
421
 16777215
 74
     1
 91
        4
 64
     7
 65
   257
 75
     1
175
     1
 42
1.0
 92
       12
 66
     7
 43
1.0
 76
     1
 77
     6
 78
     2
 67
     7
 79
     5
170
     0
171
     0
290
     0
174
     0
 93
        1
 44
0.0
173
     0
291
     1
 45
0.0
1001
ACAD
1000
AcDbSavedByObjectVersion
1070
     0
  0
DICTIONARYVAR
  5
3C3
102
{ACAD_REACTORS
330
59
102
}
330
59
100
DictionaryVariables
280
     0
  1

  0
DICTIONARYVAR
  5
3C1
102
{ACAD_REACTORS
330
59
102
}
330
59
100
DictionaryVariables
280
     0
  1

  0
DICTIONARYVAR
  5
52A
102
{ACAD_REACTORS
330
59
102
}
330
59
100
DictionaryVariables
280
     0
  1
Standard
  0
DICTIONARYVAR
  5
5A
102
{ACAD_REACTORS
330
59
102
}
330
59
100
DictionaryVariables
280
     0
  1
2
  0
DICTIONARYVAR
  5
5E
102
{ACAD_REACTORS
330
59
102
}
330
59
100
DictionaryVariables
280
     0
  1
1
  0
DICTIONARYVAR
  5
3C5
102
{ACAD_REACTORS
330
59
102
}
330
59
100
DictionaryVariables
280
     0
  1
1
  0
DICTIONARYVAR
  5
3C6
102
{ACAD_REACTORS
330
59
102
}
330
59
100
DictionaryVariables
280
     0
  1
15
  0
DICTIONARYVAR
  5
3C4
102
{ACAD_REACTORS
330
59
102
}
330
59
100
DictionaryVariables
280
     0
  1
0
  0
DICTIONARYVAR
  5
3C2
102
{ACAD_REACTORS
330
59
102
}
330
59
100
DictionaryVariables
280
     0
  1
1
  0
DICTIONARY
  5
561
330
15F
100
AcDbDictionary
280
     1
281
     1
  3
ACAD_XREC_ROUNDTRIP
360
562
  0
DICTIONARY
  5
563
330
157
100
AcDbDictionary
280
     1
281
     1
  3
ACAD_XREC_ROUNDTRIP
360
564
  0
DICTIONARY
  5
565
330
167
100
AcDbDictionary
280
     1
281
     1
  3
ACAD_XREC_ROUNDTRIP
360
566
  0
DICTIONARY
  5
567
330
180
100
AcDbDictionary
280
     1
281
     1
  3
ACAD_XREC_ROUNDTRIP
360
568
  0
XRECORD
  5
562
102
{ACAD_REACTORS
330
561
102
}
330
561
100
AcDbXrecord
280
     1
102
MATERIAL
148
0.0
149
0.0
149
0.0
 93
        0
 94
       63
282
     0
 72
     0
 77
     0
171
     0
175
     0
179
     0
273
     0
  0
XRECORD
  5
564
102
{ACAD_REACTORS
330
563
102
}
330
563
100
AcDbXrecord
280
     1
102
MATERIAL
148
0.0
149
0.0
149
0.0
 93
        0
 94
       63
282
     0
 72
     0
 77
     0
171
     0
175
     0
179
     0
273
     0
  0
XRECORD
  5
566
102
{ACAD_REACTORS
330
565
102
}
330
565
100
AcDbXrecord
280
     1
102
MATERIAL
148
0.0
149
0.0
149
0.0
 93
        0
 94
       63
282
     0
 72
     0
 77
     0
171
     0
175
     0
179
     0
273
     0
  0
XRECORD
  5
568
102
{ACAD_REACTORS
330
567
102
}
330
567
100
AcDbXrecord
280
     1
102
ACAD_ROUNDTRIP_PRE2007_TABLESTYLE
 90
      512
 91
        0
  1

 92
      512
 93
        0
  2

 94
      512
 95
        0
  3

  0
ENDSEC
  0
EOF
