  0
SECTION
  2
HEADER
  9
$ACADVER
  1
AC1015
  9
$ACADMAINTVER
 70
     6
  9
$DWGCODEPAGE
  3
ANSI_1252
  9
$INSBASE
 10
0.0
 20
0.0
 30
0.0
  9
$EXTMIN
 10
169.21167
 20
226.809185
 30
0.0
  9
$EXTMAX
 10
886.8777970080557
 20
687.6859808631291
 30
0.0
  9
$LIMMIN
 10
0.0
 20
0.0
  9
$LIMMAX
 10
420.0
 20
297.0
  9
$ORTHOMODE
 70
     0
  9
$REGENMODE
 70
     1
  9
$FILLMODE
 70
     1
  9
$QTEXTMODE
 70
     0
  9
$MIRRTEXT
 70
     1
  9
$LTSCALE
 40
1.0
  9
$ATTMODE
 70
     1
  9
$TEXTSIZE
 40
2.5
  9
$TRACEWID
 40
1.0
  9
$TEXTSTYLE
  7
Standard
  9
$CLAYER
  8
0
  9
$CELTYPE
  6
ByLayer
  9
$CECOLOR
 62
   256
  9
$CELTSCALE
 40
1.0
  9
$DISPSILH
 70
     0
  9
$DIMSCALE
 40
1.0
  9
$DIMASZ
 40
2.5
  9
$DIMEXO
 40
0.625
  9
$DIMDLI
 40
3.75
  9
$DIMRND
 40
0.0
  9
$DIMDLE
 40
0.0
  9
$DIMEXE
 40
1.25
  9
$DIMTP
 40
0.0
  9
$DIMTM
 40
0.0
  9
$DIMTXT
 40
2.5
  9
$DIMCEN
 40
2.5
  9
$DIMTSZ
 40
0.0
  9
$DIMTOL
 70
     0
  9
$DIMLIM
 70
     0
  9
$DIMTIH
 70
     0
  9
$DIMTOH
 70
     0
  9
$DIMSE1
 70
     0
  9
$DIMSE2
 70
     0
  9
$DIMTAD
 70
     1
  9
$DIMZIN
 70
     8
  9
$DIMBLK
  1

  9
$DIMASO
 70
     1
  9
$DIMSHO
 70
     1
  9
$DIMPOST
  1

  9
$DIMAPOST
  1

  9
$DIMALT
 70
     0
  9
$DIMALTD
 70
     3
  9
$DIMALTF
 40
0.03937
  9
$DIMLFAC
 40
1.0
  9
$DIMTOFL
 70
     1
  9
$DIMTVP
 40
0.0
  9
$DIMTIX
 70
     0
  9
$DIMSOXD
 70
     0
  9
$DIMSAH
 70
     0
  9
$DIMBLK1
  1

  9
$DIMBLK2
  1

  9
$DIMSTYLE
  2
Standard
  9
$DIMCLRD
 70
     0
  9
$DIMCLRE
 70
     0
  9
$DIMCLRT
 70
     0
  9
$DIMTFAC
 40
1.0
  9
$DIMGAP
 40
0.625
  9
$DIMJUST
 70
     0
  9
$DIMSD1
 70
     0
  9
$DIMSD2
 70
     0
  9
$DIMTOLJ
 70
     0
  9
$DIMTZIN
 70
     8
  9
$DIMALTZ
 70
     0
  9
$DIMALTTZ
 70
     0
  9
$DIMUPT
 70
     0
  9
$DIMDEC
 70
     2
  9
$DIMTDEC
 70
     2
  9
$DIMALTU
 70
     2
  9
$DIMALTTD
 70
     3
  9
$DIMTXSTY
  7
Standard
  9
$DIMAUNIT
 70
     0
  9
$DIMADEC
 70
     0
  9
$DIMALTRND
 40
0.0
  9
$DIMAZIN
 70
     0
  9
$DIMDSEP
 70
    44
  9
$DIMATFIT
 70
     0
  9
$DIMFRAC
 70
     0
  9
$DIMLDRBLK
  1

  9
$DIMLUNIT
 70
     2
  9
$DIMLWD
 70
    -2
  9
$DIMLWE
 70
    -2
  9
$DIMTMOVE
 70
     0
  9
$LUNITS
 70
     2
  9
$LUPREC
 70
     4
  9
$SKETCHINC
 40
1.0
  9
$FILLETRAD
 40
2.5
  9
$AUNITS
 70
     0
  9
$AUPREC
 70
     0
  9
$MENU
  1
.
  9
$ELEVATION
 40
0.0
  9
$PELEVATION
 40
0.0
  9
$THICKNESS
 40
0.0
  9
$LIMCHECK
 70
     0
  9
$CHAMFERA
 40
2.5
  9
$CHAMFERB
 40
2.5
  9
$CHAMFERC
 40
0.0
  9
$CHAMFERD
 40
0.0
  9
$SKPOLY
 70
     0
  9
$TDCREATE
 40
2447893.041666644
  9
$TDUCREATE
 40
2447892.999999977
  9
$TDUPDATE
 40
2447893.041666667
  9
$TDUUPDATE
 40
2447893.0
  9
$TDINDWG
 40
0.0028587963
  9
$TDUSRTIMER
 40
0.0028587963
  9
$USRTIMER
 70
     1
  9
$ANGBASE
 50
0.0
  9
$ANGDIR
 70
     0
  9
$PDMODE
 70
     0
  9
$PDSIZE
 40
0.0
  9
$PLINEWID
 40
0.0
  9
$SPLFRAME
 70
     0
  9
$SPLINETYPE
 70
     6
  9
$SPLINESEGS
 70
     8
  9
$HANDSEED
  5
3BD
  9
$SURFTAB1
 70
     6
  9
$SURFTAB2
 70
     6
  9
$SURFTYPE
 70
     6
  9
$SURFU
 70
     6
  9
$SURFV
 70
     6
  9
$UCSBASE
  2

  9
$UCSNAME
  2

  9
$UCSORG
 10
0.0
 20
0.0
 30
0.0
  9
$UCSXDIR
 10
1.0
 20
0.0
 30
0.0
  9
$UCSYDIR
 10
0.0
 20
1.0
 30
0.0
  9
$UCSORTHOREF
  2

  9
$UCSORTHOVIEW
 70
     0
  9
$UCSORGTOP
 10
0.0
 20
0.0
 30
0.0
  9
$UCSORGBOTTOM
 10
0.0
 20
0.0
 30
0.0
  9
$UCSORGLEFT
 10
0.0
 20
0.0
 30
0.0
  9
$UCSORGRIGHT
 10
0.0
 20
0.0
 30
0.0
  9
$UCSORGFRONT
 10
0.0
 20
0.0
 30
0.0
  9
$UCSORGBACK
 10
0.0
 20
0.0
 30
0.0
  9
$PUCSBASE
  2

  9
$PUCSNAME
  2

  9
$PUCSORG
 10
0.0
 20
0.0
 30
0.0
  9
$PUCSXDIR
 10
1.0
 20
0.0
 30
0.0
  9
$PUCSYDIR
 10
0.0
 20
1.0
 30
0.0
  9
$PUCSORTHOREF
  2

  9
$PUCSORTHOVIEW
 70
     0
  9
$PUCSORGTOP
 10
0.0
 20
0.0
 30
0.0
  9
$PUCSORGBOTTOM
 10
0.0
 20
0.0
 30
0.0
  9
$PUCSORGLEFT
 10
0.0
 20
0.0
 30
0.0
  9
$PUCSORGRIGHT
 10
0.0
 20
0.0
 30
0.0
  9
$PUCSORGFRONT
 10
0.0
 20
0.0
 30
0.0
  9
$PUCSORGBACK
 10
0.0
 20
0.0
 30
0.0
  9
$USERI1
 70
     0
  9
$USERI2
 70
     0
  9
$USERI3
 70
     0
  9
$USERI4
 70
     0
  9
$USERI5
 70
     0
  9
$USERR1
 40
0.0
  9
$USERR2
 40
0.0
  9
$USERR3
 40
0.0
  9
$USERR4
 40
0.0
  9
$USERR5
 40
0.0
  9
$WORLDVIEW
 70
     1
  9
$SHADEDGE
 70
     3
  9
$SHADEDIF
 70
    70
  9
$TILEMODE
 70
     1
  9
$MAXACTVP
 70
    48
  9
$PINSBASE
 10
0.0
 20
0.0
 30
0.0
  9
$PLIMCHECK
 70
     0
  9
$PEXTMIN
 10
0.0
 20
0.0
 30
0.0
  9
$PEXTMAX
 10
1189.0
 20
841.0
 30
2.0
  9
$PLIMMIN
 10
0.0
 20
0.0
  9
$PLIMMAX
 10
420.0
 20
297.0
  9
$UNITMODE
 70
     0
  9
$VISRETAIN
 70
     0
  9
$PLINEGEN
 70
     0
  9
$PSLTSCALE
 70
     1
  9
$TREEDEPTH
 70
  3020
  9
$CMLSTYLE
  2
Standard
  9
$CMLJUST
 70
     0
  9
$CMLSCALE
 40
20.0
  9
$PROXYGRAPHICS
 70
     1
  9
$MEASUREMENT
 70
     1
  9
$CELWEIGHT
370
    -1
  9
$ENDCAPS
280
     0
  9
$JOINSTYLE
280
     0
  9
$LWDISPLAY
290
     0
  9
$INSUNITS
 70
     0
  9
$HYPERLINKBASE
  1

  9
$STYLESHEET
  1

  9
$XEDIT
290
     1
  9
$CEPSNTYPE
380
     0
  9
$PSTYLEMODE
290
     0
  9
$FINGERPRINTGUID
  2

  9
$VERSIONGUID
  2

  9
$EXTNAMES
290
     0
  9
$PSVPSCALE
 40
0.0
  9
$OLESTARTUP
290
     0
  0
ENDSEC
  0
SECTION
  2
CLASSES
  0
CLASS
  1
ACDBDICTIONARYWDFLT
  2
AcDbDictionaryWithDefault
  3
ObjectDBX Classes
 90
        0
280
     0
281
     0
  0
CLASS
  1
ACDBPLACEHOLDER
  2
AcDbPlaceHolder
  3
ObjectDBX Classes
 90
        0
280
     0
281
     0
  0
CLASS
  1
LAYOUT
  2
AcDbLayout
  3
ObjectDBX Classes
 90
        0
280
     0
281
     0
  0
CLASS
  1
DICTIONARYVAR
  2
AcDbDictionaryVar
  3
ObjectDBX Classes
 90
        0
280
     0
281
     0
  0
CLASS
  1
TABLESTYLE
  2
AcDbTableStyle
  3
ObjectDBX Classes
 90
     4095
280
     0
281
     0
  0
CLASS
  1
SCALE
  2
AcDbScale
  3
ObjectDBX Classes
 90
     1153
280
     0
281
     0
  0
CLASS
  1
WIPEOUTVARIABLES
  2
AcDbWipeoutVariables
  3
WipeOut|AutoCAD Express Tool|expresstools@autodesk.com
 90
        0
280
     0
281
     0
  0
ENDSEC
  0
SECTION
  2
TABLES
  0
TABLE
  2
VPORT
  5
8
330
0
100
AcDbSymbolTable
 70
     2
  0
VPORT
  5
97
330
8
100
AcDbSymbolTableRecord
100
AcDbViewportTableRecord
  2
*ACTIVE
 70
     0
 10
0.0
 20
0.0
 11
1.0
 21
1.0
 12
546.1339983782492
 22
449.9800826787731
 13
0.0
 23
0.0
 14
1.0
 24
1.0
 15
0.5
 25
0.5
 16
0.0
 26
0.0
 36
1.0
 17
0.0
 27
0.0
 37
0.0
 40
993.7732295271898
 41
0.688564
 42
50.0
 43
0.0
 44
0.0
 50
0.0
 51
0.0
 71
     0
 72
   100
 73
     1
 74
     1
 75
     0
 76
     0
 77
     0
 78
     0
281
     0
 65
     1
110
0.0
120
0.0
130
0.0
111
1.0
121
0.0
131
0.0
112
0.0
122
1.0
132
0.0
 79
     0
146
0.0
  0
ENDTAB
  0
TABLE
  2
LTYPE
  5
5
330
0
100
AcDbSymbolTable
 70
     1
  0
LTYPE
  5
14
330
5
100
AcDbSymbolTableRecord
100
AcDbLinetypeTableRecord
  2
ByBlock
 70
     0
  3

 72
    65
 73
     0
 40
0.0
  0
LTYPE
  5
15
330
5
100
AcDbSymbolTableRecord
100
AcDbLinetypeTableRecord
  2
ByLayer
 70
     0
  3

 72
    65
 73
     0
 40
0.0
  0
LTYPE
  5
16
330
5
100
AcDbSymbolTableRecord
100
AcDbLinetypeTableRecord
  2
Continuous
 70
     0
  3
Solid line
 72
    65
 73
     0
 40
0.0
  0
ENDTAB
  0
TABLE
  2
LAYER
  5
2
330
0
100
AcDbSymbolTable
 70
     2
  0
LAYER
  5
10
330
2
100
AcDbSymbolTableRecord
100
AcDbLayerTableRecord
  2
0
 70
     0
 62
     7
  6
Continuous
370
    13
390
F
  0
LAYER
  5
292
330
2
100
AcDbSymbolTableRecord
100
AcDbLayerTableRecord
  2
DEFPOINTS
 70
     0
 62
     7
  6
Continuous
290
     0
370
    -3
390
F
  0
ENDTAB
  0
TABLE
  2
STYLE
  5
3
330
0
100
AcDbSymbolTable
 70
     2
  0
STYLE
  5
11
330
3
100
AcDbSymbolTableRecord
100
AcDbTextStyleTableRecord
  2
Standard
 70
     0
 40
0.0
 41
1.0
 50
0.0
 71
     0
 42
0.2
  3
isocp.shx
  4

  0
STYLE
  5
24
330
3
100
AcDbSymbolTableRecord
100
AcDbTextStyleTableRecord
  2
GDT
 70
     0
 40
0.0
 41
1.0
 50
0.0
 71
     0
 42
0.2
  3
gdt.shx
  4

  0
ENDTAB
  0
TABLE
  2
VIEW
  5
6
330
0
100
AcDbSymbolTable
 70
     0
  0
ENDTAB
  0
TABLE
  2
UCS
  5
7
330
0
100
AcDbSymbolTable
 70
     0
  0
ENDTAB
  0
TABLE
  2
APPID
  5
9
330
0
100
AcDbSymbolTable
 70
     3
  0
APPID
  5
12
330
9
100
AcDbSymbolTableRecord
100
AcDbRegAppTableRecord
  2
ACAD
 70
     0
  0
APPID
  5
307
330
9
100
AcDbSymbolTableRecord
100
AcDbRegAppTableRecord
  2
Conv5506CA
 70
     0
  0
APPID
  5
308
330
9
100
AcDbSymbolTableRecord
100
AcDbRegAppTableRecord
  2
PROGE_PRINT_SETTINGS
 70
     0
  0
ENDTAB
  0
TABLE
  2
DIMSTYLE
  5
A
330
0
100
AcDbSymbolTable
 70
     1
100
AcDbDimStyleTable
  0
DIMSTYLE
105
27
102
{ACAD_REACTORS
330
293
330
2B5
330
2D7
102
}
330
A
100
AcDbSymbolTableRecord
100
AcDbDimStyleTableRecord
  2
Standard
 70
     0
 41
2.5
 42
0.625
 43
3.75
 44
1.25
 73
     0
 74
     0
 77
     1
 78
     8
140
2.5
141
2.5
143
0.03937
147
0.625
171
     3
172
     1
271
     2
272
     2
274
     3
278
    44
283
     0
284
     8
289
     0
340
11
  0
ENDTAB
  0
TABLE
  2
BLOCK_RECORD
  5
1
330
0
100
AcDbSymbolTable
 70
    70
  0
BLOCK_RECORD
  5
1F
330
1
100
AcDbSymbolTableRecord
100
AcDbBlockTableRecord
  2
*Model_Space
340
22
  0
BLOCK_RECORD
  5
73
330
1
100
AcDbSymbolTableRecord
100
AcDbBlockTableRecord
  2
*Paper_Space
340
74
  0
BLOCK_RECORD
  5
79
330
1
100
AcDbSymbolTableRecord
100
AcDbBlockTableRecord
  2
BLOCK1
340
0
  0
BLOCK_RECORD
  5
7A
330
1
100
AcDbSymbolTableRecord
100
AcDbBlockTableRecord
  2
BLOCK2
340
0
  0
BLOCK_RECORD
  5
7B
330
1
100
AcDbSymbolTableRecord
100
AcDbBlockTableRecord
  2
BLOCK3
340
0
  0
BLOCK_RECORD
  5
7C
330
1
100
AcDbSymbolTableRecord
100
AcDbBlockTableRecord
  2
BLOCK4
340
0
  0
BLOCK_RECORD
  5
7D
330
1
100
AcDbSymbolTableRecord
100
AcDbBlockTableRecord
  2
BLOCK5
340
0
  0
BLOCK_RECORD
  5
7E
330
1
100
AcDbSymbolTableRecord
100
AcDbBlockTableRecord
  2
BLOCK6
340
0
  0
BLOCK_RECORD
  5
7F
330
1
100
AcDbSymbolTableRecord
100
AcDbBlockTableRecord
  2
BLOCK7
340
0
  0
BLOCK_RECORD
  5
80
330
1
100
AcDbSymbolTableRecord
100
AcDbBlockTableRecord
  2
BLOCK8
340
0
  0
BLOCK_RECORD
  5
81
330
1
100
AcDbSymbolTableRecord
100
AcDbBlockTableRecord
  2
BLOCK9
340
0
  0
BLOCK_RECORD
  5
82
330
1
100
AcDbSymbolTableRecord
100
AcDbBlockTableRecord
  2
BLOCK10
340
0
  0
BLOCK_RECORD
  5
83
330
1
100
AcDbSymbolTableRecord
100
AcDbBlockTableRecord
  2
BLOCK11
340
0
  0
BLOCK_RECORD
  5
84
330
1
100
AcDbSymbolTableRecord
100
AcDbBlockTableRecord
  2
BLOCK12
340
0
  0
BLOCK_RECORD
  5
85
330
1
100
AcDbSymbolTableRecord
100
AcDbBlockTableRecord
  2
BLOCK13
340
0
  0
BLOCK_RECORD
  5
86
330
1
100
AcDbSymbolTableRecord
100
AcDbBlockTableRecord
  2
BLOCK14
340
0
  0
BLOCK_RECORD
  5
87
330
1
100
AcDbSymbolTableRecord
100
AcDbBlockTableRecord
  2
BLOCK15
340
0
  0
BLOCK_RECORD
  5
88
330
1
100
AcDbSymbolTableRecord
100
AcDbBlockTableRecord
  2
BLOCK16
340
0
  0
BLOCK_RECORD
  5
89
330
1
100
AcDbSymbolTableRecord
100
AcDbBlockTableRecord
  2
BLOCK17
340
0
  0
BLOCK_RECORD
  5
8A
330
1
100
AcDbSymbolTableRecord
100
AcDbBlockTableRecord
  2
BLOCK18
340
0
  0
BLOCK_RECORD
  5
8B
330
1
100
AcDbSymbolTableRecord
100
AcDbBlockTableRecord
  2
BLOCK19
340
0
  0
BLOCK_RECORD
  5
8C
330
1
100
AcDbSymbolTableRecord
100
AcDbBlockTableRecord
  2
BLOCK20
340
0
  0
BLOCK_RECORD
  5
8D
330
1
100
AcDbSymbolTableRecord
100
AcDbBlockTableRecord
  2
BLOCK21
340
0
  0
BLOCK_RECORD
  5
8E
330
1
100
AcDbSymbolTableRecord
100
AcDbBlockTableRecord
  2
BLOCK22
340
0
  0
BLOCK_RECORD
  5
8F
330
1
100
AcDbSymbolTableRecord
100
AcDbBlockTableRecord
  2
BLOCK23
340
0
  0
BLOCK_RECORD
  5
90
330
1
100
AcDbSymbolTableRecord
100
AcDbBlockTableRecord
  2
BLOCK24
340
0
  0
BLOCK_RECORD
  5
91
330
1
100
AcDbSymbolTableRecord
100
AcDbBlockTableRecord
  2
BLOCK25
340
0
  0
BLOCK_RECORD
  5
33C
330
1
100
AcDbSymbolTableRecord
100
AcDbBlockTableRecord
  2
BLOCK26
340
0
  0
BLOCK_RECORD
  5
33F
330
1
100
AcDbSymbolTableRecord
100
AcDbBlockTableRecord
  2
BLOCK27
340
0
  0
BLOCK_RECORD
  5
94
330
1
100
AcDbSymbolTableRecord
100
AcDbBlockTableRecord
  2
BLOCK28
340
0
  0
BLOCK_RECORD
  5
95
330
1
100
AcDbSymbolTableRecord
100
AcDbBlockTableRecord
  2
BLOCK29
340
0
  0
BLOCK_RECORD
  5
96
330
1
100
AcDbSymbolTableRecord
100
AcDbBlockTableRecord
  2
BLOCK30
340
0
  0
BLOCK_RECORD
  5
348
330
1
100
AcDbSymbolTableRecord
100
AcDbBlockTableRecord
  2
BLOCK31
340
0
  0
BLOCK_RECORD
  5
34B
330
1
100
AcDbSymbolTableRecord
100
AcDbBlockTableRecord
  2
BLOCK32
340
0
  0
BLOCK_RECORD
  5
34E
330
1
100
AcDbSymbolTableRecord
100
AcDbBlockTableRecord
  2
BLOCK33
340
0
  0
BLOCK_RECORD
  5
351
330
1
100
AcDbSymbolTableRecord
100
AcDbBlockTableRecord
  2
BLOCK34
340
0
  0
BLOCK_RECORD
  5
354
330
1
100
AcDbSymbolTableRecord
100
AcDbBlockTableRecord
  2
BLOCK35
340
0
  0
BLOCK_RECORD
  5
357
330
1
100
AcDbSymbolTableRecord
100
AcDbBlockTableRecord
  2
BLOCK36
340
0
  0
BLOCK_RECORD
  5
35A
330
1
100
AcDbSymbolTableRecord
100
AcDbBlockTableRecord
  2
BLOCK37
340
0
  0
BLOCK_RECORD
  5
35D
330
1
100
AcDbSymbolTableRecord
100
AcDbBlockTableRecord
  2
BLOCK38
340
0
  0
BLOCK_RECORD
  5
360
330
1
100
AcDbSymbolTableRecord
100
AcDbBlockTableRecord
  2
BLOCK39
340
0
  0
BLOCK_RECORD
  5
363
330
1
100
AcDbSymbolTableRecord
100
AcDbBlockTableRecord
  2
BLOCK40
340
0
  0
BLOCK_RECORD
  5
366
330
1
100
AcDbSymbolTableRecord
100
AcDbBlockTableRecord
  2
BLOCK41
340
0
  0
BLOCK_RECORD
  5
369
330
1
100
AcDbSymbolTableRecord
100
AcDbBlockTableRecord
  2
BLOCK42
340
0
  0
BLOCK_RECORD
  5
36C
330
1
100
AcDbSymbolTableRecord
100
AcDbBlockTableRecord
  2
BLOCK43
340
0
  0
BLOCK_RECORD
  5
36F
330
1
100
AcDbSymbolTableRecord
100
AcDbBlockTableRecord
  2
BLOCK44
340
0
  0
BLOCK_RECORD
  5
372
330
1
100
AcDbSymbolTableRecord
100
AcDbBlockTableRecord
  2
BLOCK45
340
0
  0
BLOCK_RECORD
  5
375
330
1
100
AcDbSymbolTableRecord
100
AcDbBlockTableRecord
  2
BLOCK46
340
0
  0
BLOCK_RECORD
  5
378
330
1
100
AcDbSymbolTableRecord
100
AcDbBlockTableRecord
  2
BLOCK47
340
0
  0
BLOCK_RECORD
  5
37B
330
1
100
AcDbSymbolTableRecord
100
AcDbBlockTableRecord
  2
BLOCK48
340
0
  0
BLOCK_RECORD
  5
37E
330
1
100
AcDbSymbolTableRecord
100
AcDbBlockTableRecord
  2
BLOCK49
340
0
  0
BLOCK_RECORD
  5
381
330
1
100
AcDbSymbolTableRecord
100
AcDbBlockTableRecord
  2
BLOCK50
340
0
  0
BLOCK_RECORD
  5
384
330
1
100
AcDbSymbolTableRecord
100
AcDbBlockTableRecord
  2
BLOCK51
340
0
  0
BLOCK_RECORD
  5
387
330
1
100
AcDbSymbolTableRecord
100
AcDbBlockTableRecord
  2
BLOCK52
340
0
  0
BLOCK_RECORD
  5
38A
330
1
100
AcDbSymbolTableRecord
100
AcDbBlockTableRecord
  2
BLOCK53
340
0
  0
BLOCK_RECORD
  5
38D
330
1
100
AcDbSymbolTableRecord
100
AcDbBlockTableRecord
  2
BLOCK54
340
0
  0
BLOCK_RECORD
  5
390
330
1
100
AcDbSymbolTableRecord
100
AcDbBlockTableRecord
  2
BLOCK55
340
0
  0
BLOCK_RECORD
  5
393
330
1
100
AcDbSymbolTableRecord
100
AcDbBlockTableRecord
  2
BLOCK56
340
0
  0
BLOCK_RECORD
  5
396
330
1
100
AcDbSymbolTableRecord
100
AcDbBlockTableRecord
  2
BLOCK57
340
0
  0
BLOCK_RECORD
  5
399
330
1
100
AcDbSymbolTableRecord
100
AcDbBlockTableRecord
  2
BLOCK58
340
0
  0
BLOCK_RECORD
  5
39C
330
1
100
AcDbSymbolTableRecord
100
AcDbBlockTableRecord
  2
BLOCK59
340
0
  0
BLOCK_RECORD
  5
39F
330
1
100
AcDbSymbolTableRecord
100
AcDbBlockTableRecord
  2
BLOCK60
340
0
  0
BLOCK_RECORD
  5
29E
330
1
100
AcDbSymbolTableRecord
100
AcDbBlockTableRecord
  2
*D60
340
0
  0
BLOCK_RECORD
  5
2A9
330
1
100
AcDbSymbolTableRecord
100
AcDbBlockTableRecord
  2
*D61
340
0
  0
BLOCK_RECORD
  5
2B4
330
1
100
AcDbSymbolTableRecord
100
AcDbBlockTableRecord
  2
*D62
340
0
  0
BLOCK_RECORD
  5
2C0
330
1
100
AcDbSymbolTableRecord
100
AcDbBlockTableRecord
  2
*D63
340
0
  0
BLOCK_RECORD
  5
2CB
330
1
100
AcDbSymbolTableRecord
100
AcDbBlockTableRecord
  2
*D64
340
0
  0
BLOCK_RECORD
  5
2D6
330
1
100
AcDbSymbolTableRecord
100
AcDbBlockTableRecord
  2
*D65
340
0
  0
BLOCK_RECORD
  5
2E2
330
1
100
AcDbSymbolTableRecord
100
AcDbBlockTableRecord
  2
*D66
340
0
  0
BLOCK_RECORD
  5
2EE
330
1
100
AcDbSymbolTableRecord
100
AcDbBlockTableRecord
  2
*D67
340
0
  0
BLOCK_RECORD
  5
2F9
330
1
100
AcDbSymbolTableRecord
100
AcDbBlockTableRecord
  2
*D68
340
0
  0
BLOCK_RECORD
  5
305
330
1
100
AcDbSymbolTableRecord
100
AcDbBlockTableRecord
  2
*D69
340
0
  0
ENDTAB
  0
ENDSEC
  0
SECTION
  2
BLOCKS
  0
BLOCK
  5
20
330
1F
100
AcDbEntity
  8
0
100
AcDbBlockBegin
  2
*Model_Space
 70
     0
 10
0.0
 20
0.0
 30
0.0
  3
*Model_Space
  1

  0
ENDBLK
  5
21
330
1F
100
AcDbEntity
  8
0
100
AcDbBlockEnd
  0
BLOCK
  5
75
330
73
100
AcDbEntity
 67
     1
  8
0
100
AcDbBlockBegin
  2
*Paper_Space
 70
     0
 10
0.0
 20
0.0
 30
0.0
  3
*Paper_Space
  1

  0
ENDBLK
  5
76
330
73
100
AcDbEntity
 67
     1
  8
0
100
AcDbBlockEnd
  0
BLOCK
  5
30A
330
79
100
AcDbEntity
  8
0
100
AcDbBlockBegin
  2
BLOCK1
 70
     0
 10
0.0
 20
0.0
 30
0.0
  3
BLOCK1
  1

  0
TEXT
  5
3B6
330
79
100
AcDbEntity
  8
0
 62
     7
370
    13
390
F
100
AcDbText
 10
16.632565
 20
49.766666
 30
0.0
 40
2.0
  1
L
 41
1.577154545454546
 72
     5
 11
18.367435
 21
49.766666
 31
0.0
100
AcDbText
  0
ENDBLK
  5
30B
330
79
100
AcDbEntity
  8
0
100
AcDbBlockEnd
  0
BLOCK
  5
30C
330
7A
100
AcDbEntity
  8
0
100
AcDbBlockBegin
  2
BLOCK2
 70
     0
 10
0.0
 20
0.0
 30
0.0
  3
BLOCK2
  1

  0
TEXT
  5
3B7
330
7A
100
AcDbEntity
  8
0
 62
     7
370
    70
390
F
100
AcDbText
 10
16.766666
 20
131.666672
 30
0.0
 40
2.0
  1
I
 41
4.888893333333328
 72
     5
 11
18.233334
 21
131.666672
 31
0.0
100
AcDbText
  0
ENDBLK
  5
30D
330
7A
100
AcDbEntity
  8
0
100
AcDbBlockEnd
  0
BLOCK
  5
30E
330
7B
100
AcDbEntity
  8
0
100
AcDbBlockBegin
  2
BLOCK3
 70
     0
 10
0.0
 20
0.0
 30
0.0
  3
BLOCK3
  1

  0
TEXT
  5
BC
330
7B
100
AcDbEntity
  8
0
 62
     7
370
    13
390
F
100
AcDbText
 10
16.632565
 20
213.566666
 30
0.0
 40
2.0
  1
H
 41
1.334515384615385
 72
     5
 11
18.367435
 21
213.566666
 31
0.0
100
AcDbText
  0
ENDBLK
  5
30F
330
7B
100
AcDbEntity
  8
0
100
AcDbBlockEnd
  0
BLOCK
  5
310
330
7C
100
AcDbEntity
  8
0
100
AcDbBlockBegin
  2
BLOCK4
 70
     0
 10
0.0
 20
0.0
 30
0.0
  3
BLOCK4
  1

  0
TEXT
  5
BF
330
7C
100
AcDbEntity
  8
0
 62
     7
370
    13
390
F
100
AcDbText
 10
16.632565
 20
295.466675
 30
0.0
 40
2.0
  1
G
 41
1.334515384615385
 72
     5
 11
18.367435
 21
295.466675
 31
0.0
100
AcDbText
  0
ENDBLK
  5
311
330
7C
100
AcDbEntity
  8
0
100
AcDbBlockEnd
  0
BLOCK
  5
312
330
7D
100
AcDbEntity
  8
0
100
AcDbBlockBegin
  2
BLOCK5
 70
     0
 10
0.0
 20
0.0
 30
0.0
  3
BLOCK5
  1

  0
TEXT
  5
C2
330
7D
100
AcDbEntity
  8
0
 62
     7
370
    13
390
F
100
AcDbText
 10
16.632565
 20
377.366669
 30
0.0
 40
2.0
  1
F
 41
1.577154545454546
 72
     5
 11
18.367435
 21
377.366669
 31
0.0
100
AcDbText
  0
ENDBLK
  5
313
330
7D
100
AcDbEntity
  8
0
100
AcDbBlockEnd
  0
BLOCK
  5
314
330
7E
100
AcDbEntity
  8
0
100
AcDbBlockBegin
  2
BLOCK6
 70
     0
 10
0.0
 20
0.0
 30
0.0
  3
BLOCK6
  1

  0
TEXT
  5
C5
330
7E
100
AcDbEntity
  8
0
 62
     7
370
    13
390
F
100
AcDbText
 10
16.632565
 20
459.266663
 30
0.0
 40
2.0
  1
E
 41
1.577154545454546
 72
     5
 11
18.367435
 21
459.266663
 31
0.0
100
AcDbText
  0
ENDBLK
  5
315
330
7E
100
AcDbEntity
  8
0
100
AcDbBlockEnd
  0
BLOCK
  5
316
330
7F
100
AcDbEntity
  8
0
100
AcDbBlockBegin
  2
BLOCK7
 70
     0
 10
0.0
 20
0.0
 30
0.0
  3
BLOCK7
  1

  0
TEXT
  5
C8
330
7F
100
AcDbEntity
  8
0
 62
     7
370
    13
390
F
100
AcDbText
 10
16.632565
 20
541.166687
 30
0.0
 40
2.0
  1
D
 41
1.334515384615385
 72
     5
 11
18.367435
 21
541.166687
 31
0.0
100
AcDbText
  0
ENDBLK
  5
317
330
7F
100
AcDbEntity
  8
0
100
AcDbBlockEnd
  0
BLOCK
  5
318
330
80
100
AcDbEntity
  8
0
100
AcDbBlockBegin
  2
BLOCK8
 70
     0
 10
0.0
 20
0.0
 30
0.0
  3
BLOCK8
  1

  0
TEXT
  5
CB
330
80
100
AcDbEntity
  8
0
 62
     7
370
    13
390
F
100
AcDbText
 10
16.632565
 20
623.06665
 30
0.0
 40
2.0
  1
C
 41
1.577154545454546
 72
     5
 11
18.367435
 21
623.06665
 31
0.0
100
AcDbText
  0
ENDBLK
  5
319
330
80
100
AcDbEntity
  8
0
100
AcDbBlockEnd
  0
BLOCK
  5
31A
330
81
100
AcDbEntity
  8
0
100
AcDbBlockBegin
  2
BLOCK9
 70
     0
 10
0.0
 20
0.0
 30
0.0
  3
BLOCK9
  1

  0
TEXT
  5
CE
330
81
100
AcDbEntity
  8
0
 62
     7
370
    13
390
F
100
AcDbText
 10
16.632565
 20
704.966675
 30
0.0
 40
2.0
  1
B
 41
1.334515384615385
 72
     5
 11
18.367435
 21
704.966675
 31
0.0
100
AcDbText
  0
ENDBLK
  5
31B
330
81
100
AcDbEntity
  8
0
100
AcDbBlockEnd
  0
BLOCK
  5
31C
330
82
100
AcDbEntity
  8
0
100
AcDbBlockBegin
  2
BLOCK10
 70
     0
 10
0.0
 20
0.0
 30
0.0
  3
BLOCK10
  1

  0
TEXT
  5
D1
330
82
100
AcDbEntity
  8
0
 62
     7
370
    13
390
F
100
AcDbText
 10
16.632565
 20
786.866638
 30
0.0
 40
2.0
  1
A
 41
1.156580000000001
 72
     5
 11
18.367435
 21
786.866638
 31
0.0
100
AcDbText
  0
ENDBLK
  5
31D
330
82
100
AcDbEntity
  8
0
100
AcDbBlockEnd
  0
BLOCK
  5
31E
330
83
100
AcDbEntity
  8
0
100
AcDbBlockBegin
  2
BLOCK11
 70
     0
 10
0.0
 20
0.0
 30
0.0
  3
BLOCK11
  1

  0
TEXT
  5
D4
330
83
100
AcDbEntity
  8
0
 62
     7
370
    13
390
F
100
AcDbText
 10
55.309486
 20
830.5
 30
0.0
 40
2.0
  1
1
 41
2.47838714285714
 72
     5
 11
57.044357
 21
830.5
 31
0.0
100
AcDbText
  0
ENDBLK
  5
31F
330
83
100
AcDbEntity
  8
0
100
AcDbBlockEnd
  0
BLOCK
  5
320
330
84
100
AcDbEntity
  8
0
100
AcDbBlockBegin
  2
BLOCK12
 70
     0
 10
0.0
 20
0.0
 30
0.0
  3
BLOCK12
  1

  0
TEXT
  5
D7
330
84
100
AcDbEntity
  8
0
 62
     7
370
    13
390
F
100
AcDbText
 10
127.746994
 20
830.5
 30
0.0
 40
2.0
  1
2
 41
1.576514355514555
 72
     5
 11
129.481857
 21
830.5
 31
0.0
100
AcDbText
  0
ENDBLK
  5
321
330
84
100
AcDbEntity
  8
0
100
AcDbBlockEnd
  0
BLOCK
  5
322
330
85
100
AcDbEntity
  8
0
100
AcDbBlockBegin
  2
BLOCK13
 70
     0
 10
0.0
 20
0.0
 30
0.0
  3
BLOCK13
  1

  0
TEXT
  5
DA
330
85
100
AcDbEntity
  8
0
 62
     7
370
    13
390
F
100
AcDbText
 10
200.184494
 20
830.5
 30
0.0
 40
2.0
  1
3
 41
1.577148181818173
 72
     5
 11
201.919357
 21
830.5
 31
0.0
100
AcDbText
  0
ENDBLK
  5
323
330
85
100
AcDbEntity
  8
0
100
AcDbBlockEnd
  0
BLOCK
  5
324
330
86
100
AcDbEntity
  8
0
100
AcDbBlockBegin
  2
BLOCK14
 70
     0
 10
0.0
 20
0.0
 30
0.0
  3
BLOCK14
  1

  0
TEXT
  5
DD
330
86
100
AcDbEntity
  8
0
 62
     7
370
    13
390
F
100
AcDbText
 10
272.621979
 20
830.5
 30
0.0
 40
2.0
  1
4
 41
1.33450999999997
 72
     5
 11
274.356842
 21
830.5
 31
0.0
100
AcDbText
  0
ENDBLK
  5
325
330
86
100
AcDbEntity
  8
0
100
AcDbBlockEnd
  0
BLOCK
  5
326
330
87
100
AcDbEntity
  8
0
100
AcDbBlockBegin
  2
BLOCK15
 70
     0
 10
0.0
 20
0.0
 30
0.0
  3
BLOCK15
  1

  0
TEXT
  5
E0
330
87
100
AcDbEntity
  8
0
 62
     7
370
    13
390
F
100
AcDbText
 10
345.059479
 20
830.5
 30
0.0
 40
2.0
  1
5
 41
1.577148181818147
 72
     5
 11
346.794342
 21
830.5
 31
0.0
100
AcDbText
  0
ENDBLK
  5
327
330
87
100
AcDbEntity
  8
0
100
AcDbBlockEnd
  0
BLOCK
  5
328
330
88
100
AcDbEntity
  8
0
100
AcDbBlockBegin
  2
BLOCK16
 70
     0
 10
0.0
 20
0.0
 30
0.0
  3
BLOCK16
  1

  0
TEXT
  5
E3
330
88
100
AcDbEntity
  8
0
 62
     7
370
    13
390
F
100
AcDbText
 10
417.496979
 20
830.5
 30
0.0
 40
2.0
  1
6
 41
1.577148181818147
 72
     5
 11
419.231842
 21
830.5
 31
0.0
100
AcDbText
  0
ENDBLK
  5
329
330
88
100
AcDbEntity
  8
0
100
AcDbBlockEnd
  0
BLOCK
  5
32A
330
89
100
AcDbEntity
  8
0
100
AcDbBlockBegin
  2
BLOCK17
 70
     0
 10
0.0
 20
0.0
 30
0.0
  3
BLOCK17
  1

  0
TEXT
  5
E6
330
89
100
AcDbEntity
  8
0
 62
     7
370
    13
390
F
100
AcDbText
 10
489.934479
 20
830.5
 30
0.0
 40
2.0
  1
7
 41
1.577148181818147
 72
     5
 11
491.669342
 21
830.5
 31
0.0
100
AcDbText
  0
ENDBLK
  5
32B
330
89
100
AcDbEntity
  8
0
100
AcDbBlockEnd
  0
BLOCK
  5
32C
330
8A
100
AcDbEntity
  8
0
100
AcDbBlockBegin
  2
BLOCK18
 70
     0
 10
0.0
 20
0.0
 30
0.0
  3
BLOCK18
  1

  0
TEXT
  5
E9
330
8A
100
AcDbEntity
  8
0
 62
     7
370
    13
390
F
100
AcDbText
 10
562.372009
 20
830.5
 30
0.0
 40
2.0
  1
8
 41
1.577866302864849
 72
     5
 11
564.106873
 21
830.5
 31
0.0
100
AcDbText
  0
ENDBLK
  5
32D
330
8A
100
AcDbEntity
  8
0
100
AcDbBlockEnd
  0
BLOCK
  5
32E
330
8B
100
AcDbEntity
  8
0
100
AcDbBlockBegin
  2
BLOCK19
 70
     0
 10
0.0
 20
0.0
 30
0.0
  3
BLOCK19
  1

  0
TEXT
  5
EC
330
8B
100
AcDbEntity
  8
0
 62
     7
370
    13
390
F
100
AcDbText
 10
634.809509
 20
830.5
 30
0.0
 40
2.0
  1
9
 41
1.567192204525961
 72
     5
 11
636.544373
 21
830.5
 31
0.0
100
AcDbText
  0
ENDBLK
  5
32F
330
8B
100
AcDbEntity
  8
0
100
AcDbBlockEnd
  0
BLOCK
  5
330
330
8C
100
AcDbEntity
  8
0
100
AcDbBlockBegin
  2
BLOCK20
 70
     0
 10
0.0
 20
0.0
 30
0.0
  3
BLOCK20
  1

  0
TEXT
  5
EF
330
8C
100
AcDbEntity
  8
0
 62
     7
370
    13
390
F
100
AcDbText
 10
706.179565
 20
830.5
 30
0.0
 40
2.0
  1
10
 41
1.841357725739954
 72
     5
 11
710.049316
 21
830.5
 31
0.0
100
AcDbText
  0
ENDBLK
  5
331
330
8C
100
AcDbEntity
  8
0
100
AcDbBlockEnd
  0
BLOCK
  5
332
330
8D
100
AcDbEntity
  8
0
100
AcDbBlockBegin
  2
BLOCK21
 70
     0
 10
0.0
 20
0.0
 30
0.0
  3
BLOCK21
  1

  0
TEXT
  5
F2
330
8D
100
AcDbEntity
  8
0
 62
     7
370
    13
390
F
100
AcDbText
 10
778.617065
 20
830.5
 30
0.0
 40
2.0
  1
11
 41
2.27632411764703
 72
     5
 11
782.486816
 21
830.5
 31
0.0
100
AcDbText
  0
ENDBLK
  5
333
330
8D
100
AcDbEntity
  8
0
100
AcDbBlockEnd
  0
BLOCK
  5
334
330
8E
100
AcDbEntity
  8
0
100
AcDbBlockBegin
  2
BLOCK22
 70
     0
 10
0.0
 20
0.0
 30
0.0
  3
BLOCK22
  1

  0
TEXT
  5
F5
330
8E
100
AcDbEntity
  8
0
 62
     7
370
    13
390
F
100
AcDbText
 10
851.054565
 20
830.5
 30
0.0
 40
2.0
  1
12
 41
1.84235058369503
 72
     5
 11
854.924316
 21
830.5
 31
0.0
100
AcDbText
  0
ENDBLK
  5
335
330
8E
100
AcDbEntity
  8
0
100
AcDbBlockEnd
  0
BLOCK
  5
336
330
8F
100
AcDbEntity
  8
0
100
AcDbBlockBegin
  2
BLOCK23
 70
     0
 10
0.0
 20
0.0
 30
0.0
  3
BLOCK23
  1

  0
TEXT
  5
F8
330
8F
100
AcDbEntity
  8
0
 62
     7
370
    13
390
F
100
AcDbText
 10
923.492065
 20
830.5
 30
0.0
 40
2.0
  1
13
 41
1.842738571428548
 72
     5
 11
927.361816
 21
830.5
 31
0.0
100
AcDbText
  0
ENDBLK
  5
337
330
8F
100
AcDbEntity
  8
0
100
AcDbBlockEnd
  0
BLOCK
  5
338
330
90
100
AcDbEntity
  8
0
100
AcDbBlockBegin
  2
BLOCK24
 70
     0
 10
0.0
 20
0.0
 30
0.0
  3
BLOCK24
  1

  0
TEXT
  5
FB
330
90
100
AcDbEntity
  8
0
 62
     7
370
    13
390
F
100
AcDbText
 10
995.929565
 20
830.5
 30
0.0
 40
2.0
  1
14
 41
1.682500434782587
 72
     5
 11
999.799316
 21
830.5
 31
0.0
100
AcDbText
  0
ENDBLK
  5
339
330
90
100
AcDbEntity
  8
0
100
AcDbBlockEnd
  0
BLOCK
  5
33A
330
91
100
AcDbEntity
  8
0
100
AcDbBlockBegin
  2
BLOCK25
 70
     0
 10
0.0
 20
0.0
 30
0.0
  3
BLOCK25
  1

  0
TEXT
  5
FE
330
91
100
AcDbEntity
  8
0
 62
     7
370
    13
390
F
100
AcDbText
 10
1068.367065
 20
830.5
 30
0.0
 40
2.0
  1
15
 41
1.842738571428656
 72
     5
 11
1072.236816
 21
830.5
 31
0.0
100
AcDbText
  0
ENDBLK
  5
33B
330
91
100
AcDbEntity
  8
0
100
AcDbBlockEnd
  0
BLOCK
  5
33D
330
33C
100
AcDbEntity
  8
0
100
AcDbBlockBegin
  2
BLOCK26
 70
     0
 10
0.0
 20
0.0
 30
0.0
  3
BLOCK26
  1

  0
TEXT
  5
101
330
33C
100
AcDbEntity
  8
0
 62
     7
370
    13
390
F
100
AcDbText
 10
1140.804565
 20
830.5
 30
0.0
 40
2.0
  1
16
 41
1.842738571428656
 72
     5
 11
1144.674316
 21
830.5
 31
0.0
100
AcDbText
  0
ENDBLK
  5
33E
330
33C
100
AcDbEntity
  8
0
100
AcDbBlockEnd
  0
BLOCK
  5
340
330
33F
100
AcDbEntity
  8
0
100
AcDbBlockBegin
  2
BLOCK27
 70
     0
 10
0.0
 20
0.0
 30
0.0
  3
BLOCK27
  1

  0
TEXT
  5
104
330
33F
100
AcDbEntity
  8
0
 62
     7
370
    13
390
F
100
AcDbText
 10
1140.804565
 20
6.5
 30
0.0
 40
2.0
  1
16
 41
1.842738571428656
 72
     5
 11
1144.674316
 21
6.5
 31
0.0
100
AcDbText
  0
ENDBLK
  5
341
330
33F
100
AcDbEntity
  8
0
100
AcDbBlockEnd
  0
BLOCK
  5
342
330
94
100
AcDbEntity
  8
0
100
AcDbBlockBegin
  2
BLOCK28
 70
     0
 10
0.0
 20
0.0
 30
0.0
  3
BLOCK28
  1

  0
TEXT
  5
107
330
94
100
AcDbEntity
  8
0
 62
     7
370
    13
390
F
100
AcDbText
 10
1068.367065
 20
6.5
 30
0.0
 40
2.0
  1
15
 41
1.842738571428656
 72
     5
 11
1072.236816
 21
6.5
 31
0.0
100
AcDbText
  0
ENDBLK
  5
343
330
94
100
AcDbEntity
  8
0
100
AcDbBlockEnd
  0
BLOCK
  5
344
330
95
100
AcDbEntity
  8
0
100
AcDbBlockBegin
  2
BLOCK29
 70
     0
 10
0.0
 20
0.0
 30
0.0
  3
BLOCK29
  1

  0
TEXT
  5
10A
330
95
100
AcDbEntity
  8
0
 62
     7
370
    13
390
F
100
AcDbText
 10
995.929565
 20
6.5
 30
0.0
 40
2.0
  1
14
 41
1.682500434782587
 72
     5
 11
999.799316
 21
6.5
 31
0.0
100
AcDbText
  0
ENDBLK
  5
345
330
95
100
AcDbEntity
  8
0
100
AcDbBlockEnd
  0
BLOCK
  5
346
330
96
100
AcDbEntity
  8
0
100
AcDbBlockBegin
  2
BLOCK30
 70
     0
 10
0.0
 20
0.0
 30
0.0
  3
BLOCK30
  1

  0
TEXT
  5
10D
330
96
100
AcDbEntity
  8
0
 62
     7
370
    13
390
F
100
AcDbText
 10
923.492065
 20
6.5
 30
0.0
 40
2.0
  1
13
 41
1.842738571428548
 72
     5
 11
927.361816
 21
6.5
 31
0.0
100
AcDbText
  0
ENDBLK
  5
347
330
96
100
AcDbEntity
  8
0
100
AcDbBlockEnd
  0
BLOCK
  5
349
330
348
100
AcDbEntity
  8
0
100
AcDbBlockBegin
  2
BLOCK31
 70
     0
 10
0.0
 20
0.0
 30
0.0
  3
BLOCK31
  1

  0
TEXT
  5
110
330
348
100
AcDbEntity
  8
0
 62
     7
370
    13
390
F
100
AcDbText
 10
851.054565
 20
6.5
 30
0.0
 40
2.0
  1
12
 41
1.84235058369503
 72
     5
 11
854.924316
 21
6.5
 31
0.0
100
AcDbText
  0
ENDBLK
  5
34A
330
348
100
AcDbEntity
  8
0
100
AcDbBlockEnd
  0
BLOCK
  5
34C
330
34B
100
AcDbEntity
  8
0
100
AcDbBlockBegin
  2
BLOCK32
 70
     0
 10
0.0
 20
0.0
 30
0.0
  3
BLOCK32
  1

  0
TEXT
  5
113
330
34B
100
AcDbEntity
  8
0
 62
     7
370
    13
390
F
100
AcDbText
 10
778.617065
 20
6.5
 30
0.0
 40
2.0
  1
11
 41
2.27632411764703
 72
     5
 11
782.486816
 21
6.5
 31
0.0
100
AcDbText
  0
ENDBLK
  5
34D
330
34B
100
AcDbEntity
  8
0
100
AcDbBlockEnd
  0
BLOCK
  5
34F
330
34E
100
AcDbEntity
  8
0
100
AcDbBlockBegin
  2
BLOCK33
 70
     0
 10
0.0
 20
0.0
 30
0.0
  3
BLOCK33
  1

  0
TEXT
  5
116
330
34E
100
AcDbEntity
  8
0
 62
     7
370
    13
390
F
100
AcDbText
 10
706.179565
 20
6.5
 30
0.0
 40
2.0
  1
10
 41
1.841357725739954
 72
     5
 11
710.049316
 21
6.5
 31
0.0
100
AcDbText
  0
ENDBLK
  5
350
330
34E
100
AcDbEntity
  8
0
100
AcDbBlockEnd
  0
BLOCK
  5
352
330
351
100
AcDbEntity
  8
0
100
AcDbBlockBegin
  2
BLOCK34
 70
     0
 10
0.0
 20
0.0
 30
0.0
  3
BLOCK34
  1

  0
TEXT
  5
119
330
351
100
AcDbEntity
  8
0
 62
     7
370
    13
390
F
100
AcDbText
 10
634.809509
 20
6.5
 30
0.0
 40
2.0
  1
9
 41
1.567192204525961
 72
     5
 11
636.544373
 21
6.5
 31
0.0
100
AcDbText
  0
ENDBLK
  5
353
330
351
100
AcDbEntity
  8
0
100
AcDbBlockEnd
  0
BLOCK
  5
355
330
354
100
AcDbEntity
  8
0
100
AcDbBlockBegin
  2
BLOCK35
 70
     0
 10
0.0
 20
0.0
 30
0.0
  3
BLOCK35
  1

  0
TEXT
  5
11C
330
354
100
AcDbEntity
  8
0
 62
     7
370
    13
390
F
100
AcDbText
 10
562.372009
 20
6.5
 30
0.0
 40
2.0
  1
8
 41
1.577866302864849
 72
     5
 11
564.106873
 21
6.5
 31
0.0
100
AcDbText
  0
ENDBLK
  5
356
330
354
100
AcDbEntity
  8
0
100
AcDbBlockEnd
  0
BLOCK
  5
358
330
357
100
AcDbEntity
  8
0
100
AcDbBlockBegin
  2
BLOCK36
 70
     0
 10
0.0
 20
0.0
 30
0.0
  3
BLOCK36
  1

  0
TEXT
  5
11F
330
357
100
AcDbEntity
  8
0
 62
     7
370
    13
390
F
100
AcDbText
 10
489.934479
 20
6.5
 30
0.0
 40
2.0
  1
7
 41
1.577148181818147
 72
     5
 11
491.669342
 21
6.5
 31
0.0
100
AcDbText
  0
ENDBLK
  5
359
330
357
100
AcDbEntity
  8
0
100
AcDbBlockEnd
  0
BLOCK
  5
35B
330
35A
100
AcDbEntity
  8
0
100
AcDbBlockBegin
  2
BLOCK37
 70
     0
 10
0.0
 20
0.0
 30
0.0
  3
BLOCK37
  1

  0
TEXT
  5
122
330
35A
100
AcDbEntity
  8
0
 62
     7
370
    13
390
F
100
AcDbText
 10
417.496979
 20
6.5
 30
0.0
 40
2.0
  1
6
 41
1.577148181818147
 72
     5
 11
419.231842
 21
6.5
 31
0.0
100
AcDbText
  0
ENDBLK
  5
35C
330
35A
100
AcDbEntity
  8
0
100
AcDbBlockEnd
  0
BLOCK
  5
35E
330
35D
100
AcDbEntity
  8
0
100
AcDbBlockBegin
  2
BLOCK38
 70
     0
 10
0.0
 20
0.0
 30
0.0
  3
BLOCK38
  1

  0
TEXT
  5
125
330
35D
100
AcDbEntity
  8
0
 62
     7
370
    13
390
F
100
AcDbText
 10
345.059479
 20
6.5
 30
0.0
 40
2.0
  1
5
 41
1.577148181818147
 72
     5
 11
346.794342
 21
6.5
 31
0.0
100
AcDbText
  0
ENDBLK
  5
35F
330
35D
100
AcDbEntity
  8
0
100
AcDbBlockEnd
  0
BLOCK
  5
361
330
360
100
AcDbEntity
  8
0
100
AcDbBlockBegin
  2
BLOCK39
 70
     0
 10
0.0
 20
0.0
 30
0.0
  3
BLOCK39
  1

  0
TEXT
  5
128
330
360
100
AcDbEntity
  8
0
 62
     7
370
    13
390
F
100
AcDbText
 10
272.621979
 20
6.5
 30
0.0
 40
2.0
  1
4
 41
1.33450999999997
 72
     5
 11
274.356842
 21
6.5
 31
0.0
100
AcDbText
  0
ENDBLK
  5
362
330
360
100
AcDbEntity
  8
0
100
AcDbBlockEnd
  0
BLOCK
  5
364
330
363
100
AcDbEntity
  8
0
100
AcDbBlockBegin
  2
BLOCK40
 70
     0
 10
0.0
 20
0.0
 30
0.0
  3
BLOCK40
  1

  0
TEXT
  5
12B
330
363
100
AcDbEntity
  8
0
 62
     7
370
    13
390
F
100
AcDbText
 10
200.184494
 20
6.5
 30
0.0
 40
2.0
  1
3
 41
1.577148181818173
 72
     5
 11
201.919357
 21
6.5
 31
0.0
100
AcDbText
  0
ENDBLK
  5
365
330
363
100
AcDbEntity
  8
0
100
AcDbBlockEnd
  0
BLOCK
  5
367
330
366
100
AcDbEntity
  8
0
100
AcDbBlockBegin
  2
BLOCK41
 70
     0
 10
0.0
 20
0.0
 30
0.0
  3
BLOCK41
  1

  0
TEXT
  5
12E
330
366
100
AcDbEntity
  8
0
 62
     7
370
    13
390
F
100
AcDbText
 10
127.746994
 20
6.5
 30
0.0
 40
2.0
  1
2
 41
1.576514355514555
 72
     5
 11
129.481857
 21
6.5
 31
0.0
100
AcDbText
  0
ENDBLK
  5
368
330
366
100
AcDbEntity
  8
0
100
AcDbBlockEnd
  0
BLOCK
  5
36A
330
369
100
AcDbEntity
  8
0
100
AcDbBlockBegin
  2
BLOCK42
 70
     0
 10
0.0
 20
0.0
 30
0.0
  3
BLOCK42
  1

  0
TEXT
  5
131
330
369
100
AcDbEntity
  8
0
 62
     7
370
    13
390
F
100
AcDbText
 10
1180.632568
 20
49.766666
 30
0.0
 40
2.0
  1
L
 41
1.577149090909105
 72
     5
 11
1182.367432
 21
49.766666
 31
0.0
100
AcDbText
  0
ENDBLK
  5
36B
330
369
100
AcDbEntity
  8
0
100
AcDbBlockEnd
  0
BLOCK
  5
36D
330
36C
100
AcDbEntity
  8
0
100
AcDbBlockBegin
  2
BLOCK43
 70
     0
 10
0.0
 20
0.0
 30
0.0
  3
BLOCK43
  1

  0
TEXT
  5
134
330
36C
100
AcDbEntity
  8
0
 62
     7
370
    13
390
F
100
AcDbText
 10
1180.632568
 20
131.666672
 30
0.0
 40
2.0
  1
I
 41
5.782880000000052
 72
     5
 11
1182.367432
 21
131.666672
 31
0.0
100
AcDbText
  0
ENDBLK
  5
36E
330
36C
100
AcDbEntity
  8
0
100
AcDbBlockEnd
  0
BLOCK
  5
370
330
36F
100
AcDbEntity
  8
0
100
AcDbBlockBegin
  2
BLOCK44
 70
     0
 10
0.0
 20
0.0
 30
0.0
  3
BLOCK44
  1

  0
TEXT
  5
137
330
36F
100
AcDbEntity
  8
0
 62
     7
370
    13
390
F
100
AcDbText
 10
1180.632568
 20
213.566666
 30
0.0
 40
2.0
  1
H
 41
1.334510769230781
 72
     5
 11
1182.367432
 21
213.566666
 31
0.0
100
AcDbText
  0
ENDBLK
  5
371
330
36F
100
AcDbEntity
  8
0
100
AcDbBlockEnd
  0
BLOCK
  5
373
330
372
100
AcDbEntity
  8
0
100
AcDbBlockBegin
  2
BLOCK45
 70
     0
 10
0.0
 20
0.0
 30
0.0
  3
BLOCK45
  1

  0
TEXT
  5
13A
330
372
100
AcDbEntity
  8
0
 62
     7
370
    13
390
F
100
AcDbText
 10
1180.632568
 20
295.466675
 30
0.0
 40
2.0
  1
G
 41
1.334510769230781
 72
     5
 11
1182.367432
 21
295.466675
 31
0.0
100
AcDbText
  0
ENDBLK
  5
374
330
372
100
AcDbEntity
  8
0
100
AcDbBlockEnd
  0
BLOCK
  5
376
330
375
100
AcDbEntity
  8
0
100
AcDbBlockBegin
  2
BLOCK46
 70
     0
 10
0.0
 20
0.0
 30
0.0
  3
BLOCK46
  1

  0
TEXT
  5
13D
330
375
100
AcDbEntity
  8
0
 62
     7
370
    13
390
F
100
AcDbText
 10
1180.632568
 20
377.366669
 30
0.0
 40
2.0
  1
F
 41
1.577149090909105
 72
     5
 11
1182.367432
 21
377.366669
 31
0.0
100
AcDbText
  0
ENDBLK
  5
377
330
375
100
AcDbEntity
  8
0
100
AcDbBlockEnd
  0
BLOCK
  5
379
330
378
100
AcDbEntity
  8
0
100
AcDbBlockBegin
  2
BLOCK47
 70
     0
 10
0.0
 20
0.0
 30
0.0
  3
BLOCK47
  1

  0
TEXT
  5
140
330
378
100
AcDbEntity
  8
0
 62
     7
370
    13
390
F
100
AcDbText
 10
1180.632568
 20
459.266663
 30
0.0
 40
2.0
  1
E
 41
1.577149090909105
 72
     5
 11
1182.367432
 21
459.266663
 31
0.0
100
AcDbText
  0
ENDBLK
  5
37A
330
378
100
AcDbEntity
  8
0
100
AcDbBlockEnd
  0
BLOCK
  5
37C
330
37B
100
AcDbEntity
  8
0
100
AcDbBlockBegin
  2
BLOCK48
 70
     0
 10
0.0
 20
0.0
 30
0.0
  3
BLOCK48
  1

  0
TEXT
  5
143
330
37B
100
AcDbEntity
  8
0
 62
     7
370
    13
390
F
100
AcDbText
 10
1180.632568
 20
541.166687
 30
0.0
 40
2.0
  1
D
 41
1.334510769230781
 72
     5
 11
1182.367432
 21
541.166687
 31
0.0
100
AcDbText
  0
ENDBLK
  5
37D
330
37B
100
AcDbEntity
  8
0
100
AcDbBlockEnd
  0
BLOCK
  5
37F
330
37E
100
AcDbEntity
  8
0
100
AcDbBlockBegin
  2
BLOCK49
 70
     0
 10
0.0
 20
0.0
 30
0.0
  3
BLOCK49
  1

  0
TEXT
  5
146
330
37E
100
AcDbEntity
  8
0
 62
     7
370
    13
390
F
100
AcDbText
 10
1180.632568
 20
623.06665
 30
0.0
 40
2.0
  1
C
 41
1.577149090909105
 72
     5
 11
1182.367432
 21
623.06665
 31
0.0
100
AcDbText
  0
ENDBLK
  5
380
330
37E
100
AcDbEntity
  8
0
100
AcDbBlockEnd
  0
BLOCK
  5
382
330
381
100
AcDbEntity
  8
0
100
AcDbBlockBegin
  2
BLOCK50
 70
     0
 10
0.0
 20
0.0
 30
0.0
  3
BLOCK50
  1

  0
TEXT
  5
149
330
381
100
AcDbEntity
  8
0
 62
     7
370
    13
390
F
100
AcDbText
 10
1180.632568
 20
704.966675
 30
0.0
 40
2.0
  1
B
 41
1.334510769230781
 72
     5
 11
1182.367432
 21
704.966675
 31
0.0
100
AcDbText
  0
ENDBLK
  5
383
330
381
100
AcDbEntity
  8
0
100
AcDbBlockEnd
  0
BLOCK
  5
385
330
384
100
AcDbEntity
  8
0
100
AcDbBlockBegin
  2
BLOCK51
 70
     0
 10
0.0
 20
0.0
 30
0.0
  3
BLOCK51
  1

  0
TEXT
  5
14C
330
384
100
AcDbEntity
  8
0
 62
     7
370
    13
390
F
100
AcDbText
 10
55.309486
 20
6.5
 30
0.0
 40
2.0
  1
1
 41
2.47838714285714
 72
     5
 11
57.044357
 21
6.5
 31
0.0
100
AcDbText
  0
ENDBLK
  5
386
330
384
100
AcDbEntity
  8
0
100
AcDbBlockEnd
  0
BLOCK
  5
388
330
387
100
AcDbEntity
  8
0
100
AcDbBlockBegin
  2
BLOCK52
 70
     0
 10
0.0
 20
0.0
 30
0.0
  3
BLOCK52
  1

  0
TEXT
  5
14F
330
387
100
AcDbEntity
  8
0
 62
     7
370
    13
390
F
100
AcDbText
 10
1180.632568
 20
786.866638
 30
0.0
 40
2.0
  1
A
 41
1.156576000000011
 72
     5
 11
1182.367432
 21
786.866638
 31
0.0
100
AcDbText
  0
ENDBLK
  5
389
330
387
100
AcDbEntity
  8
0
100
AcDbBlockEnd
  0
BLOCK
  5
38B
330
38A
100
AcDbEntity
  8
0
100
AcDbBlockBegin
  2
BLOCK53
 70
     0
 10
0.0
 20
0.0
 30
0.0
  3
BLOCK53
  1

  0
TEXT
  5
152
330
38A
100
AcDbEntity
  8
0
 62
     7
370
    13
390
F
100
AcDbText
 10
6.701831
 20
9.96806
 30
0.0
 40
2.0
  1
GEWISS SpA si riserva tutti i diritti sul presente documento
 50
90.00000275216357
 41
1.459509955131802
 72
     5
 11
6.701826
 21
114.06031
 31
0.0
100
AcDbText
  0
TEXT
  5
153
330
38A
100
AcDbEntity
  8
0
 62
     7
370
    13
390
F
100
AcDbText
 10
10.157163
 20
9.96806
 30
0.0
 40
2.0
  1
e con quanto rappresentato.E'vietato riprodurlo,utilizzarlo
 50
90.00000279881041
 41
1.460058184152345
 72
     5
 11
10.157158
 21
112.325439
 31
0.0
100
AcDbText
  0
TEXT
  5
154
330
38A
100
AcDbEntity
  8
0
 62
     7
370
    13
390
F
100
AcDbText
 10
13.612494
 20
9.968061
 30
0.0
 40
2.0
  1
renderlo accessibile a terzi senza autorizzazione scritta
 50
90.0000028970143
 41
1.464568083530808
 72
     5
 11
13.612489
 21
108.855698
 31
0.0
100
AcDbText
  0
ENDBLK
  5
38C
330
38A
100
AcDbEntity
  8
0
100
AcDbBlockEnd
  0
BLOCK
  5
38E
330
38D
100
AcDbEntity
  8
0
100
AcDbBlockBegin
  2
BLOCK54
 70
     0
 10
0.0
 20
0.0
 30
0.0
  3
BLOCK54
  1

  0
TEXT
  5
157
330
38D
100
AcDbEntity
  8
0
 62
     7
370
    13
390
F
100
AcDbText
 10
6.543763
 20
147.493759
 30
0.0
 40
2.0
  1
GEWISS SpA reserve all rights in this document and in the information
 50
90.00000287182327
 41
1.433348141052508
 72
     5
 11
6.543757
 21
267.199829
 31
0.0
100
AcDbText
  0
TEXT
  5
158
330
38D
100
AcDbEntity
  8
0
 62
     7
370
    13
390
F
100
AcDbText
 10
9.999094
 20
147.493759
 30
0.0
 40
2.0
  1
contained therein. Reproduction, use or disclosure to third parties
 50
90.00000246462413
 41
1.471122518305551
 72
     5
 11
9.999089
 21
263.730103
 31
0.0
100
AcDbText
  0
TEXT
  5
159
330
38D
100
AcDbEntity
  8
0
 62
     7
370
    13
390
F
100
AcDbText
 10
13.454425
 20
147.493759
 30
0.0
 40
2.0
  1
without written authorization is stricty forbidden
 50
90.0000026420769
 41
1.467493588225344
 72
     5
 11
13.454421
 21
234.237305
 31
0.0
100
AcDbText
  0
ENDBLK
  5
38F
330
38D
100
AcDbEntity
  8
0
100
AcDbBlockEnd
  0
BLOCK
  5
391
330
390
100
AcDbEntity
  8
0
100
AcDbBlockBegin
  2
BLOCK55
 70
     0
 10
0.0
 20
0.0
 30
0.0
  3
BLOCK55
  1

  0
SOLID
  5
15C
330
390
100
AcDbEntity
  8
0
 62
     7
370
    13
390
F
100
AcDbTrace
 10
337.068146
 20
130.024963
 30
0.0
 11
339.0
 21
130.542603
 31
0.0
 12
337.068146
 22
130.024963
 32
0.0
 13
337.068146
 23
131.060242
 33
0.0
  0
SOLID
  5
15D
330
390
100
AcDbEntity
  8
0
 62
     7
370
    13
390
F
100
AcDbTrace
 10
-337.068146
 20
131.060242
 30
0.0
 11
-339.0
 21
130.542603
 31
0.0
 12
-337.068146
 22
131.060242
 32
0.0
 13
-337.068146
 23
130.024963
 33
0.0
  0
TEXT
  5
15E
330
390
100
AcDbEntity
  8
0
 62
     7
370
    13
390
F
100
AcDbText
 10
-7.505764
 20
132.542603
 30
0.0
 40
5.0
  1
678
 41
1.539841312988845
 72
     5
 11
7.505764
 21
132.542603
 31
0.0
100
AcDbText
  0
LINE
  5
15F
330
390
100
AcDbEntity
  8
0
 62
     7
370
    13
390
F
100
AcDbLine
 10
-339.0
 20
77.0
 30
0.0
 11
-339.0
 21
132.542603
 31
0.0
  0
LINE
  5
160
330
390
100
AcDbEntity
  8
0
 62
     7
370
    13
390
F
100
AcDbLine
 10
339.0
 20
77.0
 30
0.0
 11
339.0
 21
132.542603
 31
0.0
  0
LINE
  5
161
330
390
100
AcDbEntity
  8
0
 62
     7
370
    13
390
F
100
AcDbLine
 10
-337.068146
 20
130.542603
 30
0.0
 11
337.068146
 21
130.542603
 31
0.0
  0
LWPOLYLINE
  5
162
330
390
100
AcDbEntity
  8
0
 62
     7
370
    13
390
F
100
AcDbPolyline
 90
        3
 70
     1
 43
0.0
 10
337.068146
 20
130.024963
 10
339.0
 20
130.542603
 10
337.068146
 20
131.060242
  0
LWPOLYLINE
  5
167
330
390
100
AcDbEntity
  8
0
 62
     7
370
    13
390
F
100
AcDbPolyline
 90
        3
 70
     1
 43
0.0
 10
-337.068146
 20
131.060242
 10
-339.0
 20
130.542603
 10
-337.068146
 20
130.024963
  0
ENDBLK
  5
392
330
390
100
AcDbEntity
  8
0
100
AcDbBlockEnd
  0
BLOCK
  5
394
330
393
100
AcDbEntity
  8
0
100
AcDbBlockBegin
  2
BLOCK56
 70
     0
 10
0.0
 20
0.0
 30
0.0
  3
BLOCK56
  1

  0
ARC
  5
16E
330
393
100
AcDbEntity
  8
0
 62
     7
370
    35
390
F
100
AcDbCircle
 10
321.0
 20
76.0
 30
0.0
 40
18.0
100
AcDbArc
 50
0.0
 51
90.000003
  0
LINE
  5
16F
330
393
100
AcDbEntity
  8
0
 62
     7
370
    35
390
F
100
AcDbLine
 10
316.068481
 20
89.0
 30
0.0
 11
-316.068481
 21
89.0
 31
0.0
  0
LINE
  5
170
330
393
100
AcDbEntity
  8
0
 62
     7
 48
0.103835
370
    13
390
F
100
AcDbLine
 10
316.068481
 20
89.0
 30
0.0
 11
313.131592
 21
86.06311
 31
0.0
  0
LINE
  5
171
330
393
100
AcDbEntity
  8
0
 62
     7
370
    13
390
F
100
AcDbLine
 10
313.131592
 20
86.06311
 30
0.0
 11
-313.131592
 21
86.06311
 31
0.0
  0
LINE
  5
172
330
393
100
AcDbEntity
  8
0
 62
     7
 48
0.103835
370
    13
390
F
100
AcDbLine
 10
-316.068481
 20
89.0
 30
0.0
 11
-313.131592
 21
86.06311
 31
0.0
  0
ARC
  5
173
330
393
100
AcDbEntity
  8
0
 62
     7
370
    35
390
F
100
AcDbCircle
 10
-321.0
 20
76.0
 30
0.0
 40
18.0
100
AcDbArc
 50
90.000003
 51
180.000005
  0
LINE
  5
174
330
393
100
AcDbEntity
  8
0
 62
     7
370
    35
390
F
100
AcDbLine
 10
321.0
 20
94.0
 30
0.0
 11
-321.0
 21
94.0
 31
0.0
  0
ARC
  5
175
330
393
100
AcDbEntity
  8
0
 62
     7
370
    35
390
F
100
AcDbCircle
 10
321.0
 20
-76.0
 30
0.0
 40
18.0
100
AcDbArc
 50
269.999997
 51
0.0
  0
LINE
  5
176
330
393
100
AcDbEntity
  8
0
 62
     7
 48
0.103835
370
    13
390
F
100
AcDbLine
 10
-316.068481
 20
-89.0
 30
0.0
 11
-313.131592
 21
-86.06311
 31
0.0
  0
LINE
  5
177
330
393
100
AcDbEntity
  8
0
 62
     7
370
    13
390
F
100
AcDbLine
 10
313.131592
 20
-86.06311
 30
0.0
 11
-313.131592
 21
-86.06311
 31
0.0
  0
LINE
  5
178
330
393
100
AcDbEntity
  8
0
 62
     7
 48
0.103835
370
    13
390
F
100
AcDbLine
 10
316.068481
 20
-89.0
 30
0.0
 11
313.131592
 21
-86.06311
 31
0.0
  0
LINE
  5
179
330
393
100
AcDbEntity
  8
0
 62
     7
370
    35
390
F
100
AcDbLine
 10
316.068481
 20
-89.0
 30
0.0
 11
-316.068481
 21
-89.0
 31
0.0
  0
ARC
  5
17A
330
393
100
AcDbEntity
  8
0
 62
     7
370
    35
390
F
100
AcDbCircle
 10
-321.0
 20
-76.0
 30
0.0
 40
18.0
100
AcDbArc
 50
180.000005
 51
269.999997
  0
LINE
  5
17B
330
393
100
AcDbEntity
  8
0
 62
     7
370
    35
390
F
100
AcDbLine
 10
321.0
 20
-94.0
 30
0.0
 11
-321.0
 21
-94.0
 31
0.0
  0
LINE
  5
17C
330
393
100
AcDbEntity
  8
0
 62
     7
370
    35
390
F
100
AcDbLine
 10
339.0
 20
-76.0
 30
0.0
 11
339.0
 21
76.0
 31
0.0
  0
LINE
  5
17D
330
393
100
AcDbEntity
  8
0
 62
     7
370
    13
390
F
100
AcDbLine
 10
313.131592
 20
-68.131607
 30
0.0
 11
313.131592
 21
68.131607
 31
0.0
  0
LINE
  5
17E
330
393
100
AcDbEntity
  8
0
 62
     7
370
    13
390
F
100
AcDbLine
 10
313.131592
 20
68.131607
 30
0.0
 11
-313.131592
 21
68.131607
 31
0.0
  0
LINE
  5
17F
330
393
100
AcDbEntity
  8
0
 62
     7
370
    13
390
F
100
AcDbLine
 10
-313.131592
 20
-68.131607
 30
0.0
 11
-313.131592
 21
68.131607
 31
0.0
  0
LINE
  5
180
330
393
100
AcDbEntity
  8
0
 62
     7
370
    13
390
F
100
AcDbLine
 10
313.131592
 20
-68.131607
 30
0.0
 11
-313.131592
 21
-68.131607
 31
0.0
  0
LINE
  5
181
330
393
100
AcDbEntity
  8
0
 62
     7
 48
0.448288
370
    13
390
F
100
AcDbLine
 10
-313.131592
 20
68.131607
 30
0.0
 11
-331.06311
 21
68.131607
 31
0.0
  0
LINE
  5
182
330
393
100
AcDbEntity
  8
0
 62
     7
370
    13
390
F
100
AcDbLine
 10
-331.06311
 20
-68.131607
 30
0.0
 11
-331.06311
 21
68.131607
 31
0.0
  0
LINE
  5
183
330
393
100
AcDbEntity
  8
0
 62
     7
 48
0.448288
370
    13
390
F
100
AcDbLine
 10
-313.131592
 20
-68.131607
 30
0.0
 11
-331.06311
 21
-68.131607
 31
0.0
  0
LINE
  5
184
330
393
100
AcDbEntity
  8
0
 62
     7
370
    13
390
F
100
AcDbLine
 10
331.06311
 20
-68.131607
 30
0.0
 11
331.06311
 21
68.131607
 31
0.0
  0
LINE
  5
185
330
393
100
AcDbEntity
  8
0
 62
     7
 48
0.448288
370
    13
390
F
100
AcDbLine
 10
313.131592
 20
68.131607
 30
0.0
 11
331.06311
 21
68.131607
 31
0.0
  0
LINE
  5
186
330
393
100
AcDbEntity
  8
0
 62
     7
 48
0.448288
370
    13
390
F
100
AcDbLine
 10
313.131592
 20
-68.131607
 30
0.0
 11
331.06311
 21
-68.131607
 31
0.0
  0
LINE
  5
187
330
393
100
AcDbEntity
  8
0
 62
     7
370
    35
390
F
100
AcDbLine
 10
-339.0
 20
-76.0
 30
0.0
 11
-339.0
 21
76.0
 31
0.0
  0
LINE
  5
188
330
393
100
AcDbEntity
  8
0
 62
     7
 48
0.103835
370
    13
390
F
100
AcDbLine
 10
-334.0
 20
-71.068497
 30
0.0
 11
-331.06311
 21
-68.131607
 31
0.0
  0
LINE
  5
189
330
393
100
AcDbEntity
  8
0
 62
     7
370
    35
390
F
100
AcDbLine
 10
-334.0
 20
-71.068497
 30
0.0
 11
-334.0
 21
71.068497
 31
0.0
  0
LINE
  5
18A
330
393
100
AcDbEntity
  8
0
 62
     7
 48
0.103835
370
    13
390
F
100
AcDbLine
 10
-334.0
 20
71.068497
 30
0.0
 11
-331.06311
 21
68.131607
 31
0.0
  0
LINE
  5
18B
330
393
100
AcDbEntity
  8
0
 62
     7
 48
0.103835
370
    13
390
F
100
AcDbLine
 10
334.0
 20
71.068497
 30
0.0
 11
331.06311
 21
68.131607
 31
0.0
  0
LINE
  5
18C
330
393
100
AcDbEntity
  8
0
 62
     7
370
    35
390
F
100
AcDbLine
 10
334.0
 20
-71.068497
 30
0.0
 11
334.0
 21
71.068497
 31
0.0
  0
LINE
  5
18D
330
393
100
AcDbEntity
  8
0
 62
     7
 48
0.103835
370
    13
390
F
100
AcDbLine
 10
334.0
 20
-71.068497
 30
0.0
 11
331.06311
 21
-68.131607
 31
0.0
  0
ELLIPSE
  5
18E
330
393
100
AcDbEntity
  8
0
 62
     7
370
    35
390
F
100
AcDbEllipse
 10
315.931122
 20
70.931114
 30
0.0
 11
-12.82477569580078
 21
-12.82542037963867
 31
0.0
210
0.0
220
0.0
230
1.0
 40
0.9924269999999997
 41
2.359971926719437
 42
3.923163636867938
  0
ELLIPSE
  5
18F
330
393
100
AcDbEntity
  8
0
 62
     7
370
    35
390
F
100
AcDbEllipse
 10
-315.931122
 20
70.931114
 30
0.0
 11
12.82477569580078
 21
-12.82542037963867
 31
0.0
210
0.0
220
0.0
230
1.0
 40
0.9924269999999997
 41
2.360021670310825
 42
3.923213380459529
  0
ELLIPSE
  5
190
330
393
100
AcDbEntity
  8
0
 62
     7
370
    35
390
F
100
AcDbEllipse
 10
-315.931122
 20
-70.931114
 30
0.0
 11
-12.82477569580078
 21
-12.82542037963867
 31
0.0
210
0.0
220
0.0
230
1.0
 40
0.9924269999999997
 41
5.501564580309853
 42
7.064756290458555
  0
ELLIPSE
  5
191
330
393
100
AcDbEntity
  8
0
 62
     7
370
    35
390
F
100
AcDbEllipse
 10
315.931122
 20
-70.931114
 30
0.0
 11
12.82477569580078
 21
-12.82542037963867
 31
0.0
210
0.0
220
0.0
230
1.0
 40
0.9924269999999997
 41
5.501614323901443
 42
7.064806034049943
  0
ELLIPSE
  5
192
330
393
100
AcDbEntity
  8
0
 62
     7
370
    13
390
F
100
AcDbEllipse
 10
313.131592
 20
68.131607
 30
0.0
 11
-12.7279224395752
 21
12.7279224395752
 31
0.0
210
0.0
220
0.0
230
1.0
 40
0.9924329999999996
 41
3.930788915260527
 42
5.493989045508859
  0
ELLIPSE
  5
193
330
393
100
AcDbEntity
  8
0
 62
     7
370
    13
390
F
100
AcDbEllipse
 10
-313.131592
 20
68.131607
 30
0.0
 11
12.7279224395752
 21
12.7279224395752
 31
0.0
210
0.0
220
0.0
230
1.0
 40
0.9924329999999996
 41
0.7891962616707263
 42
2.35239639191906
  0
LINE
  5
194
330
393
100
AcDbEntity
  8
0
 62
     7
 48
0.448288
370
    13
390
F
100
AcDbLine
 10
313.131592
 20
68.131607
 30
0.0
 11
313.131592
 21
86.06311
 31
0.0
  0
LINE
  5
195
330
393
100
AcDbEntity
  8
0
 62
     7
 48
0.448288
370
    13
390
F
100
AcDbLine
 10
-313.131592
 20
68.131607
 30
0.0
 11
-313.131592
 21
86.06311
 31
0.0
  0
ELLIPSE
  5
196
330
393
100
AcDbEntity
  8
0
 62
     7
370
    13
390
F
100
AcDbEllipse
 10
313.131592
 20
-68.131607
 30
0.0
 11
-12.7279224395752
 21
-12.7279224395752
 31
0.0
210
0.0
220
0.0
230
1.0
 40
0.9924329999999996
 41
0.7891962616707263
 42
2.35239639191906
  0
ELLIPSE
  5
197
330
393
100
AcDbEntity
  8
0
 62
     7
370
    13
390
F
100
AcDbEllipse
 10
-313.131592
 20
-68.131607
 30
0.0
 11
12.7279224395752
 21
-12.7279224395752
 31
0.0
210
0.0
220
0.0
230
1.0
 40
0.9924329999999996
 41
3.930788915260527
 42
5.493989045508859
  0
LINE
  5
198
330
393
100
AcDbEntity
  8
0
 62
     7
 48
0.448288
370
    13
390
F
100
AcDbLine
 10
313.131592
 20
-68.131607
 30
0.0
 11
313.131592
 21
-86.06311
 31
0.0
  0
LINE
  5
199
330
393
100
AcDbEntity
  8
0
 62
     7
 48
0.448288
370
    13
390
F
100
AcDbLine
 10
-313.131592
 20
-68.131607
 30
0.0
 11
-313.131592
 21
-86.06311
 31
0.0
  0
ENDBLK
  5
395
330
393
100
AcDbEntity
  8
0
100
AcDbBlockEnd
  0
BLOCK
  5
397
330
396
100
AcDbEntity
  8
0
100
AcDbBlockBegin
  2
BLOCK57
 70
     0
 10
0.0
 20
0.0
 30
0.0
  3
BLOCK57
  1

  0
SOLID
  5
19C
330
396
100
AcDbEntity
  8
0
 62
     7
370
    13
390
F
100
AcDbTrace
 10
377.866333
 20
-56.06815
 30
0.0
 11
378.383972
 21
-58.0
 31
0.0
 12
377.866333
 22
-56.06815
 32
0.0
 13
378.901611
 23
-56.06815
 33
0.0
  0
SOLID
  5
19D
330
396
100
AcDbEntity
  8
0
 62
     7
370
    13
390
F
100
AcDbTrace
 10
378.901611
 20
-1.931852
 30
0.0
 11
378.383972
 21
0.0
 31
0.0
 12
378.901611
 22
-1.931852
 32
0.0
 13
377.866333
 23
-1.931852
 33
0.0
  0
TEXT
  5
19E
330
396
100
AcDbEntity
  8
0
 62
     7
370
    13
390
F
100
AcDbText
 10
376.383972
 20
-33.837177
 30
0.0
 40
5.0
  1
58
 50
90.0
 41
1.548205961192238
 72
     5
 11
376.383972
 21
-24.162825
 31
0.0
100
AcDbText
  0
LINE
  5
19F
330
396
100
AcDbEntity
  8
0
 62
     7
370
    13
390
F
100
AcDbLine
 10
314.131592
 20
-58.0
 30
0.0
 11
380.383972
 21
-58.0
 31
0.0
  0
LINE
  5
1A0
330
396
100
AcDbEntity
  8
0
 62
     7
370
    13
390
F
100
AcDbLine
 10
322.0
 20
0.0
 30
0.0
 11
380.383972
 21
0.0
 31
0.0
  0
LINE
  5
1A1
330
396
100
AcDbEntity
  8
0
 62
     7
370
    13
390
F
100
AcDbLine
 10
378.383972
 20
-56.06815
 30
0.0
 11
378.383972
 21
-1.931852
 31
0.0
  0
LWPOLYLINE
  5
1A2
330
396
100
AcDbEntity
  8
0
 62
     7
370
    13
390
F
100
AcDbPolyline
 90
        3
 70
     1
 43
0.0
 10
377.866333
 20
-56.06815
 10
378.383972
 20
-58.0
 10
378.901611
 20
-56.06815
  0
LWPOLYLINE
  5
1A7
330
396
100
AcDbEntity
  8
0
 62
     7
370
    13
390
F
100
AcDbPolyline
 90
        3
 70
     1
 43
0.0
 10
378.901611
 20
-1.931852
 10
378.383972
 20
0.0
 10
377.866333
 20
-1.931852
  0
ENDBLK
  5
398
330
396
100
AcDbEntity
  8
0
100
AcDbBlockEnd
  0
BLOCK
  5
39A
330
399
100
AcDbEntity
  8
0
100
AcDbBlockBegin
  2
BLOCK58
 70
     0
 10
0.0
 20
0.0
 30
0.0
  3
BLOCK58
  1

  0
LINE
  5
1AE
330
399
100
AcDbEntity
  8
0
 62
     7
 48
0.45
370
    35
390
F
100
AcDbLine
 10
339.0
 20
-8.0
 30
0.0
 11
321.0
 21
-8.0
 31
0.0
  0
LINE
  5
1AF
330
399
100
AcDbEntity
  8
0
 62
     7
 48
0.45
370
    35
390
F
100
AcDbLine
 10
321.0
 20
0.0
 30
0.0
 11
339.0
 21
0.0
 31
0.0
  0
LINE
  5
1B0
330
399
100
AcDbEntity
  8
0
 62
     7
 48
0.2
370
    13
390
F
100
AcDbLine
 10
321.0
 20
0.0
 30
0.0
 11
321.0
 21
-8.0
 31
0.0
  0
LINE
  5
1B1
330
399
100
AcDbEntity
  8
0
 62
     7
370
    13
390
F
100
AcDbLine
 10
316.068481
 20
-8.0
 30
0.0
 11
313.131592
 21
-41.568802
 31
0.0
  0
LINE
  5
1B2
330
399
100
AcDbEntity
  8
0
 62
     7
370
    13
390
F
100
AcDbLine
 10
313.131592
 20
-41.568802
 30
0.0
 11
-313.131592
 21
-41.568802
 31
0.0
  0
LINE
  5
1B3
330
399
100
AcDbEntity
  8
0
 62
     7
370
    13
390
F
100
AcDbLine
 10
-316.068481
 20
-8.0
 30
0.0
 11
-313.131592
 21
-41.568802
 31
0.0
  0
LINE
  5
1B4
330
399
100
AcDbEntity
  8
0
 62
     7
 48
0.2
370
    13
390
F
100
AcDbLine
 10
-321.0
 20
0.0
 30
0.0
 11
-321.0
 21
-8.0
 31
0.0
  0
LINE
  5
1B5
330
399
100
AcDbEntity
  8
0
 62
     7
 48
0.45
370
    35
390
F
100
AcDbLine
 10
-339.0
 20
0.0
 30
0.0
 11
-321.0
 21
0.0
 31
0.0
  0
LINE
  5
1B6
330
399
100
AcDbEntity
  8
0
 62
     7
 48
0.45
370
    35
390
F
100
AcDbLine
 10
-321.0
 20
-8.0
 30
0.0
 11
-339.0
 21
-8.0
 31
0.0
  0
LINE
  5
1B7
330
399
100
AcDbEntity
  8
0
 62
     7
370
    35
390
F
100
AcDbLine
 10
-321.0
 20
0.0
 30
0.0
 11
321.0
 21
0.0
 31
0.0
  0
LINE
  5
1B8
330
399
100
AcDbEntity
  8
0
 62
     7
370
    35
390
F
100
AcDbLine
 10
321.0
 20
-8.0
 30
0.0
 11
-321.0
 21
-8.0
 31
0.0
  0
ARC
  5
1B9
330
399
100
AcDbEntity
  8
0
 62
     7
370
    35
390
F
100
AcDbCircle
 10
-313.131592
 20
-40.0
 30
0.0
 40
18.0
100
AcDbArc
 50
184.999994
 51
269.999997
  0
ARC
  5
1BA
330
399
100
AcDbEntity
  8
0
 62
     7
370
    35
390
F
100
AcDbCircle
 10
313.131592
 20
-40.0
 30
0.0
 40
18.0
100
AcDbArc
 50
269.999997
 51
355.0
  0
LINE
  5
1BB
330
399
100
AcDbEntity
  8
0
 62
     7
370
    35
390
F
100
AcDbLine
 10
-334.0
 20
-8.0
 30
0.0
 11
-331.06311
 21
-41.568802
 31
0.0
  0
ELLIPSE
  5
1BC
330
399
100
AcDbEntity
  8
0
 62
     7
370
    13
390
F
100
AcDbEllipse
 10
313.131592
 20
-40.0
 30
0.0
 11
-17.93150520324707
 21
1.568803310394287
 31
0.0
210
0.0
220
0.0
230
1.0
 40
0.086827
 41
1.57839252334146
 42
3.141592653589793
  0
ELLIPSE
  5
1BD
330
399
100
AcDbEntity
  8
0
 62
     7
370
    13
390
F
100
AcDbEllipse
 10
-313.131592
 20
-40.0
 30
0.0
 11
17.93150520324707
 21
1.568803310394287
 31
0.0
210
0.0
220
0.0
230
1.0
 40
0.086827
 41
3.141592653589793
 42
4.704792783838126
  0
LINE
  5
1BE
330
399
100
AcDbEntity
  8
0
 62
     7
 48
0.41078
370
    13
390
F
100
AcDbLine
 10
313.131592
 20
-58.0
 30
0.0
 11
313.131592
 21
-41.568802
 31
0.0
  0
LINE
  5
1BF
330
399
100
AcDbEntity
  8
0
 62
     7
 48
0.41078
370
    13
390
F
100
AcDbLine
 10
-313.131592
 20
-58.0
 30
0.0
 11
-313.131592
 21
-41.568802
 31
0.0
  0
LINE
  5
1C0
330
399
100
AcDbEntity
  8
0
 62
     7
 48
0.2
370
    35
390
F
100
AcDbLine
 10
339.0
 20
0.0
 30
0.0
 11
339.0
 21
-8.0
 31
0.0
  0
LINE
  5
1C1
330
399
100
AcDbEntity
  8
0
 62
     7
 48
0.2
370
    35
390
F
100
AcDbLine
 10
-339.0
 20
-8.0
 30
0.0
 11
-339.0
 21
0.0
 31
0.0
  0
LINE
  5
1C2
330
399
100
AcDbEntity
  8
0
 62
     7
370
    35
390
F
100
AcDbLine
 10
334.0
 20
-8.0
 30
0.0
 11
331.06311
 21
-41.568954
 31
0.0
  0
LINE
  5
1C3
330
399
100
AcDbEntity
  8
0
 62
     7
370
    35
390
F
100
AcDbLine
 10
313.131592
 20
-58.0
 30
0.0
 11
-313.131592
 21
-58.0
 31
0.0
  0
ENDBLK
  5
39B
330
399
100
AcDbEntity
  8
0
100
AcDbBlockEnd
  0
BLOCK
  5
39D
330
39C
100
AcDbEntity
  8
0
100
AcDbBlockBegin
  2
BLOCK59
 70
     0
 10
0.0
 20
0.0
 30
0.0
  3
BLOCK59
  1

  0
SOLID
  5
1C6
330
39C
100
AcDbEntity
  8
0
 62
     7
370
    13
390
F
100
AcDbTrace
 10
56.06815
 20
134.290649
 30
0.0
 11
58.0
 21
134.808289
 31
0.0
 12
56.06815
 22
134.290649
 32
0.0
 13
56.06815
 23
135.325928
 33
0.0
  0
SOLID
  5
1C7
330
39C
100
AcDbEntity
  8
0
 62
     7
370
    13
390
F
100
AcDbTrace
 10
1.931852
 20
135.325928
 30
0.0
 11
0.0
 21
134.808289
 31
0.0
 12
1.931852
 22
135.325928
 32
0.0
 13
1.931852
 23
134.290649
 33
0.0
  0
TEXT
  5
1C8
330
39C
100
AcDbEntity
  8
0
 62
     7
370
    13
390
F
100
AcDbText
 10
24.162825
 20
136.808289
 30
0.0
 40
5.0
  1
58
 41
1.548205961192238
 72
     5
 11
33.837177
 21
136.808289
 31
0.0
100
AcDbText
  0
LINE
  5
1C9
330
39C
100
AcDbEntity
  8
0
 62
     7
370
    13
390
F
100
AcDbLine
 10
0.0
 20
77.0
 30
0.0
 11
0.0
 21
136.808289
 31
0.0
  0
LINE
  5
1CA
330
39C
100
AcDbEntity
  8
0
 62
     7
370
    13
390
F
100
AcDbLine
 10
58.0
 20
69.131607
 30
0.0
 11
58.0
 21
136.808289
 31
0.0
  0
LINE
  5
1CB
330
39C
100
AcDbEntity
  8
0
 62
     7
370
    13
390
F
100
AcDbLine
 10
1.931852
 20
134.808289
 30
0.0
 11
56.06815
 21
134.808289
 31
0.0
  0
LWPOLYLINE
  5
1CC
330
39C
100
AcDbEntity
  8
0
 62
     7
370
    13
390
F
100
AcDbPolyline
 90
        3
 70
     1
 43
0.0
 10
56.06815
 20
134.290649
 10
58.0
 20
134.808289
 10
56.06815
 20
135.325928
  0
LWPOLYLINE
  5
1D1
330
39C
100
AcDbEntity
  8
0
 62
     7
370
    13
390
F
100
AcDbPolyline
 90
        3
 70
     1
 43
0.0
 10
1.931852
 20
135.325928
 10
0.0
 20
134.808289
 10
1.931852
 20
134.290649
  0
ENDBLK
  5
39E
330
39C
100
AcDbEntity
  8
0
100
AcDbBlockEnd
  0
BLOCK
  5
3A0
330
39F
100
AcDbEntity
  8
0
100
AcDbBlockBegin
  2
BLOCK60
 70
     0
 10
0.0
 20
0.0
 30
0.0
  3
BLOCK60
  1

  0
LINE
  5
1D8
330
39F
100
AcDbEntity
  8
0
 62
     7
370
    35
390
F
100
AcDbLine
 10
8.0
 20
89.0
 30
0.0
 11
41.568802
 21
86.06311
 31
0.0
  0
LINE
  5
1D9
330
39F
100
AcDbEntity
  8
0
 62
     7
 48
0.2
370
    35
390
F
100
AcDbLine
 10
0.0
 20
94.0
 30
0.0
 11
8.0
 21
94.0
 31
0.0
  0
LINE
  5
1DA
330
39F
100
AcDbEntity
  8
0
 62
     7
 48
0.45
370
    35
390
F
100
AcDbLine
 10
0.0
 20
76.0
 30
0.0
 11
0.0
 21
94.0
 31
0.0
  0
LINE
  5
1DB
330
39F
100
AcDbEntity
  8
0
 62
     7
 48
0.2
370
    13
390
F
100
AcDbLine
 10
0.0
 20
76.0
 30
0.0
 11
8.0
 21
76.0
 31
0.0
  0
LINE
  5
1DC
330
39F
100
AcDbEntity
  8
0
 62
     7
 48
0.45
370
    35
390
F
100
AcDbLine
 10
8.0
 20
94.0
 30
0.0
 11
8.0
 21
76.0
 31
0.0
  0
LINE
  5
1DD
330
39F
100
AcDbEntity
  8
0
 62
     7
370
    35
390
F
100
AcDbLine
 10
8.0
 20
-89.0
 30
0.0
 11
41.568802
 21
-86.06311
 31
0.0
  0
LINE
  5
1DE
330
39F
100
AcDbEntity
  8
0
 62
     7
 48
0.45
370
    35
390
F
100
AcDbLine
 10
8.0
 20
-76.0
 30
0.0
 11
8.0
 21
-94.0
 31
0.0
  0
LINE
  5
1DF
330
39F
100
AcDbEntity
  8
0
 62
     7
 48
0.2
370
    13
390
F
100
AcDbLine
 10
0.0
 20
-76.0
 30
0.0
 11
8.0
 21
-76.0
 31
0.0
  0
LINE
  5
1E0
330
39F
100
AcDbEntity
  8
0
 62
     7
 48
0.45
370
    35
390
F
100
AcDbLine
 10
0.0
 20
-94.0
 30
0.0
 11
0.0
 21
-76.0
 31
0.0
  0
LINE
  5
1E1
330
39F
100
AcDbEntity
  8
0
 62
     7
 48
0.2
370
    35
390
F
100
AcDbLine
 10
0.0
 20
-94.0
 30
0.0
 11
8.0
 21
-94.0
 31
0.0
  0
LINE
  5
1E2
330
39F
100
AcDbEntity
  8
0
 62
     7
 48
0.41078
370
    13
390
F
100
AcDbLine
 10
58.0
 20
68.131607
 30
0.0
 11
41.568802
 21
68.131607
 31
0.0
  0
LINE
  5
1E3
330
39F
100
AcDbEntity
  8
0
 62
     7
370
    13
390
F
100
AcDbLine
 10
41.568802
 20
-68.131607
 30
0.0
 11
41.568802
 21
68.131607
 31
0.0
  0
LINE
  5
1E4
330
39F
100
AcDbEntity
  8
0
 62
     7
 48
0.41078
370
    13
390
F
100
AcDbLine
 10
58.0
 20
-68.131607
 30
0.0
 11
41.568802
 21
-68.131607
 31
0.0
  0
LINE
  5
1E5
330
39F
100
AcDbEntity
  8
0
 62
     7
370
    35
390
F
100
AcDbLine
 10
0.0
 20
-76.0
 30
0.0
 11
0.0
 21
76.0
 31
0.0
  0
LINE
  5
1E6
330
39F
100
AcDbEntity
  8
0
 62
     7
370
    35
390
F
100
AcDbLine
 10
8.0
 20
-76.0
 30
0.0
 11
8.0
 21
76.0
 31
0.0
  0
LINE
  5
1E7
330
39F
100
AcDbEntity
  8
0
 62
     7
370
    13
390
F
100
AcDbLine
 10
8.0
 20
-71.068497
 30
0.0
 11
41.568802
 21
-68.131607
 31
0.0
  0
LINE
  5
1E8
330
39F
100
AcDbEntity
  8
0
 62
     7
370
    13
390
F
100
AcDbLine
 10
8.0
 20
71.068497
 30
0.0
 11
41.568802
 21
68.131607
 31
0.0
  0
ELLIPSE
  5
1E9
330
39F
100
AcDbEntity
  8
0
 62
     7
370
    13
390
F
100
AcDbEllipse
 10
40.0
 20
68.131607
 30
0.0
 11
1.568803310394287
 21
17.93150520324707
 31
0.0
210
0.0
220
0.0
230
1.0
 40
0.086827
 41
4.719985176931253
 42
6.283185307179586
  0
ARC
  5
1EA
330
39F
100
AcDbEntity
  8
0
 62
     7
370
    35
390
F
100
AcDbCircle
 10
40.0
 20
68.131607
 30
0.0
 40
18.0
100
AcDbArc
 50
0.0
 51
84.999997
  0
ELLIPSE
  5
1EB
330
39F
100
AcDbEntity
  8
0
 62
     7
370
    13
390
F
100
AcDbEllipse
 10
40.0
 20
-68.131607
 30
0.0
 11
1.568803310394287
 21
-17.93150520324707
 31
0.0
210
0.0
220
0.0
230
1.0
 40
0.086827
 41
6.283185307179586
 42
7.846385437427919
  0
ARC
  5
1EC
330
39F
100
AcDbEntity
  8
0
 62
     7
370
    35
390
F
100
AcDbCircle
 10
40.0
 20
-68.131607
 30
0.0
 40
18.0
100
AcDbArc
 50
275.000003
 51
0.0
  0
LINE
  5
1ED
330
39F
100
AcDbEntity
  8
0
 62
     7
370
    35
390
F
100
AcDbLine
 10
58.0
 20
68.131607
 30
0.0
 11
58.0
 21
-68.131607
 31
0.0
  0
ENDBLK
  5
3A1
330
39F
100
AcDbEntity
  8
0
100
AcDbBlockEnd
  0
BLOCK
  5
3A2
330
29E
100
AcDbEntity
  8
0
100
AcDbBlockBegin
  2
*D60
 70
     1
 10
0.0
 20
0.0
 30
0.0
  3
*D60
  1

  0
POINT
  5
295
330
29E
100
AcDbEntity
  8
DEFPOINTS
  6
ByBlock
 62
     0
380
     1
100
AcDbPoint
 10
169.21167
 20
531.8322674515554
 30
0.0
  0
POINT
  5
296
330
29E
100
AcDbEntity
  8
DEFPOINTS
  6
ByBlock
 62
     0
380
     1
100
AcDbPoint
 10
847.21167
 20
540.708435
 30
0.0
  0
LINE
  5
297
330
29E
100
AcDbEntity
  8
0
  6
ByBlock
 62
     0
370
    -2
380
     1
100
AcDbLine
 10
169.21167
 20
532.4572674515554
 30
0.0
 11
169.21167
 21
671.6859808631292
 31
0.0
  0
LINE
  5
298
330
29E
100
AcDbEntity
  8
0
  6
ByBlock
 62
     0
370
    -2
380
     1
100
AcDbLine
 10
847.21167
 20
541.333435
 30
0.0
 11
847.21167
 21
671.6859808631292
 31
0.0
  0
LINE
  5
299
330
29E
100
AcDbEntity
  8
0
  6
ByBlock
 62
     0
370
    -2
380
     1
100
AcDbLine
 10
171.71167
 20
670.4359808631292
 30
0.0
 11
844.71167
 21
670.4359808631292
 31
0.0
  0
SOLID
  5
29A
330
29E
100
AcDbEntity
  8
0
  6
ByBlock
 62
     0
380
     1
100
AcDbTrace
 10
169.21167
 20
670.4359808631292
 30
0.0
 11
171.71167
 21
670.0193141964626
 31
0.0
 12
171.71167
 22
670.8526475297958
 32
0.0
 13
171.71167
 23
670.8526475297958
 33
0.0
  0
SOLID
  5
29B
330
29E
100
AcDbEntity
  8
0
  6
ByBlock
 62
     0
380
     1
100
AcDbTrace
 10
847.21167
 20
670.4359808631292
 30
0.0
 11
844.71167
 21
670.0193141964626
 31
0.0
 12
844.71167
 22
670.8526475297958
 32
0.0
 13
844.71167
 23
670.8526475297958
 33
0.0
  0
MTEXT
  5
29C
330
29E
100
AcDbEntity
  8
0
  6
ByBlock
 62
     0
370
    -2
380
     1
100
AcDbMText
 10
508.21167
 20
672.1859808631292
 30
0.0
 40
2.5
 41
0.0
 71
     5
 72
     1
  1
\A1;678
 73
     1
 44
1.0
  0
ENDBLK
  5
3A3
330
29E
100
AcDbEntity
  8
0
100
AcDbBlockEnd
  0
BLOCK
  5
3A4
330
2A9
100
AcDbEntity
  8
0
100
AcDbBlockBegin
  2
*D61
 70
     1
 10
0.0
 20
0.0
 30
0.0
  3
*D61
  1

  0
POINT
  5
2A0
330
2A9
100
AcDbEntity
  8
DEFPOINTS
  6
ByBlock
 62
     7
380
     1
100
AcDbPoint
 10
169.21167
 20
531.8322674515554
 30
0.0
  0
POINT
  5
2A1
330
2A9
100
AcDbEntity
  8
DEFPOINTS
  6
ByBlock
 62
     7
380
     1
100
AcDbPoint
 10
847.21167
 20
540.708435
 30
0.0
  0
LINE
  5
2A2
330
2A9
100
AcDbEntity
  8
0
  6
ByBlock
 62
     7
370
    -2
380
     1
100
AcDbLine
 10
169.21167
 20
532.4572674515554
 30
0.0
 11
169.21167
 21
671.6859808631292
 31
0.0
  0
LINE
  5
2A3
330
2A9
100
AcDbEntity
  8
0
  6
ByBlock
 62
     7
370
    -2
380
     1
100
AcDbLine
 10
847.21167
 20
541.333435
 30
0.0
 11
847.21167
 21
671.6859808631292
 31
0.0
  0
LINE
  5
2A4
330
2A9
100
AcDbEntity
  8
0
  6
ByBlock
 62
     7
370
    -2
380
     1
100
AcDbLine
 10
179.21167
 20
670.4359808631292
 30
0.0
 11
837.21167
 21
670.4359808631292
 31
0.0
  0
SOLID
  5
2A5
330
2A9
100
AcDbEntity
  8
0
  6
ByBlock
 62
     7
380
     1
100
AcDbTrace
 10
169.21167
 20
670.4359808631292
 30
0.0
 11
179.21167
 21
668.7693141964626
 31
0.0
 12
179.21167
 22
672.1026475297958
 32
0.0
 13
179.21167
 23
672.1026475297958
 33
0.0
  0
SOLID
  5
2A6
330
2A9
100
AcDbEntity
  8
0
  6
ByBlock
 62
     7
380
     1
100
AcDbTrace
 10
847.21167
 20
670.4359808631292
 30
0.0
 11
837.21167
 21
668.7693141964626
 31
0.0
 12
837.21167
 22
672.1026475297958
 32
0.0
 13
837.21167
 23
672.1026475297958
 33
0.0
  0
MTEXT
  5
2A7
330
2A9
100
AcDbEntity
  8
0
  6
ByBlock
 62
     0
370
    -2
380
     1
100
AcDbMText
 10
508.21167
 20
681.7359808631292
 30
0.0
 40
14.0
 41
0.0
 71
     5
 72
     1
  1
\A1;678
 73
     1
 44
1.0
  0
ENDBLK
  5
3A5
330
2A9
100
AcDbEntity
  8
0
100
AcDbBlockEnd
  0
BLOCK
  5
3A6
330
2B4
100
AcDbEntity
  8
0
100
AcDbBlockBegin
  2
*D62
 70
     1
 10
0.0
 20
0.0
 30
0.0
  3
*D62
  1

  0
POINT
  5
2AB
330
2B4
100
AcDbEntity
  8
DEFPOINTS
  6
ByBlock
 62
     7
380
     1
100
AcDbPoint
 10
169.21167
 20
531.8322674515554
 30
0.0
  0
POINT
  5
2AC
330
2B4
100
AcDbEntity
  8
DEFPOINTS
  6
ByBlock
 62
     7
380
     1
100
AcDbPoint
 10
847.21167
 20
540.708435
 30
0.0
  0
LINE
  5
2AD
330
2B4
100
AcDbEntity
  8
0
  6
ByBlock
 62
     7
370
    -2
380
     1
100
AcDbLine
 10
169.21167
 20
532.4572674515554
 30
0.0
 11
169.21167
 21
671.6859808631292
 31
0.0
  0
LINE
  5
2AE
330
2B4
100
AcDbEntity
  8
0
  6
ByBlock
 62
     7
370
    -2
380
     1
100
AcDbLine
 10
847.21167
 20
541.333435
 30
0.0
 11
847.21167
 21
671.6859808631292
 31
0.0
  0
LINE
  5
2AF
330
2B4
100
AcDbEntity
  8
0
  6
ByBlock
 62
     7
370
    -2
380
     1
100
AcDbLine
 10
179.21167
 20
670.4359808631292
 30
0.0
 11
837.21167
 21
670.4359808631292
 31
0.0
  0
SOLID
  5
2B0
330
2B4
100
AcDbEntity
  8
0
  6
ByBlock
 62
     7
380
     1
100
AcDbTrace
 10
169.21167
 20
670.4359808631292
 30
0.0
 11
179.21167
 21
668.7693141964626
 31
0.0
 12
179.21167
 22
672.1026475297958
 32
0.0
 13
179.21167
 23
672.1026475297958
 33
0.0
  0
SOLID
  5
2B1
330
2B4
100
AcDbEntity
  8
0
  6
ByBlock
 62
     7
380
     1
100
AcDbTrace
 10
847.21167
 20
670.4359808631292
 30
0.0
 11
837.21167
 21
668.7693141964626
 31
0.0
 12
837.21167
 22
672.1026475297958
 32
0.0
 13
837.21167
 23
672.1026475297958
 33
0.0
  0
MTEXT
  5
2B2
330
2B4
100
AcDbEntity
  8
0
  6
ByBlock
 62
     0
370
    -2
380
     1
100
AcDbMText
 10
508.21167
 20
681.7359808631292
 30
0.0
 40
14.0
 41
0.0
 71
     5
 72
     1
  1
\A1;678
 73
     1
 44
1.0
  0
ENDBLK
  5
3A7
330
2B4
100
AcDbEntity
  8
0
100
AcDbBlockEnd
  0
BLOCK
  5
3A8
330
2C0
100
AcDbEntity
  8
0
100
AcDbBlockBegin
  2
*D63
 70
     1
 10
0.0
 20
0.0
 30
0.0
  3
*D63
  1

  0
POINT
  5
2B7
330
2C0
100
AcDbEntity
  8
DEFPOINTS
  6
ByBlock
 62
     0
380
     1
100
AcDbPoint
 10
714.147072692748
 20
634.708435
 30
0.0
  0
POINT
  5
2B8
330
2C0
100
AcDbEntity
  8
DEFPOINTS
  6
ByBlock
 62
     0
380
     1
100
AcDbPoint
 10
714.147072692748
 20
446.708435
 30
0.0
  0
LINE
  5
2B9
330
2C0
100
AcDbEntity
  8
0
  6
ByBlock
 62
     0
370
    -2
380
     1
100
AcDbLine
 10
714.772072692748
 20
634.708435
 30
0.0
 11
886.4611303413891
 21
634.708435
 31
0.0
  0
LINE
  5
2BA
330
2C0
100
AcDbEntity
  8
0
  6
ByBlock
 62
     0
370
    -2
380
     1
100
AcDbLine
 10
714.772072692748
 20
446.708435
 30
0.0
 11
886.4611303413891
 21
446.708435
 31
0.0
  0
LINE
  5
2BB
330
2C0
100
AcDbEntity
  8
0
  6
ByBlock
 62
     0
370
    -2
380
     1
100
AcDbLine
 10
885.2111303413891
 20
632.208435
 30
0.0
 11
885.2111303413891
 21
449.208435
 31
0.0
  0
SOLID
  5
2BC
330
2C0
100
AcDbEntity
  8
0
  6
ByBlock
 62
     0
380
     1
100
AcDbTrace
 10
885.2111303413891
 20
634.708435
 30
0.0
 11
884.7944636747225
 21
632.208435
 31
0.0
 12
885.6277970080557
 22
632.208435
 32
0.0
 13
885.6277970080557
 23
632.208435
 33
0.0
  0
SOLID
  5
2BD
330
2C0
100
AcDbEntity
  8
0
  6
ByBlock
 62
     0
380
     1
100
AcDbTrace
 10
885.2111303413891
 20
446.708435
 30
0.0
 11
884.7944636747225
 21
449.208435
 31
0.0
 12
885.6277970080557
 22
449.208435
 32
0.0
 13
885.6277970080557
 23
449.208435
 33
0.0
  0
MTEXT
  5
2BE
330
2C0
100
AcDbEntity
  8
0
  6
ByBlock
 62
     0
370
    -2
380
     1
100
AcDbMText
 10
883.4611303413891
 20
540.708435
 30
0.0
 40
2.5
 41
0.0
 71
     5
 72
     1
  1
\A1;188
 11
6.123031769111886E-17
 21
1.0
 31
0.0
 73
     1
 44
1.0
  0
ENDBLK
  5
3A9
330
2C0
100
AcDbEntity
  8
0
100
AcDbBlockEnd
  0
BLOCK
  5
3AA
330
2CB
100
AcDbEntity
  8
0
100
AcDbBlockBegin
  2
*D64
 70
     1
 10
0.0
 20
0.0
 30
0.0
  3
*D64
  1

  0
POINT
  5
2C2
330
2CB
100
AcDbEntity
  8
DEFPOINTS
  6
ByBlock
 62
     7
380
     1
100
AcDbPoint
 10
714.147072692748
 20
634.708435
 30
0.0
  0
POINT
  5
2C3
330
2CB
100
AcDbEntity
  8
DEFPOINTS
  6
ByBlock
 62
     7
380
     1
100
AcDbPoint
 10
714.147072692748
 20
446.708435
 30
0.0
  0
LINE
  5
2C4
330
2CB
100
AcDbEntity
  8
0
  6
ByBlock
 62
     7
370
    -2
380
     1
100
AcDbLine
 10
714.772072692748
 20
634.708435
 30
0.0
 11
886.4611303413891
 21
634.708435
 31
0.0
  0
LINE
  5
2C5
330
2CB
100
AcDbEntity
  8
0
  6
ByBlock
 62
     7
370
    -2
380
     1
100
AcDbLine
 10
714.772072692748
 20
446.708435
 30
0.0
 11
886.4611303413891
 21
446.708435
 31
0.0
  0
LINE
  5
2C6
330
2CB
100
AcDbEntity
  8
0
  6
ByBlock
 62
     7
370
    -2
380
     1
100
AcDbLine
 10
885.2111303413891
 20
624.708435
 30
0.0
 11
885.2111303413891
 21
456.708435
 31
0.0
  0
SOLID
  5
2C7
330
2CB
100
AcDbEntity
  8
0
  6
ByBlock
 62
     7
380
     1
100
AcDbTrace
 10
885.2111303413891
 20
634.708435
 30
0.0
 11
883.5444636747225
 21
624.708435
 31
0.0
 12
886.8777970080557
 22
624.708435
 32
0.0
 13
886.8777970080557
 23
624.708435
 33
0.0
  0
SOLID
  5
2C8
330
2CB
100
AcDbEntity
  8
0
  6
ByBlock
 62
     7
380
     1
100
AcDbTrace
 10
885.2111303413891
 20
446.708435
 30
0.0
 11
883.5444636747225
 21
456.708435
 31
0.0
 12
886.8777970080557
 22
456.708435
 32
0.0
 13
886.8777970080557
 23
456.708435
 33
0.0
  0
MTEXT
  5
2C9
330
2CB
100
AcDbEntity
  8
0
  6
ByBlock
 62
     0
370
    -2
380
     1
100
AcDbMText
 10
873.9111303413891
 20
540.708435
 30
0.0
 40
14.0
 41
0.0
 71
     5
 72
     1
  1
\A1;188
 11
6.123031769111886E-17
 21
1.0
 31
0.0
 73
     1
 44
1.0
  0
ENDBLK
  5
3AB
330
2CB
100
AcDbEntity
  8
0
100
AcDbBlockEnd
  0
BLOCK
  5
3AC
330
2D6
100
AcDbEntity
  8
0
100
AcDbBlockBegin
  2
*D65
 70
     1
 10
0.0
 20
0.0
 30
0.0
  3
*D65
  1

  0
POINT
  5
2CD
330
2D6
100
AcDbEntity
  8
DEFPOINTS
  6
ByBlock
 62
     7
380
     1
100
AcDbPoint
 10
714.147072692748
 20
634.708435
 30
0.0
  0
POINT
  5
2CE
330
2D6
100
AcDbEntity
  8
DEFPOINTS
  6
ByBlock
 62
     7
380
     1
100
AcDbPoint
 10
714.147072692748
 20
446.708435
 30
0.0
  0
LINE
  5
2CF
330
2D6
100
AcDbEntity
  8
0
  6
ByBlock
 62
     7
370
    -2
380
     1
100
AcDbLine
 10
714.772072692748
 20
634.708435
 30
0.0
 11
886.4611303413891
 21
634.708435
 31
0.0
  0
LINE
  5
2D0
330
2D6
100
AcDbEntity
  8
0
  6
ByBlock
 62
     7
370
    -2
380
     1
100
AcDbLine
 10
714.772072692748
 20
446.708435
 30
0.0
 11
886.4611303413891
 21
446.708435
 31
0.0
  0
LINE
  5
2D1
330
2D6
100
AcDbEntity
  8
0
  6
ByBlock
 62
     7
370
    -2
380
     1
100
AcDbLine
 10
885.2111303413891
 20
624.708435
 30
0.0
 11
885.2111303413891
 21
456.708435
 31
0.0
  0
SOLID
  5
2D2
330
2D6
100
AcDbEntity
  8
0
  6
ByBlock
 62
     7
380
     1
100
AcDbTrace
 10
885.2111303413891
 20
634.708435
 30
0.0
 11
883.5444636747225
 21
624.708435
 31
0.0
 12
886.8777970080557
 22
624.708435
 32
0.0
 13
886.8777970080557
 23
624.708435
 33
0.0
  0
SOLID
  5
2D3
330
2D6
100
AcDbEntity
  8
0
  6
ByBlock
 62
     7
380
     1
100
AcDbTrace
 10
885.2111303413891
 20
446.708435
 30
0.0
 11
883.5444636747225
 21
456.708435
 31
0.0
 12
886.8777970080557
 22
456.708435
 32
0.0
 13
886.8777970080557
 23
456.708435
 33
0.0
  0
MTEXT
  5
2D4
330
2D6
100
AcDbEntity
  8
0
  6
ByBlock
 62
     0
370
    -2
380
     1
100
AcDbMText
 10
873.9111303413891
 20
540.708435
 30
0.0
 40
14.0
 41
0.0
 71
     5
 72
     1
  1
\A1;188
 11
6.123031769111886E-17
 21
1.0
 31
0.0
 73
     1
 44
1.0
  0
ENDBLK
  5
3AD
330
2D6
100
AcDbEntity
  8
0
100
AcDbBlockEnd
  0
BLOCK
  5
3AE
330
2E2
100
AcDbEntity
  8
0
100
AcDbBlockBegin
  2
*D66
 70
     1
 10
0.0
 20
0.0
 30
0.0
  3
*D66
  1

  0
POINT
  5
2D9
330
2E2
100
AcDbEntity
  8
DEFPOINTS
  6
ByBlock
 62
     0
380
     1
100
AcDbPoint
 10
715.3171375967551
 20
284.809185
 30
0.0
  0
POINT
  5
2DA
330
2E2
100
AcDbEntity
  8
DEFPOINTS
  6
ByBlock
 62
     0
380
     1
100
AcDbPoint
 10
715.3171375967551
 20
226.809185
 30
0.0
  0
LINE
  5
2DB
330
2E2
100
AcDbEntity
  8
0
  6
ByBlock
 62
     0
370
    -2
380
     1
100
AcDbLine
 10
715.9421375967551
 20
284.809185
 30
0.0
 11
864.4246710314156
 21
284.809185
 31
0.0
  0
LINE
  5
2DC
330
2E2
100
AcDbEntity
  8
0
  6
ByBlock
 62
     0
370
    -2
380
     1
100
AcDbLine
 10
715.9421375967551
 20
226.809185
 30
0.0
 11
864.4246710314156
 21
226.809185
 31
0.0
  0
LINE
  5
2DD
330
2E2
100
AcDbEntity
  8
0
  6
ByBlock
 62
     0
370
    -2
380
     1
100
AcDbLine
 10
863.1746710314156
 20
282.309185
 30
0.0
 11
863.1746710314156
 21
229.309185
 31
0.0
  0
SOLID
  5
2DE
330
2E2
100
AcDbEntity
  8
0
  6
ByBlock
 62
     0
380
     1
100
AcDbTrace
 10
863.1746710314156
 20
284.809185
 30
0.0
 11
862.758004364749
 21
282.309185
 31
0.0
 12
863.5913376980823
 22
282.309185
 32
0.0
 13
863.5913376980823
 23
282.309185
 33
0.0
  0
SOLID
  5
2DF
330
2E2
100
AcDbEntity
  8
0
  6
ByBlock
 62
     0
380
     1
100
AcDbTrace
 10
863.1746710314156
 20
226.809185
 30
0.0
 11
862.758004364749
 21
229.309185
 31
0.0
 12
863.5913376980823
 22
229.309185
 32
0.0
 13
863.5913376980823
 23
229.309185
 33
0.0
  0
MTEXT
  5
2E0
330
2E2
100
AcDbEntity
  8
0
  6
ByBlock
 62
     0
370
    -2
380
     1
100
AcDbMText
 10
861.4246710314156
 20
255.809185
 30
0.0
 40
2.5
 41
0.0
 71
     5
 72
     1
  1
\A1;58
 11
6.123031769111886E-17
 21
1.0
 31
0.0
 73
     1
 44
1.0
  0
ENDBLK
  5
3AF
330
2E2
100
AcDbEntity
  8
0
100
AcDbBlockEnd
  0
BLOCK
  5
3B0
330
2EE
100
AcDbEntity
  8
0
100
AcDbBlockBegin
  2
*D67
 70
     1
 10
0.0
 20
0.0
 30
0.0
  3
*D67
  1

  0
POINT
  5
2E5
330
2EE
100
AcDbEntity
  8
DEFPOINTS
  6
ByBlock
 62
     0
380
     1
100
AcDbPoint
 10
715.3171375967551
 20
284.809185
 30
0.0
  0
POINT
  5
2E6
330
2EE
100
AcDbEntity
  8
DEFPOINTS
  6
ByBlock
 62
     0
380
     1
100
AcDbPoint
 10
715.3171375967551
 20
226.809185
 30
0.0
  0
LINE
  5
2E7
330
2EE
100
AcDbEntity
  8
0
  6
ByBlock
 62
     0
370
    -2
380
     1
100
AcDbLine
 10
715.9421375967551
 20
284.809185
 30
0.0
 11
886.4611303413891
 21
284.809185
 31
0.0
  0
LINE
  5
2E8
330
2EE
100
AcDbEntity
  8
0
  6
ByBlock
 62
     0
370
    -2
380
     1
100
AcDbLine
 10
715.9421375967551
 20
226.809185
 30
0.0
 11
886.4611303413891
 21
226.809185
 31
0.0
  0
LINE
  5
2E9
330
2EE
100
AcDbEntity
  8
0
  6
ByBlock
 62
     0
370
    -2
380
     1
100
AcDbLine
 10
885.2111303413891
 20
282.309185
 30
0.0
 11
885.2111303413891
 21
229.309185
 31
0.0
  0
SOLID
  5
2EA
330
2EE
100
AcDbEntity
  8
0
  6
ByBlock
 62
     0
380
     1
100
AcDbTrace
 10
885.2111303413891
 20
284.809185
 30
0.0
 11
884.7944636747225
 21
282.309185
 31
0.0
 12
885.6277970080557
 22
282.309185
 32
0.0
 13
885.6277970080557
 23
282.309185
 33
0.0
  0
SOLID
  5
2EB
330
2EE
100
AcDbEntity
  8
0
  6
ByBlock
 62
     0
380
     1
100
AcDbTrace
 10
885.2111303413891
 20
226.809185
 30
0.0
 11
884.7944636747225
 21
229.309185
 31
0.0
 12
885.6277970080557
 22
229.309185
 32
0.0
 13
885.6277970080557
 23
229.309185
 33
0.0
  0
MTEXT
  5
2EC
330
2EE
100
AcDbEntity
  8
0
  6
ByBlock
 62
     0
370
    -2
380
     1
100
AcDbMText
 10
883.4611303413891
 20
255.809185
 30
0.0
 40
2.5
 41
0.0
 71
     5
 72
     1
  1
\A1;58
 11
6.123031769111886E-17
 21
1.0
 31
0.0
 73
     1
 44
1.0
  0
ENDBLK
  5
3B1
330
2EE
100
AcDbEntity
  8
0
100
AcDbBlockEnd
  0
BLOCK
  5
3B2
330
2F9
100
AcDbEntity
  8
0
100
AcDbBlockBegin
  2
*D68
 70
     1
 10
0.0
 20
0.0
 30
0.0
  3
*D68
  1

  0
POINT
  5
2F0
330
2F9
100
AcDbEntity
  8
DEFPOINTS
  6
ByBlock
 62
     7
380
     1
100
AcDbPoint
 10
715.3171375967551
 20
284.809185
 30
0.0
  0
POINT
  5
2F1
330
2F9
100
AcDbEntity
  8
DEFPOINTS
  6
ByBlock
 62
     7
380
     1
100
AcDbPoint
 10
715.3171375967551
 20
226.809185
 30
0.0
  0
LINE
  5
2F2
330
2F9
100
AcDbEntity
  8
0
  6
ByBlock
 62
     7
370
    -2
380
     1
100
AcDbLine
 10
715.9421375967551
 20
284.809185
 30
0.0
 11
886.4611303413891
 21
284.809185
 31
0.0
  0
LINE
  5
2F3
330
2F9
100
AcDbEntity
  8
0
  6
ByBlock
 62
     7
370
    -2
380
     1
100
AcDbLine
 10
715.9421375967551
 20
226.809185
 30
0.0
 11
886.4611303413891
 21
226.809185
 31
0.0
  0
LINE
  5
2F4
330
2F9
100
AcDbEntity
  8
0
  6
ByBlock
 62
     7
370
    -2
380
     1
100
AcDbLine
 10
885.2111303413891
 20
274.809185
 30
0.0
 11
885.2111303413891
 21
236.809185
 31
0.0
  0
SOLID
  5
2F5
330
2F9
100
AcDbEntity
  8
0
  6
ByBlock
 62
     7
380
     1
100
AcDbTrace
 10
885.2111303413891
 20
284.809185
 30
0.0
 11
883.5444636747225
 21
274.809185
 31
0.0
 12
886.8777970080557
 22
274.809185
 32
0.0
 13
886.8777970080557
 23
274.809185
 33
0.0
  0
SOLID
  5
2F6
330
2F9
100
AcDbEntity
  8
0
  6
ByBlock
 62
     7
380
     1
100
AcDbTrace
 10
885.2111303413891
 20
226.809185
 30
0.0
 11
883.5444636747225
 21
236.809185
 31
0.0
 12
886.8777970080557
 22
236.809185
 32
0.0
 13
886.8777970080557
 23
236.809185
 33
0.0
  0
MTEXT
  5
2F7
330
2F9
100
AcDbEntity
  8
0
  6
ByBlock
 62
     0
370
    -2
380
     1
100
AcDbMText
 10
873.911130341389
 20
255.809185
 30
0.0
 40
14.0
 41
0.0
 71
     5
 72
     1
  1
\A1;58
 11
6.123031769111886E-17
 21
1.0
 31
0.0
 73
     1
 44
1.0
  0
ENDBLK
  5
3B3
330
2F9
100
AcDbEntity
  8
0
100
AcDbBlockEnd
  0
BLOCK
  5
3B4
330
305
100
AcDbEntity
  8
0
100
AcDbBlockBegin
  2
*D69
 70
     1
 10
0.0
 20
0.0
 30
0.0
  3
*D69
  1

  0
POINT
  5
2FC
330
305
100
AcDbEntity
  8
DEFPOINTS
  6
ByBlock
 62
     7
380
     1
100
AcDbPoint
 10
715.3171375967551
 20
284.809185
 30
0.0
  0
POINT
  5
2FD
330
305
100
AcDbEntity
  8
DEFPOINTS
  6
ByBlock
 62
     7
380
     1
100
AcDbPoint
 10
715.3171375967551
 20
226.809185
 30
0.0
  0
LINE
  5
2FE
330
305
100
AcDbEntity
  8
0
  6
ByBlock
 62
     7
370
    -2
380
     1
100
AcDbLine
 10
715.9421375967551
 20
284.809185
 30
0.0
 11
886.4611303413891
 21
284.809185
 31
0.0
  0
LINE
  5
2FF
330
305
100
AcDbEntity
  8
0
  6
ByBlock
 62
     7
370
    -2
380
     1
100
AcDbLine
 10
715.9421375967551
 20
226.809185
 30
0.0
 11
886.4611303413891
 21
226.809185
 31
0.0
  0
LINE
  5
300
330
305
100
AcDbEntity
  8
0
  6
ByBlock
 62
     7
370
    -2
380
     1
100
AcDbLine
 10
885.2111303413891
 20
274.809185
 30
0.0
 11
885.2111303413891
 21
236.809185
 31
0.0
  0
SOLID
  5
301
330
305
100
AcDbEntity
  8
0
  6
ByBlock
 62
     7
380
     1
100
AcDbTrace
 10
885.2111303413891
 20
284.809185
 30
0.0
 11
883.5444636747225
 21
274.809185
 31
0.0
 12
886.8777970080557
 22
274.809185
 32
0.0
 13
886.8777970080557
 23
274.809185
 33
0.0
  0
SOLID
  5
302
330
305
100
AcDbEntity
  8
0
  6
ByBlock
 62
     7
380
     1
100
AcDbTrace
 10
885.2111303413891
 20
226.809185
 30
0.0
 11
883.5444636747225
 21
236.809185
 31
0.0
 12
886.8777970080557
 22
236.809185
 32
0.0
 13
886.8777970080557
 23
236.809185
 33
0.0
  0
MTEXT
  5
303
330
305
100
AcDbEntity
  8
0
  6
ByBlock
 62
     0
370
    -2
380
     1
100
AcDbMText
 10
873.911130341389
 20
255.809185
 30
0.0
 40
14.0
 41
0.0
 71
     5
 72
     1
  1
\A1;58
 11
6.123031769111886E-17
 21
1.0
 31
0.0
 73
     1
 44
1.0
  0
ENDBLK
  5
3B5
330
305
100
AcDbEntity
  8
0
100
AcDbBlockEnd
  0
ENDSEC
  0
SECTION
  2
ENTITIES
  0
ARC
  5
250
330
1F
100
AcDbEntity
  8
0
 62
     7
370
    60
390
F
100
AcDbCircle
 10
829.21167
 20
616.708435
 30
0.0
 40
18.0
100
AcDbArc
 50
0.0
 51
90.000003
  0
LINE
  5
251
330
1F
100
AcDbEntity
  8
0
 62
     7
370
    60
390
F
100
AcDbLine
 10
824.280151
 20
629.708435
 30
0.0
 11
192.143189
 21
629.708435
 31
0.0
  0
LINE
  5
252
330
1F
100
AcDbEntity
  8
0
 62
     7
 48
0.103835
370
    60
390
F
100
AcDbLine
 10
824.280151
 20
629.708435
 30
0.0
 11
821.3432620000001
 21
626.7715450000001
 31
0.0
  0
LINE
  5
253
330
1F
100
AcDbEntity
  8
0
 62
     7
370
    60
390
F
100
AcDbLine
 10
821.3432620000001
 20
626.7715450000001
 30
0.0
 11
195.080078
 21
626.7715450000001
 31
0.0
  0
LINE
  5
254
330
1F
100
AcDbEntity
  8
0
 62
     7
 48
0.103835
370
    60
390
F
100
AcDbLine
 10
192.143189
 20
629.708435
 30
0.0
 11
195.080078
 21
626.7715450000001
 31
0.0
  0
ARC
  5
255
330
1F
100
AcDbEntity
  8
0
 62
     7
370
    60
390
F
100
AcDbCircle
 10
187.21167
 20
616.708435
 30
0.0
 40
18.0
100
AcDbArc
 50
90.000003
 51
180.000005
  0
LINE
  5
256
330
1F
100
AcDbEntity
  8
0
 62
     7
370
    60
390
F
100
AcDbLine
 10
829.21167
 20
634.708435
 30
0.0
 11
187.21167
 21
634.708435
 31
0.0
  0
ARC
  5
257
330
1F
100
AcDbEntity
  8
0
 62
     7
370
    60
390
F
100
AcDbCircle
 10
829.21167
 20
464.708435
 30
0.0
 40
18.0
100
AcDbArc
 50
269.999997
 51
360.0
  0
LINE
  5
258
330
1F
100
AcDbEntity
  8
0
 62
     7
 48
0.103835
370
    60
390
F
100
AcDbLine
 10
192.143189
 20
451.708435
 30
0.0
 11
195.080078
 21
454.645325
 31
0.0
  0
LINE
  5
259
330
1F
100
AcDbEntity
  8
0
 62
     7
370
    60
390
F
100
AcDbLine
 10
821.3432620000001
 20
454.645325
 30
0.0
 11
195.080078
 21
454.645325
 31
0.0
  0
LINE
  5
25A
330
1F
100
AcDbEntity
  8
0
 62
     7
 48
0.103835
370
    60
390
F
100
AcDbLine
 10
824.280151
 20
451.708435
 30
0.0
 11
821.3432620000001
 21
454.645325
 31
0.0
  0
LINE
  5
25B
330
1F
100
AcDbEntity
  8
0
 62
     7
370
    60
390
F
100
AcDbLine
 10
824.280151
 20
451.708435
 30
0.0
 11
192.143189
 21
451.708435
 31
0.0
  0
ARC
  5
25C
330
1F
100
AcDbEntity
  8
0
 62
     7
370
    60
390
F
100
AcDbCircle
 10
187.21167
 20
464.708435
 30
0.0
 40
18.0
100
AcDbArc
 50
180.000005
 51
269.999997
  0
LINE
  5
25D
330
1F
100
AcDbEntity
  8
0
 62
     7
370
    60
390
F
100
AcDbLine
 10
829.21167
 20
446.708435
 30
0.0
 11
187.21167
 21
446.708435
 31
0.0
  0
LINE
  5
25E
330
1F
100
AcDbEntity
  8
0
 62
     7
370
    60
390
F
100
AcDbLine
 10
847.21167
 20
464.708435
 30
0.0
 11
847.21167
 21
616.708435
 31
0.0
  0
LINE
  5
25F
330
1F
100
AcDbEntity
  8
0
 62
     7
370
    60
390
F
100
AcDbLine
 10
821.3432620000001
 20
472.576828
 30
0.0
 11
821.3432620000001
 21
608.840042
 31
0.0
  0
LINE
  5
260
330
1F
100
AcDbEntity
  8
0
 62
     7
370
    60
390
F
100
AcDbLine
 10
821.3432620000001
 20
608.840042
 30
0.0
 11
195.080078
 21
608.840042
 31
0.0
  0
LINE
  5
261
330
1F
100
AcDbEntity
  8
0
 62
     7
370
    60
390
F
100
AcDbLine
 10
195.080078
 20
472.576828
 30
0.0
 11
195.080078
 21
608.840042
 31
0.0
  0
LINE
  5
262
330
1F
100
AcDbEntity
  8
0
 62
     7
370
    60
390
F
100
AcDbLine
 10
821.3432620000001
 20
472.576828
 30
0.0
 11
195.080078
 21
472.576828
 31
0.0
  0
LINE
  5
263
330
1F
100
AcDbEntity
  8
0
 62
     7
 48
0.448288
370
    60
390
F
100
AcDbLine
 10
195.080078
 20
608.840042
 30
0.0
 11
177.14856
 21
608.840042
 31
0.0
  0
LINE
  5
264
330
1F
100
AcDbEntity
  8
0
 62
     7
370
    60
390
F
100
AcDbLine
 10
177.14856
 20
472.576828
 30
0.0
 11
177.14856
 21
608.840042
 31
0.0
  0
LINE
  5
265
330
1F
100
AcDbEntity
  8
0
 62
     7
 48
0.448288
370
    60
390
F
100
AcDbLine
 10
195.080078
 20
472.576828
 30
0.0
 11
177.14856
 21
472.576828
 31
0.0
  0
LINE
  5
266
330
1F
100
AcDbEntity
  8
0
 62
     7
370
    60
390
F
100
AcDbLine
 10
839.27478
 20
472.576828
 30
0.0
 11
839.27478
 21
608.840042
 31
0.0
  0
LINE
  5
267
330
1F
100
AcDbEntity
  8
0
 62
     7
 48
0.448288
370
    60
390
F
100
AcDbLine
 10
821.3432620000001
 20
608.840042
 30
0.0
 11
839.27478
 21
608.840042
 31
0.0
  0
LINE
  5
268
330
1F
100
AcDbEntity
  8
0
 62
     7
 48
0.448288
370
    60
390
F
100
AcDbLine
 10
821.3432620000001
 20
472.576828
 30
0.0
 11
839.27478
 21
472.576828
 31
0.0
  0
LINE
  5
269
330
1F
100
AcDbEntity
  8
0
 62
     7
370
    60
390
F
100
AcDbLine
 10
169.21167
 20
464.708435
 30
0.0
 11
169.21167
 21
616.708435
 31
0.0
  0
LINE
  5
26A
330
1F
100
AcDbEntity
  8
0
 62
     7
 48
0.103835
370
    60
390
F
100
AcDbLine
 10
174.21167
 20
469.639938
 30
0.0
 11
177.14856
 21
472.576828
 31
0.0
  0
LINE
  5
26B
330
1F
100
AcDbEntity
  8
0
 62
     7
370
    60
390
F
100
AcDbLine
 10
174.21167
 20
469.639938
 30
0.0
 11
174.21167
 21
611.776932
 31
0.0
  0
LINE
  5
26C
330
1F
100
AcDbEntity
  8
0
 62
     7
 48
0.103835
370
    60
390
F
100
AcDbLine
 10
174.21167
 20
611.776932
 30
0.0
 11
177.14856
 21
608.840042
 31
0.0
  0
LINE
  5
26D
330
1F
100
AcDbEntity
  8
0
 62
     7
 48
0.103835
370
    60
390
F
100
AcDbLine
 10
842.21167
 20
611.776932
 30
0.0
 11
839.27478
 21
608.840042
 31
0.0
  0
LINE
  5
26E
330
1F
100
AcDbEntity
  8
0
 62
     7
370
    60
390
F
100
AcDbLine
 10
842.21167
 20
469.639938
 30
0.0
 11
842.21167
 21
611.776932
 31
0.0
  0
LINE
  5
26F
330
1F
100
AcDbEntity
  8
0
 62
     7
 48
0.103835
370
    60
390
F
100
AcDbLine
 10
842.21167
 20
469.639938
 30
0.0
 11
839.27478
 21
472.576828
 31
0.0
  0
ELLIPSE
  5
270
330
1F
100
AcDbEntity
  8
0
 62
     7
370
    60
100
AcDbEllipse
 10
824.1427920000001
 20
611.639549
 30
0.0
 11
-12.82477569580078
 21
-12.82542037963867
 31
0.0
210
0.0
220
0.0
230
1.0
 40
0.9924269999999997
 41
2.359971926719437
 42
3.923163636867938
  0
ELLIPSE
  5
271
330
1F
100
AcDbEntity
  8
0
 62
     7
370
    60
100
AcDbEllipse
 10
192.280548
 20
611.639549
 30
0.0
 11
12.82477569580078
 21
-12.82542037963867
 31
0.0
210
0.0
220
0.0
230
1.0
 40
0.9924269999999997
 41
2.360021670310825
 42
3.923213380459529
  0
ELLIPSE
  5
272
330
1F
100
AcDbEntity
  8
0
 62
     7
370
    60
100
AcDbEllipse
 10
192.280548
 20
469.777321
 30
0.0
 11
-12.82477569580078
 21
-12.82542037963867
 31
0.0
210
0.0
220
0.0
230
1.0
 40
0.9924269999999997
 41
5.501564580309853
 42
7.064756290458555
  0
ELLIPSE
  5
273
330
1F
100
AcDbEntity
  8
0
 62
     7
370
    60
100
AcDbEllipse
 10
824.1427920000001
 20
469.777321
 30
0.0
 11
12.82477569580078
 21
-12.82542037963867
 31
0.0
210
0.0
220
0.0
230
1.0
 40
0.9924269999999997
 41
5.501614323901443
 42
7.064806034049943
  0
ELLIPSE
  5
274
330
1F
100
AcDbEntity
  8
0
 62
     7
370
    60
100
AcDbEllipse
 10
821.3432620000001
 20
608.840042
 30
0.0
 11
-12.7279224395752
 21
12.7279224395752
 31
0.0
210
0.0
220
0.0
230
1.0
 40
0.9924329999999996
 41
3.930788915260527
 42
5.493989045508859
  0
ELLIPSE
  5
275
330
1F
100
AcDbEntity
  8
0
 62
     7
370
    60
100
AcDbEllipse
 10
195.080078
 20
608.840042
 30
0.0
 11
12.7279224395752
 21
12.7279224395752
 31
0.0
210
0.0
220
0.0
230
1.0
 40
0.9924329999999996
 41
0.7891962616707263
 42
2.35239639191906
  0
LINE
  5
276
330
1F
100
AcDbEntity
  8
0
 62
     7
 48
0.448288
370
    60
390
F
100
AcDbLine
 10
821.3432620000001
 20
608.840042
 30
0.0
 11
821.3432620000001
 21
626.7715450000001
 31
0.0
  0
LINE
  5
277
330
1F
100
AcDbEntity
  8
0
 62
     7
 48
0.448288
370
    60
390
F
100
AcDbLine
 10
195.080078
 20
608.840042
 30
0.0
 11
195.080078
 21
626.7715450000001
 31
0.0
  0
ELLIPSE
  5
278
330
1F
100
AcDbEntity
  8
0
 62
     7
370
    60
100
AcDbEllipse
 10
821.3432620000001
 20
472.576828
 30
0.0
 11
-12.7279224395752
 21
-12.7279224395752
 31
0.0
210
0.0
220
0.0
230
1.0
 40
0.9924329999999996
 41
0.7891962616707263
 42
2.35239639191906
  0
ELLIPSE
  5
279
330
1F
100
AcDbEntity
  8
0
 62
     7
370
    60
100
AcDbEllipse
 10
195.080078
 20
472.576828
 30
0.0
 11
12.7279224395752
 21
-12.7279224395752
 31
0.0
210
0.0
220
0.0
230
1.0
 40
0.9924329999999996
 41
3.930788915260527
 42
5.493989045508859
  0
LINE
  5
27A
330
1F
100
AcDbEntity
  8
0
 62
     7
 48
0.448288
370
    60
390
F
100
AcDbLine
 10
821.3432620000001
 20
472.576828
 30
0.0
 11
821.3432620000001
 21
454.645325
 31
0.0
  0
LINE
  5
27B
330
1F
100
AcDbEntity
  8
0
 62
     7
 48
0.448288
370
    60
390
F
100
AcDbLine
 10
195.080078
 20
472.576828
 30
0.0
 11
195.080078
 21
454.645325
 31
0.0
  0
LINE
  5
27C
330
1F
100
AcDbEntity
  8
0
 62
     7
 48
0.45
370
    60
390
F
100
AcDbLine
 10
847.21167
 20
276.809185
 30
0.0
 11
829.21167
 21
276.809185
 31
0.0
  0
LINE
  5
27D
330
1F
100
AcDbEntity
  8
0
 62
     7
 48
0.45
370
    60
390
F
100
AcDbLine
 10
829.21167
 20
284.809185
 30
0.0
 11
847.21167
 21
284.809185
 31
0.0
  0
LINE
  5
27E
330
1F
100
AcDbEntity
  8
0
 62
     7
 48
0.2
370
    60
390
F
100
AcDbLine
 10
829.21167
 20
284.809185
 30
0.0
 11
829.21167
 21
276.809185
 31
0.0
  0
LINE
  5
27F
330
1F
100
AcDbEntity
  8
0
 62
     7
370
    60
390
F
100
AcDbLine
 10
824.280151
 20
276.809185
 30
0.0
 11
821.3432620000001
 21
243.240383
 31
0.0
  0
LINE
  5
280
330
1F
100
AcDbEntity
  8
0
 62
     7
370
    60
390
F
100
AcDbLine
 10
821.3432620000001
 20
243.240383
 30
0.0
 11
195.080078
 21
243.240383
 31
0.0
  0
LINE
  5
281
330
1F
100
AcDbEntity
  8
0
 62
     7
370
    60
390
F
100
AcDbLine
 10
192.143189
 20
276.809185
 30
0.0
 11
195.080078
 21
243.240383
 31
0.0
  0
LINE
  5
282
330
1F
100
AcDbEntity
  8
0
 62
     7
 48
0.2
370
    60
390
F
100
AcDbLine
 10
187.21167
 20
284.809185
 30
0.0
 11
187.21167
 21
276.809185
 31
0.0
  0
LINE
  5
283
330
1F
100
AcDbEntity
  8
0
 62
     7
 48
0.45
370
    60
390
F
100
AcDbLine
 10
169.21167
 20
284.809185
 30
0.0
 11
187.21167
 21
284.809185
 31
0.0
  0
LINE
  5
284
330
1F
100
AcDbEntity
  8
0
 62
     7
 48
0.45
370
    60
390
F
100
AcDbLine
 10
187.21167
 20
276.809185
 30
0.0
 11
169.21167
 21
276.809185
 31
0.0
  0
LINE
  5
285
330
1F
100
AcDbEntity
  8
0
 62
     7
370
    60
390
F
100
AcDbLine
 10
187.21167
 20
284.809185
 30
0.0
 11
829.21167
 21
284.809185
 31
0.0
  0
LINE
  5
286
330
1F
100
AcDbEntity
  8
0
 62
     7
370
    60
390
F
100
AcDbLine
 10
829.21167
 20
276.809185
 30
0.0
 11
187.21167
 21
276.809185
 31
0.0
  0
ARC
  5
287
330
1F
100
AcDbEntity
  8
0
 62
     7
370
    60
390
F
100
AcDbCircle
 10
195.080078
 20
244.809185
 30
0.0
 40
18.0
100
AcDbArc
 50
184.999994
 51
269.999997
  0
ARC
  5
288
330
1F
100
AcDbEntity
  8
0
 62
     7
370
    60
390
F
100
AcDbCircle
 10
821.3432620000001
 20
244.809185
 30
0.0
 40
18.0
100
AcDbArc
 50
269.999997
 51
355.0
  0
LINE
  5
289
330
1F
100
AcDbEntity
  8
0
 62
     7
370
    60
390
F
100
AcDbLine
 10
174.21167
 20
276.809185
 30
0.0
 11
177.14856
 21
243.240383
 31
0.0
  0
ELLIPSE
  5
28A
330
1F
100
AcDbEntity
  8
0
 62
     7
370
    60
100
AcDbEllipse
 10
821.3432620000001
 20
244.809185
 30
0.0
 11
-17.93150520324707
 21
1.568803310394287
 31
0.0
210
0.0
220
0.0
230
1.0
 40
0.086827
 41
1.57839252334146
 42
3.141592653589793
  0
ELLIPSE
  5
28B
330
1F
100
AcDbEntity
  8
0
 62
     7
370
    60
100
AcDbEllipse
 10
195.080078
 20
244.809185
 30
0.0
 11
17.93150520324707
 21
1.568803310394287
 31
0.0
210
0.0
220
0.0
230
1.0
 40
0.086827
 41
3.141592653589793
 42
4.704792783838126
  0
LINE
  5
28C
330
1F
100
AcDbEntity
  8
0
 62
     7
 48
0.41078
370
    60
390
F
100
AcDbLine
 10
821.3432620000001
 20
226.809185
 30
0.0
 11
821.3432620000001
 21
243.240383
 31
0.0
  0
LINE
  5
28D
330
1F
100
AcDbEntity
  8
0
 62
     7
 48
0.41078
370
    60
390
F
100
AcDbLine
 10
195.080078
 20
226.809185
 30
0.0
 11
195.080078
 21
243.240383
 31
0.0
  0
LINE
  5
28E
330
1F
100
AcDbEntity
  8
0
 62
     7
 48
0.2
370
    60
390
F
100
AcDbLine
 10
847.21167
 20
284.809185
 30
0.0
 11
847.21167
 21
276.809185
 31
0.0
  0
LINE
  5
28F
330
1F
100
AcDbEntity
  8
0
 62
     7
 48
0.2
370
    60
390
F
100
AcDbLine
 10
169.21167
 20
276.809185
 30
0.0
 11
169.21167
 21
284.809185
 31
0.0
  0
LINE
  5
290
330
1F
100
AcDbEntity
  8
0
 62
     7
370
    60
390
F
100
AcDbLine
 10
842.21167
 20
276.809185
 30
0.0
 11
839.27478
 21
243.240231
 31
0.0
  0
LINE
  5
291
330
1F
100
AcDbEntity
  8
0
 62
     7
370
    60
390
F
100
AcDbLine
 10
821.3432620000001
 20
226.809185
 30
0.0
 11
195.080078
 21
226.809185
 31
0.0
  0
DIMENSION
  5
293
330
1F
100
AcDbEntity
  8
0
370
    40
100
AcDbDimension
  2
*D62
 10
847.21167
 20
670.4359808631292
 30
0.0
 11
508.21167
 21
681.7359808631292
 31
0.0
 70
    32
 71
     5
 41
2.5
 42
678.0
  3
Standard
100
AcDbAlignedDimension
 13
169.21167
 23
531.8322674515554
 33
0.0
 14
847.21167
 24
540.708435
 34
0.0
100
AcDbRotatedDimension
1001
ACAD
1000
DSTYLE
1002
{
1070
    41
1040
10.0
1070
   140
1040
14.0
1070
   147
1040
5.0
1070
   176
1070
     7
1070
   177
1070
     7
1070
   271
1070
     0
1070
   340
1005
11
1002
}
  0
DIMENSION
  5
2B5
330
1F
100
AcDbEntity
  8
0
370
    40
100
AcDbDimension
  2
*D65
 10
885.2111303413891
 20
446.708435
 30
0.0
 11
873.9111303413891
 21
540.708435
 31
0.0
 70
    32
 71
     5
 41
2.5
 42
188.0
  3
Standard
100
AcDbAlignedDimension
 13
714.147072692748
 23
634.708435
 33
0.0
 14
714.147072692748
 24
446.708435
 34
0.0
 50
90.0
100
AcDbRotatedDimension
1001
ACAD
1000
DSTYLE
1002
{
1070
    41
1040
10.0
1070
   140
1040
14.0
1070
   147
1040
5.0
1070
   176
1070
     7
1070
   177
1070
     7
1070
   271
1070
     0
1070
   340
1005
11
1002
}
  0
DIMENSION
  5
2D7
330
1F
100
AcDbEntity
  8
0
370
    40
100
AcDbDimension
  2
*D69
 10
885.2111303413891
 20
226.809185
 30
0.0
 11
873.911130341389
 21
255.809185
 31
0.0
 70
   160
 71
     5
 41
2.5
 42
57.99999999999999
  3
Standard
100
AcDbAlignedDimension
 13
715.3171375967551
 23
284.809185
 33
0.0
 14
715.3171375967551
 24
226.809185
 34
0.0
 50
90.0
100
AcDbRotatedDimension
1001
ACAD
1000
DSTYLE
1002
{
1070
    41
1040
10.0
1070
   140
1040
14.0
1070
   147
1040
5.0
1070
   176
1070
     7
1070
   177
1070
     7
1070
   271
1070
     0
1070
   340
1005
11
1002
}
  0
VIEWPORT
  5
78
330
73
100
AcDbEntity
 67
     1
  8
0
 62
     0
370
     0
390
F
100
AcDbViewport
 10
0.0
 20
0.0
 30
0.0
 40
1000.0
 41
1000.0
 68
     1
 69
     1
 12
0.0
 22
0.0
 13
0.0
 23
0.0
 14
1.0
 24
1.0
 15
1.0
 25
1.0
 16
0.0
 26
0.0
 36
1.0
 17
0.0
 27
0.0
 37
0.0
 42
50.0
 43
0.0
 44
0.0
 45
1000.0
 50
0.0
 51
0.0
 72
   100
 90
   557056
  1

281
     0
 71
     0
 74
     0
110
0.0
120
0.0
130
0.0
111
1.0
121
0.0
131
0.0
112
0.0
122
1.0
132
0.0
 79
     0
146
0.0
  0
ENDSEC
  0
SECTION
  2
OBJECTS
  0
DICTIONARY
  5
C
330
0
100
AcDbDictionary
281
     1
  3
ACAD_COLOR
350
6C
  3
ACAD_GROUP
350
D
  3
ACAD_LAYOUT
350
1A
  3
ACAD_MATERIAL
350
6B
  3
ACAD_MLEADERSTYLE
350
3B8
  3
ACAD_MLINESTYLE
350
17
  3
ACAD_PLOTSETTINGS
350
19
  3
ACAD_PLOTSTYLENAME
350
E
  3
ACAD_SCALELIST
350
99
  3
ACAD_TABLESTYLE
350
92
  3
ACAD_WIPEOUT_VARS
350
309
  3
ACDBHEADERROUNDTRIPXREC
350
3B9
  3
AcDbVariableDictionary
350
59
  3
DWGPROPS
350
3BC
  0
DICTIONARY
  5
6C
102
{ACAD_REACTORS
330
C
102
}
330
C
100
AcDbDictionary
281
     1
  0
DICTIONARY
  5
D
102
{ACAD_REACTORS
330
C
102
}
330
C
100
AcDbDictionary
281
     1
  0
DICTIONARY
  5
1A
102
{ACAD_REACTORS
330
C
102
}
330
C
100
AcDbDictionary
281
     1
  3
Layout1
350
74
  3
Model
350
22
  0
DICTIONARY
  5
6B
102
{ACAD_REACTORS
330
C
102
}
330
C
100
AcDbDictionary
281
     1
  0
DICTIONARY
  5
3B8
102
{ACAD_REACTORS
330
C
102
}
330
C
100
AcDbDictionary
281
     1
  0
DICTIONARY
  5
17
102
{ACAD_REACTORS
330
C
102
}
330
C
100
AcDbDictionary
281
     1
  3
Standard
350
18
  0
DICTIONARY
  5
19
102
{ACAD_REACTORS
330
C
102
}
330
C
100
AcDbDictionary
281
     1
  0
ACDBDICTIONARYWDFLT
  5
E
102
{ACAD_REACTORS
330
C
102
}
330
C
100
AcDbDictionary
281
     1
  3
Normal
350
F
100
AcDbDictionaryWithDefault
340
F
  0
DICTIONARY
  5
99
102
{ACAD_REACTORS
330
C
102
}
330
C
100
AcDbDictionary
281
     1
  3
A0
350
22C
  3
A1
350
22D
  3
A2
350
22E
  3
A3
350
22F
  3
A4
350
230
  3
A5
350
231
  3
A6
350
232
  3
A7
350
233
  3
A8
350
234
  3
A9
350
235
  3
B0
350
236
  3
B1
350
237
  3
B2
350
238
  3
B3
350
239
  3
B4
350
23A
  3
B5
350
23B
  3
B6
350
23C
  3
B7
350
23D
  3
B8
350
23E
  3
B9
350
23F
  3
C0
350
240
  3
C1
350
241
  3
C2
350
242
  3
C3
350
243
  3
C4
350
244
  3
C5
350
245
  3
C6
350
246
  3
C7
350
247
  3
C8
350
248
  3
C9
350
249
  3
D0
350
24A
  3
D1
350
24B
  3
D2
350
24C
  0
DICTIONARY
  5
92
102
{ACAD_REACTORS
330
C
102
}
330
C
100
AcDbDictionary
281
     1
  0
WIPEOUTVARIABLES
  5
309
102
{ACAD_REACTORS
330
C
102
}
330
C
100
AcDbWipeoutVariables
 70
     1
  0
DICTIONARY
  5
3B9
102
{ACAD_REACTORS
330
C
102
}
330
C
100
AcDbDictionary
281
     1
  3
COLORDICT
350
3BA
  3
MATERIALDICT
350
3BB
  0
DICTIONARY
  5
59
102
{ACAD_REACTORS
330
C
102
}
330
C
100
AcDbDictionary
281
     1
  3
CTABLESTYLE
350
98
  3
DIMASSOC
350
5A
  3
HIDETEXT
350
5E
  0
XRECORD
  5
3BC
102
{ACAD_REACTORS
330
C
102
}
330
C
100
AcDbXrecord
280
     1
  1
DWGPROPS COOKIE
  2

  3

  4

  6

  7

  8
BelottiMc
  9

300
=
301
=
302
=
303
=
304
=
305
=
306
=
307
=
308
=
309
=
 40
0.0
 41
2447892.999999977
 42
2447893.0
  1

 90
        0
  0
LAYOUT
  5
74
102
{ACAD_REACTORS
330
1A
102
}
330
1A
100
AcDbPlotSettings
  1

  2
none_device
  4
none_user_media
  6

 40
0.0
 41
0.0
 42
0.0
 43
0.0
 44
0.0
 45
0.0
 46
0.0
 47
0.0
 48
0.0
 49
0.0
140
0.0
141
0.0
142
1.0
143
1.0
 70
   544
 72
     0
 73
     0
 74
     0
  7

 75
    16
147
1.0
148
0.0
149
0.0
100
AcDbLayout
  1
Layout1
 70
     1
 71
     0
 10
0.0
 20
0.0
 11
420.0
 21
297.0
 12
0.0
 22
0.0
 32
0.0
 14
0.0
 24
0.0
 34
0.0
 15
1189.0
 25
841.0
 35
2.0
146
0.0
 13
0.0
 23
0.0
 33
0.0
 16
1.0
 26
0.0
 36
0.0
 17
0.0
 27
1.0
 37
0.0
 76
     0
330
73
331
78
  0
LAYOUT
  5
22
102
{ACAD_REACTORS
330
1A
102
}
330
1A
100
AcDbPlotSettings
  1

  2
\\prn100b\W366
  4
A4
  6

 40
4.233333333333333
 41
4.233333333333307
 42
4.233333333333335
 43
4.233333333333333
 44
210.0
 45
296.9
 46
0.0
 47
9.861111111113132
 48
0.0
 49
0.0
140
0.0
141
0.0
142
1.0
143
1.134303671849156
 70
 11956
 72
     0
 73
     1
 74
     1
  7

 75
     0
147
0.8815981335666376
148
0.0
149
0.0
100
AcDbLayout
  1
Model
 70
     1
 71
     0
 10
0.0
 20
0.0
 11
420.0
 21
297.0
 12
0.0
 22
0.0
 32
0.0
 14
169.21167
 24
226.809185
 34
0.0
 15
886.8777970080557
 25
687.6859808631291
 35
0.0
146
0.0
 13
0.0
 23
0.0
 33
0.0
 16
1.0
 26
0.0
 36
0.0
 17
0.0
 27
1.0
 37
0.0
 76
     0
330
1F
331
97
1001
PROGE_PRINT_SETTINGS
1070
    73
1070
     2
1070
   311
1000
\\prn100b\W366
1004
303030303030303035323030343930303433303034463030343830303230303034313030363630303639303036333030363930303646303032303030343130303530303033363030333130303330303034453030323030303530303034333030344330303230303033363030303030303030303030303030303030303030
1004
303030303030303030303443303035303030353430303331303033413030303030303030303030303030303030303030303030303030303030303030303030303030303030303030303030303030303030303030303030303030303030303030303030303030303030303030303030303030303030303030303030303030
1004
303030303030303030303030303030303030303030303030303030303030303030303030303030303030303030303030303030303030303030303030303030303030303030303030303030303030303030303030303030303030303030303030303030303030303030303030303030303030303030303030303030303030
1004
303030303030303030303030303030303030303030303030303030303030303030303030303030303030303030303030303030303030303030303030303030303030303030303030303030303030303030303030303030303030303030303030303030303030303030303030303030303030303030303030303030303030
1004
303030303030303030303030303030303030303030303030303030303030303030303030303030303030303030303030303030303030303030303030303030303030303030303030303030303030303030303030303030303030303030303030303030303030303030303030303030303030303030303030373430413030
1004
303030303030303030303030303030303030303130303030303037343041303030303531304430303030303130303030303030363030303030304230303930303030423330443030303030323030303030303030303030303030303030303030303030303030303030303030303030303030303030303030303030303030
1004
303030303030303030303030303030303030303030303030303030303030303030303030303030303030303036343030303030303035303030303030303030303030303030303030303030303030303030303030303130303030303030303030303030303030303030303030303630303030303030303030303030303030
1004
303030303030303030303030303030303030303030303030303030303030313830303030303030303030313032373130323731303237303030303130323730303030303030303030303030303030303130303030303030303030303030303030303030303030303030303030303030303030303030303030303030303030
1004
303030303030303030303030303030303030303030303030303030303030303030303030303030303030303030303030303030303030303030303030303030303030303030303030303030303030303030303030303030303030303030303030303030303030303030303030303030303030303030303030303030303030
1004
303030303030303030303030303030303030303030303030303030303030303030303030303030303030303030303030303030303030303030303030303030303030303030303030303030303030303030303030303030303030303030303030303030303030303030303030303030303030303030303030303030303030
1004
303030303030303030303030303030303030303030303030303030303030303030303030303030303030303030303030303030303030303030303030303030303030303030303030303030303030303030303030303030303030303030303030303030303030303030303030303030303030303030303030303030303030
1004
303030303030303030303030303030303030303030303030303030303030303030303030303030303030303030303030303030303030303030303030303030303030303030303030303030303030303030303030303030303030303030303030303030303030303030303030303030303030303030303030303030303030
1004
303030303030303030303030303030303030303030303030303030303030303030303030303030303030303030303030303030303030303030303030303030303030303030303030303030303030303030303030303030303030303030303030303030303030303030303030303030303030303030303030303030303030
1004
303030303030303030303030303030303030303030303030303030303030303030303030303030303030303030303030303030303030303030303030303030303030303030303030303030303030303030303030303030303030303030303030303030303030303030303030303030303030303030303030303030303030
1004
303030303030303030303030303030303030303030303030303030303030303030303030303030303030303030303030303030303030303030303030303030303030303030303030303030303030303030303030303030303030303030303030303030303030303030303030303030303030303030303030303030303030
1004
303030303030303030303030303030303030303030303030303030303030303030303030303030303030303030303030303030303030303030303030303030303030303030303030303030303030303030303030303030303030303030303030303030303030303030303030303030303030303030303030303030303030
1004
303030303030303030303030303030303030303030303030303030303030303030303030303030303030303030303030303030303030303030303030303030303030303030303030303030303030303030303030303030303030303030303030303030303030303030303030303030303030303030303030303030303030
1004
303030303030303030303030303030303030303030303030303030303030303030303030303030303030303030303030303030303030303030303030303030303030303030303030303030303030303030303030303030303030303030303030303030303030303030303030303030303030303030303030303030303030
1004
303030303030303030303030303030303030303030303030303030303030303030303030303030303030303030303030303030303030303030303030303030303030303030303030303030303030303030303030303030303030303030303030303030303030303030303030303030303030303030303030303030303030
1004
303030303030303030303030303030303030303030303030303030303030303030303030303030303030303030303030303030303030303030303030303030303030303030303030303030303030303030303030303030303030303030303030303030303030303030303030303030303030303030303030303030303030
1004
303030303030303030303030303030303030303030303030303030303030303030303030303030303030303030303030303030303030303030303030303030303030303030303030303030303030303030303030303030303030303030303030303030303030303030303030303030303030303030303030303030303030
1004
303030303030303030303030303030303030303030303030303030303030303030303030303030303030303030303030303030303030303030303030303030303030303030303030303030303030303030303030303030303030303030303030303030303030303030303030303030303030303030303030303030303030
1004
303030303030303030303030303030303030303030303030303030303030303030303030303030303030303030303030303030303030303030303030303030303030303030303030303030303030303030303030303030303030303030303030303030303030303030303030303030303030303030303030303030303030
1004
303030303030303030303030303030303030303030303030303030303030303030303030303030303030303030303030303030303030303030303030303030303030303030303030303030303030303030303030303030303030303030303030303030303030303030303030303030303030303030303030303030303030
1004
303030303030303030303030303030303030303030303030303030303030303030303030303030303030303030303030303130303030303030313030303030303030303030303030303030303030303030303030303030303030303030303030303130303030303030303030303030303031303030303030303030303030
1004
303030303030303030303030303030303030303030303030303030303030303030303030303030303030303030303030303030303030303030303030303030303030303030303030303036343030303030303030303030303030303030303030303030303030303030303034303030303030303630303030303030303030
1004
303030303031303030303030303030303030303030303030303030303030303030303030303030303030303030303030303030303031303030303030303130303030303030303030303030303030303030303030303130303030303030303030303030303030303030303030303030303030303030303030303030303030
1004
303030303030363430303030303030303030303030303030303030303030303030303030303030313030303030303030303030303030303130303030303030303030303030303030303030303030303030303030303030303030303030303030303030303030303030303030303030303030303030303030303030303030
1004
303030303030303030303030303030303030303030303030303030303030303030303030303030303030303030303030303030303030303030303030303030303030303030303030303030303030303030303030303030303030303030303030303030303030303045373033303030304537303330303030453730333030
1004
303045373033303030303030303030303030303030303030303030303030303030303030303030303030303030303030303030363030303030303334303830303030393930423030303030303030303030303434303036353030363630303631303037353030364330303734303030303030303030303030303030303030
1004
303030303030303030303030303030303030303030343030303030303030303030303030303030303030303030303030303030303030303030303030303030303030303030303030303030303030303030303030303030303030303030303030303030303030303030303030303030303030303030303030303030303030
1004
303030303030303030303030303030303030303030303030303030303030303030303030303030303030303030303030303030303030303030303030303030303030303030303030303030303030303030303030303030303030303030303030303030303030303030303030303030303030303030303030303030303030
1004
303030303030303030303030303030303030303030303030303030303030303030303030303030303030303030303030303030303030303030303030303030303030303030303030303030303030303030303030303030303030303030303030303030303030303030303030303030303030303030303030303030303030
1004
303030303030303030303030303030303030303030303030303030303030303030303030303030303030303030303030303030303030303030303030303030303030303030303030303030303030303030303030303030303030303030303030303030303030303030303030303030303030303030303030303030303030
1004
303030303030303030303030303030303030303030303030303030303030303030303030303030303030303030303030303030303030303030303030303030303030303030303030303030303030303030303030303030303030303030303030303030303030303030303030303030303030303030303030303030303030
1004
303030303030303030303030303030303030303030303030303030303030303030303030303030303030303030303030303030303030303030303030303030303030303030303030303030303030303030303030303030303030303030303030303030303030303030303030303030303030303030303030303030303030
1004
303030303030303030303030303030303030303030303030303030303030303030303030303030303030303030303030303030303030303030303030303030303030303030303030303030303030303030303030303030303030303030303030303030303030303030303030303030303030303030303030303030303030
1004
303030303030303030303030303030303030303030303030303030303030303030303030303030303030303030303030303030303030303030303030303030303030303030303030303030303030303030303030303030303030303030303030303030303030303030303030303030303030303030303030303030303030
1004
30303030303030303030303030303030303030303030303030303030303030303030303030303030303030303030303030303030303030303030303030303030303030303030303030303030303030303030303030313030303030303030303030303030303030303030303030303030303030303030303030303030
  0
MLINESTYLE
  5
18
102
{ACAD_REACTORS
330
17
102
}
330
17
100
AcDbMlineStyle
  2
Standard
 70
     0
  3

 62
     0
 51
90.0
 52
90.0
 71
     2
 49
0.5
 62
   256
  6
BYLAYER
 49
-0.5
 62
   256
  6
BYLAYER
  0
ACDBPLACEHOLDER
  5
F
102
{ACAD_REACTORS
330
E
102
}
330
E
  0
SCALE
  5
22C
102
{ACAD_REACTORS
330
99
102
}
330
99
100
AcDbScale
 70
     0
300
1:1
140
1.0
141
1.0
290
     1
  0
SCALE
  5
22D
102
{ACAD_REACTORS
330
99
102
}
330
99
100
AcDbScale
 70
     0
300
1:2
140
1.0
141
2.0
290
     0
  0
SCALE
  5
22E
102
{ACAD_REACTORS
330
99
102
}
330
99
100
AcDbScale
 70
     0
300
1:4
140
1.0
141
4.0
290
     0
  0
SCALE
  5
22F
102
{ACAD_REACTORS
330
99
102
}
330
99
100
AcDbScale
 70
     0
300
1:5
140
1.0
141
5.0
290
     0
  0
SCALE
  5
230
102
{ACAD_REACTORS
330
99
102
}
330
99
100
AcDbScale
 70
     0
300
1:8
140
1.0
141
8.0
290
     0
  0
SCALE
  5
231
102
{ACAD_REACTORS
330
99
102
}
330
99
100
AcDbScale
 70
     0
300
1:10
140
1.0
141
10.0
290
     0
  0
SCALE
  5
232
102
{ACAD_REACTORS
330
99
102
}
330
99
100
AcDbScale
 70
     0
300
1:16
140
1.0
141
16.0
290
     0
  0
SCALE
  5
233
102
{ACAD_REACTORS
330
99
102
}
330
99
100
AcDbScale
 70
     0
300
1:20
140
1.0
141
20.0
290
     0
  0
SCALE
  5
234
102
{ACAD_REACTORS
330
99
102
}
330
99
100
AcDbScale
 70
     0
300
1:30
140
1.0
141
30.0
290
     0
  0
SCALE
  5
235
102
{ACAD_REACTORS
330
99
102
}
330
99
100
AcDbScale
 70
     0
300
1:40
140
1.0
141
40.0
290
     0
  0
SCALE
  5
236
102
{ACAD_REACTORS
330
99
102
}
330
99
100
AcDbScale
 70
     0
300
1:50
140
1.0
141
50.0
290
     0
  0
SCALE
  5
237
102
{ACAD_REACTORS
330
99
102
}
330
99
100
AcDbScale
 70
     0
300
1:100
140
1.0
141
100.0
290
     0
  0
SCALE
  5
238
102
{ACAD_REACTORS
330
99
102
}
330
99
100
AcDbScale
 70
     0
300
2:1
140
2.0
141
1.0
290
     0
  0
SCALE
  5
239
102
{ACAD_REACTORS
330
99
102
}
330
99
100
AcDbScale
 70
     0
300
4:1
140
4.0
141
1.0
290
     0
  0
SCALE
  5
23A
102
{ACAD_REACTORS
330
99
102
}
330
99
100
AcDbScale
 70
     0
300
8:1
140
8.0
141
1.0
290
     0
  0
SCALE
  5
23B
102
{ACAD_REACTORS
330
99
102
}
330
99
100
AcDbScale
 70
     0
300
10:1
140
10.0
141
1.0
290
     0
  0
SCALE
  5
23C
102
{ACAD_REACTORS
330
99
102
}
330
99
100
AcDbScale
 70
     0
300
100:1
140
100.0
141
1.0
290
     0
  0
SCALE
  5
23D
102
{ACAD_REACTORS
330
99
102
}
330
99
100
AcDbScale
 70
     0
300
1/128" = 1'-0"
140
0.0078125
141
12.0
290
     0
  0
SCALE
  5
23E
102
{ACAD_REACTORS
330
99
102
}
330
99
100
AcDbScale
 70
     0
300
1/64" = 1'-0"
140
0.015625
141
12.0
290
     0
  0
SCALE
  5
23F
102
{ACAD_REACTORS
330
99
102
}
330
99
100
AcDbScale
 70
     0
300
1/32" = 1'-0"
140
0.03125
141
12.0
290
     0
  0
SCALE
  5
240
102
{ACAD_REACTORS
330
99
102
}
330
99
100
AcDbScale
 70
     0
300
1/16" = 1'-0"
140
0.0625
141
12.0
290
     0
  0
SCALE
  5
241
102
{ACAD_REACTORS
330
99
102
}
330
99
100
AcDbScale
 70
     0
300
3/32" = 1'-0"
140
0.09375
141
12.0
290
     0
  0
SCALE
  5
242
102
{ACAD_REACTORS
330
99
102
}
330
99
100
AcDbScale
 70
     0
300
1/8" = 1'-0"
140
0.125
141
12.0
290
     0
  0
SCALE
  5
243
102
{ACAD_REACTORS
330
99
102
}
330
99
100
AcDbScale
 70
     0
300
3/16" = 1'-0"
140
0.1875
141
12.0
290
     0
  0
SCALE
  5
244
102
{ACAD_REACTORS
330
99
102
}
330
99
100
AcDbScale
 70
     0
300
1/4" = 1'-0"
140
0.25
141
12.0
290
     0
  0
SCALE
  5
245
102
{ACAD_REACTORS
330
99
102
}
330
99
100
AcDbScale
 70
     0
300
3/8" = 1'-0"
140
0.375
141
12.0
290
     0
  0
SCALE
  5
246
102
{ACAD_REACTORS
330
99
102
}
330
99
100
AcDbScale
 70
     0
300
1/2" = 1'-0"
140
0.5
141
12.0
290
     0
  0
SCALE
  5
247
102
{ACAD_REACTORS
330
99
102
}
330
99
100
AcDbScale
 70
     0
300
3/4" = 1'-0"
140
0.75
141
12.0
290
     0
  0
SCALE
  5
248
102
{ACAD_REACTORS
330
99
102
}
330
99
100
AcDbScale
 70
     0
300
1" = 1'-0"
140
1.0
141
12.0
290
     0
  0
SCALE
  5
249
102
{ACAD_REACTORS
330
99
102
}
330
99
100
AcDbScale
 70
     0
300
1-1/2" = 1'-0"
140
1.5
141
12.0
290
     0
  0
SCALE
  5
24A
102
{ACAD_REACTORS
330
99
102
}
330
99
100
AcDbScale
 70
     0
300
3" = 1'-0"
140
3.0
141
12.0
290
     0
  0
SCALE
  5
24B
102
{ACAD_REACTORS
330
99
102
}
330
99
100
AcDbScale
 70
     0
300
6" = 1'-0"
140
6.0
141
12.0
290
     0
  0
SCALE
  5
24C
102
{ACAD_REACTORS
330
99
102
}
330
99
100
AcDbScale
 70
     0
300
1'-0" = 1'-0"
140
12.0
141
12.0
290
     0
  0
XRECORD
  5
3BA
102
{ACAD_REACTORS
330
3B9
102
}
330
3B9
100
AcDbXrecord
280
     1
340
6C
  0
XRECORD
  5
3BB
102
{ACAD_REACTORS
330
3B9
102
}
330
3B9
100
AcDbXrecord
280
     1
340
6B
  0
DICTIONARYVAR
  5
98
102
{ACAD_REACTORS
330
59
102
}
330
59
100
DictionaryVariables
280
     0
  1
Standard
  0
DICTIONARYVAR
  5
5A
102
{ACAD_REACTORS
330
59
102
}
330
59
100
DictionaryVariables
280
     0
  1
2
  0
DICTIONARYVAR
  5
5E
102
{ACAD_REACTORS
330
59
102
}
330
59
100
DictionaryVariables
280
     0
  1
1
  0
ENDSEC
  0
EOF
