  0
SECTION
  2
HEADER
  9
$ACADVER
  1
AC1015
  9
$ACADMAINTVER
 70
     6
  9
$DWGCODEPAGE
  3
ANSI_1252
  9
$INSBASE
 10
0.0
 20
0.0
 30
0.0
  9
$EXTMIN
 10
-4.917894535980964
 20
58.80553662182797
 30
0.0
  9
$EXTMAX
 10
531.874138
 20
579.5603720000001
 30
0.0
  9
$LIMMIN
 10
0.0
 20
0.0
  9
$LIMMAX
 10
0.0
 20
0.0
  9
$ORTHOMODE
 70
     0
  9
$REGENMODE
 70
     1
  9
$FILLMODE
 70
     1
  9
$QTEXTMODE
 70
     0
  9
$MIRRTEXT
 70
     0
  9
$LTSCALE
 40
1.0
  9
$ATTMODE
 70
     1
  9
$TEXTSIZE
 40
2.5
  9
$TRACEWID
 40
1.0
  9
$TEXTSTYLE
  7
Standard
  9
$CLAYER
  8
0
  9
$CELTYPE
  6
ByLayer
  9
$CECOLOR
 62
   256
  9
$CELTSCALE
 40
1.0
  9
$DISPSILH
 70
     0
  9
$DIMSCALE
 40
1.0
  9
$DIMASZ
 40
2.5
  9
$DIMEXO
 40
0.625
  9
$DIMDLI
 40
3.75
  9
$DIMRND
 40
0.0
  9
$DIMDLE
 40
0.0
  9
$DIMEXE
 40
1.25
  9
$DIMTP
 40
0.0
  9
$DIMTM
 40
0.0
  9
$DIMTXT
 40
2.5
  9
$DIMCEN
 40
2.5
  9
$DIMTSZ
 40
0.0
  9
$DIMTOL
 70
     0
  9
$DIMLIM
 70
     0
  9
$DIMTIH
 70
     0
  9
$DIMTOH
 70
     0
  9
$DIMSE1
 70
     0
  9
$DIMSE2
 70
     0
  9
$DIMTAD
 70
     1
  9
$DIMZIN
 70
     8
  9
$DIMBLK
  1

  9
$DIMASO
 70
     1
  9
$DIMSHO
 70
     1
  9
$DIMPOST
  1

  9
$DIMAPOST
  1

  9
$DIMALT
 70
     0
  9
$DIMALTD
 70
     3
  9
$DIMALTF
 40
0.03937007874016
  9
$DIMLFAC
 40
1.0
  9
$DIMTOFL
 70
     1
  9
$DIMTVP
 40
0.0
  9
$DIMTIX
 70
     0
  9
$DIMSOXD
 70
     0
  9
$DIMSAH
 70
     0
  9
$DIMBLK1
  1

  9
$DIMBLK2
  1

  9
$DIMSTYLE
  2
ISO-25
  9
$DIMCLRD
 70
     0
  9
$DIMCLRE
 70
     0
  9
$DIMCLRT
 70
     0
  9
$DIMTFAC
 40
1.0
  9
$DIMGAP
 40
0.625
  9
$DIMJUST
 70
     0
  9
$DIMSD1
 70
     0
  9
$DIMSD2
 70
     0
  9
$DIMTOLJ
 70
     0
  9
$DIMTZIN
 70
     8
  9
$DIMALTZ
 70
     0
  9
$DIMALTTZ
 70
     0
  9
$DIMUPT
 70
     0
  9
$DIMDEC
 70
     2
  9
$DIMTDEC
 70
     2
  9
$DIMALTU
 70
     2
  9
$DIMALTTD
 70
     3
  9
$DIMTXSTY
  7
Standard
  9
$DIMAUNIT
 70
     0
  9
$DIMADEC
 70
     0
  9
$DIMALTRND
 40
0.0
  9
$DIMAZIN
 70
     0
  9
$DIMDSEP
 70
    44
  9
$DIMATFIT
 70
     3
  9
$DIMFRAC
 70
     0
  9
$DIMLDRBLK
  1

  9
$DIMLUNIT
 70
     2
  9
$DIMLWD
 70
    -2
  9
$DIMLWE
 70
    -2
  9
$DIMTMOVE
 70
     0
  9
$LUNITS
 70
     2
  9
$LUPREC
 70
     4
  9
$SKETCHINC
 40
1.0
  9
$FILLETRAD
 40
0.0
  9
$AUNITS
 70
     0
  9
$AUPREC
 70
     0
  9
$MENU
  1
.
  9
$ELEVATION
 40
0.0
  9
$PELEVATION
 40
0.0
  9
$THICKNESS
 40
0.0
  9
$LIMCHECK
 70
     0
  9
$CHAMFERA
 40
0.0
  9
$CHAMFERB
 40
0.0
  9
$CHAMFERC
 40
0.0
  9
$CHAMFERD
 40
0.0
  9
$SKPOLY
 70
     0
  9
$TDCREATE
 40
2455239.621374757
  9
$TDUCREATE
 40
2455239.57970809
  9
$TDUPDATE
 40
2455239.621374745
  9
$TDUUPDATE
 40
2455239.579708079
  9
$TDINDWG
 40
0.0347270833
  9
$TDUSRTIMER
 40
0.0347247106
  9
$USRTIMER
 70
     1
  9
$ANGBASE
 50
0.0
  9
$ANGDIR
 70
     0
  9
$PDMODE
 70
     0
  9
$PDSIZE
 40
0.0
  9
$PLINEWID
 40
0.0
  9
$SPLFRAME
 70
     0
  9
$SPLINETYPE
 70
     6
  9
$SPLINESEGS
 70
     8
  9
$HANDSEED
  5
3B2
  9
$SURFTAB1
 70
     6
  9
$SURFTAB2
 70
     6
  9
$SURFTYPE
 70
     6
  9
$SURFU
 70
     6
  9
$SURFV
 70
     6
  9
$UCSBASE
  2

  9
$UCSNAME
  2

  9
$UCSORG
 10
0.0
 20
0.0
 30
0.0
  9
$UCSXDIR
 10
1.0
 20
0.0
 30
0.0
  9
$UCSYDIR
 10
0.0
 20
1.0
 30
0.0
  9
$UCSORTHOREF
  2

  9
$UCSORTHOVIEW
 70
     0
  9
$UCSORGTOP
 10
0.0
 20
0.0
 30
0.0
  9
$UCSORGBOTTOM
 10
0.0
 20
0.0
 30
0.0
  9
$UCSORGLEFT
 10
0.0
 20
0.0
 30
0.0
  9
$UCSORGRIGHT
 10
0.0
 20
0.0
 30
0.0
  9
$UCSORGFRONT
 10
0.0
 20
0.0
 30
0.0
  9
$UCSORGBACK
 10
0.0
 20
0.0
 30
0.0
  9
$PUCSBASE
  2

  9
$PUCSNAME
  2

  9
$PUCSORG
 10
0.0
 20
0.0
 30
0.0
  9
$PUCSXDIR
 10
1.0
 20
0.0
 30
0.0
  9
$PUCSYDIR
 10
0.0
 20
1.0
 30
0.0
  9
$PUCSORTHOREF
  2

  9
$PUCSORTHOVIEW
 70
     0
  9
$PUCSORGTOP
 10
0.0
 20
0.0
 30
0.0
  9
$PUCSORGBOTTOM
 10
0.0
 20
0.0
 30
0.0
  9
$PUCSORGLEFT
 10
0.0
 20
0.0
 30
0.0
  9
$PUCSORGRIGHT
 10
0.0
 20
0.0
 30
0.0
  9
$PUCSORGFRONT
 10
0.0
 20
0.0
 30
0.0
  9
$PUCSORGBACK
 10
0.0
 20
0.0
 30
0.0
  9
$USERI1
 70
     0
  9
$USERI2
 70
     0
  9
$USERI3
 70
     0
  9
$USERI4
 70
     0
  9
$USERI5
 70
     0
  9
$USERR1
 40
0.0
  9
$USERR2
 40
0.0
  9
$USERR3
 40
0.0
  9
$USERR4
 40
0.0
  9
$USERR5
 40
0.0
  9
$WORLDVIEW
 70
     1
  9
$SHADEDGE
 70
     3
  9
$SHADEDIF
 70
    70
  9
$TILEMODE
 70
     1
  9
$MAXACTVP
 70
    64
  9
$PINSBASE
 10
0.0
 20
0.0
 30
0.0
  9
$PLIMCHECK
 70
     0
  9
$PEXTMIN
 10
0.0
 20
0.0
 30
0.0
  9
$PEXTMAX
 10
12.0
 20
9.0
 30
0.0
  9
$PLIMMIN
 10
0.0
 20
0.0
  9
$PLIMMAX
 10
12.0
 20
9.0
  9
$UNITMODE
 70
     0
  9
$VISRETAIN
 70
     1
  9
$PLINEGEN
 70
     0
  9
$PSLTSCALE
 70
     1
  9
$TREEDEPTH
 70
  3020
  9
$CMLSTYLE
  2
Standard
  9
$CMLJUST
 70
     0
  9
$CMLSCALE
 40
20.0
  9
$PROXYGRAPHICS
 70
     1
  9
$MEASUREMENT
 70
     1
  9
$CELWEIGHT
370
    -1
  9
$ENDCAPS
280
     0
  9
$JOINSTYLE
280
     0
  9
$LWDISPLAY
290
     0
  9
$INSUNITS
 70
     4
  9
$HYPERLINKBASE
  1

  9
$STYLESHEET
  1

  9
$XEDIT
290
     1
  9
$CEPSNTYPE
380
     0
  9
$PSTYLEMODE
290
     1
  9
$FINGERPRINTGUID
  2
{5559452E-1E62-4159-8551-BF76FFF3E7E8}
  9
$VERSIONGUID
  2
{3CEB9EF8-4431-4551-B596-6734A9F966A9}
  9
$EXTNAMES
290
     1
  9
$PSVPSCALE
 40
0.0
  9
$OLESTARTUP
290
     0
  0
ENDSEC
  0
SECTION
  2
CLASSES
  0
CLASS
  1
ACDBDICTIONARYWDFLT
  2
AcDbDictionaryWithDefault
  3
ObjectDBX Classes
 90
        0
280
     0
281
     0
  0
CLASS
  1
ACDBPLACEHOLDER
  2
AcDbPlaceHolder
  3
ObjectDBX Classes
 90
        0
280
     0
281
     0
  0
CLASS
  1
LAYOUT
  2
AcDbLayout
  3
ObjectDBX Classes
 90
        0
280
     0
281
     0
  0
CLASS
  1
DICTIONARYVAR
  2
AcDbDictionaryVar
  3
ObjectDBX Classes
 90
        0
280
     0
281
     0
  0
CLASS
  1
TABLESTYLE
  2
AcDbTableStyle
  3
ObjectDBX Classes
 90
     4095
280
     0
281
     0
  0
CLASS
  1
SCALE
  2
AcDbScale
  3
ObjectDBX Classes
 90
     1153
280
     0
281
     0
  0
ENDSEC
  0
SECTION
  2
TABLES
  0
TABLE
  2
VPORT
  5
8
330
0
100
AcDbSymbolTable
 70
     2
  0
VPORT
  5
97
330
8
100
AcDbSymbolTableRecord
100
AcDbViewportTableRecord
  2
*Active
 70
     0
 10
0.0
 20
0.0
 11
1.0
 21
1.0
 12
177.9695317773055
 22
239.3799486440777
 13
0.0
 23
0.0
 14
10.0
 24
10.0
 15
10.0
 25
10.0
 16
0.0
 26
0.0
 36
1.0
 17
0.0
 27
0.0
 37
0.0
 40
840.3955933150418
 41
1.664827586206897
 42
50.0
 43
0.0
 44
0.0
 50
0.0
 51
0.0
 71
     0
 72
  1000
 73
     1
 74
     3
 75
     0
 76
     0
 77
     0
 78
     0
281
     0
 65
     1
110
0.0
120
0.0
130
0.0
111
1.0
121
0.0
131
0.0
112
0.0
122
1.0
132
0.0
 79
     0
146
0.0
  0
ENDTAB
  0
TABLE
  2
LTYPE
  5
5
330
0
100
AcDbSymbolTable
 70
     8
  0
LTYPE
  5
14
330
5
100
AcDbSymbolTableRecord
100
AcDbLinetypeTableRecord
  2
ByBlock
 70
     0
  3

 72
    65
 73
     0
 40
0.0
  0
LTYPE
  5
15
330
5
100
AcDbSymbolTableRecord
100
AcDbLinetypeTableRecord
  2
ByLayer
 70
     0
  3

 72
    65
 73
     0
 40
0.0
  0
LTYPE
  5
16
330
5
100
AcDbSymbolTableRecord
100
AcDbLinetypeTableRecord
  2
Continuous
 70
     0
  3
Solid line
 72
    65
 73
     0
 40
0.0
  0
LTYPE
  5
37F
330
5
100
AcDbSymbolTableRecord
100
AcDbLinetypeTableRecord
  2
DASHED
 70
     0
  3
__ __ __ __ __ __ __ __ __ __ __ __ __ __ __ __
 72
    65
 73
     2
 40
15.0
 49
12.0
 74
     0
 49
-3.0
 74
     0
  0
LTYPE
  5
380
330
5
100
AcDbSymbolTableRecord
100
AcDbLinetypeTableRecord
  2
DASHDOT
 70
     0
  3
 __ . __ . __ . __ . __ . __ . __ . 
 72
    65
 73
     4
 40
18.5
 49
12.0
 74
     0
 49
-3.0
 74
     0
 49
0.5
 74
     0
 49
-3.0
 74
     0
  0
LTYPE
  5
381
330
5
100
AcDbSymbolTableRecord
100
AcDbLinetypeTableRecord
  2
DOT
 70
     0
  3
 . . . . . . . . . . . . . . . .
 72
    65
 73
     2
 40
3.5
 49
0.5
 74
     0
 49
-3.0
 74
     0
  0
LTYPE
  5
382
330
5
100
AcDbSymbolTableRecord
100
AcDbLinetypeTableRecord
  2
DASHSPACE
 70
     0
  3
__    __    __    __    __   
 72
    65
 73
     2
 40
30.0
 49
12.0
 74
     0
 49
-18.0
 74
     0
  0
LTYPE
  5
383
330
5
100
AcDbSymbolTableRecord
100
AcDbLinetypeTableRecord
  2
DASHDOT2
 70
     0
  3
__ . . __ . . __ . . __ 
 72
    65
 73
     6
 40
22.0
 49
12.0
 74
     0
 49
-3.0
 74
     0
 49
0.5
 74
     0
 49
-3.0
 74
     0
 49
0.5
 74
     0
 49
-3.0
 74
     0
  0
LTYPE
  5
384
330
5
100
AcDbSymbolTableRecord
100
AcDbLinetypeTableRecord
  2
PHANTOM
 70
     0
  3
____________    ____    ____   _
 72
    65
 73
     6
 40
20.0
 49
10.0
 74
     0
 49
-2.0
 74
     0
 49
2.0
 74
     0
 49
-2.0
 74
     0
 49
2.0
 74
     0
 49
-2.0
 74
     0
  0
LTYPE
  5
385
330
5
100
AcDbSymbolTableRecord
100
AcDbLinetypeTableRecord
  2
AXES
 70
     0
  3
________  __  ________  __  _____
 72
    65
 73
     4
 40
24.0
 49
15.0
 74
     0
 49
-3.0
 74
     0
 49
3.0
 74
     0
 49
-3.0
 74
     0
  0
ENDTAB
  0
TABLE
  2
LAYER
  5
2
330
0
100
AcDbSymbolTable
 70
     2
  0
LAYER
  5
10
330
2
100
AcDbSymbolTableRecord
100
AcDbLayerTableRecord
  2
0
 70
     0
 62
     7
  6
Continuous
370
    -3
390
F
  0
LAYER
  5
101
330
2
100
AcDbSymbolTableRecord
100
AcDbLayerTableRecord
  2
DEFPOINTS
 70
     0
 62
     7
  6
Continuous
290
     0
370
    -3
390
F
  0
ENDTAB
  0
TABLE
  2
STYLE
  5
3
330
0
100
AcDbSymbolTable
 70
     2
  0
STYLE
  5
11
330
3
100
AcDbSymbolTableRecord
100
AcDbTextStyleTableRecord
  2
Standard
 70
     0
 40
0.0
 41
1.0
 50
0.0
 71
     0
 42
2.5
  3
txt
  4

  0
STYLE
  5
F9
330
3
100
AcDbSymbolTableRecord
100
AcDbTextStyleTableRecord
  2
GDT
 70
     0
 40
0.0
 41
1.0
 50
0.0
 71
     0
 42
0.2
  3
amgdt.shx
  4

  0
ENDTAB
  0
TABLE
  2
VIEW
  5
6
330
0
100
AcDbSymbolTable
 70
     0
  0
ENDTAB
  0
TABLE
  2
UCS
  5
7
330
0
100
AcDbSymbolTable
 70
     0
  0
ENDTAB
  0
TABLE
  2
APPID
  5
9
330
0
100
AcDbSymbolTable
 70
     3
  0
APPID
  5
12
330
9
100
AcDbSymbolTableRecord
100
AcDbRegAppTableRecord
  2
ACAD
 70
     0
  0
APPID
  5
37D
330
9
100
AcDbSymbolTableRecord
100
AcDbRegAppTableRecord
  2
PROGE_PRINT_SETTINGS
 70
     0
  0
APPID
  5
37E
330
9
100
AcDbSymbolTableRecord
100
AcDbRegAppTableRecord
  2
Conv5506CA
 70
     0
  0
ENDTAB
  0
TABLE
  2
DIMSTYLE
  5
A
330
0
100
AcDbSymbolTable
 70
     2
100
AcDbDimStyleTable
  0
DIMSTYLE
105
27
330
A
100
AcDbSymbolTableRecord
100
AcDbDimStyleTableRecord
  2
Standard
 70
     0
278
     0
340
11
  0
DIMSTYLE
105
29
102
{ACAD_REACTORS
330
301
330
323
102
}
330
A
100
AcDbSymbolTableRecord
100
AcDbDimStyleTableRecord
  2
ISO-25
 70
     0
 41
2.5
 42
0.625
 43
3.75
 44
1.25
 73
     0
 74
     0
 77
     1
 78
     8
140
2.5
141
2.5
143
0.03937007874016
147
0.625
171
     3
172
     1
271
     2
272
     2
274
     3
278
    44
283
     0
284
     8
340
11
  0
ENDTAB
  0
TABLE
  2
BLOCK_RECORD
  5
1
330
0
100
AcDbSymbolTable
 70
    18
  0
BLOCK_RECORD
  5
1F
330
1
100
AcDbSymbolTableRecord
100
AcDbBlockTableRecord
  2
*Model_Space
340
22
  0
BLOCK_RECORD
  5
73
330
1
100
AcDbSymbolTableRecord
100
AcDbBlockTableRecord
  2
*Paper_Space
340
387
  0
BLOCK_RECORD
  5
D1
330
1
100
AcDbSymbolTableRecord
100
AcDbBlockTableRecord
  2
*Paper_Space0
340
74
  0
BLOCK_RECORD
  5
105
330
1
100
AcDbSymbolTableRecord
100
AcDbBlockTableRecord
  2
Block0
340
0
  0
BLOCK_RECORD
  5
10F
330
1
100
AcDbSymbolTableRecord
100
AcDbBlockTableRecord
  2
*D2
340
0
  0
BLOCK_RECORD
  5
118
330
1
100
AcDbSymbolTableRecord
100
AcDbBlockTableRecord
  2
*D3
340
0
  0
BLOCK_RECORD
  5
11D
330
1
100
AcDbSymbolTableRecord
100
AcDbBlockTableRecord
  2
Block1
340
0
  0
BLOCK_RECORD
  5
1D0
330
1
100
AcDbSymbolTableRecord
100
AcDbBlockTableRecord
  2
Block2
340
0
  0
BLOCK_RECORD
  5
1DB
330
1
100
AcDbSymbolTableRecord
100
AcDbBlockTableRecord
  2
*D6
340
0
  0
BLOCK_RECORD
  5
30C
330
1
100
AcDbSymbolTableRecord
100
AcDbBlockTableRecord
  2
*D7
340
0
  0
BLOCK_RECORD
  5
317
330
1
100
AcDbSymbolTableRecord
100
AcDbBlockTableRecord
  2
*D8
340
0
  0
BLOCK_RECORD
  5
322
330
1
100
AcDbSymbolTableRecord
100
AcDbBlockTableRecord
  2
*D9
340
0
  0
BLOCK_RECORD
  5
32E
330
1
100
AcDbSymbolTableRecord
100
AcDbBlockTableRecord
  2
*D10
340
0
  0
BLOCK_RECORD
  5
339
330
1
100
AcDbSymbolTableRecord
100
AcDbBlockTableRecord
  2
*D11
340
0
  0
BLOCK_RECORD
  5
344
330
1
100
AcDbSymbolTableRecord
100
AcDbBlockTableRecord
  2
*D12
340
0
  0
BLOCK_RECORD
  5
34F
330
1
100
AcDbSymbolTableRecord
100
AcDbBlockTableRecord
  2
*D13
340
0
  0
BLOCK_RECORD
  5
35A
330
1
100
AcDbSymbolTableRecord
100
AcDbBlockTableRecord
  2
*D14
340
0
  0
BLOCK_RECORD
  5
365
330
1
100
AcDbSymbolTableRecord
100
AcDbBlockTableRecord
  2
*D15
340
0
  0
BLOCK_RECORD
  5
370
330
1
100
AcDbSymbolTableRecord
100
AcDbBlockTableRecord
  2
*D16
340
0
  0
BLOCK_RECORD
  5
37B
330
1
100
AcDbSymbolTableRecord
100
AcDbBlockTableRecord
  2
*D17
340
0
  0
ENDTAB
  0
ENDSEC
  0
SECTION
  2
BLOCKS
  0
BLOCK
  5
20
330
1F
100
AcDbEntity
  8
0
100
AcDbBlockBegin
  2
*Model_Space
 70
     0
 10
0.0
 20
0.0
 30
0.0
  3
*Model_Space
  1

  0
ENDBLK
  5
21
330
1F
100
AcDbEntity
  8
0
100
AcDbBlockEnd
  0
BLOCK
  5
75
330
73
100
AcDbEntity
 67
     1
  8
0
100
AcDbBlockBegin
  2
*Paper_Space
 70
     0
 10
0.0
 20
0.0
 30
0.0
  3
*Paper_Space
  1

  0
ENDBLK
  5
76
330
73
100
AcDbEntity
 67
     1
  8
0
100
AcDbBlockEnd
  0
BLOCK
  5
388
330
D1
100
AcDbEntity
  8
0
100
AcDbBlockBegin
  2
*Paper_Space0
 70
     0
 10
0.0
 20
0.0
 30
0.0
  3
*Paper_Space0
  1

  0
VIEWPORT
  5
3AC
330
D1
100
AcDbEntity
  8
0
100
AcDbViewport
 10
7.8
 20
4.5
 30
0.0
 40
15.64
 41
9.0
 68
     1
 69
     1
 12
6.0
 22
4.5
 13
0.0
 23
0.0
 14
0.5
 24
0.5
 15
0.5
 25
0.5
 16
0.0
 26
0.0
 36
1.0
 17
0.0
 27
0.0
 37
0.0
 42
50.0
 43
0.0
 44
0.0
 45
12.0
 50
0.0
 51
0.0
 72
   100
 90
   557152
  1

281
     0
 71
     1
 74
     0
110
0.0
120
0.0
130
0.0
111
1.0
121
0.0
131
0.0
112
0.0
122
1.0
132
0.0
 79
     0
146
0.0
  0
ENDBLK
  5
389
330
D1
100
AcDbEntity
  8
0
100
AcDbBlockEnd
  0
BLOCK
  5
38A
330
105
100
AcDbEntity
  8
0
100
AcDbBlockBegin
  2
Block0
 70
     0
 10
0.0
 20
0.0
 30
0.0
  3
Block0
  1

  0
TEXT
  5
103
330
105
100
AcDbEntity
  8
0
 62
     7
370
    13
390
F
100
AcDbText
 10
-265.036316
 20
332.804199
 30
0.0
 40
28.0
  1
HERCULES OTTICA LISCIA
 41
0.9233985587557604
 72
     5
 11
269.30365
 21
332.804199
 31
0.0
100
AcDbText
  0
ENDBLK
  5
38B
330
105
100
AcDbEntity
  8
0
100
AcDbBlockEnd
  0
BLOCK
  5
38C
330
10F
100
AcDbEntity
  8
0
100
AcDbBlockBegin
  2
*D2
 70
     1
 10
0.0
 20
0.0
 30
0.0
  3
*D2
  1

  0
TEXT
  5
107
330
10F
100
AcDbEntity
  8
0
 62
    34
370
    13
390
F
100
AcDbText
 10
140.433033
 20
31.943394
 30
0.0
 40
3.5
  1
%%c
 41
1.5
 72
     5
 11
143.933033
 21
31.943394
 31
0.0
100
AcDbText
  0
TEXT
  5
108
330
10F
100
AcDbEntity
  8
0
 62
    34
370
    13
390
F
100
AcDbText
 10
144.933033
 20
31.943394
 30
0.0
 40
3.5
  1
470
 41
1.200922171428572
 72
     5
 11
155.441102
 21
31.943394
 31
0.0
100
AcDbText
  0
LINE
  5
109
330
10F
100
AcDbEntity
  8
0
 62
    34
 48
0.49592
370
    13
390
F
100
AcDbLine
 10
29.937069
 20
47.780186
 30
0.0
 11
29.937069
 21
27.943394
 31
0.0
  0
LINE
  5
10A
330
10F
100
AcDbEntity
  8
0
 62
    34
 48
0.49592
370
    13
390
F
100
AcDbLine
 10
265.937069
 20
47.780186
 30
0.0
 11
265.937069
 21
27.943394
 31
0.0
  0
LWPOLYLINE
  5
10B
330
10F
100
AcDbEntity
  8
0
 62
    34
370
    13
390
F
100
AcDbPolyline
 90
        3
 70
     0
 43
0.0
 10
264.005214
 20
29.425755
 10
265.937069
 20
29.943394
 10
264.005214
 20
30.461033
  0
LWPOLYLINE
  5
10C
330
10F
100
AcDbEntity
  8
0
 62
    34
370
    13
390
F
100
AcDbPolyline
 90
        3
 70
     0
 43
0.0
 10
31.868923
 20
30.461033
 10
29.937069
 20
29.943394
 10
31.868923
 20
29.425755
  0
LINE
  5
10D
330
10F
100
AcDbEntity
  8
0
 62
    34
370
    13
390
F
100
AcDbLine
 10
29.937069
 20
29.943394
 30
0.0
 11
265.937069
 21
29.943394
 31
0.0
  0
ENDBLK
  5
38D
330
10F
100
AcDbEntity
  8
0
100
AcDbBlockEnd
  0
BLOCK
  5
38E
330
118
100
AcDbEntity
  8
0
100
AcDbBlockBegin
  2
*D3
 70
     1
 10
0.0
 20
0.0
 30
0.0
  3
*D3
  1

  0
TEXT
  5
111
330
118
100
AcDbEntity
  8
0
 62
     7
370
    13
390
F
100
AcDbText
 10
12.709545
 20
164.525522
 30
0.0
 40
3.5
  1
480
 50
90.0
 41
1.200922171428572
 72
     5
 11
12.709545
 21
175.033591
 31
0.0
100
AcDbText
  0
LINE
  5
112
330
118
100
AcDbEntity
  8
0
 62
     7
 48
0.380688
370
    13
390
F
100
AcDbLine
 10
27.937069
 20
49.780186
 30
0.0
 11
12.709545
 21
49.780186
 31
0.0
  0
LINE
  5
113
330
118
100
AcDbEntity
  8
0
 62
     7
370
    13
390
F
100
AcDbLine
 10
145.937069
 20
289.778927
 30
0.0
 11
12.709545
 21
289.778927
 31
0.0
  0
LWPOLYLINE
  5
114
330
118
100
AcDbEntity
  8
0
 62
     7
370
    13
390
F
100
AcDbPolyline
 90
        3
 70
     0
 43
0.0
 10
15.227184
 20
287.847073
 10
14.709545
 20
289.778927
 10
14.191906
 20
287.847073
  0
LWPOLYLINE
  5
115
330
118
100
AcDbEntity
  8
0
 62
     7
370
    13
390
F
100
AcDbPolyline
 90
        3
 70
     0
 43
0.0
 10
14.191906
 20
51.71204
 10
14.709545
 20
49.780186
 10
15.227184
 20
51.71204
  0
LINE
  5
116
330
118
100
AcDbEntity
  8
0
 62
     7
370
    13
390
F
100
AcDbLine
 10
14.709545
 20
49.780186
 30
0.0
 11
14.709545
 21
289.778927
 31
0.0
  0
ENDBLK
  5
38F
330
118
100
AcDbEntity
  8
0
100
AcDbBlockEnd
  0
BLOCK
  5
390
330
11D
100
AcDbEntity
  8
0
100
AcDbBlockBegin
  2
Block1
 70
     0
 10
0.0
 20
0.0
 30
0.0
  3
Block1
  1

  0
LINE
  5
11A
330
11D
100
AcDbEntity
  8
0
  6
DASHDOT
 62
     7
370
    13
390
F
100
AcDbLine
 10
20.800001
 20
197.0
 30
0.0
 11
-20.799999
 21
197.0
 31
0.0
  0
LINE
  5
11B
330
11D
100
AcDbEntity
  8
0
  6
DASHDOT
 62
     7
370
    13
390
F
100
AcDbLine
 10
0.000001
 20
217.800003
 30
0.0
 11
0.000001
 21
176.199997
 31
0.0
  0
ENDBLK
  5
391
330
11D
100
AcDbEntity
  8
0
100
AcDbBlockEnd
  0
BLOCK
  5
392
330
1D0
100
AcDbEntity
  8
0
100
AcDbBlockBegin
  2
Block2
 70
     0
 10
0.0
 20
0.0
 30
0.0
  3
Block2
  1

  0
LINE
  5
11F
330
1D0
100
AcDbEntity
  8
0
 62
     7
370
    35
390
F
100
AcDbLine
 10
0.000001
 20
184.0
 30
0.0
 11
28.000002
 21
184.0
 31
0.0
  0
LINE
  5
120
330
1D0
100
AcDbEntity
  8
0
 62
     7
370
    35
390
F
100
AcDbLine
 10
-27.999998
 20
184.0
 30
0.0
 11
0.000001
 21
184.0
 31
0.0
  0
LINE
  5
121
330
1D0
100
AcDbEntity
  8
0
 62
     7
370
    13
390
F
100
AcDbLine
 10
0.000001
 20
182.0
 30
0.0
 11
-29.999998
 21
182.0
 31
0.0
  0
LINE
  5
122
330
1D0
100
AcDbEntity
  8
0
 62
     7
370
    13
390
F
100
AcDbLine
 10
30.000002
 20
182.0
 30
0.0
 11
0.000001
 21
182.0
 31
0.0
  0
LINE
  5
123
330
1D0
100
AcDbEntity
  8
0
 62
     7
370
    35
390
F
100
AcDbLine
 10
0.000001
 20
180.0
 30
0.0
 11
98.0
 21
180.0
 31
0.0
  0
LINE
  5
124
330
1D0
100
AcDbEntity
  8
0
 62
     7
370
    35
390
F
100
AcDbLine
 10
-98.0
 20
180.0
 30
0.0
 11
0.000001
 21
180.0
 31
0.0
  0
LINE
  5
125
330
1D0
100
AcDbEntity
  8
0
 62
     7
370
    13
390
F
100
AcDbLine
 10
0.000001
 20
160.0
 30
0.0
 11
-118.0
 21
160.0
 31
0.0
  0
LINE
  5
126
330
1D0
100
AcDbEntity
  8
0
 62
     7
370
    13
390
F
100
AcDbLine
 10
118.0
 20
160.0
 30
0.0
 11
0.000001
 21
160.0
 31
0.0
  0
LINE
  5
127
330
1D0
100
AcDbEntity
  8
0
 62
     7
370
    13
390
F
100
AcDbLine
 10
-118.0
 20
42.196152
 30
0.0
 11
0.0
 21
42.196152
 31
0.0
  0
LWPOLYLINE
  5
128
330
1D0
100
AcDbEntity
  8
0
 62
     7
370
    35
390
F
100
AcDbPolyline
 90
       22
 70
     0
 43
0.0
 10
0.0
 20
57.5
 10
-0.371889
 20
57.471722
 10
-0.752448
 20
57.382824
 10
-1.119521
 20
57.235306
 10
-1.450899
 20
57.035843
 10
-1.744667
 20
56.790298
 10
-1.99744
 20
56.50251
 10
-2.201287
 20
56.182621
 10
-2.353626
 20
55.843266
 10
-2.452401
 20
55.491966
 10
-2.496471
 20
55.132484
 10
-2.487103
 20
54.769482
 10
-2.42679
 20
54.409672
 10
-2.31787
 20
54.062752
 10
-2.160809
 20
53.739925
 10
-1.953555
 20
53.440868
 10
-1.699214
 20
53.16851
 10
-1.405865
 20
52.933296
 10
-1.082732
 20
52.746017
 10
-0.73681
 20
52.61145
 10
-0.373279
 20
52.528862
 10
0.0
 20
52.5
  0
LINE
  5
129
330
1D0
100
AcDbEntity
  8
0
 62
     7
370
    13
390
F
100
AcDbLine
 10
0.0
 20
42.196152
 30
0.0
 11
118.0
 21
42.196152
 31
0.0
  0
LWPOLYLINE
  5
12A
330
1D0
100
AcDbEntity
  8
0
 62
     7
370
    35
390
F
100
AcDbPolyline
 90
       22
 70
     0
 43
0.0
 10
0.0
 20
57.5
 10
0.37189
 20
57.471722
 10
0.752448
 20
57.382824
 10
1.119522
 20
57.235306
 10
1.4509
 20
57.035843
 10
1.744667
 20
56.790298
 10
1.99744
 20
56.50251
 10
2.201288
 20
56.182621
 10
2.353627
 20
55.843266
 10
2.452402
 20
55.491966
 10
2.496472
 20
55.132484
 10
2.487104
 20
54.769482
 10
2.42679
 20
54.409672
 10
2.317871
 20
54.062752
 10
2.16081
 20
53.739925
 10
1.953556
 20
53.440868
 10
1.699215
 20
53.16851
 10
1.405866
 20
52.933296
 10
1.082732
 20
52.746017
 10
0.736811
 20
52.61145
 10
0.37328
 20
52.528862
 10
0.0
 20
52.5
  0
LINE
  5
12B
330
1D0
100
AcDbEntity
  8
0
 62
     7
370
    13
390
F
100
AcDbLine
 10
0.0
 20
39.598076
 30
0.0
 11
-119.5
 21
39.598076
 31
0.0
  0
LINE
  5
12C
330
1D0
100
AcDbEntity
  8
0
 62
     7
370
    13
390
F
100
AcDbLine
 10
119.5
 20
39.598076
 30
0.0
 11
0.0
 21
39.598076
 31
0.0
  0
LINE
  5
12D
330
1D0
100
AcDbEntity
  8
0
 62
     7
370
    13
390
F
100
AcDbLine
 10
0.0
 20
37.0
 30
0.0
 11
-121.0
 21
37.0
 31
0.0
  0
LINE
  5
12E
330
1D0
100
AcDbEntity
  8
0
 62
     7
370
    13
390
F
100
AcDbLine
 10
121.0
 20
37.0
 30
0.0
 11
0.0
 21
37.0
 31
0.0
  0
LINE
  5
12F
330
1D0
100
AcDbEntity
  8
0
 62
     7
370
    35
390
F
100
AcDbLine
 10
-121.0
 20
0.000001
 30
0.0
 11
-17.999975
 21
0.0
 31
0.0
  0
ARC
  5
130
330
1D0
100
AcDbEntity
  8
0
 62
     7
370
    35
390
F
100
AcDbCircle
 10
-4.24264
 20
23.5
 30
0.0
 40
7.5
100
AcDbArc
 50
340.528796
 51
90.000064
  0
LINE
  5
131
330
1D0
100
AcDbEntity
  8
0
 62
     7
 48
0.156434
370
    35
390
F
100
AcDbLine
 10
-10.5
 20
31.0
 30
0.0
 11
-4.24264
 21
31.0
 31
0.0
  0
ARC
  5
132
330
1D0
100
AcDbEntity
  8
0
 62
     7
370
    35
390
F
100
AcDbCircle
 10
-10.5
 20
23.5
 30
0.0
 40
7.5
100
AcDbArc
 50
90.000084
 51
180.000005
  0
LINE
  5
133
330
1D0
100
AcDbEntity
  8
0
 62
     7
370
    35
390
F
100
AcDbLine
 10
-17.999975
 20
23.5
 30
0.0
 11
-17.999975
 21
0.0
 31
0.0
  0
LINE
  5
134
330
1D0
100
AcDbEntity
  8
0
 62
     7
370
    35
390
F
100
AcDbLine
 10
0.0
 20
0.0
 30
0.0
 11
121.0
 21
-0.000001
 31
0.0
  0
ARC
  5
135
330
1D0
100
AcDbEntity
  8
0
 62
     7
370
    35
390
F
100
AcDbCircle
 10
0.0
 20
22.0
 30
0.0
 40
3.0
100
AcDbArc
 50
180.000005
 51
340.528808
  0
ARC
  5
136
330
1D0
100
AcDbEntity
  8
0
 62
     7
370
    35
390
F
100
AcDbCircle
 10
-4.5
 20
23.5
 30
0.0
 40
1.5
100
AcDbArc
 50
0.0
 51
90.00033700000002
  0
LINE
  5
137
330
1D0
100
AcDbEntity
  8
0
 62
     7
 48
0.0375
370
    35
390
F
100
AcDbLine
 10
-2.999991
 20
23.5
 30
0.0
 11
-2.999991
 21
22.0
 31
0.0
  0
LINE
  5
138
330
1D0
100
AcDbEntity
  8
0
 62
     7
 48
0.299999
370
    35
390
F
100
AcDbLine
 10
-11.999976
 20
0.0
 30
0.0
 11
0.0
 21
0.0
 31
0.0
  0
LINE
  5
139
330
1D0
100
AcDbEntity
  8
0
 62
     7
370
    35
390
F
100
AcDbLine
 10
-11.999975
 20
23.5
 30
0.0
 11
-11.999976
 21
0.0
 31
0.0
  0
ARC
  5
13A
330
1D0
100
AcDbEntity
  8
0
 62
     7
370
    35
390
F
100
AcDbCircle
 10
-10.5
 20
23.5
 30
0.0
 40
1.5
100
AcDbArc
 50
90.000433
 51
180.000005
  0
LINE
  5
13B
330
1D0
100
AcDbEntity
  8
0
 62
     7
 48
0.15
370
    35
390
F
100
AcDbLine
 10
-10.5
 20
25.0
 30
0.0
 11
-4.5
 21
25.0
 31
0.0
  0
ARC
  5
13C
330
1D0
100
AcDbEntity
  8
0
 62
     7
370
    35
390
F
100
AcDbCircle
 10
-27.999998
 20
182.0
 30
0.0
 40
2.0
100
AcDbArc
 50
90.000003
 51
180.000005
  0
ARC
  5
13D
330
1D0
100
AcDbEntity
  8
0
 62
     7
370
    35
390
F
100
AcDbCircle
 10
28.000002
 20
182.0
 30
0.0
 40
2.0
100
AcDbArc
 50
0.0
 51
90.000003
  0
ARC
  5
13E
330
1D0
100
AcDbEntity
  8
0
 62
     7
370
    35
390
F
100
AcDbCircle
 10
-31.999998
 20
182.0
 30
0.0
 40
2.0
100
AcDbArc
 50
269.999997
 51
0.0
  0
ARC
  5
13F
330
1D0
100
AcDbEntity
  8
0
 62
     7
370
    35
390
F
100
AcDbCircle
 10
32.0
 20
182.0
 30
0.0
 40
2.0
100
AcDbArc
 50
180.000005
 51
270.000001
  0
ARC
  5
140
330
1D0
100
AcDbEntity
  8
0
 62
     7
370
    35
390
F
100
AcDbCircle
 10
-98.0
 20
160.0
 30
0.0
 40
20.0
100
AcDbArc
 50
90.000003
 51
180.000005
  0
ARC
  5
141
330
1D0
100
AcDbEntity
  8
0
 62
     7
370
    35
390
F
100
AcDbCircle
 10
98.0
 20
160.0
 30
0.0
 40
20.0
100
AcDbArc
 50
0.0
 51
90.000003
  0
LINE
  5
142
330
1D0
100
AcDbEntity
  8
0
 62
     7
370
    35
390
F
100
AcDbLine
 10
-118.0
 20
160.0
 30
0.0
 11
-118.0
 21
42.196152
 31
0.0
  0
LINE
  5
143
330
1D0
100
AcDbEntity
  8
0
 62
     7
370
    35
390
F
100
AcDbLine
 10
118.0
 20
160.0
 30
0.0
 11
118.0
 21
42.196152
 31
0.0
  0
ARC
  5
144
330
1D0
100
AcDbEntity
  8
0
 62
     7
370
    35
390
F
100
AcDbCircle
 10
-121.0
 20
42.196152
 30
0.0
 40
3.0
100
AcDbArc
 50
299.999997
 51
0.0
  0
ARC
  5
145
330
1D0
100
AcDbEntity
  8
0
 62
     7
370
    35
390
F
100
AcDbCircle
 10
121.0
 20
42.196152
 30
0.0
 40
3.0
100
AcDbArc
 50
180.000005
 51
240.000006
  0
ARC
  5
146
330
1D0
100
AcDbEntity
  8
0
 62
     7
370
    35
390
F
100
AcDbCircle
 10
-118.0
 20
37.0
 30
0.0
 40
3.0
100
AcDbArc
 50
120.000003
 51
180.000005
  0
ARC
  5
147
330
1D0
100
AcDbEntity
  8
0
 62
     7
370
    35
390
F
100
AcDbCircle
 10
118.0
 20
37.0
 30
0.0
 40
3.0
100
AcDbArc
 50
0.0
 51
60.00000299999999
  0
LINE
  5
148
330
1D0
100
AcDbEntity
  8
0
 62
     7
370
    35
390
F
100
AcDbLine
 10
-121.0
 20
37.0
 30
0.0
 11
-121.0
 21
0.000001
 31
0.0
  0
LINE
  5
149
330
1D0
100
AcDbEntity
  8
0
 62
     7
370
    35
390
F
100
AcDbLine
 10
121.0
 20
37.0
 30
0.0
 11
121.0
 21
-0.000001
 31
0.0
  0
LINE
  5
14A
330
1D0
100
AcDbEntity
  8
0
 62
     7
 48
0.053619
370
    35
390
F
100
AcDbLine
 10
34.60815
 20
84.0
 30
0.0
 11
36.752914
 21
84.0
 31
0.0
  0
LINE
  5
14B
330
1D0
100
AcDbEntity
  8
0
 62
     7
370
    35
390
F
100
AcDbLine
 10
-34.608147
 20
84.0
 30
0.0
 11
34.60815
 21
84.0
 31
0.0
  0
LINE
  5
14C
330
1D0
100
AcDbEntity
  8
0
 62
     7
 48
0.053619
370
    35
390
F
100
AcDbLine
 10
-36.752914
 20
84.0
 30
0.0
 11
-34.608147
 21
84.0
 31
0.0
  0
LWPOLYLINE
  5
14D
330
1D0
100
AcDbEntity
  8
0
 62
     7
370
    13
390
F
100
AcDbPolyline
 90
        9
 70
     0
 43
0.0
 10
-34.608147
 20
84.0
 10
-34.573357
 20
85.013313
 10
-34.483749
 20
85.987503
 10
-34.34243
 20
86.889053
 10
-34.221828
 20
87.43428
 10
-34.082237
 20
87.925018
 10
-33.925797
 20
88.353752
 10
-33.754917
 20
88.713921
 10
-33.572224
 20
89.0
  0
LWPOLYLINE
  5
14E
330
1D0
100
AcDbEntity
  8
0
 62
     7
370
    13
390
F
100
AcDbPolyline
 90
        9
 70
     0
 43
0.0
 10
33.572224
 20
89.0
 10
33.754921
 20
88.713921
 10
33.9258
 20
88.353752
 10
34.082237
 20
87.925018
 10
34.221828
 20
87.43428
 10
34.34243
 20
86.889053
 10
34.483753
 20
85.987495
 10
34.573357
 20
85.013313
 10
34.60815
 20
84.0
  0
LINE
  5
14F
330
1D0
100
AcDbEntity
  8
0
 62
     7
370
    35
390
F
100
AcDbLine
 10
33.572224
 20
89.0
 30
0.0
 11
-33.572224
 21
89.0
 31
0.0
  0
LWPOLYLINE
  5
150
330
1D0
100
AcDbEntity
  8
0
 62
     7
370
    35
390
F
100
AcDbPolyline
 90
       10
 70
     0
 43
0.0
 10
-35.987244
 20
87.503494
 10
-35.798203
 20
87.805496
 10
-35.577171
 20
88.082664
 10
-35.326221
 20
88.330429
 10
-35.048279
 20
88.544418
 10
-34.747005
 20
88.720726
 10
-34.426716
 20
88.856003
 10
-34.092278
 20
88.947655
 10
-33.749004
 20
88.994026
 10
-33.575817
 20
89.0
  0
LWPOLYLINE
  5
151
330
1D0
100
AcDbEntity
  8
0
 62
     7
370
    35
390
F
100
AcDbPolyline
 90
       10
 70
     0
 43
0.0
 10
35.987244
 20
87.503487
 10
35.798214
 20
87.805481
 10
35.577183
 20
88.082657
 10
35.326241
 20
88.330414
 10
35.048294
 20
88.544411
 10
34.747017
 20
88.720718
 10
34.426723
 20
88.855995
 10
34.092274
 20
88.947655
 10
33.748997
 20
88.994026
 10
33.575809
 20
89.0
  0
LINE
  5
152
330
1D0
100
AcDbEntity
  8
0
 62
     7
 48
0.053619
370
    35
390
F
100
AcDbLine
 10
34.60815
 20
94.0
 30
0.0
 11
36.752914
 21
94.0
 31
0.0
  0
LINE
  5
153
330
1D0
100
AcDbEntity
  8
0
 62
     7
370
    35
390
F
100
AcDbLine
 10
-34.608147
 20
94.0
 30
0.0
 11
34.60815
 21
94.0
 31
0.0
  0
LINE
  5
154
330
1D0
100
AcDbEntity
  8
0
 62
     7
 48
0.053619
370
    35
390
F
100
AcDbLine
 10
-36.752914
 20
94.0
 30
0.0
 11
-34.608147
 21
94.0
 31
0.0
  0
LWPOLYLINE
  5
155
330
1D0
100
AcDbEntity
  8
0
 62
     7
370
    13
390
F
100
AcDbPolyline
 90
        9
 70
     0
 43
0.0
 10
-34.608147
 20
94.0
 10
-34.573357
 20
95.013313
 10
-34.483749
 20
95.987503
 10
-34.34243
 20
96.889053
 10
-34.221828
 20
97.43428
 10
-34.082237
 20
97.925018
 10
-33.925797
 20
98.353752
 10
-33.754917
 20
98.713921
 10
-33.572224
 20
99.0
  0
LWPOLYLINE
  5
156
330
1D0
100
AcDbEntity
  8
0
 62
     7
370
    13
390
F
100
AcDbPolyline
 90
        9
 70
     0
 43
0.0
 10
33.572224
 20
99.0
 10
33.754921
 20
98.713921
 10
33.9258
 20
98.353752
 10
34.082237
 20
97.925018
 10
34.221828
 20
97.43428
 10
34.34243
 20
96.889053
 10
34.483753
 20
95.987495
 10
34.573357
 20
95.013313
 10
34.60815
 20
94.0
  0
LINE
  5
157
330
1D0
100
AcDbEntity
  8
0
 62
     7
370
    35
390
F
100
AcDbLine
 10
33.572224
 20
99.0
 30
0.0
 11
-33.572224
 21
99.0
 31
0.0
  0
LWPOLYLINE
  5
158
330
1D0
100
AcDbEntity
  8
0
 62
     7
370
    35
390
F
100
AcDbPolyline
 90
       10
 70
     0
 43
0.0
 10
-35.987244
 20
97.503494
 10
-35.798203
 20
97.805496
 10
-35.577171
 20
98.082664
 10
-35.326221
 20
98.330429
 10
-35.048279
 20
98.544418
 10
-34.747005
 20
98.720726
 10
-34.426716
 20
98.856003
 10
-34.092278
 20
98.947655
 10
-33.749004
 20
98.994026
 10
-33.575817
 20
99.0
  0
LWPOLYLINE
  5
159
330
1D0
100
AcDbEntity
  8
0
 62
     7
370
    35
390
F
100
AcDbPolyline
 90
       10
 70
     0
 43
0.0
 10
35.987244
 20
97.503487
 10
35.798214
 20
97.805481
 10
35.577183
 20
98.082657
 10
35.326241
 20
98.330414
 10
35.048298
 20
98.544411
 10
34.747021
 20
98.720718
 10
34.426723
 20
98.855995
 10
34.092274
 20
98.947655
 10
33.748997
 20
98.994026
 10
33.575809
 20
99.0
  0
LINE
  5
15A
330
1D0
100
AcDbEntity
  8
0
 62
     7
 48
0.053619
370
    35
390
F
100
AcDbLine
 10
34.60815
 20
104.0
 30
0.0
 11
36.752914
 21
104.0
 31
0.0
  0
LINE
  5
15B
330
1D0
100
AcDbEntity
  8
0
 62
     7
370
    35
390
F
100
AcDbLine
 10
-34.608147
 20
104.0
 30
0.0
 11
34.60815
 21
104.0
 31
0.0
  0
LINE
  5
15C
330
1D0
100
AcDbEntity
  8
0
 62
     7
 48
0.053619
370
    35
390
F
100
AcDbLine
 10
-36.752914
 20
104.0
 30
0.0
 11
-34.608147
 21
104.0
 31
0.0
  0
LWPOLYLINE
  5
15D
330
1D0
100
AcDbEntity
  8
0
 62
     7
370
    13
390
F
100
AcDbPolyline
 90
        9
 70
     0
 43
0.0
 10
-34.608147
 20
104.0
 10
-34.573357
 20
105.013313
 10
-34.483749
 20
105.987503
 10
-34.34243
 20
106.889053
 10
-34.221828
 20
107.43428
 10
-34.082237
 20
107.925018
 10
-33.925797
 20
108.353752
 10
-33.754917
 20
108.713921
 10
-33.572224
 20
109.0
  0
LWPOLYLINE
  5
15E
330
1D0
100
AcDbEntity
  8
0
 62
     7
370
    13
390
F
100
AcDbPolyline
 90
        9
 70
     0
 43
0.0
 10
33.572224
 20
109.0
 10
33.754921
 20
108.713921
 10
33.9258
 20
108.353752
 10
34.082237
 20
107.925018
 10
34.221832
 20
107.43428
 10
34.34243
 20
106.889053
 10
34.483753
 20
105.987495
 10
34.573357
 20
105.013313
 10
34.60815
 20
104.0
  0
LINE
  5
15F
330
1D0
100
AcDbEntity
  8
0
 62
     7
370
    35
390
F
100
AcDbLine
 10
33.572224
 20
109.0
 30
0.0
 11
-33.572224
 21
109.0
 31
0.0
  0
LWPOLYLINE
  5
160
330
1D0
100
AcDbEntity
  8
0
 62
     7
370
    35
390
F
100
AcDbPolyline
 90
       10
 70
     0
 43
0.0
 10
-35.987244
 20
107.503494
 10
-35.798203
 20
107.805496
 10
-35.577171
 20
108.082664
 10
-35.326221
 20
108.330429
 10
-35.048279
 20
108.544418
 10
-34.747005
 20
108.720726
 10
-34.426716
 20
108.856003
 10
-34.092278
 20
108.947655
 10
-33.749004
 20
108.994026
 10
-33.575817
 20
109.0
  0
LWPOLYLINE
  5
161
330
1D0
100
AcDbEntity
  8
0
 62
     7
370
    35
390
F
100
AcDbPolyline
 90
       10
 70
     0
 43
0.0
 10
35.987244
 20
107.503487
 10
35.798214
 20
107.805481
 10
35.577187
 20
108.082657
 10
35.326241
 20
108.330414
 10
35.048298
 20
108.544411
 10
34.747021
 20
108.720718
 10
34.426723
 20
108.855995
 10
34.092274
 20
108.947655
 10
33.748997
 20
108.994026
 10
33.575809
 20
109.0
  0
LINE
  5
162
330
1D0
100
AcDbEntity
  8
0
 62
     7
 48
0.053619
370
    35
390
F
100
AcDbLine
 10
34.60815
 20
114.0
 30
0.0
 11
36.752914
 21
114.0
 31
0.0
  0
LINE
  5
163
330
1D0
100
AcDbEntity
  8
0
 62
     7
370
    35
390
F
100
AcDbLine
 10
-34.608147
 20
114.0
 30
0.0
 11
34.60815
 21
114.0
 31
0.0
  0
LINE
  5
164
330
1D0
100
AcDbEntity
  8
0
 62
     7
 48
0.053619
370
    35
390
F
100
AcDbLine
 10
-36.752914
 20
114.0
 30
0.0
 11
-34.608147
 21
114.0
 31
0.0
  0
LWPOLYLINE
  5
165
330
1D0
100
AcDbEntity
  8
0
 62
     7
370
    13
390
F
100
AcDbPolyline
 90
        9
 70
     0
 43
0.0
 10
-34.608147
 20
114.0
 10
-34.573357
 20
115.013313
 10
-34.483749
 20
115.987503
 10
-34.34243
 20
116.889053
 10
-34.221828
 20
117.43428
 10
-34.082237
 20
117.925018
 10
-33.925797
 20
118.353752
 10
-33.754917
 20
118.713921
 10
-33.572224
 20
119.0
  0
LWPOLYLINE
  5
166
330
1D0
100
AcDbEntity
  8
0
 62
     7
370
    13
390
F
100
AcDbPolyline
 90
        9
 70
     0
 43
0.0
 10
33.572224
 20
119.0
 10
33.754921
 20
118.713921
 10
33.9258
 20
118.353752
 10
34.082237
 20
117.925018
 10
34.221832
 20
117.43428
 10
34.34243
 20
116.889053
 10
34.483753
 20
115.987495
 10
34.573357
 20
115.013313
 10
34.60815
 20
114.0
  0
LINE
  5
167
330
1D0
100
AcDbEntity
  8
0
 62
     7
370
    35
390
F
100
AcDbLine
 10
33.572224
 20
119.0
 30
0.0
 11
-33.572224
 21
119.0
 31
0.0
  0
LWPOLYLINE
  5
168
330
1D0
100
AcDbEntity
  8
0
 62
     7
370
    35
390
F
100
AcDbPolyline
 90
       10
 70
     0
 43
0.0
 10
-35.987244
 20
117.503494
 10
-35.798203
 20
117.805496
 10
-35.577171
 20
118.082664
 10
-35.326221
 20
118.330429
 10
-35.048279
 20
118.544418
 10
-34.747005
 20
118.720726
 10
-34.426716
 20
118.856003
 10
-34.092278
 20
118.947655
 10
-33.749004
 20
118.994026
 10
-33.575817
 20
119.0
  0
LWPOLYLINE
  5
169
330
1D0
100
AcDbEntity
  8
0
 62
     7
370
    35
390
F
100
AcDbPolyline
 90
       10
 70
     0
 43
0.0
 10
35.987244
 20
117.503487
 10
35.798214
 20
117.805481
 10
35.577187
 20
118.082657
 10
35.326241
 20
118.330414
 10
35.048298
 20
118.544411
 10
34.747021
 20
118.720718
 10
34.426723
 20
118.855995
 10
34.092274
 20
118.947655
 10
33.748997
 20
118.994026
 10
33.575809
 20
119.0
  0
LINE
  5
16A
330
1D0
100
AcDbEntity
  8
0
 62
     7
 48
0.053619
370
    35
390
F
100
AcDbLine
 10
34.60815
 20
124.0
 30
0.0
 11
36.752914
 21
124.0
 31
0.0
  0
LINE
  5
16B
330
1D0
100
AcDbEntity
  8
0
 62
     7
370
    35
390
F
100
AcDbLine
 10
-34.608147
 20
124.0
 30
0.0
 11
34.60815
 21
124.0
 31
0.0
  0
LINE
  5
16C
330
1D0
100
AcDbEntity
  8
0
 62
     7
 48
0.053619
370
    35
390
F
100
AcDbLine
 10
-36.752914
 20
124.0
 30
0.0
 11
-34.608147
 21
124.0
 31
0.0
  0
LWPOLYLINE
  5
16D
330
1D0
100
AcDbEntity
  8
0
 62
     7
370
    13
390
F
100
AcDbPolyline
 90
        9
 70
     0
 43
0.0
 10
-34.608147
 20
124.0
 10
-34.573357
 20
125.013313
 10
-34.483749
 20
125.987503
 10
-34.34243
 20
126.889053
 10
-34.221828
 20
127.43428
 10
-34.082237
 20
127.925018
 10
-33.925797
 20
128.35376
 10
-33.754917
 20
128.713913
 10
-33.572224
 20
129.0
  0
LWPOLYLINE
  5
16E
330
1D0
100
AcDbEntity
  8
0
 62
     7
370
    13
390
F
100
AcDbPolyline
 90
        9
 70
     0
 43
0.0
 10
33.572224
 20
129.0
 10
33.754921
 20
128.713913
 10
33.9258
 20
128.35376
 10
34.082237
 20
127.925018
 10
34.221832
 20
127.43428
 10
34.34243
 20
126.889053
 10
34.483753
 20
125.987495
 10
34.573357
 20
125.013313
 10
34.60815
 20
124.0
  0
LINE
  5
16F
330
1D0
100
AcDbEntity
  8
0
 62
     7
370
    35
390
F
100
AcDbLine
 10
33.572224
 20
129.0
 30
0.0
 11
-33.572224
 21
129.0
 31
0.0
  0
LWPOLYLINE
  5
170
330
1D0
100
AcDbEntity
  8
0
 62
     7
370
    35
390
F
100
AcDbPolyline
 90
       10
 70
     0
 43
0.0
 10
-35.987244
 20
127.503494
 10
-35.798203
 20
127.805496
 10
-35.577171
 20
128.082672
 10
-35.326221
 20
128.330429
 10
-35.048279
 20
128.544418
 10
-34.747005
 20
128.720718
 10
-34.426716
 20
128.856003
 10
-34.092278
 20
128.947647
 10
-33.749004
 20
128.994019
 10
-33.575817
 20
129.0
  0
LWPOLYLINE
  5
171
330
1D0
100
AcDbEntity
  8
0
 62
     7
370
    35
390
F
100
AcDbPolyline
 90
       10
 70
     0
 43
0.0
 10
35.987244
 20
127.503487
 10
35.798214
 20
127.805481
 10
35.577187
 20
128.082657
 10
35.326241
 20
128.330414
 10
35.048298
 20
128.544418
 10
34.747021
 20
128.720718
 10
34.426723
 20
128.855988
 10
34.092274
 20
128.947647
 10
33.748997
 20
128.994019
 10
33.575813
 20
129.0
  0
LINE
  5
172
330
1D0
100
AcDbEntity
  8
0
 62
     7
 48
0.053619
370
    35
390
F
100
AcDbLine
 10
34.60815
 20
134.0
 30
0.0
 11
36.752914
 21
134.0
 31
0.0
  0
LINE
  5
173
330
1D0
100
AcDbEntity
  8
0
 62
     7
370
    35
390
F
100
AcDbLine
 10
-34.608147
 20
134.0
 30
0.0
 11
34.60815
 21
134.0
 31
0.0
  0
LINE
  5
174
330
1D0
100
AcDbEntity
  8
0
 62
     7
 48
0.053619
370
    35
390
F
100
AcDbLine
 10
-36.752914
 20
134.0
 30
0.0
 11
-34.608147
 21
134.0
 31
0.0
  0
LWPOLYLINE
  5
175
330
1D0
100
AcDbEntity
  8
0
 62
     7
370
    13
390
F
100
AcDbPolyline
 90
        9
 70
     0
 43
0.0
 10
-34.608147
 20
134.0
 10
-34.573357
 20
135.013306
 10
-34.483749
 20
135.987503
 10
-34.34243
 20
136.889053
 10
-34.221828
 20
137.43428
 10
-34.082237
 20
137.925018
 10
-33.925797
 20
138.35376
 10
-33.754917
 20
138.713913
 10
-33.572224
 20
139.0
  0
LWPOLYLINE
  5
176
330
1D0
100
AcDbEntity
  8
0
 62
     7
370
    13
390
F
100
AcDbPolyline
 90
        9
 70
     0
 43
0.0
 10
33.572224
 20
139.0
 10
33.754921
 20
138.713913
 10
33.9258
 20
138.35376
 10
34.082237
 20
137.925018
 10
34.221832
 20
137.43428
 10
34.34243
 20
136.889053
 10
34.483753
 20
135.987503
 10
34.573357
 20
135.013306
 10
34.60815
 20
134.0
  0
LINE
  5
177
330
1D0
100
AcDbEntity
  8
0
 62
     7
370
    35
390
F
100
AcDbLine
 10
33.572224
 20
139.0
 30
0.0
 11
-33.572224
 21
139.0
 31
0.0
  0
LWPOLYLINE
  5
178
330
1D0
100
AcDbEntity
  8
0
 62
     7
370
    35
390
F
100
AcDbPolyline
 90
       10
 70
     0
 43
0.0
 10
-35.987244
 20
137.503494
 10
-35.798203
 20
137.805496
 10
-35.577171
 20
138.082672
 10
-35.326221
 20
138.330429
 10
-35.048279
 20
138.544418
 10
-34.747005
 20
138.720718
 10
-34.426716
 20
138.856003
 10
-34.092278
 20
138.947647
 10
-33.749004
 20
138.994019
 10
-33.575817
 20
139.0
  0
LWPOLYLINE
  5
179
330
1D0
100
AcDbEntity
  8
0
 62
     7
370
    35
390
F
100
AcDbPolyline
 90
       10
 70
     0
 43
0.0
 10
35.987244
 20
137.503494
 10
35.798214
 20
137.805481
 10
35.577187
 20
138.082657
 10
35.326241
 20
138.330414
 10
35.048298
 20
138.544418
 10
34.747021
 20
138.720718
 10
34.426723
 20
138.855988
 10
34.092274
 20
138.947647
 10
33.748997
 20
138.994019
 10
33.575813
 20
139.0
  0
LINE
  5
17A
330
1D0
100
AcDbEntity
  8
0
 62
     7
 48
0.053619
370
    35
390
F
100
AcDbLine
 10
34.60815
 20
144.0
 30
0.0
 11
36.752914
 21
144.0
 31
0.0
  0
LINE
  5
17B
330
1D0
100
AcDbEntity
  8
0
 62
     7
370
    35
390
F
100
AcDbLine
 10
-34.608147
 20
144.0
 30
0.0
 11
34.60815
 21
144.0
 31
0.0
  0
LINE
  5
17C
330
1D0
100
AcDbEntity
  8
0
 62
     7
 48
0.053619
370
    35
390
F
100
AcDbLine
 10
-36.752914
 20
144.0
 30
0.0
 11
-34.608147
 21
144.0
 31
0.0
  0
LWPOLYLINE
  5
17D
330
1D0
100
AcDbEntity
  8
0
 62
     7
370
    13
390
F
100
AcDbPolyline
 90
        9
 70
     0
 43
0.0
 10
-34.608147
 20
144.0
 10
-34.573357
 20
145.013306
 10
-34.483749
 20
145.987503
 10
-34.34243
 20
146.889053
 10
-34.221828
 20
147.43428
 10
-34.082237
 20
147.925018
 10
-33.925797
 20
148.35376
 10
-33.754917
 20
148.713913
 10
-33.572224
 20
149.0
  0
LWPOLYLINE
  5
17E
330
1D0
100
AcDbEntity
  8
0
 62
     7
370
    13
390
F
100
AcDbPolyline
 90
        9
 70
     0
 43
0.0
 10
33.572224
 20
149.0
 10
33.754921
 20
148.713913
 10
33.9258
 20
148.35376
 10
34.082237
 20
147.925018
 10
34.221832
 20
147.43428
 10
34.34243
 20
146.889053
 10
34.483753
 20
145.987503
 10
34.573357
 20
145.013306
 10
34.60815
 20
144.0
  0
LINE
  5
17F
330
1D0
100
AcDbEntity
  8
0
 62
     7
370
    35
390
F
100
AcDbLine
 10
33.572224
 20
149.0
 30
0.0
 11
-33.572224
 21
149.0
 31
0.0
  0
LWPOLYLINE
  5
180
330
1D0
100
AcDbEntity
  8
0
 62
     7
370
    35
390
F
100
AcDbPolyline
 90
       10
 70
     0
 43
0.0
 10
-35.987244
 20
147.503494
 10
-35.798203
 20
147.805496
 10
-35.577171
 20
148.082672
 10
-35.326221
 20
148.330429
 10
-35.048279
 20
148.544418
 10
-34.747005
 20
148.720718
 10
-34.426716
 20
148.856003
 10
-34.092278
 20
148.947647
 10
-33.749004
 20
148.994019
 10
-33.575817
 20
149.0
  0
LWPOLYLINE
  5
181
330
1D0
100
AcDbEntity
  8
0
 62
     7
370
    35
390
F
100
AcDbPolyline
 90
       10
 70
     0
 43
0.0
 10
35.987247
 20
147.503494
 10
35.798214
 20
147.805481
 10
35.577187
 20
148.082657
 10
35.326241
 20
148.330414
 10
35.048298
 20
148.544418
 10
34.747021
 20
148.720718
 10
34.426723
 20
148.855988
 10
34.092274
 20
148.947647
 10
33.748997
 20
148.994019
 10
33.575813
 20
149.0
  0
LINE
  5
182
330
1D0
100
AcDbEntity
  8
0
 62
     7
 48
0.006245
370
    35
390
F
100
AcDbLine
 10
117.999931
 20
84.0
 30
0.0
 11
118.249748
 21
84.0
 31
0.0
  0
LINE
  5
183
330
1D0
100
AcDbEntity
  8
0
 62
     7
 48
0.006245
370
    35
390
F
100
AcDbLine
 10
117.999931
 20
94.0
 30
0.0
 11
118.249748
 21
94.0
 31
0.0
  0
LINE
  5
184
330
1D0
100
AcDbEntity
  8
0
 62
     7
 48
0.006245
370
    35
390
F
100
AcDbLine
 10
117.999931
 20
104.0
 30
0.0
 11
118.249748
 21
104.0
 31
0.0
  0
LINE
  5
185
330
1D0
100
AcDbEntity
  8
0
 62
     7
 48
0.006245
370
    35
390
F
100
AcDbLine
 10
117.999931
 20
114.0
 30
0.0
 11
118.249748
 21
114.0
 31
0.0
  0
LINE
  5
186
330
1D0
100
AcDbEntity
  8
0
 62
     7
 48
0.006245
370
    35
390
F
100
AcDbLine
 10
117.999931
 20
124.0
 30
0.0
 11
118.249748
 21
124.0
 31
0.0
  0
LINE
  5
187
330
1D0
100
AcDbEntity
  8
0
 62
     7
 48
0.006245
370
    35
390
F
100
AcDbLine
 10
117.999931
 20
134.0
 30
0.0
 11
118.249748
 21
134.0
 31
0.0
  0
LINE
  5
188
330
1D0
100
AcDbEntity
  8
0
 62
     7
 48
0.006245
370
    35
390
F
100
AcDbLine
 10
117.999931
 20
144.0
 30
0.0
 11
118.249748
 21
144.0
 31
0.0
  0
LINE
  5
189
330
1D0
100
AcDbEntity
  8
0
 62
     7
 48
0.006245
370
    35
390
F
100
AcDbLine
 10
-118.249748
 20
84.0
 30
0.0
 11
-117.999931
 21
84.0
 31
0.0
  0
LINE
  5
18A
330
1D0
100
AcDbEntity
  8
0
 62
     7
 48
0.006245
370
    35
390
F
100
AcDbLine
 10
-118.249748
 20
94.0
 30
0.0
 11
-117.999931
 21
94.0
 31
0.0
  0
LINE
  5
18B
330
1D0
100
AcDbEntity
  8
0
 62
     7
 48
0.006245
370
    35
390
F
100
AcDbLine
 10
-118.249748
 20
104.0
 30
0.0
 11
-117.999931
 21
104.0
 31
0.0
  0
LINE
  5
18C
330
1D0
100
AcDbEntity
  8
0
 62
     7
 48
0.006245
370
    35
390
F
100
AcDbLine
 10
-118.249748
 20
114.0
 30
0.0
 11
-117.999931
 21
114.0
 31
0.0
  0
LINE
  5
18D
330
1D0
100
AcDbEntity
  8
0
 62
     7
 48
0.006245
370
    35
390
F
100
AcDbLine
 10
-118.249748
 20
124.0
 30
0.0
 11
-117.999931
 21
124.0
 31
0.0
  0
LINE
  5
18E
330
1D0
100
AcDbEntity
  8
0
 62
     7
 48
0.006245
370
    35
390
F
100
AcDbLine
 10
-118.249748
 20
134.0
 30
0.0
 11
-117.999931
 21
134.0
 31
0.0
  0
LINE
  5
18F
330
1D0
100
AcDbEntity
  8
0
 62
     7
 48
0.006245
370
    35
390
F
100
AcDbLine
 10
-118.249748
 20
144.0
 30
0.0
 11
-117.999931
 21
144.0
 31
0.0
  0
LWPOLYLINE
  5
190
330
1D0
100
AcDbEntity
  8
0
 62
     7
370
    35
390
F
100
AcDbPolyline
 90
        7
 70
     0
 43
0.0
 10
-35.98772
 20
87.502693
 10
-36.227005
 20
86.998856
 10
-36.419758
 20
86.444321
 10
-36.586315
 20
85.748802
 10
-36.700451
 20
84.957077
 10
-36.752007
 20
84.094833
 10
-36.753479
 20
83.999855
  0
LWPOLYLINE
  5
191
330
1D0
100
AcDbEntity
  8
0
 62
     7
370
    35
390
F
100
AcDbPolyline
 90
        7
 70
     0
 43
0.0
 10
36.753479
 20
83.999855
 10
36.710072
 20
84.857178
 10
36.604538
 20
85.649887
 10
36.450249
 20
86.337219
 10
36.256874
 20
86.923897
 10
36.013733
 20
87.454765
 10
35.98772
 20
87.502693
  0
LWPOLYLINE
  5
192
330
1D0
100
AcDbEntity
  8
0
 62
     7
370
    35
390
F
100
AcDbPolyline
 90
        7
 70
     0
 43
0.0
 10
-35.98772
 20
97.502693
 10
-36.227005
 20
96.998856
 10
-36.419758
 20
96.444321
 10
-36.586315
 20
95.748802
 10
-36.700451
 20
94.957077
 10
-36.752007
 20
94.094833
 10
-36.753479
 20
93.999855
  0
LWPOLYLINE
  5
193
330
1D0
100
AcDbEntity
  8
0
 62
     7
370
    35
390
F
100
AcDbPolyline
 90
        7
 70
     0
 43
0.0
 10
36.753479
 20
93.999855
 10
36.710072
 20
94.857178
 10
36.604542
 20
95.649887
 10
36.450249
 20
96.337219
 10
36.256874
 20
96.923897
 10
36.013733
 20
97.454765
 10
35.98772
 20
97.502693
  0
LWPOLYLINE
  5
194
330
1D0
100
AcDbEntity
  8
0
 62
     7
370
    35
390
F
100
AcDbPolyline
 90
        7
 70
     0
 43
0.0
 10
-35.98772
 20
107.502693
 10
-36.227005
 20
106.998856
 10
-36.419758
 20
106.444321
 10
-36.586315
 20
105.748802
 10
-36.700451
 20
104.957077
 10
-36.752007
 20
104.094833
 10
-36.753479
 20
103.999855
  0
LWPOLYLINE
  5
195
330
1D0
100
AcDbEntity
  8
0
 62
     7
370
    35
390
F
100
AcDbPolyline
 90
        7
 70
     0
 43
0.0
 10
36.753479
 20
103.999855
 10
36.710072
 20
104.857178
 10
36.604542
 20
105.649887
 10
36.450249
 20
106.337219
 10
36.256874
 20
106.923897
 10
36.013733
 20
107.454765
 10
35.98772
 20
107.502693
  0
LWPOLYLINE
  5
196
330
1D0
100
AcDbEntity
  8
0
 62
     7
370
    35
390
F
100
AcDbPolyline
 90
        7
 70
     0
 43
0.0
 10
-35.98772
 20
117.502693
 10
-36.227005
 20
116.998856
 10
-36.419758
 20
116.444321
 10
-36.586315
 20
115.748802
 10
-36.700451
 20
114.957077
 10
-36.752007
 20
114.094833
 10
-36.753479
 20
113.999855
  0
LWPOLYLINE
  5
197
330
1D0
100
AcDbEntity
  8
0
 62
     7
370
    35
390
F
100
AcDbPolyline
 90
        7
 70
     0
 43
0.0
 10
36.753479
 20
113.999855
 10
36.710072
 20
114.857178
 10
36.604542
 20
115.649887
 10
36.450249
 20
116.337219
 10
36.256874
 20
116.923897
 10
36.013733
 20
117.454765
 10
35.98772
 20
117.502693
  0
LWPOLYLINE
  5
198
330
1D0
100
AcDbEntity
  8
0
 62
     7
370
    35
390
F
100
AcDbPolyline
 90
        7
 70
     0
 43
0.0
 10
-35.98772
 20
127.502693
 10
-36.227005
 20
126.998856
 10
-36.419754
 20
126.444321
 10
-36.586315
 20
125.748802
 10
-36.700451
 20
124.957077
 10
-36.752007
 20
124.094833
 10
-36.753475
 20
123.999855
  0
LWPOLYLINE
  5
199
330
1D0
100
AcDbEntity
  8
0
 62
     7
370
    35
390
F
100
AcDbPolyline
 90
        7
 70
     0
 43
0.0
 10
36.753479
 20
123.999855
 10
36.710072
 20
124.857178
 10
36.604542
 20
125.649887
 10
36.450249
 20
126.337219
 10
36.256874
 20
126.923897
 10
36.013733
 20
127.454765
 10
35.98772
 20
127.502693
  0
LWPOLYLINE
  5
19A
330
1D0
100
AcDbEntity
  8
0
 62
     7
370
    35
390
F
100
AcDbPolyline
 90
        7
 70
     0
 43
0.0
 10
-35.98772
 20
137.502701
 10
-36.227005
 20
136.998856
 10
-36.419754
 20
136.444321
 10
-36.586315
 20
135.748795
 10
-36.700451
 20
134.957077
 10
-36.752007
 20
134.094833
 10
-36.753475
 20
133.999847
  0
LWPOLYLINE
  5
19B
330
1D0
100
AcDbEntity
  8
0
 62
     7
370
    35
390
F
100
AcDbPolyline
 90
        7
 70
     0
 43
0.0
 10
36.753479
 20
133.999847
 10
36.710072
 20
134.857178
 10
36.604542
 20
135.649887
 10
36.450249
 20
136.337219
 10
36.256874
 20
136.923889
 10
36.013733
 20
137.454758
 10
35.98772
 20
137.502701
  0
LWPOLYLINE
  5
19C
330
1D0
100
AcDbEntity
  8
0
 62
     7
370
    35
390
F
100
AcDbPolyline
 90
        7
 70
     0
 43
0.0
 10
-35.98772
 20
147.502701
 10
-36.227005
 20
146.998856
 10
-36.419754
 20
146.444321
 10
-36.586315
 20
145.748795
 10
-36.700451
 20
144.957077
 10
-36.752007
 20
144.094833
 10
-36.753475
 20
143.999847
  0
LWPOLYLINE
  5
19D
330
1D0
100
AcDbEntity
  8
0
 62
     7
370
    35
390
F
100
AcDbPolyline
 90
        7
 70
     0
 43
0.0
 10
36.753479
 20
143.999847
 10
36.710072
 20
144.857178
 10
36.604542
 20
145.649887
 10
36.450249
 20
146.337219
 10
36.256874
 20
146.923889
 10
36.013733
 20
147.454758
 10
35.98772
 20
147.502701
  0
ARC
  5
19E
330
1D0
100
AcDbEntity
  8
0
 62
     7
370
    35
390
F
100
AcDbCircle
 10
112.699768
 20
83.876274
 30
0.0
 40
5.551293
100
AcDbArc
 50
1.262051
 51
17.297416
  0
ARC
  5
19F
330
1D0
100
AcDbEntity
  8
0
 62
     7
370
    35
390
F
100
AcDbCircle
 10
112.699768
 20
93.876274
 30
0.0
 40
5.551293
100
AcDbArc
 50
1.262051
 51
17.297416
  0
ARC
  5
1A0
330
1D0
100
AcDbEntity
  8
0
 62
     7
370
    35
390
F
100
AcDbCircle
 10
112.699768
 20
103.876274
 30
0.0
 40
5.551293
100
AcDbArc
 50
1.262051
 51
17.297416
  0
ARC
  5
1A1
330
1D0
100
AcDbEntity
  8
0
 62
     7
370
    35
390
F
100
AcDbCircle
 10
112.699768
 20
113.876274
 30
0.0
 40
5.551293
100
AcDbArc
 50
1.262051
 51
17.297416
  0
ARC
  5
1A2
330
1D0
100
AcDbEntity
  8
0
 62
     7
370
    35
390
F
100
AcDbCircle
 10
112.699768
 20
123.876274
 30
0.0
 40
5.551293
100
AcDbArc
 50
1.262051
 51
17.297416
  0
ARC
  5
1A3
330
1D0
100
AcDbEntity
  8
0
 62
     7
370
    35
390
F
100
AcDbCircle
 10
112.699768
 20
133.876282
 30
0.0
 40
5.551293
100
AcDbArc
 50
1.262051
 51
17.297416
  0
ARC
  5
1A4
330
1D0
100
AcDbEntity
  8
0
 62
     7
370
    35
390
F
100
AcDbCircle
 10
112.699768
 20
143.876282
 30
0.0
 40
5.551293
100
AcDbArc
 50
1.262051
 51
17.297416
  0
ARC
  5
1A5
330
1D0
100
AcDbEntity
  8
0
 62
     7
370
    35
390
F
100
AcDbCircle
 10
-112.699768
 20
83.876274
 30
0.0
 40
5.551295
100
AcDbArc
 50
162.70389
 51
178.73795
  0
ARC
  5
1A6
330
1D0
100
AcDbEntity
  8
0
 62
     7
370
    35
390
F
100
AcDbCircle
 10
-112.699768
 20
93.876274
 30
0.0
 40
5.551295
100
AcDbArc
 50
162.70389
 51
178.73795
  0
ARC
  5
1A7
330
1D0
100
AcDbEntity
  8
0
 62
     7
370
    35
390
F
100
AcDbCircle
 10
-112.699768
 20
103.876274
 30
0.0
 40
5.551295
100
AcDbArc
 50
162.70389
 51
178.73795
  0
ARC
  5
1A8
330
1D0
100
AcDbEntity
  8
0
 62
     7
370
    35
390
F
100
AcDbCircle
 10
-112.699768
 20
113.876274
 30
0.0
 40
5.551295
100
AcDbArc
 50
162.70389
 51
178.73795
  0
ARC
  5
1A9
330
1D0
100
AcDbEntity
  8
0
 62
     7
370
    35
390
F
100
AcDbCircle
 10
-112.699768
 20
123.876274
 30
0.0
 40
5.551295
100
AcDbArc
 50
162.70389
 51
178.73795
  0
ARC
  5
1AA
330
1D0
100
AcDbEntity
  8
0
 62
     7
370
    35
390
F
100
AcDbCircle
 10
-112.699768
 20
133.876282
 30
0.0
 40
5.551295
100
AcDbArc
 50
162.70389
 51
178.73795
  0
ARC
  5
1AB
330
1D0
100
AcDbEntity
  8
0
 62
     7
370
    35
390
F
100
AcDbCircle
 10
-112.699768
 20
143.876282
 30
0.0
 40
5.551295
100
AcDbArc
 50
162.70389
 51
178.73795
  0
LINE
  5
1AC
330
1D0
100
AcDbEntity
  8
0
 62
     7
 48
0.0625
370
    13
390
F
100
AcDbLine
 10
18.500002
 20
197.0
 30
0.0
 11
16.000002
 21
197.0
 31
0.0
  0
LINE
  5
1AD
330
1D0
100
AcDbEntity
  8
0
 62
     7
 48
0.0625
370
    13
390
F
100
AcDbLine
 10
16.000002
 20
197.0
 30
0.0
 11
13.500002
 21
197.0
 31
0.0
  0
LINE
  5
1AE
330
1D0
100
AcDbEntity
  8
0
 62
     7
 48
0.0625
370
    13
390
F
100
AcDbLine
 10
-18.499998
 20
197.0
 30
0.0
 11
-15.999998
 21
197.0
 31
0.0
  0
LINE
  5
1AF
330
1D0
100
AcDbEntity
  8
0
 62
     7
 48
0.0625
370
    13
390
F
100
AcDbLine
 10
-15.999998
 20
197.0
 30
0.0
 11
-13.499998
 21
197.0
 31
0.0
  0
LINE
  5
1B0
330
1D0
100
AcDbEntity
  8
0
 62
     7
 48
0.325
370
    35
390
F
100
AcDbLine
 10
18.500002
 20
184.0
 30
0.0
 11
18.500002
 21
197.0
 31
0.0
  0
LINE
  5
1B1
330
1D0
100
AcDbEntity
  8
0
 62
     7
 48
0.325
370
    35
390
F
100
AcDbLine
 10
13.500001
 20
184.0
 30
0.0
 11
13.500002
 21
197.0
 31
0.0
  0
ARC
  5
1B2
330
1D0
100
AcDbEntity
  8
0
 62
     7
370
    35
390
F
100
AcDbCircle
 10
0.000001
 20
197.0
 30
0.0
 40
18.5
100
AcDbArc
 50
0.0
 51
90.000003
  0
ARC
  5
1B3
330
1D0
100
AcDbEntity
  8
0
 62
     7
370
    35
390
F
100
AcDbCircle
 10
0.000001
 20
197.0
 30
0.0
 40
13.5
100
AcDbArc
 50
0.0
 51
90.000003
  0
LINE
  5
1B4
330
1D0
100
AcDbEntity
  8
0
 62
     7
 48
0.325
370
    35
390
F
100
AcDbLine
 10
-18.499998
 20
197.0
 30
0.0
 11
-18.499998
 21
183.999985
 31
0.0
  0
LINE
  5
1B5
330
1D0
100
AcDbEntity
  8
0
 62
     7
 48
0.325
370
    35
390
F
100
AcDbLine
 10
-13.499998
 20
197.0
 30
0.0
 11
-13.499999
 21
183.999985
 31
0.0
  0
ARC
  5
1B6
330
1D0
100
AcDbEntity
  8
0
 62
     7
370
    35
390
F
100
AcDbCircle
 10
0.000001
 20
197.0
 30
0.0
 40
18.5
100
AcDbArc
 50
90.000003
 51
180.000005
  0
ARC
  5
1B7
330
1D0
100
AcDbEntity
  8
0
 62
     7
370
    35
390
F
100
AcDbCircle
 10
0.000001
 20
197.0
 30
0.0
 40
13.5
100
AcDbArc
 50
90.000003
 51
180.000005
  0
LINE
  5
1B8
330
1D0
100
AcDbEntity
  8
0
 62
     7
 48
0.149994
370
    35
390
F
100
AcDbLine
 10
-12.000668
 20
10.4
 30
0.0
 11
-18.000412
 21
10.400001
 31
0.0
  0
LINE
  5
1B9
330
1D0
100
AcDbEntity
  8
0
 62
     7
 48
0.15
370
    13
390
F
100
AcDbLine
 10
-11.999975
 20
9.5094
 30
0.0
 11
-17.999975
 21
9.5094
 31
0.0
  0
LINE
  5
1BA
330
1D0
100
AcDbEntity
  8
0
 62
     7
 48
0.15
370
    13
390
F
100
AcDbLine
 10
-11.999975
 20
3.659619
 30
0.0
 11
-17.999975
 21
3.659619
 31
0.0
  0
LINE
  5
1BB
330
1D0
100
AcDbEntity
  8
0
 62
     7
 48
0.15
370
    13
390
F
100
AcDbLine
 10
-11.999975
 20
0.08966
 30
0.0
 11
-17.999975
 21
0.08966
 31
0.0
  0
ARC
  5
1BC
330
1D0
100
AcDbEntity
  8
0
 62
     7
370
    35
390
F
100
AcDbCircle
 10
30.599998
 20
-226.922668
 30
0.0
 40
249.0
100
AcDbArc
 50
114.30937
 51
153.267628
  0
ARC
  5
1BD
330
1D0
100
AcDbEntity
  8
0
 62
     7
370
    35
390
F
100
AcDbCircle
 10
-30.600025
 20
-226.922638
 30
0.0
 40
248.999985
100
AcDbArc
 50
26.73236
 51
65.690629
  0
ARC
  5
1BE
330
1D0
100
AcDbEntity
  8
0
 62
     7
370
    35
390
F
100
AcDbCircle
 10
84.899994
 20
-256.922668
 30
0.0
 40
311.0
100
AcDbArc
 50
152.831356
 51
179.73957
  0
LINE
  5
1BF
330
1D0
100
AcDbEntity
  8
0
 62
     7
370
    13
390
F
100
AcDbLine
 10
226.096771
 20
-255.5
 30
0.0
 11
-226.096771
 21
-255.5
 31
0.0
  0
ARC
  5
1C0
330
1D0
100
AcDbEntity
  8
0
 62
     7
370
    35
390
F
100
AcDbCircle
 10
-84.900085
 20
-256.922668
 30
0.0
 40
311.000031
100
AcDbArc
 50
0.260425
 51
27.168641
  0
ARC
  5
1C1
330
1D0
100
AcDbEntity
  8
0
 62
     7
370
    35
390
F
100
AcDbCircle
 10
228.096771
 20
-255.5
 30
0.0
 40
2.0
100
AcDbArc
 50
180.000005
 51
270.000001
  0
ARC
  5
1C2
330
1D0
100
AcDbEntity
  8
0
 62
     7
370
    35
390
F
100
AcDbCircle
 10
-228.096771
 20
-255.5
 30
0.0
 40
2.0
100
AcDbArc
 50
270.000001
 51
0.00001
  0
LINE
  5
1C3
330
1D0
100
AcDbEntity
  8
0
 62
     7
370
    35
390
F
100
AcDbLine
 10
233.0
 20
-257.5
 30
0.0
 11
-233.0
 21
-257.5
 31
0.0
  0
ARC
  5
1C4
330
1D0
100
AcDbEntity
  8
0
 62
     7
370
    35
390
F
100
AcDbCircle
 10
-233.0
 20
-260.5
 30
0.0
 40
3.0
100
AcDbArc
 50
90.000003
 51
180.000005
  0
ARC
  5
1C5
330
1D0
100
AcDbEntity
  8
0
 62
     7
370
    35
390
F
100
AcDbCircle
 10
233.0
 20
-260.5
 30
0.0
 40
3.0
100
AcDbArc
 50
0.00001
 51
89.999992
  0
LINE
  5
1C6
330
1D0
100
AcDbEntity
  8
0
 62
     7
370
    13
390
F
100
AcDbLine
 10
-236.0
 20
-260.5
 30
0.0
 11
236.0
 21
-260.5
 31
0.0
  0
LINE
  5
1C7
330
1D0
100
AcDbEntity
  8
0
 62
     7
 48
0.1
370
    35
390
F
100
AcDbLine
 10
-236.0
 20
-264.5
 30
0.0
 11
-236.0
 21
-260.5
 31
0.0
  0
LINE
  5
1C8
330
1D0
100
AcDbEntity
  8
0
 62
     7
 48
0.1
370
    35
390
F
100
AcDbLine
 10
236.0
 20
-264.5
 30
0.0
 11
236.0
 21
-260.5
 31
0.0
  0
LINE
  5
1C9
330
1D0
100
AcDbEntity
  8
0
 62
     7
370
    35
390
F
100
AcDbLine
 10
236.0
 20
-264.5
 30
0.0
 11
-236.0
 21
-264.5
 31
0.0
  0
LINE
  5
1CA
330
1D0
100
AcDbEntity
  8
0
 62
     7
 48
0.15
370
    35
390
F
100
AcDbLine
 10
-11.999975
 20
16.5
 30
0.0
 11
-17.999975
 21
16.5
 31
0.0
  0
LINE
  5
1CB
330
1D0
100
AcDbEntity
  8
0
 62
     7
 48
0.15
370
    35
390
F
100
AcDbLine
 10
-11.999975
 20
17.5
 30
0.0
 11
-17.999975
 21
17.5
 31
0.0
  0
LINE
  5
1CC
330
1D0
100
AcDbEntity
  8
0
 62
     7
 48
0.186239
370
    35
390
F
100
AcDbLine
 10
-9.0
 20
30.5
 30
0.0
 11
-1.550434
 21
30.5
 31
0.0
  0
LINE
  5
1CD
330
1D0
100
AcDbEntity
  8
0
 62
     7
 48
0.1125
370
    35
390
F
100
AcDbLine
 10
-10.0
 20
24.999998
 30
0.0
 11
-10.0
 21
29.5
 31
0.0
  0
ARC
  5
1CE
330
1D0
100
AcDbEntity
  8
0
 62
     7
370
    35
390
F
100
AcDbCircle
 10
-9.0
 20
29.5
 30
0.0
 40
1.0
100
AcDbArc
 50
90.000003
 51
180.000005
  0
ENDBLK
  5
393
330
1D0
100
AcDbEntity
  8
0
100
AcDbBlockEnd
  0
BLOCK
  5
394
330
1DB
100
AcDbEntity
  8
0
100
AcDbBlockBegin
  2
*D6
 70
     1
 10
0.0
 20
0.0
 30
0.0
  3
*D6
  1

  0
POINT
  5
1D2
330
1DB
100
AcDbEntity
  8
DEFPOINTS
  6
ByBlock
 62
     0
380
     1
100
AcDbPoint
 10
37.5528074924406
 20
289.778927
 30
0.0
  0
POINT
  5
1D3
330
1DB
100
AcDbEntity
  8
DEFPOINTS
  6
ByBlock
 62
     0
380
     1
100
AcDbPoint
 10
20.323307
 20
49.780186
 30
0.0
  0
LINE
  5
1D4
330
1DB
100
AcDbEntity
  8
0
  6
ByBlock
 62
     0
370
    -2
380
     1
100
AcDbLine
 10
36.9278074924406
 20
289.778927
 30
0.0
 11
-8.385889788076753
 21
289.778927
 31
0.0
  0
LINE
  5
1D5
330
1DB
100
AcDbEntity
  8
0
  6
ByBlock
 62
     0
370
    -2
380
     1
100
AcDbLine
 10
19.698307
 20
49.78018600000001
 30
0.0
 11
-8.385889788076753
 21
49.78018600000001
 31
0.0
  0
LINE
  5
1D6
330
1DB
100
AcDbEntity
  8
0
  6
ByBlock
 62
     0
370
    -2
380
     1
100
AcDbLine
 10
-7.135889788076753
 20
287.278927
 30
0.0
 11
-7.135889788076753
 21
52.28018600000001
 31
0.0
  0
SOLID
  5
1D7
330
1DB
100
AcDbEntity
  8
0
  6
ByBlock
 62
     0
380
     1
100
AcDbTrace
 10
-7.135889788076753
 20
289.778927
 30
0.0
 11
-7.552556454743417
 21
287.278927
 31
0.0
 12
-6.719223121410089
 22
287.278927
 32
0.0
 13
-6.719223121410089
 23
287.278927
 33
0.0
  0
SOLID
  5
1D8
330
1DB
100
AcDbEntity
  8
0
  6
ByBlock
 62
     0
380
     1
100
AcDbTrace
 10
-7.135889788076753
 20
49.78018600000001
 30
0.0
 11
-7.552556454743417
 21
52.28018600000001
 31
0.0
 12
-6.719223121410089
 22
52.28018600000001
 32
0.0
 13
-6.719223121410089
 23
52.28018600000001
 33
0.0
  0
MTEXT
  5
1D9
330
1DB
100
AcDbEntity
  8
0
  6
ByBlock
 62
     0
370
    -2
380
     1
100
AcDbMText
 10
-8.886874040045257
 20
169.7795565
 30
0.0
 40
2.5
 41
0.0
 71
     5
 72
     1
  1
\A1;240
 11
6.123031769111886E-17
 21
1.0
 31
0.0
 73
     1
 44
1.0
  0
ENDBLK
  5
395
330
1DB
100
AcDbEntity
  8
0
100
AcDbBlockEnd
  0
BLOCK
  5
396
330
30C
100
AcDbEntity
  8
0
100
AcDbBlockBegin
  2
*D7
 70
     1
 10
0.0
 20
0.0
 30
0.0
  3
*D7
  1

  0
POINT
  5
303
330
30C
100
AcDbEntity
  8
DEFPOINTS
  6
ByBlock
 62
     0
380
     1
100
AcDbPoint
 10
295.874139
 20
579.560372
 30
0.0
  0
POINT
  5
304
330
30C
100
AcDbEntity
  8
DEFPOINTS
  6
ByBlock
 62
     0
380
     1
100
AcDbPoint
 10
295.874138
 20
99.56037199999999
 30
0.0
  0
LINE
  5
305
330
30C
100
AcDbEntity
  8
0
  6
ByBlock
 62
     0
370
    -2
380
     1
100
AcDbLine
 10
295.249139
 20
579.560372
 30
0.0
 11
12.83210546401904
 21
579.560372
 31
0.0
  0
LINE
  5
306
330
30C
100
AcDbEntity
  8
0
  6
ByBlock
 62
     0
370
    -2
380
     1
100
AcDbLine
 10
295.249138
 20
99.56037199999997
 30
0.0
 11
12.83210546401904
 21
99.56037199999997
 31
0.0
  0
LINE
  5
307
330
30C
100
AcDbEntity
  8
0
  6
ByBlock
 62
     0
370
    -2
380
     1
100
AcDbLine
 10
14.08210546401904
 20
577.060372
 30
0.0
 11
14.08210546401904
 21
102.060372
 31
0.0
  0
SOLID
  5
308
330
30C
100
AcDbEntity
  8
0
  6
ByBlock
 62
     0
380
     1
100
AcDbTrace
 10
14.08210546401904
 20
579.560372
 30
0.0
 11
13.66543879735235
 21
577.060372
 31
0.0
 12
14.49877213068572
 22
577.060372
 32
0.0
 13
14.49877213068572
 23
577.060372
 33
0.0
  0
SOLID
  5
309
330
30C
100
AcDbEntity
  8
0
  6
ByBlock
 62
     0
380
     1
100
AcDbTrace
 10
14.08210546401904
 20
99.56037199999997
 30
0.0
 11
13.66543879735235
 21
102.060372
 31
0.0
 12
14.49877213068572
 22
102.060372
 32
0.0
 13
14.49877213068572
 23
102.060372
 33
0.0
  0
MTEXT
  5
30A
330
30C
100
AcDbEntity
  8
0
  6
ByBlock
 62
     0
370
    -2
380
     1
100
AcDbMText
 10
12.20710546401904
 20
339.560372
 30
0.0
 40
2.5
 41
0.0
 71
     5
 72
     1
  1
\A1;480
 11
6.123031769111886E-17
 21
1.0
 31
0.0
 73
     1
 44
1.0
  0
ENDBLK
  5
397
330
30C
100
AcDbEntity
  8
0
100
AcDbBlockEnd
  0
BLOCK
  5
398
330
317
100
AcDbEntity
  8
0
100
AcDbBlockBegin
  2
*D8
 70
     1
 10
0.0
 20
0.0
 30
0.0
  3
*D8
  1

  0
POINT
  5
30E
330
317
100
AcDbEntity
  8
DEFPOINTS
  6
ByBlock
 62
     7
380
     1
100
AcDbPoint
 10
295.874139
 20
579.560372
 30
0.0
  0
POINT
  5
30F
330
317
100
AcDbEntity
  8
DEFPOINTS
  6
ByBlock
 62
     7
380
     1
100
AcDbPoint
 10
295.874138
 20
99.56037199999999
 30
0.0
  0
LINE
  5
310
330
317
100
AcDbEntity
  8
0
  6
ByBlock
 62
     7
370
    -2
380
     1
100
AcDbLine
 10
295.249139
 20
579.560372
 30
0.0
 11
12.83210546401904
 21
579.560372
 31
0.0
  0
LINE
  5
311
330
317
100
AcDbEntity
  8
0
  6
ByBlock
 62
     7
370
    -2
380
     1
100
AcDbLine
 10
295.249138
 20
99.56037199999997
 30
0.0
 11
12.83210546401904
 21
99.56037199999997
 31
0.0
  0
LINE
  5
312
330
317
100
AcDbEntity
  8
0
  6
ByBlock
 62
     7
370
    -2
380
     1
100
AcDbLine
 10
14.08210546401904
 20
569.560372
 30
0.0
 11
14.08210546401904
 21
109.560372
 31
0.0
  0
SOLID
  5
313
330
317
100
AcDbEntity
  8
0
  6
ByBlock
 62
     7
380
     1
100
AcDbTrace
 10
14.08210546401904
 20
579.560372
 30
0.0
 11
12.41543879735235
 21
569.560372
 31
0.0
 12
15.74877213068572
 22
569.560372
 32
0.0
 13
15.74877213068572
 23
569.560372
 33
0.0
  0
SOLID
  5
314
330
317
100
AcDbEntity
  8
0
  6
ByBlock
 62
     7
380
     1
100
AcDbTrace
 10
14.08210546401904
 20
99.56037199999997
 30
0.0
 11
12.41543879735235
 21
109.560372
 31
0.0
 12
15.74877213068572
 22
109.560372
 32
0.0
 13
15.74877213068572
 23
109.560372
 33
0.0
  0
MTEXT
  5
315
330
317
100
AcDbEntity
  8
0
  6
ByBlock
 62
     0
370
    -2
380
     1
100
AcDbMText
 10
2.082105464019037
 20
339.560372
 30
0.0
 40
14.0
 41
0.0
 71
     5
 72
     1
  1
\A1;480
 11
6.123031769111886E-17
 21
1.0
 31
0.0
 73
     1
 44
1.0
  0
ENDBLK
  5
399
330
317
100
AcDbEntity
  8
0
100
AcDbBlockEnd
  0
BLOCK
  5
39A
330
322
100
AcDbEntity
  8
0
100
AcDbBlockBegin
  2
*D9
 70
     1
 10
0.0
 20
0.0
 30
0.0
  3
*D9
  1

  0
POINT
  5
319
330
322
100
AcDbEntity
  8
DEFPOINTS
  6
ByBlock
 62
     7
380
     1
100
AcDbPoint
 10
295.874139
 20
579.560372
 30
0.0
  0
POINT
  5
31A
330
322
100
AcDbEntity
  8
DEFPOINTS
  6
ByBlock
 62
     7
380
     1
100
AcDbPoint
 10
295.874138
 20
99.56037199999999
 30
0.0
  0
LINE
  5
31B
330
322
100
AcDbEntity
  8
0
  6
ByBlock
 62
     7
370
    -2
380
     1
100
AcDbLine
 10
295.249139
 20
579.560372
 30
0.0
 11
12.83210546401904
 21
579.560372
 31
0.0
  0
LINE
  5
31C
330
322
100
AcDbEntity
  8
0
  6
ByBlock
 62
     7
370
    -2
380
     1
100
AcDbLine
 10
295.249138
 20
99.56037199999997
 30
0.0
 11
12.83210546401904
 21
99.56037199999997
 31
0.0
  0
LINE
  5
31D
330
322
100
AcDbEntity
  8
0
  6
ByBlock
 62
     7
370
    -2
380
     1
100
AcDbLine
 10
14.08210546401904
 20
569.560372
 30
0.0
 11
14.08210546401904
 21
109.560372
 31
0.0
  0
SOLID
  5
31E
330
322
100
AcDbEntity
  8
0
  6
ByBlock
 62
     7
380
     1
100
AcDbTrace
 10
14.08210546401904
 20
579.560372
 30
0.0
 11
12.41543879735235
 21
569.560372
 31
0.0
 12
15.74877213068572
 22
569.560372
 32
0.0
 13
15.74877213068572
 23
569.560372
 33
0.0
  0
SOLID
  5
31F
330
322
100
AcDbEntity
  8
0
  6
ByBlock
 62
     7
380
     1
100
AcDbTrace
 10
14.08210546401904
 20
99.56037199999997
 30
0.0
 11
12.41543879735235
 21
109.560372
 31
0.0
 12
15.74877213068572
 22
109.560372
 32
0.0
 13
15.74877213068572
 23
109.560372
 33
0.0
  0
MTEXT
  5
320
330
322
100
AcDbEntity
  8
0
  6
ByBlock
 62
     0
370
    -2
380
     1
100
AcDbMText
 10
2.082105464019037
 20
339.560372
 30
0.0
 40
14.0
 41
0.0
 71
     5
 72
     1
  1
\A1;480
 11
6.123031769111886E-17
 21
1.0
 31
0.0
 73
     1
 44
1.0
  0
ENDBLK
  5
39B
330
322
100
AcDbEntity
  8
0
100
AcDbBlockEnd
  0
BLOCK
  5
39C
330
32E
100
AcDbEntity
  8
0
100
AcDbBlockBegin
  2
*D10
 70
     1
 10
0.0
 20
0.0
 30
0.0
  3
*D10
  1

  0
POINT
  5
325
330
32E
100
AcDbEntity
  8
DEFPOINTS
  6
ByBlock
 62
     0
380
     1
100
AcDbPoint
 10
59.87413800000003
 20
103.5603717382006
 30
0.0
  0
POINT
  5
326
330
32E
100
AcDbEntity
  8
DEFPOINTS
  6
ByBlock
 62
     0
380
     1
100
AcDbPoint
 10
528.874138
 20
103.560372
 30
0.0
  0
LINE
  5
327
330
32E
100
AcDbEntity
  8
0
  6
ByBlock
 62
     0
370
    -2
380
     1
100
AcDbLine
 10
59.87413800000003
 20
102.9353717382006
 30
0.0
 11
59.87413800000003
 21
67.25539302008846
 31
0.0
  0
LINE
  5
328
330
32E
100
AcDbEntity
  8
0
  6
ByBlock
 62
     0
370
    -2
380
     1
100
AcDbLine
 10
528.874138
 20
102.935372
 30
0.0
 11
528.874138
 21
67.25539302008846
 31
0.0
  0
LINE
  5
329
330
32E
100
AcDbEntity
  8
0
  6
ByBlock
 62
     0
370
    -2
380
     1
100
AcDbLine
 10
62.37413800000003
 20
68.50539302008846
 30
0.0
 11
526.374138
 21
68.50539302008846
 31
0.0
  0
SOLID
  5
32A
330
32E
100
AcDbEntity
  8
0
  6
ByBlock
 62
     0
380
     1
100
AcDbTrace
 10
59.87413800000003
 20
68.50539302008846
 30
0.0
 11
62.37413800000003
 21
68.0887263534218
 31
0.0
 12
62.37413800000003
 22
68.92205968675512
 32
0.0
 13
62.37413800000003
 23
68.92205968675512
 33
0.0
  0
SOLID
  5
32B
330
32E
100
AcDbEntity
  8
0
  6
ByBlock
 62
     0
380
     1
100
AcDbTrace
 10
528.874138
 20
68.50539302008846
 30
0.0
 11
526.374138
 21
68.0887263534218
 31
0.0
 12
526.374138
 22
68.92205968675512
 32
0.0
 13
526.374138
 23
68.92205968675512
 33
0.0
  0
MTEXT
  5
32C
330
32E
100
AcDbEntity
  8
0
  6
ByBlock
 62
     0
370
    -2
380
     1
100
AcDbMText
 10
294.374138
 20
70.38039302008846
 30
0.0
 40
2.5
 41
0.0
 71
     5
 72
     1
  1
\A1;469
 73
     1
 44
1.0
  0
ENDBLK
  5
39D
330
32E
100
AcDbEntity
  8
0
100
AcDbBlockEnd
  0
BLOCK
  5
39E
330
339
100
AcDbEntity
  8
0
100
AcDbBlockBegin
  2
*D11
 70
     1
 10
0.0
 20
0.0
 30
0.0
  3
*D11
  1

  0
POINT
  5
330
330
339
100
AcDbEntity
  8
DEFPOINTS
  6
ByBlock
 62
     0
380
     1
100
AcDbPoint
 10
59.87413800000003
 20
103.5603717382006
 30
0.0
  0
POINT
  5
331
330
339
100
AcDbEntity
  8
DEFPOINTS
  6
ByBlock
 62
     0
380
     1
100
AcDbPoint
 10
531.874138
 20
101.560372
 30
0.0
  0
LINE
  5
332
330
339
100
AcDbEntity
  8
0
  6
ByBlock
 62
     0
370
    -2
380
     1
100
AcDbLine
 10
59.87413800000003
 20
102.9353717382006
 30
0.0
 11
59.87413800000003
 21
67.25539302008846
 31
0.0
  0
LINE
  5
333
330
339
100
AcDbEntity
  8
0
  6
ByBlock
 62
     0
370
    -2
380
     1
100
AcDbLine
 10
531.874138
 20
100.935372
 30
0.0
 11
531.874138
 21
67.25539302008846
 31
0.0
  0
LINE
  5
334
330
339
100
AcDbEntity
  8
0
  6
ByBlock
 62
     0
370
    -2
380
     1
100
AcDbLine
 10
62.37413800000003
 20
68.50539302008846
 30
0.0
 11
529.374138
 21
68.50539302008846
 31
0.0
  0
SOLID
  5
335
330
339
100
AcDbEntity
  8
0
  6
ByBlock
 62
     0
380
     1
100
AcDbTrace
 10
59.87413800000003
 20
68.50539302008846
 30
0.0
 11
62.37413800000003
 21
68.0887263534218
 31
0.0
 12
62.37413800000003
 22
68.92205968675512
 32
0.0
 13
62.37413800000003
 23
68.92205968675512
 33
0.0
  0
SOLID
  5
336
330
339
100
AcDbEntity
  8
0
  6
ByBlock
 62
     0
380
     1
100
AcDbTrace
 10
531.874138
 20
68.50539302008846
 30
0.0
 11
529.374138
 21
68.0887263534218
 31
0.0
 12
529.374138
 22
68.92205968675512
 32
0.0
 13
529.374138
 23
68.92205968675512
 33
0.0
  0
MTEXT
  5
337
330
339
100
AcDbEntity
  8
0
  6
ByBlock
 62
     0
370
    -2
380
     1
100
AcDbMText
 10
295.874138
 20
70.38039302008846
 30
0.0
 40
2.5
 41
0.0
 71
     5
 72
     1
  1
\A1;472
 73
     1
 44
1.0
  0
ENDBLK
  5
39F
330
339
100
AcDbEntity
  8
0
100
AcDbBlockEnd
  0
BLOCK
  5
3A0
330
344
100
AcDbEntity
  8
0
100
AcDbBlockBegin
  2
*D12
 70
     1
 10
0.0
 20
0.0
 30
0.0
  3
*D12
  1

  0
POINT
  5
33B
330
344
100
AcDbEntity
  8
DEFPOINTS
  6
ByBlock
 62
     7
380
     1
100
AcDbPoint
 10
59.87413800000003
 20
103.5603717382006
 30
0.0
  0
POINT
  5
33C
330
344
100
AcDbEntity
  8
DEFPOINTS
  6
ByBlock
 62
     7
380
     1
100
AcDbPoint
 10
531.874138
 20
101.560372
 30
0.0
  0
LINE
  5
33D
330
344
100
AcDbEntity
  8
0
  6
ByBlock
 62
     7
370
    -2
380
     1
100
AcDbLine
 10
59.87413800000003
 20
102.9353717382006
 30
0.0
 11
59.87413800000003
 21
67.25539302008846
 31
0.0
  0
LINE
  5
33E
330
344
100
AcDbEntity
  8
0
  6
ByBlock
 62
     7
370
    -2
380
     1
100
AcDbLine
 10
531.874138
 20
100.935372
 30
0.0
 11
531.874138
 21
67.25539302008846
 31
0.0
  0
LINE
  5
33F
330
344
100
AcDbEntity
  8
0
  6
ByBlock
 62
     7
370
    -2
380
     1
100
AcDbLine
 10
69.87413800000003
 20
68.50539302008846
 30
0.0
 11
521.874138
 21
68.50539302008846
 31
0.0
  0
SOLID
  5
340
330
344
100
AcDbEntity
  8
0
  6
ByBlock
 62
     7
380
     1
100
AcDbTrace
 10
59.87413800000003
 20
68.50539302008846
 30
0.0
 11
69.87413800000003
 21
66.83872635342179
 31
0.0
 12
69.87413800000003
 22
70.17205968675513
 32
0.0
 13
69.87413800000003
 23
70.17205968675513
 33
0.0
  0
SOLID
  5
341
330
344
100
AcDbEntity
  8
0
  6
ByBlock
 62
     7
380
     1
100
AcDbTrace
 10
531.874138
 20
68.50539302008846
 30
0.0
 11
521.874138
 21
66.83872635342179
 31
0.0
 12
521.874138
 22
70.17205968675513
 32
0.0
 13
521.874138
 23
70.17205968675513
 33
0.0
  0
MTEXT
  5
342
330
344
100
AcDbEntity
  8
0
  6
ByBlock
 62
     0
370
    -2
380
     1
100
AcDbMText
 10
295.874138
 20
80.50539302008846
 30
0.0
 40
14.0
 41
0.0
 71
     5
 72
     1
  1
\A1;472
 73
     1
 44
1.0
  0
ENDBLK
  5
3A1
330
344
100
AcDbEntity
  8
0
100
AcDbBlockEnd
  0
BLOCK
  5
3A2
330
34F
100
AcDbEntity
  8
0
100
AcDbBlockBegin
  2
*D13
 70
     1
 10
0.0
 20
0.0
 30
0.0
  3
*D13
  1

  0
POINT
  5
346
330
34F
100
AcDbEntity
  8
DEFPOINTS
  6
ByBlock
 62
     7
380
     1
100
AcDbPoint
 10
59.87413800000003
 20
103.5603717382006
 30
0.0
  0
POINT
  5
347
330
34F
100
AcDbEntity
  8
DEFPOINTS
  6
ByBlock
 62
     7
380
     1
100
AcDbPoint
 10
531.874138
 20
101.560372
 30
0.0
  0
LINE
  5
348
330
34F
100
AcDbEntity
  8
0
  6
ByBlock
 62
     7
370
    -2
380
     1
100
AcDbLine
 10
59.87413800000003
 20
102.9353717382006
 30
0.0
 11
59.87413800000003
 21
67.25539302008846
 31
0.0
  0
LINE
  5
349
330
34F
100
AcDbEntity
  8
0
  6
ByBlock
 62
     7
370
    -2
380
     1
100
AcDbLine
 10
531.874138
 20
100.935372
 30
0.0
 11
531.874138
 21
67.25539302008846
 31
0.0
  0
LINE
  5
34A
330
34F
100
AcDbEntity
  8
0
  6
ByBlock
 62
     7
370
    -2
380
     1
100
AcDbLine
 10
69.87413800000003
 20
68.50539302008846
 30
0.0
 11
521.874138
 21
68.50539302008846
 31
0.0
  0
SOLID
  5
34B
330
34F
100
AcDbEntity
  8
0
  6
ByBlock
 62
     7
380
     1
100
AcDbTrace
 10
59.87413800000003
 20
68.50539302008846
 30
0.0
 11
69.87413800000003
 21
66.83872635342179
 31
0.0
 12
69.87413800000003
 22
70.17205968675513
 32
0.0
 13
69.87413800000003
 23
70.17205968675513
 33
0.0
  0
SOLID
  5
34C
330
34F
100
AcDbEntity
  8
0
  6
ByBlock
 62
     7
380
     1
100
AcDbTrace
 10
531.874138
 20
68.50539302008846
 30
0.0
 11
521.874138
 21
66.83872635342179
 31
0.0
 12
521.874138
 22
70.17205968675513
 32
0.0
 13
521.874138
 23
70.17205968675513
 33
0.0
  0
MTEXT
  5
34D
330
34F
100
AcDbEntity
  8
0
  6
ByBlock
 62
     0
370
    -2
380
     1
100
AcDbMText
 10
295.874138
 20
80.50539302008846
 30
0.0
 40
14.0
 41
0.0
 71
     5
 72
     1
  1
Ø472
 73
     1
 44
1.0
  0
ENDBLK
  5
3A3
330
34F
100
AcDbEntity
  8
0
100
AcDbBlockEnd
  0
BLOCK
  5
3A4
330
35A
100
AcDbEntity
  8
0
100
AcDbBlockBegin
  2
*D14
 70
     1
 10
0.0
 20
0.0
 30
0.0
  3
*D14
  1

  0
POINT
  5
351
330
35A
100
AcDbEntity
  8
DEFPOINTS
  6
ByBlock
 62
     7
380
     1
100
AcDbPoint
 10
59.87413800000003
 20
103.5603717382006
 30
0.0
  0
POINT
  5
352
330
35A
100
AcDbEntity
  8
DEFPOINTS
  6
ByBlock
 62
     7
380
     1
100
AcDbPoint
 10
531.874138
 20
101.560372
 30
0.0
  0
LINE
  5
353
330
35A
100
AcDbEntity
  8
0
  6
ByBlock
 62
     7
370
    -2
380
     1
100
AcDbLine
 10
59.87413800000003
 20
102.9353717382006
 30
0.0
 11
59.87413800000003
 21
67.25539302008846
 31
0.0
  0
LINE
  5
354
330
35A
100
AcDbEntity
  8
0
  6
ByBlock
 62
     7
370
    -2
380
     1
100
AcDbLine
 10
531.874138
 20
100.935372
 30
0.0
 11
531.874138
 21
67.25539302008846
 31
0.0
  0
LINE
  5
355
330
35A
100
AcDbEntity
  8
0
  6
ByBlock
 62
     7
370
    -2
380
     1
100
AcDbLine
 10
69.87413800000003
 20
68.50539302008846
 30
0.0
 11
521.874138
 21
68.50539302008846
 31
0.0
  0
SOLID
  5
356
330
35A
100
AcDbEntity
  8
0
  6
ByBlock
 62
     7
380
     1
100
AcDbTrace
 10
59.87413800000003
 20
68.50539302008846
 30
0.0
 11
69.87413800000003
 21
66.83872635342179
 31
0.0
 12
69.87413800000003
 22
70.17205968675513
 32
0.0
 13
69.87413800000003
 23
70.17205968675513
 33
0.0
  0
SOLID
  5
357
330
35A
100
AcDbEntity
  8
0
  6
ByBlock
 62
     7
380
     1
100
AcDbTrace
 10
531.874138
 20
68.50539302008846
 30
0.0
 11
521.874138
 21
66.83872635342179
 31
0.0
 12
521.874138
 22
70.17205968675513
 32
0.0
 13
521.874138
 23
70.17205968675513
 33
0.0
  0
MTEXT
  5
358
330
35A
100
AcDbEntity
  8
0
  6
ByBlock
 62
     0
370
    -2
380
     1
100
AcDbMText
 10
295.874138
 20
80.50539302008846
 30
0.0
 40
14.0
 41
0.0
 71
     5
 72
     1
  1
Ø472
 73
     1
 44
1.0
  0
ENDBLK
  5
3A5
330
35A
100
AcDbEntity
  8
0
100
AcDbBlockEnd
  0
BLOCK
  5
3A6
330
365
100
AcDbEntity
  8
0
100
AcDbBlockBegin
  2
*D15
 70
     1
 10
0.0
 20
0.0
 30
0.0
  3
*D15
  1

  0
POINT
  5
35C
330
365
100
AcDbEntity
  8
DEFPOINTS
  6
ByBlock
 62
     7
380
     1
100
AcDbPoint
 10
59.87413800000003
 20
103.5603717382006
 30
0.0
  0
POINT
  5
35D
330
365
100
AcDbEntity
  8
DEFPOINTS
  6
ByBlock
 62
     7
380
     1
100
AcDbPoint
 10
531.874138
 20
101.560372
 30
0.0
  0
LINE
  5
35E
330
365
100
AcDbEntity
  8
0
  6
ByBlock
 62
     7
370
    -2
380
     1
100
AcDbLine
 10
59.87413800000003
 20
102.9353717382006
 30
0.0
 11
59.87413800000003
 21
67.25539302008846
 31
0.0
  0
LINE
  5
35F
330
365
100
AcDbEntity
  8
0
  6
ByBlock
 62
     7
370
    -2
380
     1
100
AcDbLine
 10
531.874138
 20
100.935372
 30
0.0
 11
531.874138
 21
67.25539302008846
 31
0.0
  0
LINE
  5
360
330
365
100
AcDbEntity
  8
0
  6
ByBlock
 62
     7
370
    -2
380
     1
100
AcDbLine
 10
69.87413800000003
 20
68.50539302008846
 30
0.0
 11
521.874138
 21
68.50539302008846
 31
0.0
  0
SOLID
  5
361
330
365
100
AcDbEntity
  8
0
  6
ByBlock
 62
     7
380
     1
100
AcDbTrace
 10
59.87413800000003
 20
68.50539302008846
 30
0.0
 11
69.87413800000003
 21
66.83872635342179
 31
0.0
 12
69.87413800000003
 22
70.17205968675513
 32
0.0
 13
69.87413800000003
 23
70.17205968675513
 33
0.0
  0
SOLID
  5
362
330
365
100
AcDbEntity
  8
0
  6
ByBlock
 62
     7
380
     1
100
AcDbTrace
 10
531.874138
 20
68.50539302008846
 30
0.0
 11
521.874138
 21
66.83872635342179
 31
0.0
 12
521.874138
 22
70.17205968675513
 32
0.0
 13
521.874138
 23
70.17205968675513
 33
0.0
  0
MTEXT
  5
363
330
365
100
AcDbEntity
  8
0
  6
ByBlock
 62
     0
370
    -2
380
     1
100
AcDbMText
 10
295.874138
 20
80.50539302008846
 30
0.0
 40
14.0
 41
0.0
 71
     5
 72
     1
  1
Ø472
 73
     1
 44
1.0
  0
ENDBLK
  5
3A7
330
365
100
AcDbEntity
  8
0
100
AcDbBlockEnd
  0
BLOCK
  5
3A8
330
370
100
AcDbEntity
  8
0
100
AcDbBlockBegin
  2
*D16
 70
     1
 10
0.0
 20
0.0
 30
0.0
  3
*D16
  1

  0
POINT
  5
367
330
370
100
AcDbEntity
  8
DEFPOINTS
  6
ByBlock
 62
     7
380
     1
100
AcDbPoint
 10
59.87413800000003
 20
103.5603717382006
 30
0.0
  0
POINT
  5
368
330
370
100
AcDbEntity
  8
DEFPOINTS
  6
ByBlock
 62
     7
380
     1
100
AcDbPoint
 10
531.874138
 20
101.560372
 30
0.0
  0
LINE
  5
369
330
370
100
AcDbEntity
  8
0
  6
ByBlock
 62
     7
370
    -2
380
     1
100
AcDbLine
 10
59.87413800000003
 20
102.9353717382006
 30
0.0
 11
59.87413800000003
 21
-43.17894043476674
 31
0.0
  0
LINE
  5
36A
330
370
100
AcDbEntity
  8
0
  6
ByBlock
 62
     7
370
    -2
380
     1
100
AcDbLine
 10
531.874138
 20
100.935372
 30
0.0
 11
531.874138
 21
-43.17894043476674
 31
0.0
  0
LINE
  5
36B
330
370
100
AcDbEntity
  8
0
  6
ByBlock
 62
     7
370
    -2
380
     1
100
AcDbLine
 10
69.87413800000003
 20
-41.92894043476674
 30
0.0
 11
521.874138
 21
-41.92894043476674
 31
0.0
  0
SOLID
  5
36C
330
370
100
AcDbEntity
  8
0
  6
ByBlock
 62
     7
380
     1
100
AcDbTrace
 10
59.87413800000003
 20
-41.92894043476674
 30
0.0
 11
69.87413800000003
 21
-43.5956071014334
 31
0.0
 12
69.87413800000003
 22
-40.26227376810009
 32
0.0
 13
69.87413800000003
 23
-40.26227376810009
 33
0.0
  0
SOLID
  5
36D
330
370
100
AcDbEntity
  8
0
  6
ByBlock
 62
     7
380
     1
100
AcDbTrace
 10
531.874138
 20
-41.92894043476674
 30
0.0
 11
521.874138
 21
-43.5956071014334
 31
0.0
 12
521.874138
 22
-40.26227376810009
 32
0.0
 13
521.874138
 23
-40.26227376810009
 33
0.0
  0
MTEXT
  5
36E
330
370
100
AcDbEntity
  8
0
  6
ByBlock
 62
     0
370
    -2
380
     1
100
AcDbMText
 10
295.874138
 20
-29.92894043476674
 30
0.0
 40
14.0
 41
0.0
 71
     5
 72
     1
  1
Ø472
 73
     1
 44
1.0
  0
ENDBLK
  5
3A9
330
370
100
AcDbEntity
  8
0
100
AcDbBlockEnd
  0
BLOCK
  5
3AA
330
37B
100
AcDbEntity
  8
0
100
AcDbBlockBegin
  2
*D17
 70
     1
 10
0.0
 20
0.0
 30
0.0
  3
*D17
  1

  0
POINT
  5
372
330
37B
100
AcDbEntity
  8
DEFPOINTS
  6
ByBlock
 62
     7
380
     1
100
AcDbPoint
 10
59.87413800000003
 20
103.5603717382006
 30
0.0
  0
POINT
  5
373
330
37B
100
AcDbEntity
  8
DEFPOINTS
  6
ByBlock
 62
     7
380
     1
100
AcDbPoint
 10
531.874138
 20
101.560372
 30
0.0
  0
LINE
  5
374
330
37B
100
AcDbEntity
  8
0
  6
ByBlock
 62
     7
370
    -2
380
     1
100
AcDbLine
 10
59.87413800000003
 20
102.9353717382006
 30
0.0
 11
59.87413800000003
 21
59.22220328849464
 31
0.0
  0
LINE
  5
375
330
37B
100
AcDbEntity
  8
0
  6
ByBlock
 62
     7
370
    -2
380
     1
100
AcDbLine
 10
531.874138
 20
100.935372
 30
0.0
 11
531.874138
 21
59.22220328849464
 31
0.0
  0
LINE
  5
376
330
37B
100
AcDbEntity
  8
0
  6
ByBlock
 62
     7
370
    -2
380
     1
100
AcDbLine
 10
69.87413800000003
 20
60.47220328849464
 30
0.0
 11
521.874138
 21
60.47220328849464
 31
0.0
  0
SOLID
  5
377
330
37B
100
AcDbEntity
  8
0
  6
ByBlock
 62
     7
380
     1
100
AcDbTrace
 10
59.87413800000003
 20
60.47220328849464
 30
0.0
 11
69.87413800000003
 21
58.80553662182797
 31
0.0
 12
69.87413800000003
 22
62.13886995516131
 32
0.0
 13
69.87413800000003
 23
62.13886995516131
 33
0.0
  0
SOLID
  5
378
330
37B
100
AcDbEntity
  8
0
  6
ByBlock
 62
     7
380
     1
100
AcDbTrace
 10
531.874138
 20
60.47220328849464
 30
0.0
 11
521.874138
 21
58.80553662182797
 31
0.0
 12
521.874138
 22
62.13886995516131
 32
0.0
 13
521.874138
 23
62.13886995516131
 33
0.0
  0
MTEXT
  5
379
330
37B
100
AcDbEntity
  8
0
  6
ByBlock
 62
     0
370
    -2
380
     1
100
AcDbMText
 10
295.874138
 20
72.47220328849464
 30
0.0
 40
14.0
 41
0.0
 71
     5
 72
     1
  1
Ø472
 73
     1
 44
1.0
  0
ENDBLK
  5
3AB
330
37B
100
AcDbEntity
  8
0
100
AcDbBlockEnd
  0
ENDSEC
  0
SECTION
  2
ENTITIES
  0
POINT
  5
270
330
1F
100
AcDbEntity
  8
0
 62
     7
370
    60
100
AcDbPoint
 10
295.874138
 20
579.557854
 30
0.0
  0
LINE
  5
271
330
1F
100
AcDbEntity
  8
0
 62
     7
370
    60
100
AcDbLine
 10
295.874139
 20
548.060372
 30
0.0
 11
323.87414
 21
548.060372
 31
0.0
  0
LINE
  5
272
330
1F
100
AcDbEntity
  8
0
 62
     7
370
    60
100
AcDbLine
 10
267.87414
 20
548.060372
 30
0.0
 11
295.874139
 21
548.060372
 31
0.0
  0
LINE
  5
273
330
1F
100
AcDbEntity
  8
0
 62
     7
370
    60
100
AcDbLine
 10
295.874139
 20
544.060372
 30
0.0
 11
393.874138
 21
544.060372
 31
0.0
  0
LINE
  5
274
330
1F
100
AcDbEntity
  8
0
 62
     7
370
    60
100
AcDbLine
 10
197.874138
 20
544.060372
 30
0.0
 11
295.874139
 21
544.060372
 31
0.0
  0
LINE
  5
275
330
1F
100
AcDbEntity
  8
0
 62
     7
370
    60
100
AcDbLine
 10
295.874139
 20
524.060372
 30
0.0
 11
177.874138
 21
524.060372
 31
0.0
  0
LINE
  5
276
330
1F
100
AcDbEntity
  8
0
 62
     7
370
    60
100
AcDbLine
 10
413.874138
 20
524.060372
 30
0.0
 11
295.874139
 21
524.060372
 31
0.0
  0
LINE
  5
277
330
1F
100
AcDbEntity
  8
0
 62
     7
370
    60
100
AcDbLine
 10
177.874138
 20
406.256524
 30
0.0
 11
295.874138
 21
406.256524
 31
0.0
  0
LWPOLYLINE
  5
278
330
1F
100
AcDbEntity
  8
0
 62
     7
370
    60
100
AcDbPolyline
 90
       22
 70
     0
 43
0.0
 10
295.874138
 20
421.560372
 10
295.502249
 20
421.532094
 10
295.12169
 20
421.443196
 10
294.754617
 20
421.295678
 10
294.423239
 20
421.096215
 10
294.129471
 20
420.85067
 10
293.876698
 20
420.562882
 10
293.672851
 20
420.242993
 10
293.520512
 20
419.903638
 10
293.421737
 20
419.552338
 10
293.377667
 20
419.192856
 10
293.387035
 20
418.829854
 10
293.447348
 20
418.470044
 10
293.556268
 20
418.123124
 10
293.713329
 20
417.800297
 10
293.920583
 20
417.50124
 10
294.174924
 20
417.228882
 10
294.468273
 20
416.993668
 10
294.791406
 20
416.806389
 10
295.137328
 20
416.671822
 10
295.500859
 20
416.589234
 10
295.874138
 20
416.560372
  0
LINE
  5
279
330
1F
100
AcDbEntity
  8
0
 62
     7
370
    60
100
AcDbLine
 10
295.874138
 20
406.256524
 30
0.0
 11
413.874138
 21
406.256524
 31
0.0
  0
LWPOLYLINE
  5
27A
330
1F
100
AcDbEntity
  8
0
 62
     7
370
    60
100
AcDbPolyline
 90
       22
 70
     0
 43
0.0
 10
295.874138
 20
421.560372
 10
296.246028
 20
421.532094
 10
296.626586
 20
421.443196
 10
296.99366
 20
421.295678
 10
297.325038
 20
421.096215
 10
297.618805
 20
420.85067
 10
297.871578
 20
420.562882
 10
298.075426
 20
420.242993
 10
298.227765
 20
419.903638
 10
298.32654
 20
419.552338
 10
298.37061
 20
419.192856
 10
298.361242
 20
418.829854
 10
298.300928
 20
418.470044
 10
298.192009
 20
418.123124
 10
298.034948
 20
417.800297
 10
297.827694
 20
417.50124
 10
297.573353
 20
417.228882
 10
297.280004
 20
416.993668
 10
296.95687
 20
416.806389
 10
296.610949
 20
416.671822
 10
296.247418
 20
416.589234
 10
295.874138
 20
416.560372
  0
LINE
  5
27B
330
1F
100
AcDbEntity
  8
0
 62
     7
370
    60
100
AcDbLine
 10
295.874138
 20
401.060372
 30
0.0
 11
174.874138
 21
401.060372
 31
0.0
  0
LINE
  5
27C
330
1F
100
AcDbEntity
  8
0
 62
     7
370
    60
100
AcDbLine
 10
416.874138
 20
401.060372
 30
0.0
 11
295.874138
 21
401.060372
 31
0.0
  0
LINE
  5
27D
330
1F
100
AcDbEntity
  8
0
 62
     7
370
    60
100
AcDbLine
 10
174.874138
 20
364.060373
 30
0.0
 11
277.874163
 21
364.060372
 31
0.0
  0
ARC
  5
27E
330
1F
100
AcDbEntity
  8
0
 62
     7
370
    60
100
AcDbCircle
 10
291.631498
 20
387.560372
 30
0.0
 40
7.5
100
AcDbArc
 50
340.5287959999999
 51
90.0000639999999
  0
LINE
  5
27F
330
1F
100
AcDbEntity
  8
0
 62
     7
 48
0.156434
370
    60
100
AcDbLine
 10
285.374138
 20
395.060372
 30
0.0
 11
291.631498
 21
395.060372
 31
0.0
  0
ARC
  5
280
330
1F
100
AcDbEntity
  8
0
 62
     7
370
    60
100
AcDbCircle
 10
285.374138
 20
387.560372
 30
0.0
 40
7.499999999999988
100
AcDbArc
 50
90.0000840000002
 51
180.0000050000002
  0
LINE
  5
281
330
1F
100
AcDbEntity
  8
0
 62
     7
370
    60
100
AcDbLine
 10
277.874163
 20
387.560372
 30
0.0
 11
277.874163
 21
364.060372
 31
0.0
  0
LINE
  5
282
330
1F
100
AcDbEntity
  8
0
 62
     7
370
    60
100
AcDbLine
 10
295.874138
 20
364.060372
 30
0.0
 11
416.874138
 21
364.060371
 31
0.0
  0
ARC
  5
283
330
1F
100
AcDbEntity
  8
0
 62
     7
370
    60
100
AcDbCircle
 10
295.874138
 20
386.060372
 30
0.0
 40
3.000000000000012
100
AcDbArc
 50
180.0000050000005
 51
340.5288080000005
  0
ARC
  5
284
330
1F
100
AcDbEntity
  8
0
 62
     7
370
    60
100
AcDbCircle
 10
291.374138
 20
387.560372
 30
0.0
 40
1.5
100
AcDbArc
 50
0.0
 51
90.00033700000003
  0
LINE
  5
285
330
1F
100
AcDbEntity
  8
0
 62
     7
 48
0.0375
370
    60
100
AcDbLine
 10
292.874147
 20
387.560372
 30
0.0
 11
292.874147
 21
386.060372
 31
0.0
  0
LINE
  5
286
330
1F
100
AcDbEntity
  8
0
 62
     7
 48
0.299999
370
    60
100
AcDbLine
 10
283.874162
 20
364.060372
 30
0.0
 11
295.874138
 21
364.060372
 31
0.0
  0
LINE
  5
287
330
1F
100
AcDbEntity
  8
0
 62
     7
370
    60
100
AcDbLine
 10
283.874163
 20
387.560372
 30
0.0
 11
283.874162
 21
364.060372
 31
0.0
  0
ARC
  5
288
330
1F
100
AcDbEntity
  8
0
 62
     7
370
    60
100
AcDbCircle
 10
285.374138
 20
387.560372
 30
0.0
 40
1.499999999999974
100
AcDbArc
 50
90.00043299999973
 51
180.0000049999997
  0
LINE
  5
289
330
1F
100
AcDbEntity
  8
0
 62
     7
 48
0.15
370
    60
100
AcDbLine
 10
285.374138
 20
389.060372
 30
0.0
 11
291.374138
 21
389.060372
 31
0.0
  0
ARC
  5
28A
330
1F
100
AcDbEntity
  8
0
 62
     7
370
    60
100
AcDbCircle
 10
267.87414
 20
546.060372
 30
0.0
 40
2.000000000000003
100
AcDbArc
 50
90.00000299999932
 51
180.0000049999993
  0
ARC
  5
28B
330
1F
100
AcDbEntity
  8
0
 62
     7
370
    60
100
AcDbCircle
 10
323.87414
 20
546.060372
 30
0.0
 40
2.0
100
AcDbArc
 50
0.0
 51
90.00000300000004
  0
ARC
  5
28C
330
1F
100
AcDbEntity
  8
0
 62
     7
370
    60
100
AcDbCircle
 10
263.87414
 20
546.060372
 30
0.0
 40
2.000000000000003
100
AcDbArc
 50
269.9999970000007
 51
0.0000000000006475
  0
ARC
  5
28D
330
1F
100
AcDbEntity
  8
0
 62
     7
370
    60
100
AcDbCircle
 10
327.874138
 20
546.060372
 30
0.0
 40
2.000000000000008
100
AcDbArc
 50
180.0000050000005
 51
270.0000010000005
  0
ARC
  5
28E
330
1F
100
AcDbEntity
  8
0
 62
     7
370
    60
100
AcDbCircle
 10
197.874138
 20
524.060372
 30
0.0
 40
20.00000000000003
100
AcDbArc
 50
90.00000299999998
 51
180.0000049999999
  0
ARC
  5
28F
330
1F
100
AcDbEntity
  8
0
 62
     7
370
    60
100
AcDbCircle
 10
393.874138
 20
524.060372
 30
0.0
 40
20.0
100
AcDbArc
 50
0.0
 51
90.00000300000004
  0
LINE
  5
290
330
1F
100
AcDbEntity
  8
0
 62
     7
370
    60
100
AcDbLine
 10
177.874138
 20
524.060372
 30
0.0
 11
177.874138
 21
406.256524
 31
0.0
  0
LINE
  5
291
330
1F
100
AcDbEntity
  8
0
 62
     7
370
    60
100
AcDbLine
 10
413.874138
 20
524.060372
 30
0.0
 11
413.874138
 21
406.256524
 31
0.0
  0
ARC
  5
292
330
1F
100
AcDbEntity
  8
0
 62
     7
370
    60
100
AcDbCircle
 10
174.874138
 20
406.256524
 30
0.0
 40
3.000000000000007
100
AcDbArc
 50
299.9999970000002
 51
0.0000000000001386
  0
ARC
  5
293
330
1F
100
AcDbEntity
  8
0
 62
     7
370
    60
100
AcDbCircle
 10
416.874138
 20
406.256524
 30
0.0
 40
3.000000000000012
100
AcDbArc
 50
180.0000050000005
 51
240.0000060000005
  0
ARC
  5
294
330
1F
100
AcDbEntity
  8
0
 62
     7
370
    60
100
AcDbCircle
 10
177.874138
 20
401.060372
 30
0.0
 40
3.000000000000002
100
AcDbArc
 50
120.0000029999998
 51
180.0000049999998
  0
ARC
  5
295
330
1F
100
AcDbEntity
  8
0
 62
     7
370
    60
100
AcDbCircle
 10
413.874138
 20
401.060372
 30
0.0
 40
3.0
100
AcDbArc
 50
0.0
 51
60.00000299999997
  0
LINE
  5
296
330
1F
100
AcDbEntity
  8
0
 62
     7
370
    60
100
AcDbLine
 10
174.874138
 20
401.060372
 30
0.0
 11
174.874138
 21
364.060373
 31
0.0
  0
LINE
  5
297
330
1F
100
AcDbEntity
  8
0
 62
     7
370
    60
100
AcDbLine
 10
416.874138
 20
401.060372
 30
0.0
 11
416.874138
 21
364.060371
 31
0.0
  0
LINE
  5
298
330
1F
100
AcDbEntity
  8
0
 62
     7
 48
0.053619
370
    60
100
AcDbLine
 10
330.482288
 20
448.060372
 30
0.0
 11
332.627052
 21
448.060372
 31
0.0
  0
LINE
  5
299
330
1F
100
AcDbEntity
  8
0
 62
     7
370
    60
100
AcDbLine
 10
261.265991
 20
448.060372
 30
0.0
 11
330.482288
 21
448.060372
 31
0.0
  0
LINE
  5
29A
330
1F
100
AcDbEntity
  8
0
 62
     7
 48
0.053619
370
    60
100
AcDbLine
 10
259.121224
 20
448.060372
 30
0.0
 11
261.265991
 21
448.060372
 31
0.0
  0
LINE
  5
29B
330
1F
100
AcDbEntity
  8
0
 62
     7
370
    60
100
AcDbLine
 10
329.446362
 20
453.060372
 30
0.0
 11
262.301914
 21
453.060372
 31
0.0
  0
LWPOLYLINE
  5
29C
330
1F
100
AcDbEntity
  8
0
 62
     7
370
    60
100
AcDbPolyline
 90
       10
 70
     0
 43
0.0
 10
259.886894
 20
451.563866
 10
260.075935
 20
451.865868
 10
260.296967
 20
452.143036
 10
260.547917
 20
452.390801
 10
260.825859
 20
452.60479
 10
261.127133
 20
452.781098
 10
261.447422
 20
452.916375
 10
261.78186
 20
453.008027
 10
262.125134
 20
453.054398
 10
262.298321
 20
453.060372
  0
LWPOLYLINE
  5
29D
330
1F
100
AcDbEntity
  8
0
 62
     7
370
    60
100
AcDbPolyline
 90
       10
 70
     0
 43
0.0
 10
331.861382
 20
451.563859
 10
331.672352
 20
451.865853
 10
331.451321
 20
452.143029
 10
331.200379
 20
452.390786
 10
330.922432
 20
452.604783
 10
330.621155
 20
452.78109
 10
330.300861
 20
452.916367
 10
329.966412
 20
453.008027
 10
329.623135
 20
453.054398
 10
329.449947
 20
453.060372
  0
LINE
  5
29E
330
1F
100
AcDbEntity
  8
0
 62
     7
 48
0.053619
370
    60
100
AcDbLine
 10
330.482288
 20
458.060372
 30
0.0
 11
332.627052
 21
458.060372
 31
0.0
  0
LINE
  5
29F
330
1F
100
AcDbEntity
  8
0
 62
     7
370
    60
100
AcDbLine
 10
261.265991
 20
458.060372
 30
0.0
 11
330.482288
 21
458.060372
 31
0.0
  0
LINE
  5
2A0
330
1F
100
AcDbEntity
  8
0
 62
     7
 48
0.053619
370
    60
100
AcDbLine
 10
259.121224
 20
458.060372
 30
0.0
 11
261.265991
 21
458.060372
 31
0.0
  0
LINE
  5
2A1
330
1F
100
AcDbEntity
  8
0
 62
     7
370
    60
100
AcDbLine
 10
329.446362
 20
463.060372
 30
0.0
 11
262.301914
 21
463.060372
 31
0.0
  0
LWPOLYLINE
  5
2A2
330
1F
100
AcDbEntity
  8
0
 62
     7
370
    60
100
AcDbPolyline
 90
       10
 70
     0
 43
0.0
 10
259.886894
 20
461.563866
 10
260.075935
 20
461.865868
 10
260.296967
 20
462.143036
 10
260.547917
 20
462.390801
 10
260.825859
 20
462.60479
 10
261.127133
 20
462.781098
 10
261.447422
 20
462.916375
 10
261.78186
 20
463.008027
 10
262.125134
 20
463.054398
 10
262.298321
 20
463.060372
  0
LWPOLYLINE
  5
2A3
330
1F
100
AcDbEntity
  8
0
 62
     7
370
    60
100
AcDbPolyline
 90
       10
 70
     0
 43
0.0
 10
331.861382
 20
461.563859
 10
331.672352
 20
461.865853
 10
331.451321
 20
462.143029
 10
331.200379
 20
462.390786
 10
330.922436
 20
462.604783
 10
330.621159
 20
462.78109
 10
330.300861
 20
462.916367
 10
329.966412
 20
463.008027
 10
329.623135
 20
463.054398
 10
329.449947
 20
463.060372
  0
LINE
  5
2A4
330
1F
100
AcDbEntity
  8
0
 62
     7
 48
0.053619
370
    60
100
AcDbLine
 10
330.482288
 20
468.060372
 30
0.0
 11
332.627052
 21
468.060372
 31
0.0
  0
LINE
  5
2A5
330
1F
100
AcDbEntity
  8
0
 62
     7
370
    60
100
AcDbLine
 10
261.265991
 20
468.060372
 30
0.0
 11
330.482288
 21
468.060372
 31
0.0
  0
LINE
  5
2A6
330
1F
100
AcDbEntity
  8
0
 62
     7
 48
0.053619
370
    60
100
AcDbLine
 10
259.121224
 20
468.060372
 30
0.0
 11
261.265991
 21
468.060372
 31
0.0
  0
LINE
  5
2A7
330
1F
100
AcDbEntity
  8
0
 62
     7
370
    60
100
AcDbLine
 10
329.446362
 20
473.060372
 30
0.0
 11
262.301914
 21
473.060372
 31
0.0
  0
LWPOLYLINE
  5
2A8
330
1F
100
AcDbEntity
  8
0
 62
     7
370
    60
100
AcDbPolyline
 90
       10
 70
     0
 43
0.0
 10
259.886894
 20
471.563866
 10
260.075935
 20
471.865868
 10
260.296967
 20
472.143036
 10
260.547917
 20
472.390801
 10
260.825859
 20
472.60479
 10
261.127133
 20
472.781098
 10
261.447422
 20
472.916375
 10
261.78186
 20
473.008027
 10
262.125134
 20
473.054398
 10
262.298321
 20
473.060372
  0
LWPOLYLINE
  5
2A9
330
1F
100
AcDbEntity
  8
0
 62
     7
370
    60
100
AcDbPolyline
 90
       10
 70
     0
 43
0.0
 10
331.861382
 20
471.563859
 10
331.672352
 20
471.865853
 10
331.451325
 20
472.143029
 10
331.200379
 20
472.390786
 10
330.922436
 20
472.604783
 10
330.621159
 20
472.78109
 10
330.300861
 20
472.916367
 10
329.966412
 20
473.008027
 10
329.623135
 20
473.054398
 10
329.449947
 20
473.060372
  0
LINE
  5
2AA
330
1F
100
AcDbEntity
  8
0
 62
     7
 48
0.053619
370
    60
100
AcDbLine
 10
330.482288
 20
478.060372
 30
0.0
 11
332.627052
 21
478.060372
 31
0.0
  0
LINE
  5
2AB
330
1F
100
AcDbEntity
  8
0
 62
     7
370
    60
100
AcDbLine
 10
261.265991
 20
478.060372
 30
0.0
 11
330.482288
 21
478.060372
 31
0.0
  0
LINE
  5
2AC
330
1F
100
AcDbEntity
  8
0
 62
     7
 48
0.053619
370
    60
100
AcDbLine
 10
259.121224
 20
478.060372
 30
0.0
 11
261.265991
 21
478.060372
 31
0.0
  0
LINE
  5
2AD
330
1F
100
AcDbEntity
  8
0
 62
     7
370
    60
100
AcDbLine
 10
329.446362
 20
483.060372
 30
0.0
 11
262.301914
 21
483.060372
 31
0.0
  0
LWPOLYLINE
  5
2AE
330
1F
100
AcDbEntity
  8
0
 62
     7
370
    60
100
AcDbPolyline
 90
       10
 70
     0
 43
0.0
 10
259.886894
 20
481.563866
 10
260.075935
 20
481.865868
 10
260.296967
 20
482.143036
 10
260.547917
 20
482.390801
 10
260.825859
 20
482.60479
 10
261.127133
 20
482.781098
 10
261.447422
 20
482.916375
 10
261.78186
 20
483.008027
 10
262.125134
 20
483.054398
 10
262.298321
 20
483.060372
  0
LWPOLYLINE
  5
2AF
330
1F
100
AcDbEntity
  8
0
 62
     7
370
    60
100
AcDbPolyline
 90
       10
 70
     0
 43
0.0
 10
331.861382
 20
481.563859
 10
331.672352
 20
481.865853
 10
331.451325
 20
482.143029
 10
331.200379
 20
482.390786
 10
330.922436
 20
482.604783
 10
330.621159
 20
482.78109
 10
330.300861
 20
482.916367
 10
329.966412
 20
483.008027
 10
329.623135
 20
483.054398
 10
329.449947
 20
483.060372
  0
LINE
  5
2B0
330
1F
100
AcDbEntity
  8
0
 62
     7
 48
0.053619
370
    60
100
AcDbLine
 10
330.482288
 20
488.060372
 30
0.0
 11
332.627052
 21
488.060372
 31
0.0
  0
LINE
  5
2B1
330
1F
100
AcDbEntity
  8
0
 62
     7
370
    60
100
AcDbLine
 10
261.265991
 20
488.060372
 30
0.0
 11
330.482288
 21
488.060372
 31
0.0
  0
LINE
  5
2B2
330
1F
100
AcDbEntity
  8
0
 62
     7
 48
0.053619
370
    60
100
AcDbLine
 10
259.121224
 20
488.060372
 30
0.0
 11
261.265991
 21
488.060372
 31
0.0
  0
LINE
  5
2B3
330
1F
100
AcDbEntity
  8
0
 62
     7
370
    60
100
AcDbLine
 10
329.446362
 20
493.060372
 30
0.0
 11
262.301914
 21
493.060372
 31
0.0
  0
LWPOLYLINE
  5
2B4
330
1F
100
AcDbEntity
  8
0
 62
     7
370
    60
100
AcDbPolyline
 90
       10
 70
     0
 43
0.0
 10
259.886894
 20
491.563866
 10
260.075935
 20
491.865868
 10
260.296967
 20
492.143044
 10
260.547917
 20
492.390801
 10
260.825859
 20
492.60479
 10
261.127133
 20
492.78109
 10
261.447422
 20
492.916375
 10
261.78186
 20
493.008019
 10
262.125134
 20
493.054391
 10
262.298321
 20
493.060372
  0
LWPOLYLINE
  5
2B5
330
1F
100
AcDbEntity
  8
0
 62
     7
370
    60
100
AcDbPolyline
 90
       10
 70
     0
 43
0.0
 10
331.861382
 20
491.563859
 10
331.672352
 20
491.865853
 10
331.451325
 20
492.143029
 10
331.200379
 20
492.390786
 10
330.922436
 20
492.60479
 10
330.621159
 20
492.78109
 10
330.300861
 20
492.91636
 10
329.966412
 20
493.008019
 10
329.623135
 20
493.054391
 10
329.449951
 20
493.060372
  0
LINE
  5
2B6
330
1F
100
AcDbEntity
  8
0
 62
     7
 48
0.053619
370
    60
100
AcDbLine
 10
330.482288
 20
498.060372
 30
0.0
 11
332.627052
 21
498.060372
 31
0.0
  0
LINE
  5
2B7
330
1F
100
AcDbEntity
  8
0
 62
     7
370
    60
100
AcDbLine
 10
261.265991
 20
498.060372
 30
0.0
 11
330.482288
 21
498.060372
 31
0.0
  0
LINE
  5
2B8
330
1F
100
AcDbEntity
  8
0
 62
     7
 48
0.053619
370
    60
100
AcDbLine
 10
259.121224
 20
498.060372
 30
0.0
 11
261.265991
 21
498.060372
 31
0.0
  0
LINE
  5
2B9
330
1F
100
AcDbEntity
  8
0
 62
     7
370
    60
100
AcDbLine
 10
329.446362
 20
503.060372
 30
0.0
 11
262.301914
 21
503.060372
 31
0.0
  0
LWPOLYLINE
  5
2BA
330
1F
100
AcDbEntity
  8
0
 62
     7
370
    60
100
AcDbPolyline
 90
       10
 70
     0
 43
0.0
 10
259.886894
 20
501.563866
 10
260.075935
 20
501.865868
 10
260.296967
 20
502.143044
 10
260.547917
 20
502.390801
 10
260.825859
 20
502.60479
 10
261.127133
 20
502.78109
 10
261.447422
 20
502.916375
 10
261.78186
 20
503.008019
 10
262.125134
 20
503.054391
 10
262.298321
 20
503.060372
  0
LWPOLYLINE
  5
2BB
330
1F
100
AcDbEntity
  8
0
 62
     7
370
    60
100
AcDbPolyline
 90
       10
 70
     0
 43
0.0
 10
331.861382
 20
501.563866
 10
331.672352
 20
501.865853
 10
331.451325
 20
502.143029
 10
331.200379
 20
502.390786
 10
330.922436
 20
502.60479
 10
330.621159
 20
502.78109
 10
330.300861
 20
502.91636
 10
329.966412
 20
503.008019
 10
329.623135
 20
503.054391
 10
329.449951
 20
503.060372
  0
LINE
  5
2BC
330
1F
100
AcDbEntity
  8
0
 62
     7
 48
0.053619
370
    60
100
AcDbLine
 10
330.482288
 20
508.060372
 30
0.0
 11
332.627052
 21
508.060372
 31
0.0
  0
LINE
  5
2BD
330
1F
100
AcDbEntity
  8
0
 62
     7
370
    60
100
AcDbLine
 10
261.265991
 20
508.060372
 30
0.0
 11
330.482288
 21
508.060372
 31
0.0
  0
LINE
  5
2BE
330
1F
100
AcDbEntity
  8
0
 62
     7
 48
0.053619
370
    60
100
AcDbLine
 10
259.121224
 20
508.060372
 30
0.0
 11
261.265991
 21
508.060372
 31
0.0
  0
LINE
  5
2BF
330
1F
100
AcDbEntity
  8
0
 62
     7
370
    60
100
AcDbLine
 10
329.446362
 20
513.060372
 30
0.0
 11
262.301914
 21
513.060372
 31
0.0
  0
LWPOLYLINE
  5
2C0
330
1F
100
AcDbEntity
  8
0
 62
     7
370
    60
100
AcDbPolyline
 90
       10
 70
     0
 43
0.0
 10
259.886894
 20
511.563866
 10
260.075935
 20
511.865868
 10
260.296967
 20
512.143044
 10
260.547917
 20
512.390801
 10
260.825859
 20
512.60479
 10
261.127133
 20
512.78109
 10
261.447422
 20
512.916375
 10
261.78186
 20
513.008019
 10
262.125134
 20
513.054391
 10
262.298321
 20
513.060372
  0
LWPOLYLINE
  5
2C1
330
1F
100
AcDbEntity
  8
0
 62
     7
370
    60
100
AcDbPolyline
 90
       10
 70
     0
 43
0.0
 10
331.861385
 20
511.563866
 10
331.672352
 20
511.865853
 10
331.451325
 20
512.143029
 10
331.200379
 20
512.390786
 10
330.922436
 20
512.60479
 10
330.621159
 20
512.78109
 10
330.300861
 20
512.91636
 10
329.966412
 20
513.008019
 10
329.623135
 20
513.054391
 10
329.449951
 20
513.060372
  0
LINE
  5
2C2
330
1F
100
AcDbEntity
  8
0
 62
     7
 48
0.006245
370
    60
100
AcDbLine
 10
413.874069
 20
448.060372
 30
0.0
 11
414.123886
 21
448.060372
 31
0.0
  0
LINE
  5
2C3
330
1F
100
AcDbEntity
  8
0
 62
     7
 48
0.006245
370
    60
100
AcDbLine
 10
413.874069
 20
458.060372
 30
0.0
 11
414.123886
 21
458.060372
 31
0.0
  0
LINE
  5
2C4
330
1F
100
AcDbEntity
  8
0
 62
     7
 48
0.006245
370
    60
100
AcDbLine
 10
413.874069
 20
468.060372
 30
0.0
 11
414.123886
 21
468.060372
 31
0.0
  0
LINE
  5
2C5
330
1F
100
AcDbEntity
  8
0
 62
     7
 48
0.006245
370
    60
100
AcDbLine
 10
413.874069
 20
478.060372
 30
0.0
 11
414.123886
 21
478.060372
 31
0.0
  0
LINE
  5
2C6
330
1F
100
AcDbEntity
  8
0
 62
     7
 48
0.006245
370
    60
100
AcDbLine
 10
413.874069
 20
488.060372
 30
0.0
 11
414.123886
 21
488.060372
 31
0.0
  0
LINE
  5
2C7
330
1F
100
AcDbEntity
  8
0
 62
     7
 48
0.006245
370
    60
100
AcDbLine
 10
413.874069
 20
498.060372
 30
0.0
 11
414.123886
 21
498.060372
 31
0.0
  0
LINE
  5
2C8
330
1F
100
AcDbEntity
  8
0
 62
     7
 48
0.006245
370
    60
100
AcDbLine
 10
413.874069
 20
508.060372
 30
0.0
 11
414.123886
 21
508.060372
 31
0.0
  0
LINE
  5
2C9
330
1F
100
AcDbEntity
  8
0
 62
     7
 48
0.006245
370
    60
100
AcDbLine
 10
177.62439
 20
448.060372
 30
0.0
 11
177.874207
 21
448.060372
 31
0.0
  0
LINE
  5
2CA
330
1F
100
AcDbEntity
  8
0
 62
     7
 48
0.006245
370
    60
100
AcDbLine
 10
177.62439
 20
458.060372
 30
0.0
 11
177.874207
 21
458.060372
 31
0.0
  0
LINE
  5
2CB
330
1F
100
AcDbEntity
  8
0
 62
     7
 48
0.006245
370
    60
100
AcDbLine
 10
177.62439
 20
468.060372
 30
0.0
 11
177.874207
 21
468.060372
 31
0.0
  0
LINE
  5
2CC
330
1F
100
AcDbEntity
  8
0
 62
     7
 48
0.006245
370
    60
100
AcDbLine
 10
177.62439
 20
478.060372
 30
0.0
 11
177.874207
 21
478.060372
 31
0.0
  0
LINE
  5
2CD
330
1F
100
AcDbEntity
  8
0
 62
     7
 48
0.006245
370
    60
100
AcDbLine
 10
177.62439
 20
488.060372
 30
0.0
 11
177.874207
 21
488.060372
 31
0.0
  0
LINE
  5
2CE
330
1F
100
AcDbEntity
  8
0
 62
     7
 48
0.006245
370
    60
100
AcDbLine
 10
177.62439
 20
498.060372
 30
0.0
 11
177.874207
 21
498.060372
 31
0.0
  0
LINE
  5
2CF
330
1F
100
AcDbEntity
  8
0
 62
     7
 48
0.006245
370
    60
100
AcDbLine
 10
177.62439
 20
508.060372
 30
0.0
 11
177.874207
 21
508.060372
 31
0.0
  0
LWPOLYLINE
  5
2D0
330
1F
100
AcDbEntity
  8
0
 62
     7
370
    60
100
AcDbPolyline
 90
        7
 70
     0
 43
0.0
 10
259.886418
 20
451.563065
 10
259.647133
 20
451.059228
 10
259.45438
 20
450.504693
 10
259.287823
 20
449.809174
 10
259.173687
 20
449.017449
 10
259.122131
 20
448.155205
 10
259.120659
 20
448.060227
  0
LWPOLYLINE
  5
2D1
330
1F
100
AcDbEntity
  8
0
 62
     7
370
    60
100
AcDbPolyline
 90
        7
 70
     0
 43
0.0
 10
332.627617
 20
448.060227
 10
332.58421
 20
448.91755
 10
332.478676
 20
449.710259
 10
332.324387
 20
450.397591
 10
332.131012
 20
450.984269
 10
331.887871
 20
451.515137
 10
331.861858
 20
451.563065
  0
LWPOLYLINE
  5
2D2
330
1F
100
AcDbEntity
  8
0
 62
     7
370
    60
100
AcDbPolyline
 90
        7
 70
     0
 43
0.0
 10
259.886418
 20
461.563065
 10
259.647133
 20
461.059228
 10
259.45438
 20
460.504693
 10
259.287823
 20
459.809174
 10
259.173687
 20
459.017449
 10
259.122131
 20
458.155205
 10
259.120659
 20
458.060227
  0
LWPOLYLINE
  5
2D3
330
1F
100
AcDbEntity
  8
0
 62
     7
370
    60
100
AcDbPolyline
 90
        7
 70
     0
 43
0.0
 10
332.627617
 20
458.060227
 10
332.58421
 20
458.91755
 10
332.47868
 20
459.710259
 10
332.324387
 20
460.397591
 10
332.131012
 20
460.984269
 10
331.887871
 20
461.515137
 10
331.861858
 20
461.563065
  0
LWPOLYLINE
  5
2D4
330
1F
100
AcDbEntity
  8
0
 62
     7
370
    60
100
AcDbPolyline
 90
        7
 70
     0
 43
0.0
 10
259.886418
 20
471.563065
 10
259.647133
 20
471.059228
 10
259.45438
 20
470.504693
 10
259.287823
 20
469.809174
 10
259.173687
 20
469.017449
 10
259.122131
 20
468.155205
 10
259.120659
 20
468.060227
  0
LWPOLYLINE
  5
2D5
330
1F
100
AcDbEntity
  8
0
 62
     7
370
    60
100
AcDbPolyline
 90
        7
 70
     0
 43
0.0
 10
332.627617
 20
468.060227
 10
332.58421
 20
468.91755
 10
332.47868
 20
469.710259
 10
332.324387
 20
470.397591
 10
332.131012
 20
470.984269
 10
331.887871
 20
471.515137
 10
331.861858
 20
471.563065
  0
LWPOLYLINE
  5
2D6
330
1F
100
AcDbEntity
  8
0
 62
     7
370
    60
100
AcDbPolyline
 90
        7
 70
     0
 43
0.0
 10
259.886418
 20
481.563065
 10
259.647133
 20
481.059228
 10
259.45438
 20
480.504693
 10
259.287823
 20
479.809174
 10
259.173687
 20
479.017449
 10
259.122131
 20
478.155205
 10
259.120659
 20
478.060227
  0
LWPOLYLINE
  5
2D7
330
1F
100
AcDbEntity
  8
0
 62
     7
370
    60
100
AcDbPolyline
 90
        7
 70
     0
 43
0.0
 10
332.627617
 20
478.060227
 10
332.58421
 20
478.91755
 10
332.47868
 20
479.710259
 10
332.324387
 20
480.397591
 10
332.131012
 20
480.984269
 10
331.887871
 20
481.515137
 10
331.861858
 20
481.563065
  0
LWPOLYLINE
  5
2D8
330
1F
100
AcDbEntity
  8
0
 62
     7
370
    60
100
AcDbPolyline
 90
        7
 70
     0
 43
0.0
 10
259.886418
 20
491.563065
 10
259.647133
 20
491.059228
 10
259.454384
 20
490.504693
 10
259.287823
 20
489.809174
 10
259.173687
 20
489.017449
 10
259.122131
 20
488.155205
 10
259.120663
 20
488.060227
  0
LWPOLYLINE
  5
2D9
330
1F
100
AcDbEntity
  8
0
 62
     7
370
    60
100
AcDbPolyline
 90
        7
 70
     0
 43
0.0
 10
332.627617
 20
488.060227
 10
332.58421
 20
488.91755
 10
332.47868
 20
489.710259
 10
332.324387
 20
490.397591
 10
332.131012
 20
490.984269
 10
331.887871
 20
491.515137
 10
331.861858
 20
491.563065
  0
LWPOLYLINE
  5
2DA
330
1F
100
AcDbEntity
  8
0
 62
     7
370
    60
100
AcDbPolyline
 90
        7
 70
     0
 43
0.0
 10
259.886418
 20
501.563073
 10
259.647133
 20
501.059228
 10
259.454384
 20
500.504693
 10
259.287823
 20
499.809167
 10
259.173687
 20
499.017449
 10
259.122131
 20
498.155205
 10
259.120663
 20
498.060219
  0
LWPOLYLINE
  5
2DB
330
1F
100
AcDbEntity
  8
0
 62
     7
370
    60
100
AcDbPolyline
 90
        7
 70
     0
 43
0.0
 10
332.627617
 20
498.060219
 10
332.58421
 20
498.91755
 10
332.47868
 20
499.710259
 10
332.324387
 20
500.397591
 10
332.131012
 20
500.984261
 10
331.887871
 20
501.51513
 10
331.861858
 20
501.563073
  0
LWPOLYLINE
  5
2DC
330
1F
100
AcDbEntity
  8
0
 62
     7
370
    60
100
AcDbPolyline
 90
        7
 70
     0
 43
0.0
 10
259.886418
 20
511.563073
 10
259.647133
 20
511.059228
 10
259.454384
 20
510.504693
 10
259.287823
 20
509.809167
 10
259.173687
 20
509.017449
 10
259.122131
 20
508.155205
 10
259.120663
 20
508.060219
  0
LWPOLYLINE
  5
2DD
330
1F
100
AcDbEntity
  8
0
 62
     7
370
    60
100
AcDbPolyline
 90
        7
 70
     0
 43
0.0
 10
332.627617
 20
508.060219
 10
332.58421
 20
508.91755
 10
332.47868
 20
509.710259
 10
332.324387
 20
510.397591
 10
332.131012
 20
510.984261
 10
331.887871
 20
511.51513
 10
331.861858
 20
511.563073
  0
ARC
  5
2DE
330
1F
100
AcDbEntity
  8
0
 62
     7
370
    60
100
AcDbCircle
 10
408.573906
 20
447.936646
 30
0.0
 40
5.551293000000027
100
AcDbArc
 50
1.262050999999777
 51
17.29741599999977
  0
ARC
  5
2DF
330
1F
100
AcDbEntity
  8
0
 62
     7
370
    60
100
AcDbCircle
 10
408.573906
 20
457.936646
 30
0.0
 40
5.551293000000027
100
AcDbArc
 50
1.262050999999777
 51
17.29741599999977
  0
ARC
  5
2E0
330
1F
100
AcDbEntity
  8
0
 62
     7
370
    60
100
AcDbCircle
 10
408.573906
 20
467.936646
 30
0.0
 40
5.551293000000027
100
AcDbArc
 50
1.262050999999777
 51
17.29741599999977
  0
ARC
  5
2E1
330
1F
100
AcDbEntity
  8
0
 62
     7
370
    60
100
AcDbCircle
 10
408.573906
 20
477.936646
 30
0.0
 40
5.551293000000027
100
AcDbArc
 50
1.262050999999777
 51
17.29741599999977
  0
ARC
  5
2E2
330
1F
100
AcDbEntity
  8
0
 62
     7
370
    60
100
AcDbCircle
 10
408.573906
 20
487.936646
 30
0.0
 40
5.551293000000027
100
AcDbArc
 50
1.262050999999777
 51
17.29741599999977
  0
ARC
  5
2E3
330
1F
100
AcDbEntity
  8
0
 62
     7
370
    60
100
AcDbCircle
 10
408.573906
 20
497.936654
 30
0.0
 40
5.551293000000027
100
AcDbArc
 50
1.262050999999777
 51
17.29741599999977
  0
ARC
  5
2E4
330
1F
100
AcDbEntity
  8
0
 62
     7
370
    60
100
AcDbCircle
 10
408.573906
 20
507.936654
 30
0.0
 40
5.551293000000027
100
AcDbArc
 50
1.262050999999777
 51
17.29741599999977
  0
ARC
  5
2E5
330
1F
100
AcDbEntity
  8
0
 62
     7
370
    60
100
AcDbCircle
 10
183.17437
 20
447.936646
 30
0.0
 40
5.551294999999994
100
AcDbArc
 50
162.7038899999997
 51
178.7379499999997
  0
ARC
  5
2E6
330
1F
100
AcDbEntity
  8
0
 62
     7
370
    60
100
AcDbCircle
 10
183.17437
 20
457.936646
 30
0.0
 40
5.551294999999994
100
AcDbArc
 50
162.7038899999997
 51
178.7379499999997
  0
ARC
  5
2E7
330
1F
100
AcDbEntity
  8
0
 62
     7
370
    60
100
AcDbCircle
 10
183.17437
 20
467.936646
 30
0.0
 40
5.551294999999994
100
AcDbArc
 50
162.7038899999997
 51
178.7379499999997
  0
ARC
  5
2E8
330
1F
100
AcDbEntity
  8
0
 62
     7
370
    60
100
AcDbCircle
 10
183.17437
 20
477.936646
 30
0.0
 40
5.551294999999994
100
AcDbArc
 50
162.7038899999997
 51
178.7379499999997
  0
ARC
  5
2E9
330
1F
100
AcDbEntity
  8
0
 62
     7
370
    60
100
AcDbCircle
 10
183.17437
 20
487.936646
 30
0.0
 40
5.551294999999994
100
AcDbArc
 50
162.7038899999997
 51
178.7379499999997
  0
ARC
  5
2EA
330
1F
100
AcDbEntity
  8
0
 62
     7
370
    60
100
AcDbCircle
 10
183.17437
 20
497.936654
 30
0.0
 40
5.551294999999994
100
AcDbArc
 50
162.7038899999997
 51
178.7379499999997
  0
ARC
  5
2EB
330
1F
100
AcDbEntity
  8
0
 62
     7
370
    60
100
AcDbCircle
 10
183.17437
 20
507.936654
 30
0.0
 40
5.551294999999994
100
AcDbArc
 50
162.7038899999997
 51
178.7379499999997
  0
LINE
  5
2EC
330
1F
100
AcDbEntity
  8
0
 62
     7
 48
0.325
370
    60
100
AcDbLine
 10
314.37414
 20
548.060372
 30
0.0
 11
314.37414
 21
561.060372
 31
0.0
  0
LINE
  5
2ED
330
1F
100
AcDbEntity
  8
0
 62
     7
 48
0.325
370
    60
100
AcDbLine
 10
309.374139
 20
548.060372
 30
0.0
 11
309.37414
 21
561.060372
 31
0.0
  0
ARC
  5
2EE
330
1F
100
AcDbEntity
  8
0
 62
     7
370
    60
100
AcDbCircle
 10
295.874139
 20
561.060372
 30
0.0
 40
18.5
100
AcDbArc
 50
0.0
 51
90.00000300000004
  0
ARC
  5
2EF
330
1F
100
AcDbEntity
  8
0
 62
     7
370
    60
100
AcDbCircle
 10
295.874139
 20
561.060372
 30
0.0
 40
13.5
100
AcDbArc
 50
0.0
 51
90.00000300000004
  0
LINE
  5
2F0
330
1F
100
AcDbEntity
  8
0
 62
     7
 48
0.325
370
    60
100
AcDbLine
 10
277.37414
 20
561.060372
 30
0.0
 11
277.37414
 21
548.060357
 31
0.0
  0
LINE
  5
2F1
330
1F
100
AcDbEntity
  8
0
 62
     7
 48
0.325
370
    60
100
AcDbLine
 10
282.37414
 20
561.060372
 30
0.0
 11
282.374139
 21
548.060357
 31
0.0
  0
ARC
  5
2F2
330
1F
100
AcDbEntity
  8
0
 62
     7
370
    60
100
AcDbCircle
 10
295.874139
 20
561.060372
 30
0.0
 40
18.50000000000002
100
AcDbArc
 50
90.00000299999999
 51
180.0000049999999
  0
ARC
  5
2F3
330
1F
100
AcDbEntity
  8
0
 62
     7
370
    60
100
AcDbCircle
 10
295.874139
 20
561.060372
 30
0.0
 40
13.50000000000002
100
AcDbArc
 50
90.00000300000012
 51
180.0000050000001
  0
LINE
  5
2F4
330
1F
100
AcDbEntity
  8
0
 62
     7
 48
0.15
370
    60
100
AcDbLine
 10
283.874163
 20
364.150032
 30
0.0
 11
277.874163
 21
364.150032
 31
0.0
  0
ARC
  5
2F5
330
1F
100
AcDbEntity
  8
0
 62
     7
370
    60
100
AcDbCircle
 10
326.474136
 20
137.137704
 30
0.0
 40
249.0
100
AcDbArc
 50
114.30937
 51
153.267628
  0
ARC
  5
2F6
330
1F
100
AcDbEntity
  8
0
 62
     7
370
    60
100
AcDbCircle
 10
265.274113
 20
137.137734
 30
0.0
 40
248.999985
100
AcDbArc
 50
26.73236
 51
65.690629
  0
ARC
  5
2F7
330
1F
100
AcDbEntity
  8
0
 62
     7
370
    60
100
AcDbCircle
 10
380.774132
 20
107.137704
 30
0.0
 40
311.0
100
AcDbArc
 50
152.831356
 51
179.73957
  0
ARC
  5
2F8
330
1F
100
AcDbEntity
  8
0
 62
     7
370
    60
100
AcDbCircle
 10
210.974053
 20
107.137704
 30
0.0
 40
311.000031
100
AcDbArc
 50
0.2604250000000007
 51
27.168641
  0
ARC
  5
2F9
330
1F
100
AcDbEntity
  8
0
 62
     7
370
    60
100
AcDbCircle
 10
523.970909
 20
108.560372
 30
0.0
 40
2.000000000000008
100
AcDbArc
 50
180.0000050000001
 51
270.0000010000001
  0
ARC
  5
2FA
330
1F
100
AcDbEntity
  8
0
 62
     7
370
    60
100
AcDbCircle
 10
67.77736700000003
 20
108.560372
 30
0.0
 40
2.0
100
AcDbArc
 50
270.0000009999998
 51
0.0000099999997851
  0
LINE
  5
2FB
330
1F
100
AcDbEntity
  8
0
 62
     7
370
    60
100
AcDbLine
 10
528.874138
 20
106.560372
 30
0.0
 11
62.87413800000002
 21
106.560372
 31
0.0
  0
ARC
  5
2FC
330
1F
100
AcDbEntity
  8
0
 62
     7
370
    60
100
AcDbCircle
 10
62.87413800000002
 20
103.560372
 30
0.0
 40
3.000000000000004
100
AcDbArc
 50
90.000003
 51
180.000005
  0
ARC
  5
2FD
330
1F
100
AcDbEntity
  8
0
 62
     7
370
    60
100
AcDbCircle
 10
528.874138
 20
103.560372
 30
0.0
 40
3.000000000000046
100
AcDbArc
 50
0.0000099999999208
 51
89.99999199999993
  0
LINE
  5
2FE
330
1F
100
AcDbEntity
  8
0
 62
     7
 48
0.1
370
    60
100
AcDbLine
 10
59.87413800000002
 20
99.56037199999999
 30
0.0
 11
59.87413800000002
 21
103.560372
 31
0.0
  0
LINE
  5
2FF
330
1F
100
AcDbEntity
  8
0
 62
     7
 48
0.1
370
    60
100
AcDbLine
 10
531.874138
 20
99.56037199999999
 30
0.0
 11
531.874138
 21
103.560372
 31
0.0
  0
LINE
  5
300
330
1F
100
AcDbEntity
  8
0
 62
     7
370
    60
100
AcDbLine
 10
531.874138
 20
99.56037199999999
 30
0.0
 11
59.87413800000002
 21
99.56037199999999
 31
0.0
  0
DIMENSION
  5
301
330
1F
100
AcDbEntity
  8
0
370
    40
100
AcDbDimension
  2
*D9
 10
14.08210546401904
 20
99.560372
 30
0.0
 11
2.082105464019037
 21
339.560372
 31
0.0
 70
    32
 71
     5
 41
2.5
 42
480.0000000000001
  3
ISO-25
100
AcDbAlignedDimension
 13
295.874139
 23
579.560372
 33
0.0
 14
295.874138
 24
99.56037199999999
 34
0.0
 50
90.0
100
AcDbRotatedDimension
1001
ACAD
1000
DSTYLE
1002
{
1070
    41
1040
10.0
1070
   140
1040
14.0
1070
   147
1040
5.0
1070
   176
1070
     7
1070
   177
1070
     7
1070
   271
1070
     0
1002
}
  0
DIMENSION
  5
323
330
1F
100
AcDbEntity
  8
0
370
    40
100
AcDbDimension
  2
*D17
 10
531.874138
 20
60.47220328849464
 30
0.0
 11
295.874138
 21
72.47220328849464
 31
0.0
 70
   160
  1
Ø472
 71
     5
 41
2.5
 42
472.0000000000001
  3
ISO-25
100
AcDbAlignedDimension
 13
59.87413800000003
 23
103.5603717382006
 33
0.0
 14
531.874138
 24
101.560372
 34
0.0
100
AcDbRotatedDimension
1001
ACAD
1000
DSTYLE
1002
{
1070
    41
1040
10.0
1070
   140
1040
14.0
1070
   147
1040
5.0
1070
   176
1070
     7
1070
   177
1070
     7
1070
   271
1070
     0
1002
}
  0
VIEWPORT
  5
BB
330
73
100
AcDbEntity
 67
     1
  8
0
100
AcDbViewport
 10
7.8
 20
4.5
 30
0.0
 40
15.64
 41
9.0
 68
     1
 69
     1
 12
6.0
 22
4.5
 13
0.0
 23
0.0
 14
0.5
 24
0.5
 15
0.5
 25
0.5
 16
0.0
 26
0.0
 36
1.0
 17
0.0
 27
0.0
 37
0.0
 42
50.0
 43
0.0
 44
0.0
 45
12.0
 50
0.0
 51
0.0
 72
   100
 90
   557152
  1

281
     0
 71
     1
 74
     0
110
0.0
120
0.0
130
0.0
111
1.0
121
0.0
131
0.0
112
0.0
122
1.0
132
0.0
 79
     0
146
0.0
  0
ENDSEC
  0
SECTION
  2
OBJECTS
  0
DICTIONARY
  5
C
330
0
100
AcDbDictionary
281
     1
  3
ACAD_COLOR
350
6C
  3
ACAD_GROUP
350
D
  3
ACAD_LAYOUT
350
1A
  3
ACAD_MATERIAL
350
6B
  3
ACAD_MLEADERSTYLE
350
3AD
  3
ACAD_MLINESTYLE
350
17
  3
ACAD_PLOTSETTINGS
350
19
  3
ACAD_PLOTSTYLENAME
350
E
  3
ACAD_SCALELIST
350
99
  3
ACAD_TABLESTYLE
350
92
  3
ACDBHEADERROUNDTRIPXREC
350
3AE
  3
AcDbVariableDictionary
350
59
  3
DWGPROPS
350
3B1
  0
DICTIONARY
  5
6C
102
{ACAD_REACTORS
330
C
102
}
330
C
100
AcDbDictionary
281
     1
  0
DICTIONARY
  5
D
102
{ACAD_REACTORS
330
C
102
}
330
C
100
AcDbDictionary
281
     1
  0
DICTIONARY
  5
1A
102
{ACAD_REACTORS
330
C
102
}
330
C
100
AcDbDictionary
281
     1
  3
Layout1
350
74
  3
Layout2
350
387
  3
Model
350
22
  0
DICTIONARY
  5
6B
102
{ACAD_REACTORS
330
C
102
}
330
C
100
AcDbDictionary
281
     1
  0
DICTIONARY
  5
3AD
102
{ACAD_REACTORS
330
C
102
}
330
C
100
AcDbDictionary
281
     1
  0
DICTIONARY
  5
17
102
{ACAD_REACTORS
330
C
102
}
330
C
100
AcDbDictionary
281
     1
  3
Standard
350
18
  0
DICTIONARY
  5
19
102
{ACAD_REACTORS
330
C
102
}
330
C
100
AcDbDictionary
281
     1
  0
ACDBDICTIONARYWDFLT
  5
E
102
{ACAD_REACTORS
330
C
102
}
330
C
100
AcDbDictionary
281
     1
  3
Normal
350
F
100
AcDbDictionaryWithDefault
340
F
  0
DICTIONARY
  5
99
102
{ACAD_REACTORS
330
C
102
}
330
C
100
AcDbDictionary
281
     1
  3
A0
350
D5
  3
A1
350
D6
  3
A2
350
D7
  3
A3
350
D8
  3
A4
350
D9
  3
A5
350
DA
  3
A6
350
DB
  3
A7
350
DC
  3
A8
350
DD
  3
A9
350
DE
  3
B0
350
DF
  3
B1
350
E0
  3
B2
350
E1
  3
B3
350
E2
  3
B4
350
E3
  3
B5
350
E4
  3
B6
350
E5
  3
B7
350
E6
  3
B8
350
E7
  3
B9
350
E8
  3
C0
350
E9
  3
C1
350
EA
  3
C2
350
EB
  3
C3
350
EC
  3
C4
350
ED
  3
C5
350
EE
  3
C6
350
EF
  3
C7
350
F0
  3
C8
350
F1
  3
C9
350
F2
  3
D0
350
F3
  3
D1
350
F4
  3
D2
350
F5
  0
DICTIONARY
  5
92
102
{ACAD_REACTORS
330
C
102
}
330
C
100
AcDbDictionary
281
     1
  0
DICTIONARY
  5
3AE
102
{ACAD_REACTORS
330
C
102
}
330
C
100
AcDbDictionary
281
     1
  3
COLORDICT
350
3AF
  3
MATERIALDICT
350
3B0
  0
DICTIONARY
  5
59
102
{ACAD_REACTORS
330
C
102
}
330
C
100
AcDbDictionary
281
     1
  3
CTABLESTYLE
350
98
  3
DIMASSOC
350
5A
  3
HIDETEXT
350
5E
  0
XRECORD
  5
3B1
102
{ACAD_REACTORS
330
C
102
}
330
C
100
AcDbXrecord
280
     1
  1
DWGPROPS COOKIE
  2

  3

  4

  6

  7

  8
BelottiMc
  9

300
=
301
=
302
=
303
=
304
=
305
=
306
=
307
=
308
=
309
=
 40
0.0
 41
2455239.57970809
 42
2455239.579708079
  1

 90
        0
  0
LAYOUT
  5
74
102
{ACAD_REACTORS
330
1A
102
}
330
1A
100
AcDbPlotSettings
  1

  2
ProgeSOFT PDF Wizard
  4
A4
  6

 40
5.926666666666667
 41
6.011333333333321
 42
6.095999999999985
 43
5.926666666666667
 44
210.0
 45
297.0
 46
88.56200000000001
 47
136.531
 48
0.0
 49
0.0
140
0.0
141
0.0
142
1.0
143
1.0
 70
   692
 72
     1
 73
     0
 74
     0
  7

 75
    16
147
1.0
148
4.426666666666668
149
1.5
100
AcDbLayout
  1
Layout1
 70
     1
 71
     1
 10
0.0
 20
0.0
 11
0.0
 21
0.0
 12
0.0
 22
0.0
 32
0.0
 14
0.0
 24
0.0
 34
0.0
 15
0.0
 25
0.0
 35
0.0
146
0.0
 13
0.0
 23
0.0
 33
0.0
 16
1.0
 26
0.0
 36
0.0
 17
0.0
 27
1.0
 37
0.0
 76
     0
330
D1
331
3AC
1001
PROGE_PRINT_SETTINGS
1070
    73
1070
     1
  0
LAYOUT
  5
387
102
{ACAD_REACTORS
330
1A
102
}
330
1A
100
AcDbPlotSettings
  1

  2
ProgeSOFT PDF Wizard
  4
A4
  6

 40
5.926666666666667
 41
6.011333333333321
 42
6.095999999999985
 43
5.926666666666667
 44
210.0
 45
297.0
 46
88.562
 47
136.531
 48
0.0
 49
0.0
140
0.0
141
0.0
142
1.0
143
1.0
 70
   692
 72
     1
 73
     0
 74
     0
  7

 75
    16
147
1.0
148
0.0
149
0.0
100
AcDbLayout
  1
Layout2
 70
     1
 71
     2
 10
0.0
 20
0.0
 11
12.0
 21
9.0
 12
0.0
 22
0.0
 32
0.0
 14
0.0
 24
0.0
 34
0.0
 15
12.0
 25
9.0
 35
0.0
146
0.0
 13
0.0
 23
0.0
 33
0.0
 16
1.0
 26
0.0
 36
0.0
 17
0.0
 27
1.0
 37
0.0
 76
     0
330
73
331
BB
1001
PROGE_PRINT_SETTINGS
1070
    73
1070
     1
  0
LAYOUT
  5
22
102
{ACAD_REACTORS
330
1A
102
}
330
1A
100
AcDbPlotSettings
  1

  2
\\prn100b\W366
  4
A4
  6

 40
4.233333333333333
 41
4.233333333333307
 42
4.233333333333335
 43
4.233333333333333
 44
210.0
 45
296.9
 46
0.0
 47
9.861111111110858
 48
0.0
 49
0.0
140
0.0
141
0.0
142
1.0
143
0.044657624875951
 70
 11956
 72
     1
 73
     1
 74
     1
  7

 75
     0
147
22.39259259259259
148
0.0
149
0.0
100
AcDbLayout
  1
Model
 70
     1
 71
     0
 10
0.0
 20
0.0
 11
0.0
 21
0.0
 12
0.0
 22
0.0
 32
0.0
 14
-4.917894535980964
 24
58.80553662182797
 34
0.0
 15
531.874138
 25
579.5603720000001
 35
0.0
146
0.0
 13
0.0
 23
0.0
 33
0.0
 16
1.0
 26
0.0
 36
0.0
 17
0.0
 27
1.0
 37
0.0
 76
     0
330
1F
331
97
1001
PROGE_PRINT_SETTINGS
1070
    73
1070
     2
1070
   311
1000
\\prn100b\W366
1004
303030303030303035323030343930303433303034463030343830303230303034313030363630303639303036333030363930303646303032303030343130303530303033363030333130303330303034453030323030303530303034333030344330303230303033363030303030303030303030303030303030303030
1004
303030303030303030303443303035303030353430303331303033413030303030303030303030303030303030303030303030303030303030303030303030303030303030303030303030303030303030303030303030303030303030303030303030303030303030303030303030303030303030303030303030303030
1004
303030303030303030303030303030303030303030303030303030303030303030303030303030303030303030303030303030303030303030303030303030303030303030303030303030303030303030303030303030303030303030303030303030303030303030303030303030303030303030303030303030303030
1004
303030303030303030303030303030303030303030303030303030303030303030303030303030303030303030303030303030303030303030303030303030303030303030303030303030303030303030303030303030303030303030303030303030303030303030303030303030303030303030303030303030303030
1004
303030303030303030303030303030303030303030303030303030303030303030303030303030303030303030303030303030303030303030303030303030303030303030303030303030303030303030303030303030303030303030303030303030303030303030303030303030303030303030303030373430413030
1004
303030303030303030303030303030303030303130303030303037343041303030303531304430303030303130303030303030363030303030304230303930303030423330443030303030323030303030303030303030303030303030303030303030303030303030303030303030303030303030303030303030303030
1004
303030303030303030303030303030303030303030303030303030303030303030303030303030303030303036343030303030303035303030303030303030303030303030303030303030303030303030303030303130303030303030303030303030303030303030303030303630303030303030303030303030303030
1004
303030303030303030303030303030303030303030303030303030303030313830303030303030303030313032373130323731303237303030303130323730303030303030303030303030303030303130303030303030303030303030303030303030303030303030303030303030303030303030303030303030303030
1004
303030303030303030303030303030303030303030303030303030303030303030303030303030303030303030303030303030303030303030303030303030303030303030303030303030303030303030303030303030303030303030303030303030303030303030303030303030303030303030303030303030303030
1004
303030303030303030303030303030303030303030303030303030303030303030303030303030303030303030303030303030303030303030303030303030303030303030303030303030303030303030303030303030303030303030303030303030303030303030303030303030303030303030303030303030303030
1004
303030303030303030303030303030303030303030303030303030303030303030303030303030303030303030303030303030303030303030303030303030303030303030303030303030303030303030303030303030303030303030303030303030303030303030303030303030303030303030303030303030303030
1004
303030303030303030303030303030303030303030303030303030303030303030303030303030303030303030303030303030303030303030303030303030303030303030303030303030303030303030303030303030303030303030303030303030303030303030303030303030303030303030303030303030303030
1004
303030303030303030303030303030303030303030303030303030303030303030303030303030303030303030303030303030303030303030303030303030303030303030303030303030303030303030303030303030303030303030303030303030303030303030303030303030303030303030303030303030303030
1004
303030303030303030303030303030303030303030303030303030303030303030303030303030303030303030303030303030303030303030303030303030303030303030303030303030303030303030303030303030303030303030303030303030303030303030303030303030303030303030303030303030303030
1004
303030303030303030303030303030303030303030303030303030303030303030303030303030303030303030303030303030303030303030303030303030303030303030303030303030303030303030303030303030303030303030303030303030303030303030303030303030303030303030303030303030303030
1004
303030303030303030303030303030303030303030303030303030303030303030303030303030303030303030303030303030303030303030303030303030303030303030303030303030303030303030303030303030303030303030303030303030303030303030303030303030303030303030303030303030303030
1004
303030303030303030303030303030303030303030303030303030303030303030303030303030303030303030303030303030303030303030303030303030303030303030303030303030303030303030303030303030303030303030303030303030303030303030303030303030303030303030303030303030303030
1004
303030303030303030303030303030303030303030303030303030303030303030303030303030303030303030303030303030303030303030303030303030303030303030303030303030303030303030303030303030303030303030303030303030303030303030303030303030303030303030303030303030303030
1004
303030303030303030303030303030303030303030303030303030303030303030303030303030303030303030303030303030303030303030303030303030303030303030303030303030303030303030303030303030303030303030303030303030303030303030303030303030303030303030303030303030303030
1004
303030303030303030303030303030303030303030303030303030303030303030303030303030303030303030303030303030303030303030303030303030303030303030303030303030303030303030303030303030303030303030303030303030303030303030303030303030303030303030303030303030303030
1004
303030303030303030303030303030303030303030303030303030303030303030303030303030303030303030303030303030303030303030303030303030303030303030303030303030303030303030303030303030303030303030303030303030303030303030303030303030303030303030303030303030303030
1004
303030303030303030303030303030303030303030303030303030303030303030303030303030303030303030303030303030303030303030303030303030303030303030303030303030303030303030303030303030303030303030303030303030303030303030303030303030303030303030303030303030303030
1004
303030303030303030303030303030303030303030303030303030303030303030303030303030303030303030303030303030303030303030303030303030303030303030303030303030303030303030303030303030303030303030303030303030303030303030303030303030303030303030303030303030303030
1004
303030303030303030303030303030303030303030303030303030303030303030303030303030303030303030303030303030303030303030303030303030303030303030303030303030303030303030303030303030303030303030303030303030303030303030303030303030303030303030303030303030303030
1004
303030303030303030303030303030303030303030303030303030303030303030303030303030303030303030303030303130303030303030313030303030303030303030303030303030303030303030303030303030303030303030303030303130303030303030303030303030303031303030303030303030303030
1004
303030303030303030303030303030303030303030303030303030303030303030303030303030303030303030303030303030303030303030303030303030303030303030303030303036343030303030303030303030303030303030303030303030303030303030303034303030303030303630303030303030303030
1004
303030303031303030303030303030303030303030303030303030303030303030303030303030303030303030303030303030303031303030303030303130303030303030303030303030303030303030303030303130303030303030303030303030303030303030303030303030303030303030303030303030303030
1004
303030303030363430303030303030303030303030303030303030303030303030303030303030313030303030303030303030303030303130303030303030303030303030303030303030303030303030303030303030303030303030303030303030303030303030303030303030303030303030303030303030303030
1004
303030303030303030303030303030303030303030303030303030303030303030303030303030303030303030303030303030303030303030303030303030303030303030303030303030303030303030303030303030303030303030303030303030303030303045373033303030304537303330303030453730333030
1004
303045373033303030303030303030303030303030303030303030303030303030303030303030303030303030303030303030363030303030303334303830303030393930423030303030303030303030303434303036353030363630303631303037353030364330303734303030303030303030303030303030303030
1004
303030303030303030303030303030303030303030343030303030303030303030303030303030303030303030303030303030303030303030303030303030303030303030303030303030303030303030303030303030303030303030303030303030303030303030303030303030303030303030303030303030303030
1004
303030303030303030303030303030303030303030303030303030303030303030303030303030303030303030303030303030303030303030303030303030303030303030303030303030303030303030303030303030303030303030303030303030303030303030303030303030303030303030303030303030303030
1004
303030303030303030303030303030303030303030303030303030303030303030303030303030303030303030303030303030303030303030303030303030303030303030303030303030303030303030303030303030303030303030303030303030303030303030303030303030303030303030303030303030303030
1004
303030303030303030303030303030303030303030303030303030303030303030303030303030303030303030303030303030303030303030303030303030303030303030303030303030303030303030303030303030303030303030303030303030303030303030303030303030303030303030303030303030303030
1004
303030303030303030303030303030303030303030303030303030303030303030303030303030303030303030303030303030303030303030303030303030303030303030303030303030303030303030303030303030303030303030303030303030303030303030303030303030303030303030303030303030303030
1004
303030303030303030303030303030303030303030303030303030303030303030303030303030303030303030303030303030303030303030303030303030303030303030303030303030303030303030303030303030303030303030303030303030303030303030303030303030303030303030303030303030303030
1004
303030303030303030303030303030303030303030303030303030303030303030303030303030303030303030303030303030303030303030303030303030303030303030303030303030303030303030303030303030303030303030303030303030303030303030303030303030303030303030303030303030303030
1004
303030303030303030303030303030303030303030303030303030303030303030303030303030303030303030303030303030303030303030303030303030303030303030303030303030303030303030303030303030303030303030303030303030303030303030303030303030303030303030303030303030303030
1004
30303030303030303030303030303030303030303030303030303030303030303030303030303030303030303030303030303030303030303030303030303030303030303030303030303030303030303030303030313030303030303030303030303030303030303030303030303030303030303030303030303030
  0
MLINESTYLE
  5
18
102
{ACAD_REACTORS
330
17
102
}
330
17
100
AcDbMlineStyle
  2
STANDARD
 70
     0
  3

 62
   256
 51
90.0
 52
90.0
 71
     2
 49
0.5
 62
   256
  6
BYLAYER
 49
-0.5
 62
   256
  6
BYLAYER
  0
ACDBPLACEHOLDER
  5
F
102
{ACAD_REACTORS
330
E
102
}
330
E
  0
SCALE
  5
D5
102
{ACAD_REACTORS
330
99
102
}
330
99
100
AcDbScale
 70
     0
300
1:1
140
1.0
141
1.0
290
     1
  0
SCALE
  5
D6
102
{ACAD_REACTORS
330
99
102
}
330
99
100
AcDbScale
 70
     0
300
1:2
140
1.0
141
2.0
290
     0
  0
SCALE
  5
D7
102
{ACAD_REACTORS
330
99
102
}
330
99
100
AcDbScale
 70
     0
300
1:4
140
1.0
141
4.0
290
     0
  0
SCALE
  5
D8
102
{ACAD_REACTORS
330
99
102
}
330
99
100
AcDbScale
 70
     0
300
1:5
140
1.0
141
5.0
290
     0
  0
SCALE
  5
D9
102
{ACAD_REACTORS
330
99
102
}
330
99
100
AcDbScale
 70
     0
300
1:8
140
1.0
141
8.0
290
     0
  0
SCALE
  5
DA
102
{ACAD_REACTORS
330
99
102
}
330
99
100
AcDbScale
 70
     0
300
1:10
140
1.0
141
10.0
290
     0
  0
SCALE
  5
DB
102
{ACAD_REACTORS
330
99
102
}
330
99
100
AcDbScale
 70
     0
300
1:16
140
1.0
141
16.0
290
     0
  0
SCALE
  5
DC
102
{ACAD_REACTORS
330
99
102
}
330
99
100
AcDbScale
 70
     0
300
1:20
140
1.0
141
20.0
290
     0
  0
SCALE
  5
DD
102
{ACAD_REACTORS
330
99
102
}
330
99
100
AcDbScale
 70
     0
300
1:30
140
1.0
141
30.0
290
     0
  0
SCALE
  5
DE
102
{ACAD_REACTORS
330
99
102
}
330
99
100
AcDbScale
 70
     0
300
1:40
140
1.0
141
40.0
290
     0
  0
SCALE
  5
DF
102
{ACAD_REACTORS
330
99
102
}
330
99
100
AcDbScale
 70
     0
300
1:50
140
1.0
141
50.0
290
     0
  0
SCALE
  5
E0
102
{ACAD_REACTORS
330
99
102
}
330
99
100
AcDbScale
 70
     0
300
1:100
140
1.0
141
100.0
290
     0
  0
SCALE
  5
E1
102
{ACAD_REACTORS
330
99
102
}
330
99
100
AcDbScale
 70
     0
300
2:1
140
2.0
141
1.0
290
     0
  0
SCALE
  5
E2
102
{ACAD_REACTORS
330
99
102
}
330
99
100
AcDbScale
 70
     0
300
4:1
140
4.0
141
1.0
290
     0
  0
SCALE
  5
E3
102
{ACAD_REACTORS
330
99
102
}
330
99
100
AcDbScale
 70
     0
300
8:1
140
8.0
141
1.0
290
     0
  0
SCALE
  5
E4
102
{ACAD_REACTORS
330
99
102
}
330
99
100
AcDbScale
 70
     0
300
10:1
140
10.0
141
1.0
290
     0
  0
SCALE
  5
E5
102
{ACAD_REACTORS
330
99
102
}
330
99
100
AcDbScale
 70
     0
300
100:1
140
100.0
141
1.0
290
     0
  0
SCALE
  5
E6
102
{ACAD_REACTORS
330
99
102
}
330
99
100
AcDbScale
 70
     0
300
1/128" = 1'-0"
140
0.0078125
141
12.0
290
     0
  0
SCALE
  5
E7
102
{ACAD_REACTORS
330
99
102
}
330
99
100
AcDbScale
 70
     0
300
1/64" = 1'-0"
140
0.015625
141
12.0
290
     0
  0
SCALE
  5
E8
102
{ACAD_REACTORS
330
99
102
}
330
99
100
AcDbScale
 70
     0
300
1/32" = 1'-0"
140
0.03125
141
12.0
290
     0
  0
SCALE
  5
E9
102
{ACAD_REACTORS
330
99
102
}
330
99
100
AcDbScale
 70
     0
300
1/16" = 1'-0"
140
0.0625
141
12.0
290
     0
  0
SCALE
  5
EA
102
{ACAD_REACTORS
330
99
102
}
330
99
100
AcDbScale
 70
     0
300
3/32" = 1'-0"
140
0.09375
141
12.0
290
     0
  0
SCALE
  5
EB
102
{ACAD_REACTORS
330
99
102
}
330
99
100
AcDbScale
 70
     0
300
1/8" = 1'-0"
140
0.125
141
12.0
290
     0
  0
SCALE
  5
EC
102
{ACAD_REACTORS
330
99
102
}
330
99
100
AcDbScale
 70
     0
300
3/16" = 1'-0"
140
0.1875
141
12.0
290
     0
  0
SCALE
  5
ED
102
{ACAD_REACTORS
330
99
102
}
330
99
100
AcDbScale
 70
     0
300
1/4" = 1'-0"
140
0.25
141
12.0
290
     0
  0
SCALE
  5
EE
102
{ACAD_REACTORS
330
99
102
}
330
99
100
AcDbScale
 70
     0
300
3/8" = 1'-0"
140
0.375
141
12.0
290
     0
  0
SCALE
  5
EF
102
{ACAD_REACTORS
330
99
102
}
330
99
100
AcDbScale
 70
     0
300
1/2" = 1'-0"
140
0.5
141
12.0
290
     0
  0
SCALE
  5
F0
102
{ACAD_REACTORS
330
99
102
}
330
99
100
AcDbScale
 70
     0
300
3/4" = 1'-0"
140
0.75
141
12.0
290
     0
  0
SCALE
  5
F1
102
{ACAD_REACTORS
330
99
102
}
330
99
100
AcDbScale
 70
     0
300
1" = 1'-0"
140
1.0
141
12.0
290
     0
  0
SCALE
  5
F2
102
{ACAD_REACTORS
330
99
102
}
330
99
100
AcDbScale
 70
     0
300
1-1/2" = 1'-0"
140
1.5
141
12.0
290
     0
  0
SCALE
  5
F3
102
{ACAD_REACTORS
330
99
102
}
330
99
100
AcDbScale
 70
     0
300
3" = 1'-0"
140
3.0
141
12.0
290
     0
  0
SCALE
  5
F4
102
{ACAD_REACTORS
330
99
102
}
330
99
100
AcDbScale
 70
     0
300
6" = 1'-0"
140
6.0
141
12.0
290
     0
  0
SCALE
  5
F5
102
{ACAD_REACTORS
330
99
102
}
330
99
100
AcDbScale
 70
     0
300
1'-0" = 1'-0"
140
12.0
141
12.0
290
     0
  0
XRECORD
  5
3AF
102
{ACAD_REACTORS
330
3AE
102
}
330
3AE
100
AcDbXrecord
280
     1
340
6C
  0
XRECORD
  5
3B0
102
{ACAD_REACTORS
330
3AE
102
}
330
3AE
100
AcDbXrecord
280
     1
340
6B
  0
DICTIONARYVAR
  5
98
102
{ACAD_REACTORS
330
59
102
}
330
59
100
DictionaryVariables
280
     0
  1
Standard
  0
DICTIONARYVAR
  5
5A
102
{ACAD_REACTORS
330
59
102
}
330
59
100
DictionaryVariables
280
     0
  1
2
  0
DICTIONARYVAR
  5
5E
102
{ACAD_REACTORS
330
59
102
}
330
59
100
DictionaryVariables
280
     0
  1
1
  0
ENDSEC
  0
EOF
