  0
SECTION
  2
HEADER
  9
$ACADVER
  1
AC1018
  9
$ACADMAINTVER
 70
     0
  9
$DWGCODEPAGE
  3
ANSI_1252
  9
$LASTSAVEDBY
  1
BelottiMc
  9
$INSBASE
 10
0.0
 20
0.0
 30
0.0
  9
$EXTMIN
 10
20.60823377018821
 20
360.123047
 30
0.0
  9
$EXTMAX
 10
662.3195594296757
 20
544.5189222043692
 30
0.0
  9
$LIMMIN
 10
0.0
 20
0.0
  9
$LIMMAX
 10
420.0
 20
297.0
  9
$ORTHOMODE
 70
     0
  9
$REGENMODE
 70
     1
  9
$FILLMODE
 70
     1
  9
$QTEXTMODE
 70
     0
  9
$MIRRTEXT
 70
     1
  9
$LTSCALE
 40
1.0
  9
$ATTMODE
 70
     1
  9
$TEXTSIZE
 40
2.5
  9
$TRACEWID
 40
1.0
  9
$TEXTSTYLE
  7
Standard
  9
$CLAYER
  8
0
  9
$CELTYPE
  6
ByLayer
  9
$CECOLOR
 62
   256
  9
$CELTSCALE
 40
1.0
  9
$DISPSILH
 70
     0
  9
$DIMSCALE
 40
1.0
  9
$DIMASZ
 40
2.5
  9
$DIMEXO
 40
0.625
  9
$DIMDLI
 40
3.75
  9
$DIMRND
 40
0.0
  9
$DIMDLE
 40
0.0
  9
$DIMEXE
 40
1.25
  9
$DIMTP
 40
0.0
  9
$DIMTM
 40
0.0
  9
$DIMTXT
 40
2.5
  9
$DIMCEN
 40
2.5
  9
$DIMTSZ
 40
0.0
  9
$DIMTOL
 70
     0
  9
$DIMLIM
 70
     0
  9
$DIMTIH
 70
     0
  9
$DIMTOH
 70
     0
  9
$DIMSE1
 70
     0
  9
$DIMSE2
 70
     0
  9
$DIMTAD
 70
     1
  9
$DIMZIN
 70
     8
  9
$DIMBLK
  1

  9
$DIMASO
 70
     1
  9
$DIMSHO
 70
     1
  9
$DIMPOST
  1

  9
$DIMAPOST
  1

  9
$DIMALT
 70
     0
  9
$DIMALTD
 70
     3
  9
$DIMALTF
 40
0.03937
  9
$DIMLFAC
 40
1.0
  9
$DIMTOFL
 70
     1
  9
$DIMTVP
 40
0.0
  9
$DIMTIX
 70
     0
  9
$DIMSOXD
 70
     0
  9
$DIMSAH
 70
     0
  9
$DIMBLK1
  1

  9
$DIMBLK2
  1

  9
$DIMSTYLE
  2
Standard
  9
$DIMCLRD
 70
     0
  9
$DIMCLRE
 70
     0
  9
$DIMCLRT
 70
     0
  9
$DIMTFAC
 40
1.0
  9
$DIMGAP
 40
0.625
  9
$DIMJUST
 70
     0
  9
$DIMSD1
 70
     0
  9
$DIMSD2
 70
     0
  9
$DIMTOLJ
 70
     0
  9
$DIMTZIN
 70
     8
  9
$DIMALTZ
 70
     0
  9
$DIMALTTZ
 70
     0
  9
$DIMUPT
 70
     0
  9
$DIMDEC
 70
     2
  9
$DIMTDEC
 70
     2
  9
$DIMALTU
 70
     2
  9
$DIMALTTD
 70
     3
  9
$DIMTXSTY
  7
Standard
  9
$DIMAUNIT
 70
     0
  9
$DIMADEC
 70
     0
  9
$DIMALTRND
 40
0.0
  9
$DIMAZIN
 70
     0
  9
$DIMDSEP
 70
    44
  9
$DIMATFIT
 70
     0
  9
$DIMFRAC
 70
     0
  9
$DIMLDRBLK
  1

  9
$DIMLUNIT
 70
     2
  9
$DIMLWD
 70
    -2
  9
$DIMLWE
 70
    -2
  9
$DIMTMOVE
 70
     0
  9
$LUNITS
 70
     2
  9
$LUPREC
 70
     4
  9
$SKETCHINC
 40
1.0
  9
$FILLETRAD
 40
2.5
  9
$AUNITS
 70
     0
  9
$AUPREC
 70
     0
  9
$MENU
  1
.
  9
$ELEVATION
 40
0.0
  9
$PELEVATION
 40
0.0
  9
$THICKNESS
 40
0.0
  9
$LIMCHECK
 70
     0
  9
$CHAMFERA
 40
2.5
  9
$CHAMFERB
 40
2.5
  9
$CHAMFERC
 40
0.0
  9
$CHAMFERD
 40
0.0
  9
$SKPOLY
 70
     0
  9
$TDCREATE
 40
2447893.08333331
  9
$TDUCREATE
 40
2447892.999999977
  9
$TDUPDATE
 40
2456492.443890232
  9
$TDUUPDATE
 40
2456492.360556898
  9
$TDINDWG
 40
0.0197916204
  9
$TDUSRTIMER
 40
0.0197916204
  9
$USRTIMER
 70
     1
  9
$ANGBASE
 50
0.0
  9
$ANGDIR
 70
     0
  9
$PDMODE
 70
     0
  9
$PDSIZE
 40
0.0
  9
$PLINEWID
 40
0.0
  9
$SPLFRAME
 70
     0
  9
$SPLINETYPE
 70
     6
  9
$SPLINESEGS
 70
     8
  9
$HANDSEED
  5
B83
  9
$SURFTAB1
 70
     6
  9
$SURFTAB2
 70
     6
  9
$SURFTYPE
 70
     6
  9
$SURFU
 70
     6
  9
$SURFV
 70
     6
  9
$UCSBASE
  2

  9
$UCSNAME
  2

  9
$UCSORG
 10
0.0
 20
0.0
 30
0.0
  9
$UCSXDIR
 10
1.0
 20
0.0
 30
0.0
  9
$UCSYDIR
 10
0.0
 20
1.0
 30
0.0
  9
$UCSORTHOREF
  2

  9
$UCSORTHOVIEW
 70
     0
  9
$UCSORGTOP
 10
0.0
 20
0.0
 30
0.0
  9
$UCSORGBOTTOM
 10
0.0
 20
0.0
 30
0.0
  9
$UCSORGLEFT
 10
0.0
 20
0.0
 30
0.0
  9
$UCSORGRIGHT
 10
0.0
 20
0.0
 30
0.0
  9
$UCSORGFRONT
 10
0.0
 20
0.0
 30
0.0
  9
$UCSORGBACK
 10
0.0
 20
0.0
 30
0.0
  9
$PUCSBASE
  2

  9
$PUCSNAME
  2

  9
$PUCSORG
 10
0.0
 20
0.0
 30
0.0
  9
$PUCSXDIR
 10
1.0
 20
0.0
 30
0.0
  9
$PUCSYDIR
 10
0.0
 20
1.0
 30
0.0
  9
$PUCSORTHOREF
  2

  9
$PUCSORTHOVIEW
 70
     0
  9
$PUCSORGTOP
 10
0.0
 20
0.0
 30
0.0
  9
$PUCSORGBOTTOM
 10
0.0
 20
0.0
 30
0.0
  9
$PUCSORGLEFT
 10
0.0
 20
0.0
 30
0.0
  9
$PUCSORGRIGHT
 10
0.0
 20
0.0
 30
0.0
  9
$PUCSORGFRONT
 10
0.0
 20
0.0
 30
0.0
  9
$PUCSORGBACK
 10
0.0
 20
0.0
 30
0.0
  9
$USERI1
 70
     0
  9
$USERI2
 70
     0
  9
$USERI3
 70
     0
  9
$USERI4
 70
     0
  9
$USERI5
 70
     0
  9
$USERR1
 40
0.0
  9
$USERR2
 40
0.0
  9
$USERR3
 40
0.0
  9
$USERR4
 40
0.0
  9
$USERR5
 40
0.0
  9
$WORLDVIEW
 70
     1
  9
$SHADEDGE
 70
     3
  9
$SHADEDIF
 70
    70
  9
$TILEMODE
 70
     1
  9
$MAXACTVP
 70
    48
  9
$PINSBASE
 10
0.0
 20
0.0
 30
0.0
  9
$PLIMCHECK
 70
     0
  9
$PEXTMIN
 10
0.0
 20
0.0
 30
0.0
  9
$PEXTMAX
 10
841.0
 20
594.0
 30
2.0
  9
$PLIMMIN
 10
0.0
 20
0.0
  9
$PLIMMAX
 10
420.0
 20
297.0
  9
$UNITMODE
 70
     0
  9
$VISRETAIN
 70
     0
  9
$PLINEGEN
 70
     0
  9
$PSLTSCALE
 70
     1
  9
$TREEDEPTH
 70
  3020
  9
$CMLSTYLE
  2
Standard
  9
$CMLJUST
 70
     0
  9
$CMLSCALE
 40
20.0
  9
$PROXYGRAPHICS
 70
     1
  9
$MEASUREMENT
 70
     1
  9
$CELWEIGHT
370
    -1
  9
$ENDCAPS
280
     0
  9
$JOINSTYLE
280
     0
  9
$LWDISPLAY
290
     0
  9
$INSUNITS
 70
     0
  9
$HYPERLINKBASE
  1

  9
$STYLESHEET
  1

  9
$XEDIT
290
     1
  9
$CEPSNTYPE
380
     0
  9
$PSTYLEMODE
290
     0
  9
$FINGERPRINTGUID
  2

  9
$VERSIONGUID
  2

  9
$EXTNAMES
290
     0
  9
$PSVPSCALE
 40
0.0
  9
$OLESTARTUP
290
     0
  9
$SORTENTS
280
   127
  9
$INDEXCTL
280
     0
  9
$HIDETEXT
280
     1
  9
$XCLIPFRAME
290
     0
  9
$HALOGAP
280
     0
  9
$OBSCOLOR
 70
   257
  9
$OBSLTYPE
280
     0
  9
$INTERSECTIONDISPLAY
280
     0
  9
$INTERSECTIONCOLOR
 70
   257
  9
$DIMASSOC
280
     2
  9
$PROJECTNAME
  1

  0
ENDSEC
  0
SECTION
  2
CLASSES
  0
CLASS
  1
ACDBDICTIONARYWDFLT
  2
AcDbDictionaryWithDefault
  3
ObjectDBX Classes
 90
        0
 91
        4
280
     0
281
     0
  0
CLASS
  1
ACDBPLACEHOLDER
  2
AcDbPlaceHolder
  3
ObjectDBX Classes
 90
        0
 91
        1
280
     0
281
     0
  0
CLASS
  1
LAYOUT
  2
AcDbLayout
  3
ObjectDBX Classes
 90
        0
 91
        1
280
     0
281
     0
  0
CLASS
  1
DICTIONARYVAR
  2
AcDbDictionaryVar
  3
ObjectDBX Classes
 90
        0
 91
        4
280
     0
281
     0
  0
CLASS
  1
TABLESTYLE
  2
AcDbTableStyle
  3
ObjectDBX Classes
 90
     4095
 91
        5
280
     0
281
     0
  0
CLASS
  1
SCALE
  2
AcDbScale
  3
ObjectDBX Classes
 90
     1153
 91
       70
280
     0
281
     0
  0
CLASS
  1
WIPEOUTVARIABLES
  2
AcDbWipeoutVariables
  3
WipeOut|AutoCAD Express Tool|expresstools@autodesk.com
 90
        0
 91
        4
280
     0
281
     0
  0
ENDSEC
  0
SECTION
  2
TABLES
  0
TABLE
  2
VPORT
  5
8
330
0
100
AcDbSymbolTable
 70
     2
  0
VPORT
  5
97
330
8
100
AcDbSymbolTableRecord
100
AcDbViewportTableRecord
  2
*ACTIVE
 70
     0
 10
0.0
 20
0.0
 11
1.0
 21
1.0
 12
130.9313321364822
 22
446.5905649854245
 13
0.0
 23
0.0
 14
1.0
 24
1.0
 15
0.5
 25
0.5
 16
0.0
 26
0.0
 36
1.0
 17
0.0
 27
0.0
 37
0.0
 40
1537.591617723447
 41
0.688564
 42
50.0
 43
0.0
 44
0.0
 50
0.0
 51
0.0
 71
     0
 72
   100
 73
     1
 74
     1
 75
     0
 76
     0
 77
     0
 78
     0
281
     0
 65
     1
110
0.0
120
0.0
130
0.0
111
1.0
121
0.0
131
0.0
112
0.0
122
1.0
132
0.0
 79
     0
146
0.0
  0
ENDTAB
  0
TABLE
  2
LTYPE
  5
5
330
0
100
AcDbSymbolTable
 70
     2
  0
LTYPE
  5
14
330
5
100
AcDbSymbolTableRecord
100
AcDbLinetypeTableRecord
  2
ByBlock
 70
     0
  3

 72
    65
 73
     0
 40
0.0
  0
LTYPE
  5
15
330
5
100
AcDbSymbolTableRecord
100
AcDbLinetypeTableRecord
  2
ByLayer
 70
     0
  3

 72
    65
 73
     0
 40
0.0
  0
LTYPE
  5
16
330
5
100
AcDbSymbolTableRecord
100
AcDbLinetypeTableRecord
  2
Continuous
 70
     0
  3
Solid line
 72
    65
 73
     0
 40
0.0
  0
LTYPE
  5
A73
330
5
100
AcDbSymbolTableRecord
100
AcDbLinetypeTableRecord
  2
DASHDOT
 70
     0
  3
 __ . __ . __ . __ . __ . __ . __ . 
 72
    65
 73
     4
 40
18.5
 49
12.0
 74
     0
 49
-3.0
 74
     0
 49
0.5
 74
     0
 49
-3.0
 74
     0
  0
ENDTAB
  0
TABLE
  2
LAYER
  5
2
330
0
100
AcDbSymbolTable
 70
     2
  0
LAYER
  5
10
330
2
100
AcDbSymbolTableRecord
100
AcDbLayerTableRecord
  2
0
 70
     0
 62
     7
  6
Continuous
370
    13
390
F
  0
LAYER
  5
6C5
330
2
100
AcDbSymbolTableRecord
100
AcDbLayerTableRecord
  2
DEFPOINTS
 70
     0
 62
     7
  6
Continuous
290
     0
370
    -3
390
F
  0
ENDTAB
  0
TABLE
  2
STYLE
  5
3
330
0
100
AcDbSymbolTable
 70
     2
  0
STYLE
  5
11
330
3
100
AcDbSymbolTableRecord
100
AcDbTextStyleTableRecord
  2
Standard
 70
     0
 40
0.0
 41
1.0
 50
0.0
 71
     0
 42
0.2
  3
isocp.shx
  4

  0
STYLE
  5
25
330
3
100
AcDbSymbolTableRecord
100
AcDbTextStyleTableRecord
  2
GDT
 70
     0
 40
0.0
 41
1.0
 50
0.0
 71
     0
 42
0.2
  3
gdt.shx
  4

  0
ENDTAB
  0
TABLE
  2
VIEW
  5
6
330
0
100
AcDbSymbolTable
 70
     0
  0
ENDTAB
  0
TABLE
  2
UCS
  5
7
330
0
100
AcDbSymbolTable
 70
     0
  0
ENDTAB
  0
TABLE
  2
APPID
  5
9
330
0
100
AcDbSymbolTable
 70
     2
  0
APPID
  5
12
330
9
100
AcDbSymbolTableRecord
100
AcDbRegAppTableRecord
  2
ACAD
 70
     0
  0
APPID
  5
A72
330
9
100
AcDbSymbolTableRecord
100
AcDbRegAppTableRecord
  2
Conv5506CA
 70
     0
  0
ENDTAB
  0
TABLE
  2
DIMSTYLE
  5
A
330
0
100
AcDbSymbolTable
 70
     1
100
AcDbDimStyleTable
  0
DIMSTYLE
105
27
102
{ACAD_REACTORS
330
768
330
7A0
330
A21
102
}
330
A
100
AcDbSymbolTableRecord
100
AcDbDimStyleTableRecord
  2
Standard
 70
     0
 41
2.5
 42
0.625
 43
3.75
 44
1.25
 73
     0
 74
     0
 77
     1
 78
     8
140
2.5
141
2.5
143
0.03937
147
0.625
171
     3
172
     1
271
     2
272
     2
274
     3
278
    44
283
     0
284
     8
289
     0
340
11
  0
ENDTAB
  0
TABLE
  2
BLOCK_RECORD
  5
1
330
0
100
AcDbSymbolTable
 70
   134
  0
BLOCK_RECORD
  5
1F
330
1
100
AcDbSymbolTableRecord
100
AcDbBlockTableRecord
  2
*Model_Space
340
22
  0
BLOCK_RECORD
  5
73
330
1
100
AcDbSymbolTableRecord
100
AcDbBlockTableRecord
  2
*Paper_Space
340
74
  0
BLOCK_RECORD
  5
79
330
1
100
AcDbSymbolTableRecord
100
AcDbBlockTableRecord
  2
BLOCK350
340
0
  0
BLOCK_RECORD
  5
7A
330
1
100
AcDbSymbolTableRecord
100
AcDbBlockTableRecord
  2
BLOCK351
340
0
  0
BLOCK_RECORD
  5
7B
330
1
100
AcDbSymbolTableRecord
100
AcDbBlockTableRecord
  2
BLOCK352
340
0
  0
BLOCK_RECORD
  5
7C
330
1
100
AcDbSymbolTableRecord
100
AcDbBlockTableRecord
  2
BLOCK353
340
0
  0
BLOCK_RECORD
  5
7D
330
1
100
AcDbSymbolTableRecord
100
AcDbBlockTableRecord
  2
BLOCK354
340
0
  0
BLOCK_RECORD
  5
7E
330
1
100
AcDbSymbolTableRecord
100
AcDbBlockTableRecord
  2
BLOCK355
340
0
  0
BLOCK_RECORD
  5
7F
330
1
100
AcDbSymbolTableRecord
100
AcDbBlockTableRecord
  2
BLOCK356
340
0
  0
BLOCK_RECORD
  5
80
330
1
100
AcDbSymbolTableRecord
100
AcDbBlockTableRecord
  2
BLOCK357
340
0
  0
BLOCK_RECORD
  5
81
330
1
100
AcDbSymbolTableRecord
100
AcDbBlockTableRecord
  2
BLOCK358
340
0
  0
BLOCK_RECORD
  5
82
330
1
100
AcDbSymbolTableRecord
100
AcDbBlockTableRecord
  2
BLOCK359
340
0
  0
BLOCK_RECORD
  5
83
330
1
100
AcDbSymbolTableRecord
100
AcDbBlockTableRecord
  2
BLOCK360
340
0
  0
BLOCK_RECORD
  5
84
330
1
100
AcDbSymbolTableRecord
100
AcDbBlockTableRecord
  2
BLOCK361
340
0
  0
BLOCK_RECORD
  5
85
330
1
100
AcDbSymbolTableRecord
100
AcDbBlockTableRecord
  2
BLOCK362
340
0
  0
BLOCK_RECORD
  5
86
330
1
100
AcDbSymbolTableRecord
100
AcDbBlockTableRecord
  2
BLOCK363
340
0
  0
BLOCK_RECORD
  5
87
330
1
100
AcDbSymbolTableRecord
100
AcDbBlockTableRecord
  2
BLOCK364
340
0
  0
BLOCK_RECORD
  5
88
330
1
100
AcDbSymbolTableRecord
100
AcDbBlockTableRecord
  2
BLOCK365
340
0
  0
BLOCK_RECORD
  5
89
330
1
100
AcDbSymbolTableRecord
100
AcDbBlockTableRecord
  2
BLOCK366
340
0
  0
BLOCK_RECORD
  5
8A
330
1
100
AcDbSymbolTableRecord
100
AcDbBlockTableRecord
  2
BLOCK367
340
0
  0
BLOCK_RECORD
  5
8B
330
1
100
AcDbSymbolTableRecord
100
AcDbBlockTableRecord
  2
BLOCK368
340
0
  0
BLOCK_RECORD
  5
8C
330
1
100
AcDbSymbolTableRecord
100
AcDbBlockTableRecord
  2
BLOCK369
340
0
  0
BLOCK_RECORD
  5
8D
330
1
100
AcDbSymbolTableRecord
100
AcDbBlockTableRecord
  2
BLOCK370
340
0
  0
BLOCK_RECORD
  5
8E
330
1
100
AcDbSymbolTableRecord
100
AcDbBlockTableRecord
  2
BLOCK371
340
0
  0
BLOCK_RECORD
  5
8F
330
1
100
AcDbSymbolTableRecord
100
AcDbBlockTableRecord
  2
BLOCK372
340
0
  0
BLOCK_RECORD
  5
90
330
1
100
AcDbSymbolTableRecord
100
AcDbBlockTableRecord
  2
BLOCK373
340
0
  0
BLOCK_RECORD
  5
91
330
1
100
AcDbSymbolTableRecord
100
AcDbBlockTableRecord
  2
BLOCK374
340
0
  0
BLOCK_RECORD
  5
7F8
330
1
100
AcDbSymbolTableRecord
100
AcDbBlockTableRecord
  2
BLOCK375
340
0
  0
BLOCK_RECORD
  5
7FB
330
1
100
AcDbSymbolTableRecord
100
AcDbBlockTableRecord
  2
BLOCK376
340
0
  0
BLOCK_RECORD
  5
94
330
1
100
AcDbSymbolTableRecord
100
AcDbBlockTableRecord
  2
BLOCK377
340
0
  0
BLOCK_RECORD
  5
95
330
1
100
AcDbSymbolTableRecord
100
AcDbBlockTableRecord
  2
BLOCK378
340
0
  0
BLOCK_RECORD
  5
96
330
1
100
AcDbSymbolTableRecord
100
AcDbBlockTableRecord
  2
BLOCK379
340
0
  0
BLOCK_RECORD
  5
804
330
1
100
AcDbSymbolTableRecord
100
AcDbBlockTableRecord
  2
BLOCK380
340
0
  0
BLOCK_RECORD
  5
807
330
1
100
AcDbSymbolTableRecord
100
AcDbBlockTableRecord
  2
BLOCK381
340
0
  0
BLOCK_RECORD
  5
80A
330
1
100
AcDbSymbolTableRecord
100
AcDbBlockTableRecord
  2
BLOCK382
340
0
  0
BLOCK_RECORD
  5
80D
330
1
100
AcDbSymbolTableRecord
100
AcDbBlockTableRecord
  2
BLOCK383
340
0
  0
BLOCK_RECORD
  5
810
330
1
100
AcDbSymbolTableRecord
100
AcDbBlockTableRecord
  2
BLOCK384
340
0
  0
BLOCK_RECORD
  5
813
330
1
100
AcDbSymbolTableRecord
100
AcDbBlockTableRecord
  2
BLOCK385
340
0
  0
BLOCK_RECORD
  5
816
330
1
100
AcDbSymbolTableRecord
100
AcDbBlockTableRecord
  2
BLOCK386
340
0
  0
BLOCK_RECORD
  5
819
330
1
100
AcDbSymbolTableRecord
100
AcDbBlockTableRecord
  2
BLOCK387
340
0
  0
BLOCK_RECORD
  5
81C
330
1
100
AcDbSymbolTableRecord
100
AcDbBlockTableRecord
  2
BLOCK388
340
0
  0
BLOCK_RECORD
  5
81F
330
1
100
AcDbSymbolTableRecord
100
AcDbBlockTableRecord
  2
BLOCK389
340
0
  0
BLOCK_RECORD
  5
822
330
1
100
AcDbSymbolTableRecord
100
AcDbBlockTableRecord
  2
BLOCK390
340
0
  0
BLOCK_RECORD
  5
825
330
1
100
AcDbSymbolTableRecord
100
AcDbBlockTableRecord
  2
BLOCK391
340
0
  0
BLOCK_RECORD
  5
828
330
1
100
AcDbSymbolTableRecord
100
AcDbBlockTableRecord
  2
BLOCK392
340
0
  0
BLOCK_RECORD
  5
82B
330
1
100
AcDbSymbolTableRecord
100
AcDbBlockTableRecord
  2
BLOCK393
340
0
  0
BLOCK_RECORD
  5
82E
330
1
100
AcDbSymbolTableRecord
100
AcDbBlockTableRecord
  2
BLOCK394
340
0
  0
BLOCK_RECORD
  5
831
330
1
100
AcDbSymbolTableRecord
100
AcDbBlockTableRecord
  2
BLOCK395
340
0
  0
BLOCK_RECORD
  5
834
330
1
100
AcDbSymbolTableRecord
100
AcDbBlockTableRecord
  2
BLOCK396
340
0
  0
BLOCK_RECORD
  5
837
330
1
100
AcDbSymbolTableRecord
100
AcDbBlockTableRecord
  2
BLOCK397
340
0
  0
BLOCK_RECORD
  5
83A
330
1
100
AcDbSymbolTableRecord
100
AcDbBlockTableRecord
  2
BLOCK398
340
0
  0
BLOCK_RECORD
  5
83D
330
1
100
AcDbSymbolTableRecord
100
AcDbBlockTableRecord
  2
BLOCK399
340
0
  0
BLOCK_RECORD
  5
840
330
1
100
AcDbSymbolTableRecord
100
AcDbBlockTableRecord
  2
BLOCK400
340
0
  0
BLOCK_RECORD
  5
843
330
1
100
AcDbSymbolTableRecord
100
AcDbBlockTableRecord
  2
BLOCK401
340
0
  0
BLOCK_RECORD
  5
846
330
1
100
AcDbSymbolTableRecord
100
AcDbBlockTableRecord
  2
BLOCK402
340
0
  0
BLOCK_RECORD
  5
849
330
1
100
AcDbSymbolTableRecord
100
AcDbBlockTableRecord
  2
BLOCK403
340
0
  0
BLOCK_RECORD
  5
84C
330
1
100
AcDbSymbolTableRecord
100
AcDbBlockTableRecord
  2
BLOCK404
340
0
  0
BLOCK_RECORD
  5
84F
330
1
100
AcDbSymbolTableRecord
100
AcDbBlockTableRecord
  2
BLOCK405
340
0
  0
BLOCK_RECORD
  5
852
330
1
100
AcDbSymbolTableRecord
100
AcDbBlockTableRecord
  2
BLOCK406
340
0
  0
BLOCK_RECORD
  5
855
330
1
100
AcDbSymbolTableRecord
100
AcDbBlockTableRecord
  2
BLOCK407
340
0
  0
BLOCK_RECORD
  5
858
330
1
100
AcDbSymbolTableRecord
100
AcDbBlockTableRecord
  2
BLOCK408
340
0
  0
BLOCK_RECORD
  5
85B
330
1
100
AcDbSymbolTableRecord
100
AcDbBlockTableRecord
  2
BLOCK409
340
0
  0
BLOCK_RECORD
  5
85E
330
1
100
AcDbSymbolTableRecord
100
AcDbBlockTableRecord
  2
BLOCK410
340
0
  0
BLOCK_RECORD
  5
861
330
1
100
AcDbSymbolTableRecord
100
AcDbBlockTableRecord
  2
BLOCK411
340
0
  0
BLOCK_RECORD
  5
864
330
1
100
AcDbSymbolTableRecord
100
AcDbBlockTableRecord
  2
BLOCK412
340
0
  0
BLOCK_RECORD
  5
867
330
1
100
AcDbSymbolTableRecord
100
AcDbBlockTableRecord
  2
BLOCK413
340
0
  0
BLOCK_RECORD
  5
86A
330
1
100
AcDbSymbolTableRecord
100
AcDbBlockTableRecord
  2
BLOCK414
340
0
  0
BLOCK_RECORD
  5
86D
330
1
100
AcDbSymbolTableRecord
100
AcDbBlockTableRecord
  2
BLOCK415
340
0
  0
BLOCK_RECORD
  5
BB
330
1
100
AcDbSymbolTableRecord
100
AcDbBlockTableRecord
  2
BLOCK416
340
0
  0
BLOCK_RECORD
  5
BC
330
1
100
AcDbSymbolTableRecord
100
AcDbBlockTableRecord
  2
BLOCK417
340
0
  0
BLOCK_RECORD
  5
BD
330
1
100
AcDbSymbolTableRecord
100
AcDbBlockTableRecord
  2
BLOCK418
340
0
  0
BLOCK_RECORD
  5
BE
330
1
100
AcDbSymbolTableRecord
100
AcDbBlockTableRecord
  2
BLOCK419
340
0
  0
BLOCK_RECORD
  5
BF
330
1
100
AcDbSymbolTableRecord
100
AcDbBlockTableRecord
  2
BLOCK420
340
0
  0
BLOCK_RECORD
  5
C0
330
1
100
AcDbSymbolTableRecord
100
AcDbBlockTableRecord
  2
BLOCK421
340
0
  0
BLOCK_RECORD
  5
C1
330
1
100
AcDbSymbolTableRecord
100
AcDbBlockTableRecord
  2
BLOCK422
340
0
  0
BLOCK_RECORD
  5
C2
330
1
100
AcDbSymbolTableRecord
100
AcDbBlockTableRecord
  2
BLOCK423
340
0
  0
BLOCK_RECORD
  5
C3
330
1
100
AcDbSymbolTableRecord
100
AcDbBlockTableRecord
  2
BLOCK424
340
0
  0
BLOCK_RECORD
  5
C4
330
1
100
AcDbSymbolTableRecord
100
AcDbBlockTableRecord
  2
BLOCK425
340
0
  0
BLOCK_RECORD
  5
C5
330
1
100
AcDbSymbolTableRecord
100
AcDbBlockTableRecord
  2
BLOCK426
340
0
  0
BLOCK_RECORD
  5
C6
330
1
100
AcDbSymbolTableRecord
100
AcDbBlockTableRecord
  2
BLOCK427
340
0
  0
BLOCK_RECORD
  5
C7
330
1
100
AcDbSymbolTableRecord
100
AcDbBlockTableRecord
  2
BLOCK428
340
0
  0
BLOCK_RECORD
  5
C8
330
1
100
AcDbSymbolTableRecord
100
AcDbBlockTableRecord
  2
BLOCK429
340
0
  0
BLOCK_RECORD
  5
C9
330
1
100
AcDbSymbolTableRecord
100
AcDbBlockTableRecord
  2
BLOCK430
340
0
  0
BLOCK_RECORD
  5
CA
330
1
100
AcDbSymbolTableRecord
100
AcDbBlockTableRecord
  2
BLOCK431
340
0
  0
BLOCK_RECORD
  5
CB
330
1
100
AcDbSymbolTableRecord
100
AcDbBlockTableRecord
  2
BLOCK432
340
0
  0
BLOCK_RECORD
  5
CC
330
1
100
AcDbSymbolTableRecord
100
AcDbBlockTableRecord
  2
BLOCK433
340
0
  0
BLOCK_RECORD
  5
CD
330
1
100
AcDbSymbolTableRecord
100
AcDbBlockTableRecord
  2
BLOCK434
340
0
  0
BLOCK_RECORD
  5
CE
330
1
100
AcDbSymbolTableRecord
100
AcDbBlockTableRecord
  2
BLOCK435
340
0
  0
BLOCK_RECORD
  5
CF
330
1
100
AcDbSymbolTableRecord
100
AcDbBlockTableRecord
  2
BLOCK436
340
0
  0
BLOCK_RECORD
  5
D0
330
1
100
AcDbSymbolTableRecord
100
AcDbBlockTableRecord
  2
BLOCK437
340
0
  0
BLOCK_RECORD
  5
D1
330
1
100
AcDbSymbolTableRecord
100
AcDbBlockTableRecord
  2
BLOCK438
340
0
  0
BLOCK_RECORD
  5
D2
330
1
100
AcDbSymbolTableRecord
100
AcDbBlockTableRecord
  2
BLOCK439
340
0
  0
BLOCK_RECORD
  5
D3
330
1
100
AcDbSymbolTableRecord
100
AcDbBlockTableRecord
  2
BLOCK440
340
0
  0
BLOCK_RECORD
  5
D4
330
1
100
AcDbSymbolTableRecord
100
AcDbBlockTableRecord
  2
BLOCK441
340
0
  0
BLOCK_RECORD
  5
D5
330
1
100
AcDbSymbolTableRecord
100
AcDbBlockTableRecord
  2
BLOCK442
340
0
  0
BLOCK_RECORD
  5
D6
330
1
100
AcDbSymbolTableRecord
100
AcDbBlockTableRecord
  2
BLOCK443
340
0
  0
BLOCK_RECORD
  5
D7
330
1
100
AcDbSymbolTableRecord
100
AcDbBlockTableRecord
  2
BLOCK444
340
0
  0
BLOCK_RECORD
  5
D8
330
1
100
AcDbSymbolTableRecord
100
AcDbBlockTableRecord
  2
BLOCK445
340
0
  0
BLOCK_RECORD
  5
D9
330
1
100
AcDbSymbolTableRecord
100
AcDbBlockTableRecord
  2
BLOCK446
340
0
  0
BLOCK_RECORD
  5
DA
330
1
100
AcDbSymbolTableRecord
100
AcDbBlockTableRecord
  2
BLOCK447
340
0
  0
BLOCK_RECORD
  5
DB
330
1
100
AcDbSymbolTableRecord
100
AcDbBlockTableRecord
  2
BLOCK448
340
0
  0
BLOCK_RECORD
  5
DC
330
1
100
AcDbSymbolTableRecord
100
AcDbBlockTableRecord
  2
BLOCK449
340
0
  0
BLOCK_RECORD
  5
DD
330
1
100
AcDbSymbolTableRecord
100
AcDbBlockTableRecord
  2
BLOCK450
340
0
  0
BLOCK_RECORD
  5
DE
330
1
100
AcDbSymbolTableRecord
100
AcDbBlockTableRecord
  2
BLOCK451
340
0
  0
BLOCK_RECORD
  5
DF
330
1
100
AcDbSymbolTableRecord
100
AcDbBlockTableRecord
  2
BLOCK452
340
0
  0
BLOCK_RECORD
  5
E0
330
1
100
AcDbSymbolTableRecord
100
AcDbBlockTableRecord
  2
BLOCK453
340
0
  0
BLOCK_RECORD
  5
E1
330
1
100
AcDbSymbolTableRecord
100
AcDbBlockTableRecord
  2
BLOCK454
340
0
  0
BLOCK_RECORD
  5
E2
330
1
100
AcDbSymbolTableRecord
100
AcDbBlockTableRecord
  2
BLOCK455
340
0
  0
BLOCK_RECORD
  5
E3
330
1
100
AcDbSymbolTableRecord
100
AcDbBlockTableRecord
  2
BLOCK456
340
0
  0
BLOCK_RECORD
  5
6D1
330
1
100
AcDbSymbolTableRecord
100
AcDbBlockTableRecord
  2
*D107
340
0
  0
BLOCK_RECORD
  5
6DC
330
1
100
AcDbSymbolTableRecord
100
AcDbBlockTableRecord
  2
*D108
340
0
  0
BLOCK_RECORD
  5
6E7
330
1
100
AcDbSymbolTableRecord
100
AcDbBlockTableRecord
  2
*D109
340
0
  0
BLOCK_RECORD
  5
6F2
330
1
100
AcDbSymbolTableRecord
100
AcDbBlockTableRecord
  2
*D110
340
0
  0
BLOCK_RECORD
  5
6FD
330
1
100
AcDbSymbolTableRecord
100
AcDbBlockTableRecord
  2
*D111
340
0
  0
BLOCK_RECORD
  5
708
330
1
100
AcDbSymbolTableRecord
100
AcDbBlockTableRecord
  2
*D112
340
0
  0
BLOCK_RECORD
  5
71B
330
1
100
AcDbSymbolTableRecord
100
AcDbBlockTableRecord
  2
*D113
340
0
  0
BLOCK_RECORD
  5
773
330
1
100
AcDbSymbolTableRecord
100
AcDbBlockTableRecord
  2
*D114
340
0
  0
BLOCK_RECORD
  5
77E
330
1
100
AcDbSymbolTableRecord
100
AcDbBlockTableRecord
  2
*D115
340
0
  0
BLOCK_RECORD
  5
789
330
1
100
AcDbSymbolTableRecord
100
AcDbBlockTableRecord
  2
*D116
340
0
  0
BLOCK_RECORD
  5
794
330
1
100
AcDbSymbolTableRecord
100
AcDbBlockTableRecord
  2
*D117
340
0
  0
BLOCK_RECORD
  5
79F
330
1
100
AcDbSymbolTableRecord
100
AcDbBlockTableRecord
  2
*D118
340
0
  0
BLOCK_RECORD
  5
7AB
330
1
100
AcDbSymbolTableRecord
100
AcDbBlockTableRecord
  2
*D119
340
0
  0
BLOCK_RECORD
  5
7B6
330
1
100
AcDbSymbolTableRecord
100
AcDbBlockTableRecord
  2
*D120
340
0
  0
BLOCK_RECORD
  5
7C1
330
1
100
AcDbSymbolTableRecord
100
AcDbBlockTableRecord
  2
*D121
340
0
  0
BLOCK_RECORD
  5
8F1
330
1
100
AcDbSymbolTableRecord
100
AcDbBlockTableRecord
  2
*D122
340
0
  0
BLOCK_RECORD
  5
8FC
330
1
100
AcDbSymbolTableRecord
100
AcDbBlockTableRecord
  2
*D123
340
0
  0
BLOCK_RECORD
  5
A09
330
1
100
AcDbSymbolTableRecord
100
AcDbBlockTableRecord
  2
*D124
340
0
  0
BLOCK_RECORD
  5
A14
330
1
100
AcDbSymbolTableRecord
100
AcDbBlockTableRecord
  2
*D125
340
0
  0
BLOCK_RECORD
  5
A20
330
1
100
AcDbSymbolTableRecord
100
AcDbBlockTableRecord
  2
*D126
340
0
  0
BLOCK_RECORD
  5
A2C
330
1
100
AcDbSymbolTableRecord
100
AcDbBlockTableRecord
  2
*D127
340
0
  0
BLOCK_RECORD
  5
A38
330
1
100
AcDbSymbolTableRecord
100
AcDbBlockTableRecord
  2
*D128
340
0
  0
BLOCK_RECORD
  5
A43
330
1
100
AcDbSymbolTableRecord
100
AcDbBlockTableRecord
  2
*D129
340
0
  0
BLOCK_RECORD
  5
A4E
330
1
100
AcDbSymbolTableRecord
100
AcDbBlockTableRecord
  2
*D130
340
0
  0
BLOCK_RECORD
  5
A59
330
1
100
AcDbSymbolTableRecord
100
AcDbBlockTableRecord
  2
*D131
340
0
  0
BLOCK_RECORD
  5
A64
330
1
100
AcDbSymbolTableRecord
100
AcDbBlockTableRecord
  2
*D132
340
0
  0
BLOCK_RECORD
  5
A70
330
1
100
AcDbSymbolTableRecord
100
AcDbBlockTableRecord
  2
*D133
340
0
  0
ENDTAB
  0
ENDSEC
  0
SECTION
  2
BLOCKS
  0
BLOCK
  5
20
330
1F
100
AcDbEntity
  8
0
100
AcDbBlockBegin
  2
*Model_Space
 70
     0
 10
0.0
 20
0.0
 30
0.0
  3
*Model_Space
  1

  0
ENDBLK
  5
21
330
1F
100
AcDbEntity
  8
0
100
AcDbBlockEnd
  0
BLOCK
  5
75
330
73
100
AcDbEntity
 67
     1
  8
0
100
AcDbBlockBegin
  2
*Paper_Space
 70
     0
 10
0.0
 20
0.0
 30
0.0
  3
*Paper_Space
  1

  0
ENDBLK
  5
76
330
73
100
AcDbEntity
 67
     1
  8
0
100
AcDbBlockEnd
  0
BLOCK
  5
A75
102
{ACAD_REACTORS
330
768
330
7A0
102
}
330
79
100
AcDbEntity
  8
0
100
AcDbBlockBegin
  2
BLOCK350
 70
     0
 10
0.0
 20
0.0
 30
0.0
  3
BLOCK350
  1

  0
TEXT
  5
E5
330
79
100
AcDbEntity
  8
0
 62
     7
370
    13
390
F
100
AcDbText
 10
832.632568
 20
547.0
 30
0.0
 40
2.0
  1
A
 41
1.156576000000011
 72
     5
 11
834.367432
 21
547.0
 31
0.0
100
AcDbText
  0
ENDBLK
  5
A76
330
79
100
AcDbEntity
  8
0
100
AcDbBlockEnd
  0
BLOCK
  5
A77
330
7A
100
AcDbEntity
  8
0
100
AcDbBlockBegin
  2
BLOCK351
 70
     0
 10
0.0
 20
0.0
 30
0.0
  3
BLOCK351
  1

  0
TEXT
  5
E8
330
7A
100
AcDbEntity
  8
0
 62
     7
370
    13
390
F
100
AcDbText
 10
52.457352
 20
585.5
 30
0.0
 40
2.0
  1
1
 41
2.47838714285714
 72
     5
 11
54.192223
 21
585.5
 31
0.0
100
AcDbText
  0
ENDBLK
  5
A78
330
7A
100
AcDbEntity
  8
0
100
AcDbBlockEnd
  0
BLOCK
  5
A79
330
7B
100
AcDbEntity
  8
0
100
AcDbBlockBegin
  2
BLOCK352
 70
     0
 10
0.0
 20
0.0
 30
0.0
  3
BLOCK352
  1

  0
TEXT
  5
EB
330
7B
100
AcDbEntity
  8
0
 62
     7
370
    13
390
F
100
AcDbText
 10
120.040688
 20
585.5
 30
0.0
 40
2.0
  1
2
 41
1.576520716593502
 72
     5
 11
121.775558
 21
585.5
 31
0.0
100
AcDbText
  0
ENDBLK
  5
A7A
330
7B
100
AcDbEntity
  8
0
100
AcDbBlockEnd
  0
BLOCK
  5
A7B
330
7C
100
AcDbEntity
  8
0
100
AcDbBlockBegin
  2
BLOCK353
 70
     0
 10
0.0
 20
0.0
 30
0.0
  3
BLOCK353
  1

  0
TEXT
  5
EE
330
7C
100
AcDbEntity
  8
0
 62
     7
370
    13
390
F
100
AcDbText
 10
187.624023
 20
585.5
 30
0.0
 40
2.0
  1
3
 41
1.577149090909105
 72
     5
 11
189.358887
 21
585.5
 31
0.0
100
AcDbText
  0
ENDBLK
  5
A7C
330
7C
100
AcDbEntity
  8
0
100
AcDbBlockEnd
  0
BLOCK
  5
A7D
330
7D
100
AcDbEntity
  8
0
100
AcDbBlockBegin
  2
BLOCK354
 70
     0
 10
0.0
 20
0.0
 30
0.0
  3
BLOCK354
  1

  0
TEXT
  5
F1
330
7D
100
AcDbEntity
  8
0
 62
     7
370
    13
390
F
100
AcDbText
 10
255.207367
 20
585.5
 30
0.0
 40
2.0
  1
4
 41
1.334509999999993
 72
     5
 11
256.94223
 21
585.5
 31
0.0
100
AcDbText
  0
ENDBLK
  5
A7E
330
7D
100
AcDbEntity
  8
0
100
AcDbBlockEnd
  0
BLOCK
  5
A7F
330
7E
100
AcDbEntity
  8
0
100
AcDbBlockBegin
  2
BLOCK355
 70
     0
 10
0.0
 20
0.0
 30
0.0
  3
BLOCK355
  1

  0
TEXT
  5
F4
330
7E
100
AcDbEntity
  8
0
 62
     7
370
    13
390
F
100
AcDbText
 10
322.79068
 20
585.5
 30
0.0
 40
2.0
  1
5
 41
1.577148181818198
 72
     5
 11
324.525543
 21
585.5
 31
0.0
100
AcDbText
  0
ENDBLK
  5
A80
330
7E
100
AcDbEntity
  8
0
100
AcDbBlockEnd
  0
BLOCK
  5
A81
330
7F
100
AcDbEntity
  8
0
100
AcDbBlockBegin
  2
BLOCK356
 70
     0
 10
0.0
 20
0.0
 30
0.0
  3
BLOCK356
  1

  0
TEXT
  5
F7
330
7F
100
AcDbEntity
  8
0
 62
     7
370
    13
390
F
100
AcDbText
 10
390.374023
 20
585.5
 30
0.0
 40
2.0
  1
6
 41
1.577149090909053
 72
     5
 11
392.108887
 21
585.5
 31
0.0
100
AcDbText
  0
ENDBLK
  5
A82
330
7F
100
AcDbEntity
  8
0
100
AcDbBlockEnd
  0
BLOCK
  5
A83
330
80
100
AcDbEntity
  8
0
100
AcDbBlockBegin
  2
BLOCK357
 70
     0
 10
0.0
 20
0.0
 30
0.0
  3
BLOCK357
  1

  0
TEXT
  5
FA
330
80
100
AcDbEntity
  8
0
 62
     7
370
    13
390
F
100
AcDbText
 10
457.957367
 20
585.5
 30
0.0
 40
2.0
  1
7
 41
1.577148181818198
 72
     5
 11
459.69223
 21
585.5
 31
0.0
100
AcDbText
  0
ENDBLK
  5
A84
330
80
100
AcDbEntity
  8
0
100
AcDbBlockEnd
  0
BLOCK
  5
A85
330
81
100
AcDbEntity
  8
0
100
AcDbBlockBegin
  2
BLOCK358
 70
     0
 10
0.0
 20
0.0
 30
0.0
  3
BLOCK358
  1

  0
TEXT
  5
FD
330
81
100
AcDbEntity
  8
0
 62
     7
370
    13
390
F
100
AcDbText
 10
525.54071
 20
585.5
 30
0.0
 40
2.0
  1
8
 41
1.577866302864953
 72
     5
 11
527.275574
 21
585.5
 31
0.0
100
AcDbText
  0
ENDBLK
  5
A86
330
81
100
AcDbEntity
  8
0
100
AcDbBlockEnd
  0
BLOCK
  5
A87
330
82
100
AcDbEntity
  8
0
100
AcDbBlockBegin
  2
BLOCK359
 70
     0
 10
0.0
 20
0.0
 30
0.0
  3
BLOCK359
  1

  0
TEXT
  5
100
330
82
100
AcDbEntity
  8
0
 62
     7
370
    13
390
F
100
AcDbText
 10
593.124023
 20
585.5
 30
0.0
 40
2.0
  1
9
 41
1.567192204526064
 72
     5
 11
594.858887
 21
585.5
 31
0.0
100
AcDbText
  0
ENDBLK
  5
A88
330
82
100
AcDbEntity
  8
0
100
AcDbBlockEnd
  0
BLOCK
  5
A89
330
83
100
AcDbEntity
  8
0
100
AcDbBlockBegin
  2
BLOCK360
 70
     0
 10
0.0
 20
0.0
 30
0.0
  3
BLOCK360
  1

  0
TEXT
  5
103
330
83
100
AcDbEntity
  8
0
 62
     7
370
    13
390
F
100
AcDbText
 10
659.639893
 20
585.5
 30
0.0
 40
2.0
  1
10
 41
1.841357725739954
 72
     5
 11
663.509644
 21
585.5
 31
0.0
100
AcDbText
  0
ENDBLK
  5
A8A
330
83
100
AcDbEntity
  8
0
100
AcDbBlockEnd
  0
BLOCK
  5
A8B
330
84
100
AcDbEntity
  8
0
100
AcDbBlockBegin
  2
BLOCK361
 70
     0
 10
0.0
 20
0.0
 30
0.0
  3
BLOCK361
  1

  0
TEXT
  5
106
330
84
100
AcDbEntity
  8
0
 62
     7
370
    13
390
F
100
AcDbText
 10
727.223267
 20
585.5
 30
0.0
 40
2.0
  1
11
 41
2.276324117647097
 72
     5
 11
731.093018
 21
585.5
 31
0.0
100
AcDbText
  0
ENDBLK
  5
A8C
330
84
100
AcDbEntity
  8
0
100
AcDbBlockEnd
  0
BLOCK
  5
A8D
330
85
100
AcDbEntity
  8
0
100
AcDbBlockBegin
  2
BLOCK362
 70
     0
 10
0.0
 20
0.0
 30
0.0
  3
BLOCK362
  1

  0
TEXT
  5
109
330
85
100
AcDbEntity
  8
0
 62
     7
370
    13
390
F
100
AcDbText
 10
794.80658
 20
585.5
 30
0.0
 40
2.0
  1
12
 41
1.84235058369503
 72
     5
 11
798.676331
 21
585.5
 31
0.0
100
AcDbText
  0
ENDBLK
  5
A8E
330
85
100
AcDbEntity
  8
0
100
AcDbBlockEnd
  0
BLOCK
  5
A8F
330
86
100
AcDbEntity
  8
0
100
AcDbBlockBegin
  2
BLOCK363
 70
     0
 10
0.0
 20
0.0
 30
0.0
  3
BLOCK363
  1

  0
TEXT
  5
10C
330
86
100
AcDbEntity
  8
0
 62
     7
370
    13
390
F
100
AcDbText
 10
832.632568
 20
475.25
 30
0.0
 40
2.0
  1
B
 41
1.334510769230782
 72
     5
 11
834.367432
 21
475.25
 31
0.0
100
AcDbText
  0
ENDBLK
  5
A90
330
86
100
AcDbEntity
  8
0
100
AcDbBlockEnd
  0
BLOCK
  5
A91
330
87
100
AcDbEntity
  8
0
100
AcDbBlockBegin
  2
BLOCK364
 70
     0
 10
0.0
 20
0.0
 30
0.0
  3
BLOCK364
  1

  0
TEXT
  5
10F
330
87
100
AcDbEntity
  8
0
 62
     7
370
    13
390
F
100
AcDbText
 10
832.632568
 20
403.5
 30
0.0
 40
2.0
  1
C
 41
1.577149090909105
 72
     5
 11
834.367432
 21
403.5
 31
0.0
100
AcDbText
  0
ENDBLK
  5
A92
330
87
100
AcDbEntity
  8
0
100
AcDbBlockEnd
  0
BLOCK
  5
A93
330
88
100
AcDbEntity
  8
0
100
AcDbBlockBegin
  2
BLOCK365
 70
     0
 10
0.0
 20
0.0
 30
0.0
  3
BLOCK365
  1

  0
TEXT
  5
112
330
88
100
AcDbEntity
  8
0
 62
     7
370
    13
390
F
100
AcDbText
 10
832.632568
 20
331.75
 30
0.0
 40
2.0
  1
D
 41
1.334510769230782
 72
     5
 11
834.367432
 21
331.75
 31
0.0
100
AcDbText
  0
ENDBLK
  5
A94
330
88
100
AcDbEntity
  8
0
100
AcDbBlockEnd
  0
BLOCK
  5
A95
330
89
100
AcDbEntity
  8
0
100
AcDbBlockBegin
  2
BLOCK366
 70
     0
 10
0.0
 20
0.0
 30
0.0
  3
BLOCK366
  1

  0
TEXT
  5
115
330
89
100
AcDbEntity
  8
0
 62
     7
370
    13
390
F
100
AcDbText
 10
832.632568
 20
260.0
 30
0.0
 40
2.0
  1
E
 41
1.577149090909105
 72
     5
 11
834.367432
 21
260.0
 31
0.0
100
AcDbText
  0
ENDBLK
  5
A96
330
89
100
AcDbEntity
  8
0
100
AcDbBlockEnd
  0
BLOCK
  5
A97
330
8A
100
AcDbEntity
  8
0
100
AcDbBlockBegin
  2
BLOCK367
 70
     0
 10
0.0
 20
0.0
 30
0.0
  3
BLOCK367
  1

  0
TEXT
  5
118
330
8A
100
AcDbEntity
  8
0
 62
     7
370
    13
390
F
100
AcDbText
 10
832.632568
 20
188.25
 30
0.0
 40
2.0
  1
F
 41
1.577149090909105
 72
     5
 11
834.367432
 21
188.25
 31
0.0
100
AcDbText
  0
ENDBLK
  5
A98
330
8A
100
AcDbEntity
  8
0
100
AcDbBlockEnd
  0
BLOCK
  5
A99
330
8B
100
AcDbEntity
  8
0
100
AcDbBlockBegin
  2
BLOCK368
 70
     0
 10
0.0
 20
0.0
 30
0.0
  3
BLOCK368
  1

  0
TEXT
  5
11B
330
8B
100
AcDbEntity
  8
0
 62
     7
370
    13
390
F
100
AcDbText
 10
832.632568
 20
116.5
 30
0.0
 40
2.0
  1
G
 41
1.334510769230782
 72
     5
 11
834.367432
 21
116.5
 31
0.0
100
AcDbText
  0
ENDBLK
  5
A9A
330
8B
100
AcDbEntity
  8
0
100
AcDbBlockEnd
  0
BLOCK
  5
A9B
330
8C
100
AcDbEntity
  8
0
100
AcDbBlockBegin
  2
BLOCK369
 70
     0
 10
0.0
 20
0.0
 30
0.0
  3
BLOCK369
  1

  0
TEXT
  5
11E
330
8C
100
AcDbEntity
  8
0
 62
     7
370
    13
390
F
100
AcDbText
 10
832.632568
 20
44.75
 30
0.0
 40
2.0
  1
H
 41
1.334510769230782
 72
     5
 11
834.367432
 21
44.75
 31
0.0
100
AcDbText
  0
ENDBLK
  5
A9C
330
8C
100
AcDbEntity
  8
0
100
AcDbBlockEnd
  0
BLOCK
  5
A9D
330
8D
100
AcDbEntity
  8
0
100
AcDbBlockBegin
  2
BLOCK370
 70
     0
 10
0.0
 20
0.0
 30
0.0
  3
BLOCK370
  1

  0
TEXT
  5
121
330
8D
100
AcDbEntity
  8
0
 62
     7
370
    13
390
F
100
AcDbText
 10
16.632565
 20
547.0
 30
0.0
 40
2.0
  1
A
 41
1.156580000000001
 72
     5
 11
18.367435
 21
547.0
 31
0.0
100
AcDbText
  0
ENDBLK
  5
A9E
330
8D
100
AcDbEntity
  8
0
100
AcDbBlockEnd
  0
BLOCK
  5
A9F
330
8E
100
AcDbEntity
  8
0
100
AcDbBlockBegin
  2
BLOCK371
 70
     0
 10
0.0
 20
0.0
 30
0.0
  3
BLOCK371
  1

  0
TEXT
  5
124
330
8E
100
AcDbEntity
  8
0
 62
     7
370
    13
390
F
100
AcDbText
 10
16.632565
 20
475.25
 30
0.0
 40
2.0
  1
B
 41
1.334515384615385
 72
     5
 11
18.367435
 21
475.25
 31
0.0
100
AcDbText
  0
ENDBLK
  5
AA0
330
8E
100
AcDbEntity
  8
0
100
AcDbBlockEnd
  0
BLOCK
  5
AA1
330
8F
100
AcDbEntity
  8
0
100
AcDbBlockBegin
  2
BLOCK372
 70
     0
 10
0.0
 20
0.0
 30
0.0
  3
BLOCK372
  1

  0
TEXT
  5
127
330
8F
100
AcDbEntity
  8
0
 62
     7
370
    13
390
F
100
AcDbText
 10
16.632565
 20
403.5
 30
0.0
 40
2.0
  1
C
 41
1.577154545454546
 72
     5
 11
18.367435
 21
403.5
 31
0.0
100
AcDbText
  0
ENDBLK
  5
AA2
330
8F
100
AcDbEntity
  8
0
100
AcDbBlockEnd
  0
BLOCK
  5
AA3
330
90
100
AcDbEntity
  8
0
100
AcDbBlockBegin
  2
BLOCK373
 70
     0
 10
0.0
 20
0.0
 30
0.0
  3
BLOCK373
  1

  0
TEXT
  5
12A
330
90
100
AcDbEntity
  8
0
 62
     7
370
    13
390
F
100
AcDbText
 10
16.632565
 20
331.75
 30
0.0
 40
2.0
  1
D
 41
1.334515384615385
 72
     5
 11
18.367435
 21
331.75
 31
0.0
100
AcDbText
  0
ENDBLK
  5
AA4
330
90
100
AcDbEntity
  8
0
100
AcDbBlockEnd
  0
BLOCK
  5
AA5
330
91
100
AcDbEntity
  8
0
100
AcDbBlockBegin
  2
BLOCK374
 70
     0
 10
0.0
 20
0.0
 30
0.0
  3
BLOCK374
  1

  0
TEXT
  5
12D
330
91
100
AcDbEntity
  8
0
 62
     7
370
    13
390
F
100
AcDbText
 10
16.632565
 20
260.0
 30
0.0
 40
2.0
  1
E
 41
1.577154545454546
 72
     5
 11
18.367435
 21
260.0
 31
0.0
100
AcDbText
  0
ENDBLK
  5
AA6
330
91
100
AcDbEntity
  8
0
100
AcDbBlockEnd
  0
BLOCK
  5
AA7
330
7F8
100
AcDbEntity
  8
0
100
AcDbBlockBegin
  2
BLOCK375
 70
     0
 10
0.0
 20
0.0
 30
0.0
  3
BLOCK375
  1

  0
TEXT
  5
130
330
7F8
100
AcDbEntity
  8
0
 62
     7
370
    13
390
F
100
AcDbText
 10
16.632565
 20
188.25
 30
0.0
 40
2.0
  1
F
 41
1.577154545454546
 72
     5
 11
18.367435
 21
188.25
 31
0.0
100
AcDbText
  0
ENDBLK
  5
AA8
330
7F8
100
AcDbEntity
  8
0
100
AcDbBlockEnd
  0
BLOCK
  5
AA9
330
7FB
100
AcDbEntity
  8
0
100
AcDbBlockBegin
  2
BLOCK376
 70
     0
 10
0.0
 20
0.0
 30
0.0
  3
BLOCK376
  1

  0
TEXT
  5
133
330
7FB
100
AcDbEntity
  8
0
 62
     7
370
    13
390
F
100
AcDbText
 10
16.632565
 20
116.5
 30
0.0
 40
2.0
  1
G
 41
1.334515384615385
 72
     5
 11
18.367435
 21
116.5
 31
0.0
100
AcDbText
  0
ENDBLK
  5
AAA
330
7FB
100
AcDbEntity
  8
0
100
AcDbBlockEnd
  0
BLOCK
  5
AAB
330
94
100
AcDbEntity
  8
0
100
AcDbBlockBegin
  2
BLOCK377
 70
     0
 10
0.0
 20
0.0
 30
0.0
  3
BLOCK377
  1

  0
TEXT
  5
136
330
94
100
AcDbEntity
  8
0
 62
     7
370
    13
390
F
100
AcDbText
 10
16.632565
 20
44.75
 30
0.0
 40
2.0
  1
H
 41
1.334515384615385
 72
     5
 11
18.367435
 21
44.75
 31
0.0
100
AcDbText
  0
ENDBLK
  5
AAC
330
94
100
AcDbEntity
  8
0
100
AcDbBlockEnd
  0
BLOCK
  5
AAD
330
95
100
AcDbEntity
  8
0
100
AcDbBlockBegin
  2
BLOCK378
 70
     0
 10
0.0
 20
0.0
 30
0.0
  3
BLOCK378
  1

  0
TEXT
  5
139
330
95
100
AcDbEntity
  8
0
 62
     7
370
    13
390
F
100
AcDbText
 10
794.80658
 20
6.5
 30
0.0
 40
2.0
  1
12
 41
1.84235058369503
 72
     5
 11
798.676331
 21
6.5
 31
0.0
100
AcDbText
  0
ENDBLK
  5
AAE
330
95
100
AcDbEntity
  8
0
100
AcDbBlockEnd
  0
BLOCK
  5
AAF
330
96
100
AcDbEntity
  8
0
100
AcDbBlockBegin
  2
BLOCK379
 70
     0
 10
0.0
 20
0.0
 30
0.0
  3
BLOCK379
  1

  0
TEXT
  5
13C
330
96
100
AcDbEntity
  8
0
 62
     7
370
    13
390
F
100
AcDbText
 10
727.223267
 20
6.5
 30
0.0
 40
2.0
  1
11
 41
2.276324117647097
 72
     5
 11
731.093018
 21
6.5
 31
0.0
100
AcDbText
  0
ENDBLK
  5
AB0
330
96
100
AcDbEntity
  8
0
100
AcDbBlockEnd
  0
BLOCK
  5
AB1
330
804
100
AcDbEntity
  8
0
100
AcDbBlockBegin
  2
BLOCK380
 70
     0
 10
0.0
 20
0.0
 30
0.0
  3
BLOCK380
  1

  0
TEXT
  5
13F
330
804
100
AcDbEntity
  8
0
 62
     7
370
    13
390
F
100
AcDbText
 10
659.639893
 20
6.5
 30
0.0
 40
2.0
  1
10
 41
1.841357725739954
 72
     5
 11
663.509644
 21
6.5
 31
0.0
100
AcDbText
  0
ENDBLK
  5
AB2
330
804
100
AcDbEntity
  8
0
100
AcDbBlockEnd
  0
BLOCK
  5
AB3
330
807
100
AcDbEntity
  8
0
100
AcDbBlockBegin
  2
BLOCK381
 70
     0
 10
0.0
 20
0.0
 30
0.0
  3
BLOCK381
  1

  0
TEXT
  5
142
330
807
100
AcDbEntity
  8
0
 62
     7
370
    13
390
F
100
AcDbText
 10
593.124023
 20
6.5
 30
0.0
 40
2.0
  1
9
 41
1.567192204526064
 72
     5
 11
594.858887
 21
6.5
 31
0.0
100
AcDbText
  0
ENDBLK
  5
AB4
330
807
100
AcDbEntity
  8
0
100
AcDbBlockEnd
  0
BLOCK
  5
AB5
330
80A
100
AcDbEntity
  8
0
100
AcDbBlockBegin
  2
BLOCK382
 70
     0
 10
0.0
 20
0.0
 30
0.0
  3
BLOCK382
  1

  0
TEXT
  5
145
330
80A
100
AcDbEntity
  8
0
 62
     7
370
    13
390
F
100
AcDbText
 10
525.54071
 20
6.5
 30
0.0
 40
2.0
  1
8
 41
1.577866302864953
 72
     5
 11
527.275574
 21
6.5
 31
0.0
100
AcDbText
  0
ENDBLK
  5
AB6
330
80A
100
AcDbEntity
  8
0
100
AcDbBlockEnd
  0
BLOCK
  5
AB7
330
80D
100
AcDbEntity
  8
0
100
AcDbBlockBegin
  2
BLOCK383
 70
     0
 10
0.0
 20
0.0
 30
0.0
  3
BLOCK383
  1

  0
TEXT
  5
148
330
80D
100
AcDbEntity
  8
0
 62
     7
370
    13
390
F
100
AcDbText
 10
457.957367
 20
6.5
 30
0.0
 40
2.0
  1
7
 41
1.577148181818198
 72
     5
 11
459.69223
 21
6.5
 31
0.0
100
AcDbText
  0
ENDBLK
  5
AB8
330
80D
100
AcDbEntity
  8
0
100
AcDbBlockEnd
  0
BLOCK
  5
AB9
330
810
100
AcDbEntity
  8
0
100
AcDbBlockBegin
  2
BLOCK384
 70
     0
 10
0.0
 20
0.0
 30
0.0
  3
BLOCK384
  1

  0
TEXT
  5
14B
330
810
100
AcDbEntity
  8
0
 62
     7
370
    13
390
F
100
AcDbText
 10
390.374023
 20
6.5
 30
0.0
 40
2.0
  1
6
 41
1.577149090909053
 72
     5
 11
392.108887
 21
6.5
 31
0.0
100
AcDbText
  0
ENDBLK
  5
ABA
330
810
100
AcDbEntity
  8
0
100
AcDbBlockEnd
  0
BLOCK
  5
ABB
330
813
100
AcDbEntity
  8
0
100
AcDbBlockBegin
  2
BLOCK385
 70
     0
 10
0.0
 20
0.0
 30
0.0
  3
BLOCK385
  1

  0
TEXT
  5
14E
330
813
100
AcDbEntity
  8
0
 62
     7
370
    13
390
F
100
AcDbText
 10
322.79068
 20
6.5
 30
0.0
 40
2.0
  1
5
 41
1.577148181818198
 72
     5
 11
324.525543
 21
6.5
 31
0.0
100
AcDbText
  0
ENDBLK
  5
ABC
330
813
100
AcDbEntity
  8
0
100
AcDbBlockEnd
  0
BLOCK
  5
ABD
330
816
100
AcDbEntity
  8
0
100
AcDbBlockBegin
  2
BLOCK386
 70
     0
 10
0.0
 20
0.0
 30
0.0
  3
BLOCK386
  1

  0
TEXT
  5
151
330
816
100
AcDbEntity
  8
0
 62
     7
370
    13
390
F
100
AcDbText
 10
255.207367
 20
6.5
 30
0.0
 40
2.0
  1
4
 41
1.334509999999993
 72
     5
 11
256.94223
 21
6.5
 31
0.0
100
AcDbText
  0
ENDBLK
  5
ABE
330
816
100
AcDbEntity
  8
0
100
AcDbBlockEnd
  0
BLOCK
  5
ABF
330
819
100
AcDbEntity
  8
0
100
AcDbBlockBegin
  2
BLOCK387
 70
     0
 10
0.0
 20
0.0
 30
0.0
  3
BLOCK387
  1

  0
TEXT
  5
154
330
819
100
AcDbEntity
  8
0
 62
     7
370
    13
390
F
100
AcDbText
 10
187.624023
 20
6.5
 30
0.0
 40
2.0
  1
3
 41
1.577149090909105
 72
     5
 11
189.358887
 21
6.5
 31
0.0
100
AcDbText
  0
ENDBLK
  5
AC0
330
819
100
AcDbEntity
  8
0
100
AcDbBlockEnd
  0
BLOCK
  5
AC1
330
81C
100
AcDbEntity
  8
0
100
AcDbBlockBegin
  2
BLOCK388
 70
     0
 10
0.0
 20
0.0
 30
0.0
  3
BLOCK388
  1

  0
TEXT
  5
157
330
81C
100
AcDbEntity
  8
0
 62
     7
370
    13
390
F
100
AcDbText
 10
120.040688
 20
6.5
 30
0.0
 40
2.0
  1
2
 41
1.576520716593502
 72
     5
 11
121.775558
 21
6.5
 31
0.0
100
AcDbText
  0
ENDBLK
  5
AC2
330
81C
100
AcDbEntity
  8
0
100
AcDbBlockEnd
  0
BLOCK
  5
AC3
330
81F
100
AcDbEntity
  8
0
100
AcDbBlockBegin
  2
BLOCK389
 70
     0
 10
0.0
 20
0.0
 30
0.0
  3
BLOCK389
  1

  0
TEXT
  5
15A
330
81F
100
AcDbEntity
  8
0
 62
     7
370
    13
390
F
100
AcDbText
 10
52.457352
 20
6.5
 30
0.0
 40
2.0
  1
1
 41
2.47838714285714
 72
     5
 11
54.192223
 21
6.5
 31
0.0
100
AcDbText
  0
ENDBLK
  5
AC4
330
81F
100
AcDbEntity
  8
0
100
AcDbBlockEnd
  0
BLOCK
  5
AC5
330
822
100
AcDbEntity
  8
0
100
AcDbBlockBegin
  2
BLOCK390
 70
     0
 10
0.0
 20
0.0
 30
0.0
  3
BLOCK390
  1

  0
TEXT
  5
15D
330
822
100
AcDbEntity
  8
0
 62
     7
370
    13
390
F
100
AcDbText
 10
6.543763
 20
147.493759
 30
0.0
 40
2.0
  1
GEWISS SpA reserve all rights in this document and in the information
 50
90.00000287182327
 41
1.433348141052508
 72
     5
 11
6.543757
 21
267.199829
 31
0.0
100
AcDbText
  0
TEXT
  5
15E
330
822
100
AcDbEntity
  8
0
 62
     7
370
    13
390
F
100
AcDbText
 10
9.999094
 20
147.493759
 30
0.0
 40
2.0
  1
contained therein. Reproduction, use or disclosure to third parties
 50
90.00000246462413
 41
1.471122518305551
 72
     5
 11
9.999089
 21
263.730103
 31
0.0
100
AcDbText
  0
TEXT
  5
15F
330
822
100
AcDbEntity
  8
0
 62
     7
370
    13
390
F
100
AcDbText
 10
13.454425
 20
147.493759
 30
0.0
 40
2.0
  1
without written authorization is stricty forbidden
 50
90.0000026420769
 41
1.467493588225344
 72
     5
 11
13.454421
 21
234.237305
 31
0.0
100
AcDbText
  0
ENDBLK
  5
AC6
330
822
100
AcDbEntity
  8
0
100
AcDbBlockEnd
  0
BLOCK
  5
AC7
330
825
100
AcDbEntity
  8
0
100
AcDbBlockBegin
  2
BLOCK391
 70
     0
 10
0.0
 20
0.0
 30
0.0
  3
BLOCK391
  1

  0
TEXT
  5
162
330
825
100
AcDbEntity
  8
0
 62
     7
370
    13
390
F
100
AcDbText
 10
6.701831
 20
9.96806
 30
0.0
 40
2.0
  1
GEWISS SpA si riserva tutti i diritti sul presente documento
 50
90.00000275216357
 41
1.459509955131802
 72
     5
 11
6.701826
 21
114.06031
 31
0.0
100
AcDbText
  0
TEXT
  5
163
330
825
100
AcDbEntity
  8
0
 62
     7
370
    13
390
F
100
AcDbText
 10
10.157163
 20
9.96806
 30
0.0
 40
2.0
  1
e con quanto rappresentato.E'vietato riprodurlo,utilizzarlo
 50
90.00000279881041
 41
1.460058184152345
 72
     5
 11
10.157158
 21
112.325439
 31
0.0
100
AcDbText
  0
TEXT
  5
164
330
825
100
AcDbEntity
  8
0
 62
     7
370
    13
390
F
100
AcDbText
 10
13.612494
 20
9.968061
 30
0.0
 40
2.0
  1
renderlo accessibile a terzi senza autorizzazione scritta
 50
90.0000028970143
 41
1.464568083530808
 72
     5
 11
13.612489
 21
108.855698
 31
0.0
100
AcDbText
  0
ENDBLK
  5
AC8
330
825
100
AcDbEntity
  8
0
100
AcDbBlockEnd
  0
BLOCK
  5
AC9
330
828
100
AcDbEntity
  8
0
100
AcDbBlockBegin
  2
BLOCK392
 70
     0
 10
0.0
 20
0.0
 30
0.0
  3
BLOCK392
  1

  0
SOLID
  5
167
330
828
100
AcDbEntity
  8
0
 62
     7
370
    13
390
F
100
AcDbTrace
 10
79.068146
 20
94.468567
 30
0.0
 11
81.0
 21
94.986206
 31
0.0
 12
79.068146
 22
94.468567
 32
0.0
 13
79.068146
 23
95.503845
 33
0.0
  0
SOLID
  5
168
330
828
100
AcDbEntity
  8
0
 62
     7
370
    13
390
F
100
AcDbTrace
 10
-79.068146
 20
95.503845
 30
0.0
 11
-81.0
 21
94.986206
 31
0.0
 12
-79.068146
 22
95.503845
 32
0.0
 13
-79.068146
 23
94.468567
 33
0.0
  0
TEXT
  5
169
330
828
100
AcDbEntity
  8
0
 62
     7
370
    13
390
F
100
AcDbText
 10
-3.752882
 20
96.986206
 30
0.0
 40
2.5
  1
162
 41
1.715386450080599
 72
     5
 11
3.752882
 21
96.986206
 31
0.0
100
AcDbText
  0
LINE
  5
16A
330
828
100
AcDbEntity
  8
0
 62
     7
370
    13
390
F
100
AcDbLine
 10
-81.0
 20
71.0
 30
0.0
 11
-81.0
 21
96.986206
 31
0.0
  0
LINE
  5
16B
330
828
100
AcDbEntity
  8
0
 62
     7
370
    13
390
F
100
AcDbLine
 10
81.0
 20
71.0
 30
0.0
 11
81.0
 21
96.986206
 31
0.0
  0
LINE
  5
16C
330
828
100
AcDbEntity
  8
0
 62
     7
370
    13
390
F
100
AcDbLine
 10
-79.068146
 20
94.986206
 30
0.0
 11
79.068146
 21
94.986206
 31
0.0
  0
LWPOLYLINE
  5
16D
330
828
100
AcDbEntity
  8
0
 62
     7
370
    13
390
F
100
AcDbPolyline
 90
        3
 70
     1
 43
0.0
 10
79.068146
 20
94.468567
 10
81.0
 20
94.986206
 10
79.068146
 20
95.503845
  0
LWPOLYLINE
  5
172
330
828
100
AcDbEntity
  8
0
 62
     7
370
    13
390
F
100
AcDbPolyline
 90
        3
 70
     1
 43
0.0
 10
-79.068146
 20
95.503845
 10
-81.0
 20
94.986206
 10
-79.068146
 20
94.468567
  0
ENDBLK
  5
ACA
330
828
100
AcDbEntity
  8
0
100
AcDbBlockEnd
  0
BLOCK
  5
ACB
330
82B
100
AcDbEntity
  8
0
100
AcDbBlockBegin
  2
BLOCK393
 70
     0
 10
0.0
 20
0.0
 30
0.0
  3
BLOCK393
  1

  0
SOLID
  5
179
330
82B
100
AcDbEntity
  8
0
 62
     7
370
    13
390
F
100
AcDbTrace
 10
-99.285454
 20
-73.068146
 30
0.0
 11
-98.767815
 21
-75.0
 31
0.0
 12
-99.285454
 22
-73.068146
 32
0.0
 13
-98.250175
 23
-73.068146
 33
0.0
  0
SOLID
  5
17A
330
82B
100
AcDbEntity
  8
0
 62
     7
370
    13
390
F
100
AcDbTrace
 10
-98.250175
 20
73.068146
 30
0.0
 11
-98.767815
 21
75.0
 31
0.0
 12
-98.250175
 22
73.068146
 32
0.0
 13
-99.285454
 23
73.068146
 33
0.0
  0
TEXT
  5
17B
330
82B
100
AcDbEntity
  8
0
 62
     7
370
    13
390
F
100
AcDbText
 10
-100.767815
 20
-3.752882
 30
0.0
 40
2.5
  1
150
 50
90.0
 41
1.714831622217225
 72
     5
 11
-100.767815
 21
3.752882
 31
0.0
100
AcDbText
  0
LINE
  5
17C
330
82B
100
AcDbEntity
  8
0
 62
     7
370
    13
390
F
100
AcDbLine
 10
-77.0
 20
-75.0
 30
0.0
 11
-100.767815
 21
-75.0
 31
0.0
  0
LINE
  5
17D
330
82B
100
AcDbEntity
  8
0
 62
     7
370
    13
390
F
100
AcDbLine
 10
-77.0
 20
75.0
 30
0.0
 11
-100.767815
 21
75.0
 31
0.0
  0
LINE
  5
17E
330
82B
100
AcDbEntity
  8
0
 62
     7
370
    13
390
F
100
AcDbLine
 10
-98.767815
 20
-73.068146
 30
0.0
 11
-98.767815
 21
73.068146
 31
0.0
  0
LWPOLYLINE
  5
17F
330
82B
100
AcDbEntity
  8
0
 62
     7
370
    13
390
F
100
AcDbPolyline
 90
        3
 70
     1
 43
0.0
 10
-99.285454
 20
-73.068146
 10
-98.767815
 20
-75.0
 10
-98.250175
 20
-73.068146
  0
LWPOLYLINE
  5
184
330
82B
100
AcDbEntity
  8
0
 62
     7
370
    13
390
F
100
AcDbPolyline
 90
        3
 70
     1
 43
0.0
 10
-98.250175
 20
73.068146
 10
-98.767815
 20
75.0
 10
-99.285454
 20
73.068146
  0
ENDBLK
  5
ACC
330
82B
100
AcDbEntity
  8
0
100
AcDbBlockEnd
  0
BLOCK
  5
ACD
330
82E
100
AcDbEntity
  8
0
100
AcDbBlockBegin
  2
BLOCK394
 70
     0
 10
0.0
 20
0.0
 30
0.0
  3
BLOCK394
  1

  0
SOLID
  5
18B
330
82E
100
AcDbEntity
  8
0
 62
     7
370
    13
390
F
100
AcDbTrace
 10
68.068146
 20
-99.70285
 30
0.0
 11
70.0
 21
-99.185211
 31
0.0
 12
68.068146
 22
-99.70285
 32
0.0
 13
68.068146
 23
-98.667572
 33
0.0
  0
SOLID
  5
18C
330
82E
100
AcDbEntity
  8
0
 62
     7
370
    13
390
F
100
AcDbTrace
 10
-68.068146
 20
-98.667572
 30
0.0
 11
-70.0
 21
-99.185211
 31
0.0
 12
-68.068146
 22
-98.667572
 32
0.0
 13
-68.068146
 23
-99.70285
 33
0.0
  0
TEXT
  5
18D
330
82E
100
AcDbEntity
  8
0
 62
     7
370
    13
390
F
100
AcDbText
 10
-3.752882
 20
-97.185211
 30
0.0
 40
2.5
  1
140
 41
1.622177456711338
 72
     5
 11
3.752882
 21
-97.185211
 31
0.0
100
AcDbText
  0
LINE
  5
18E
330
82E
100
AcDbEntity
  8
0
 62
     7
370
    13
390
F
100
AcDbLine
 10
-70.0
 20
-67.5
 30
0.0
 11
-70.0
 21
-101.185211
 31
0.0
  0
LINE
  5
18F
330
82E
100
AcDbEntity
  8
0
 62
     7
370
    13
390
F
100
AcDbLine
 10
70.0
 20
-67.5
 30
0.0
 11
70.0
 21
-101.185211
 31
0.0
  0
LINE
  5
190
330
82E
100
AcDbEntity
  8
0
 62
     7
370
    13
390
F
100
AcDbLine
 10
-68.068146
 20
-99.185211
 30
0.0
 11
68.068146
 21
-99.185211
 31
0.0
  0
LWPOLYLINE
  5
191
330
82E
100
AcDbEntity
  8
0
 62
     7
370
    13
390
F
100
AcDbPolyline
 90
        3
 70
     1
 43
0.0
 10
68.068146
 20
-99.70285
 10
70.0
 20
-99.185211
 10
68.068146
 20
-98.667572
  0
LWPOLYLINE
  5
196
330
82E
100
AcDbEntity
  8
0
 62
     7
370
    13
390
F
100
AcDbPolyline
 90
        3
 70
     1
 43
0.0
 10
-68.068146
 20
-98.667572
 10
-70.0
 20
-99.185211
 10
-68.068146
 20
-99.70285
  0
ENDBLK
  5
ACE
330
82E
100
AcDbEntity
  8
0
100
AcDbBlockEnd
  0
BLOCK
  5
ACF
330
831
100
AcDbEntity
  8
0
100
AcDbBlockBegin
  2
BLOCK395
 70
     0
 10
0.0
 20
0.0
 30
0.0
  3
BLOCK395
  1

  0
SOLID
  5
19D
330
831
100
AcDbEntity
  8
0
 62
     7
370
    13
390
F
100
AcDbTrace
 10
99.612465
 20
-58.06815
 30
0.0
 11
100.130104
 21
-60.0
 31
0.0
 12
99.612465
 22
-58.06815
 32
0.0
 13
100.647743
 23
-58.06815
 33
0.0
  0
SOLID
  5
19E
330
831
100
AcDbEntity
  8
0
 62
     7
370
    13
390
F
100
AcDbTrace
 10
100.647743
 20
58.06815
 30
0.0
 11
100.130104
 21
60.0
 31
0.0
 12
100.647743
 22
58.06815
 32
0.0
 13
99.612465
 23
58.06815
 33
0.0
  0
TEXT
  5
19F
330
831
100
AcDbEntity
  8
0
 62
     7
370
    13
390
F
100
AcDbText
 10
98.130104
 20
-3.752882
 30
0.0
 40
2.5
  1
120
 50
90.0
 41
1.714831622217225
 72
     5
 11
98.130104
 21
3.752882
 31
0.0
100
AcDbText
  0
LINE
  5
1A0
330
831
100
AcDbEntity
  8
0
 62
     7
370
    13
390
F
100
AcDbLine
 10
-62.5
 20
-60.0
 30
0.0
 11
102.130104
 21
-60.0
 31
0.0
  0
LINE
  5
1A1
330
831
100
AcDbEntity
  8
0
 62
     7
370
    13
390
F
100
AcDbLine
 10
-62.5
 20
60.0
 30
0.0
 11
102.130104
 21
60.0
 31
0.0
  0
LINE
  5
1A2
330
831
100
AcDbEntity
  8
0
 62
     7
370
    13
390
F
100
AcDbLine
 10
100.130104
 20
-58.06815
 30
0.0
 11
100.130104
 21
58.06815
 31
0.0
  0
LWPOLYLINE
  5
1A3
330
831
100
AcDbEntity
  8
0
 62
     7
370
    13
390
F
100
AcDbPolyline
 90
        3
 70
     1
 43
0.0
 10
99.612465
 20
-58.06815
 10
100.130104
 20
-60.0
 10
100.647743
 20
-58.06815
  0
LWPOLYLINE
  5
1A8
330
831
100
AcDbEntity
  8
0
 62
     7
370
    13
390
F
100
AcDbPolyline
 90
        3
 70
     1
 43
0.0
 10
100.647743
 20
58.06815
 10
100.130104
 20
60.0
 10
99.612465
 20
58.06815
  0
ENDBLK
  5
AD0
330
831
100
AcDbEntity
  8
0
100
AcDbBlockEnd
  0
BLOCK
  5
AD1
330
834
100
AcDbEntity
  8
0
100
AcDbBlockBegin
  2
BLOCK396
 70
     0
 10
0.0
 20
0.0
 30
0.0
  3
BLOCK396
  1

  0
SOLID
  5
1AF
330
834
100
AcDbEntity
  8
0
 62
     7
370
    13
390
F
100
AcDbTrace
 10
63.571484
 20
57.355625
 30
0.0
 11
65.247131
 21
58.447514
 31
0.0
 12
63.571484
 22
57.355625
 32
0.0
 13
63.250034
 23
58.339733
 33
0.0
  0
SOLID
  5
1B0
330
834
100
AcDbEntity
  8
0
 62
     7
370
    13
390
F
100
AcDbTrace
 10
76.428513
 20
62.644375
 30
0.0
 11
74.752869
 21
61.552486
 31
0.0
 12
76.428513
 22
62.644375
 32
0.0
 13
76.749962
 23
61.660267
 33
0.0
  0
TEXT
  5
1B1
330
834
100
AcDbEntity
  8
0
 62
     7
370
    13
390
F
100
AcDbText
 10
92.97789
 20
69.609535
 30
0.0
 40
2.5
  1
10
 50
18.08910814623544
 41
1.841353480429872
 72
     5
 11
97.575989
 21
71.111458
 31
0.0
100
AcDbText
  0
TEXT
  5
1B2
330
834
100
AcDbEntity
  8
0
 62
     7
370
    13
390
F
100
AcDbText
 10
89.650887
 20
68.522789
 30
0.0
 40
2.5
  1
%%c
 50
18.08925253854885
 41
1.333332784680529
 72
     5
 11
92.027321
 21
69.299034
 31
0.0
100
AcDbText
  0
LINE
  5
1B3
330
834
100
AcDbEntity
  8
0
 62
     7
 48
0.076704
370
    13
390
F
100
AcDbLine
 10
60.494259
 20
56.895027
 30
0.0
 11
63.410759
 21
57.847679
 31
0.0
  0
LINE
  5
1B4
330
834
100
AcDbEntity
  8
0
 62
     7
 48
0.25
370
    13
390
F
100
AcDbLine
 10
65.247131
 20
58.447514
 30
0.0
 11
74.752869
 21
61.552486
 31
0.0
  0
LINE
  5
1B5
330
834
100
AcDbEntity
  8
0
 62
     7
370
    13
390
F
100
AcDbLine
 10
76.589241
 20
62.152321
 30
0.0
 11
98.196983
 21
69.210312
 31
0.0
  0
LWPOLYLINE
  5
1B6
330
834
100
AcDbEntity
  8
0
 62
     7
370
    13
390
F
100
AcDbPolyline
 90
        3
 70
     1
 43
0.0
 10
63.571484
 20
57.355625
 10
65.247131
 20
58.447514
 10
63.250034
 20
58.339733
  0
LWPOLYLINE
  5
1BB
330
834
100
AcDbEntity
  8
0
 62
     7
370
    13
390
F
100
AcDbPolyline
 90
        3
 70
     1
 43
0.0
 10
76.428513
 20
62.644375
 10
74.752869
 20
61.552486
 10
76.749962
 20
61.660267
  0
ENDBLK
  5
AD2
330
834
100
AcDbEntity
  8
0
100
AcDbBlockEnd
  0
BLOCK
  5
AD3
330
837
100
AcDbEntity
  8
0
100
AcDbBlockBegin
  2
BLOCK397
 70
     0
 10
0.0
 20
0.0
 30
0.0
  3
BLOCK397
  1

  0
SOLID
  5
1C2
330
837
100
AcDbEntity
  8
0
 62
     7
370
    13
390
F
100
AcDbTrace
 10
63.962845
 20
-56.554527
 30
0.0
 11
65.854057
 21
-57.205154
 31
0.0
 12
63.962845
 22
-56.554527
 32
0.0
 13
64.541534
 23
-55.696091
 33
0.0
  0
SOLID
  5
1C3
330
837
100
AcDbEntity
  8
0
 62
     7
370
    13
390
F
100
AcDbTrace
 10
76.037155
 20
-63.445473
 30
0.0
 11
74.145943
 21
-62.794846
 31
0.0
 12
76.037155
 22
-63.445473
 32
0.0
 13
75.458466
 23
-64.303909
 33
0.0
  0
TEXT
  5
1C4
330
837
100
AcDbEntity
  8
0
 62
     7
370
    13
390
F
100
AcDbText
 10
94.027725
 20
-73.785469
 30
0.0
 40
2.5
  1
10
 50
326.0154834481649
 41
1.84135036058703
 72
     5
 11
98.038651
 21
-76.489296
 31
0.0
100
AcDbText
  0
TEXT
  5
1C5
330
837
100
AcDbEntity
  8
0
 62
     7
370
    13
390
F
100
AcDbText
 10
91.125565
 20
-71.829079
 30
0.0
 40
2.5
  1
%%c
 50
326.0155592008805
 41
1.333329158960297
 72
     5
 11
93.198532
 21
-73.226494
 31
0.0
100
AcDbText
  0
LINE
  5
1C6
330
837
100
AcDbEntity
  8
0
 62
     7
 48
0.076704
370
    13
390
F
100
AcDbLine
 10
61.708115
 20
-54.410309
 30
0.0
 11
64.25219
 21
-56.125309
 31
0.0
  0
LINE
  5
1C7
330
837
100
AcDbEntity
  8
0
 62
     7
 48
0.25
370
    13
390
F
100
AcDbLine
 10
65.854057
 20
-57.205154
 30
0.0
 11
74.145943
 21
-62.794846
 31
0.0
  0
LINE
  5
1C8
330
837
100
AcDbEntity
  8
0
 62
     7
370
    13
390
F
100
AcDbLine
 10
75.74781
 20
-63.874691
 30
0.0
 11
96.920708
 21
-78.147675
 31
0.0
  0
LWPOLYLINE
  5
1C9
330
837
100
AcDbEntity
  8
0
 62
     7
370
    13
390
F
100
AcDbPolyline
 90
        3
 70
     1
 43
0.0
 10
63.962845
 20
-56.554527
 10
65.854057
 20
-57.205154
 10
64.541534
 20
-55.696091
  0
LWPOLYLINE
  5
1CE
330
837
100
AcDbEntity
  8
0
 62
     7
370
    13
390
F
100
AcDbPolyline
 90
        3
 70
     1
 43
0.0
 10
76.037155
 20
-63.445473
 10
74.145943
 20
-62.794846
 10
75.458466
 20
-64.303909
  0
ENDBLK
  5
AD4
330
837
100
AcDbEntity
  8
0
100
AcDbBlockEnd
  0
BLOCK
  5
AD5
330
83A
100
AcDbEntity
  8
0
100
AcDbBlockBegin
  2
BLOCK398
 70
     0
 10
0.0
 20
0.0
 30
0.0
  3
BLOCK398
  1

  0
SOLID
  5
1D5
330
83A
100
AcDbEntity
  8
0
 62
     7
370
    13
390
F
100
AcDbTrace
 10
80.597527
 20
75.21357
 30
0.0
 11
79.57711
 21
73.493469
 31
0.0
 12
80.597527
 22
75.21357
 32
0.0
 13
81.320862
 23
74.472908
 33
0.0
  0
TEXT
  5
1D6
330
83A
100
AcDbEntity
  8
0
 62
     7
370
    13
390
F
100
AcDbText
 10
94.312737
 20
90.680092
 30
0.0
 40
2.5
  1
5
 50
44.3223772279703
 41
1.577155896357887
 72
     5
 11
95.864189
 21
92.195274
 31
0.0
100
AcDbText
  0
TEXT
  5
1D7
330
83A
100
AcDbEntity
  8
0
 62
     7
370
    13
390
F
100
AcDbText
 10
92.04586
 20
88.466225
 30
0.0
 40
2.5
  1
R
 50
44.3223587679302
 41
1.334516967945923
 72
     5
 11
93.597313
 21
89.981407
 31
0.0
100
AcDbText
  0
LINE
  5
1D8
330
83A
100
AcDbEntity
  8
0
 62
     7
370
    13
390
F
100
AcDbLine
 10
97.261574
 20
90.764435
 30
0.0
 11
80.959198
 21
74.843239
 31
0.0
  0
LINE
  5
1D9
330
83A
100
AcDbEntity
  8
0
 62
     7
 48
0.125
370
    13
390
F
100
AcDbLine
 10
79.57711
 20
73.493469
 30
0.0
 11
76.0
 21
70.0
 31
0.0
  0
LWPOLYLINE
  5
1DA
330
83A
100
AcDbEntity
  8
0
 62
     7
370
    13
390
F
100
AcDbPolyline
 90
        3
 70
     1
 43
0.0
 10
80.597527
 20
75.21357
 10
79.57711
 20
73.493469
 10
81.320862
 20
74.472908
  0
ENDBLK
  5
AD6
330
83A
100
AcDbEntity
  8
0
100
AcDbBlockEnd
  0
BLOCK
  5
AD7
330
83D
100
AcDbEntity
  8
0
100
AcDbBlockBegin
  2
BLOCK399
 70
     0
 10
0.0
 20
0.0
 30
0.0
  3
BLOCK399
  1

  0
SOLID
  5
1E1
330
83D
100
AcDbEntity
  8
0
 62
     7
370
    13
390
F
100
AcDbTrace
 10
80.539314
 20
-75.264328
 30
0.0
 11
78.974098
 21
-74.019295
 31
0.0
 12
80.539314
 22
-75.264328
 32
0.0
 13
79.7071
 23
-75.880135
 33
0.0
  0
TEXT
  5
1E2
330
83D
100
AcDbEntity
  8
0
 62
     7
370
    13
390
F
100
AcDbText
 10
89.043602
 20
-84.265167
 30
0.0
 40
2.5
  1
5
 50
306.4997136114321
 41
1.577155099784894
 72
     5
 11
90.333519
 21
-86.008408
 31
0.0
100
AcDbText
  0
TEXT
  5
1E3
330
83D
100
AcDbEntity
  8
0
 62
     7
370
    13
390
F
100
AcDbText
 10
87.158859
 20
-81.718071
 30
0.0
 40
2.5
  1
R
 50
306.4997293270098
 41
1.334515358981218
 72
     5
 11
88.448776
 21
-83.461311
 31
0.0
100
AcDbText
  0
LINE
  5
1E4
330
83D
100
AcDbEntity
  8
0
 62
     7
 48
0.125
370
    13
390
F
100
AcDbLine
 10
76.0
 20
-70.0
 30
0.0
 11
78.974098
 21
-74.019295
 31
0.0
  0
LINE
  5
1E5
330
83D
100
AcDbEntity
  8
0
 62
     7
 48
0.361563
370
    13
390
F
100
AcDbLine
 10
80.123207
 20
-75.572235
 30
0.0
 11
88.7258
 21
-87.198051
 31
0.0
  0
LWPOLYLINE
  5
1E6
330
83D
100
AcDbEntity
  8
0
 62
     7
370
    13
390
F
100
AcDbPolyline
 90
        3
 70
     1
 43
0.0
 10
80.539314
 20
-75.264328
 10
78.974098
 20
-74.019295
 10
79.7071
 20
-75.880135
  0
ENDBLK
  5
AD8
330
83D
100
AcDbEntity
  8
0
100
AcDbBlockEnd
  0
BLOCK
  5
AD9
330
840
100
AcDbEntity
  8
0
100
AcDbBlockBegin
  2
BLOCK400
 70
     0
 10
0.0
 20
0.0
 30
0.0
  3
BLOCK400
  1

  0
SOLID
  5
1ED
330
840
100
AcDbEntity
  8
0
 62
     7
370
    13
390
F
100
AcDbTrace
 10
-63.693336
 20
-62.9231
 30
0.0
 11
-65.632759
 21
-62.434582
 31
0.0
 12
-63.693336
 22
-62.9231
 32
0.0
 13
-64.197426
 23
-63.827362
 33
0.0
  0
SOLID
  5
1EE
330
840
100
AcDbEntity
  8
0
 62
     7
370
    13
390
F
100
AcDbTrace
 10
-76.306664
 20
-57.0769
 30
0.0
 11
-74.367241
 21
-57.565418
 31
0.0
 12
-76.306664
 22
-57.0769
 32
0.0
 13
-75.802574
 23
-56.172638
 33
0.0
  0
TEXT
  5
1EF
330
840
100
AcDbEntity
  8
0
 62
     7
370
    13
390
F
100
AcDbText
 10
-88.079262
 20
-47.631687
 30
0.0
 40
2.5
  1
10
 50
330.8618723846611
 41
1.841352165785998
 72
     5
 11
-83.85424
 21
-49.986988
 31
0.0
100
AcDbText
  0
TEXT
  5
1F0
330
840
100
AcDbEntity
  8
0
 62
     7
370
    13
390
F
100
AcDbText
 10
-91.136337
 20
-45.927483
 30
0.0
 40
2.5
  1
%%c
 50
330.8619022830176
 41
1.333334782574144
 72
     5
 11
-88.952713
 21
-47.144775
 31
0.0
100
AcDbText
  0
LINE
  5
1F1
330
840
100
AcDbEntity
  8
0
 62
     7
 48
0.459545
370
    13
390
F
100
AcDbLine
 10
-92.110168
 20
-47.674377
 30
0.0
 11
-76.054619
 21
-56.624771
 31
0.0
  0
LINE
  5
1F2
330
840
100
AcDbEntity
  8
0
 62
     7
 48
0.25
370
    13
390
F
100
AcDbLine
 10
-74.367241
 20
-57.565422
 30
0.0
 11
-65.632759
 21
-62.434582
 31
0.0
  0
LINE
  5
1F3
330
840
100
AcDbEntity
  8
0
 62
     7
 48
0.076704
370
    13
390
F
100
AcDbLine
 10
-63.945381
 20
-63.375233
 30
0.0
 11
-61.265514
 21
-64.869164
 31
0.0
  0
LWPOLYLINE
  5
1F4
330
840
100
AcDbEntity
  8
0
 62
     7
370
    13
390
F
100
AcDbPolyline
 90
        3
 70
     1
 43
0.0
 10
-63.693336
 20
-62.9231
 10
-65.632759
 20
-62.434582
 10
-64.197426
 20
-63.827362
  0
LWPOLYLINE
  5
1F9
330
840
100
AcDbEntity
  8
0
 62
     7
370
    13
390
F
100
AcDbPolyline
 90
        3
 70
     1
 43
0.0
 10
-76.306664
 20
-57.0769
 10
-74.367241
 20
-57.565418
 10
-75.802574
 20
-56.172638
  0
ENDBLK
  5
ADA
330
840
100
AcDbEntity
  8
0
100
AcDbBlockEnd
  0
BLOCK
  5
ADB
330
843
100
AcDbEntity
  8
0
100
AcDbBlockBegin
  2
BLOCK401
 70
     0
 10
0.0
 20
0.0
 30
0.0
  3
BLOCK401
  1

  0
SOLID
  5
200
330
843
100
AcDbEntity
  8
0
 62
     7
370
    13
390
F
100
AcDbTrace
 10
-80.649338
 20
-75.167412
 30
0.0
 11
-79.611801
 21
-73.457581
 31
0.0
 12
-80.649338
 22
-75.167412
 32
0.0
 13
-81.36525
 23
-74.419571
 33
0.0
  0
TEXT
  5
201
330
843
100
AcDbEntity
  8
0
 62
     7
370
    13
390
F
100
AcDbText
 10
-92.127975
 20
-82.670631
 30
0.0
 40
2.5
  1
5
 50
43.75044579049504
 41
1.577153749255609
 72
     5
 11
-90.561478
 21
-81.171013
 31
0.0
100
AcDbText
  0
TEXT
  5
202
330
843
100
AcDbEntity
  8
0
 62
     7
370
    13
390
F
100
AcDbText
 10
-94.41684
 20
-84.861763
 30
0.0
 40
2.5
  1
R
 50
43.75044660530963
 41
1.334515580986897
 72
     5
 11
-92.850342
 21
-83.362144
 31
0.0
100
AcDbText
  0
LINE
  5
203
330
843
100
AcDbEntity
  8
0
 62
     7
 48
0.416223
370
    13
390
F
100
AcDbLine
 10
-93.033806
 20
-86.30648
 30
0.0
 11
-81.007294
 21
-74.793488
 31
0.0
  0
LINE
  5
204
330
843
100
AcDbEntity
  8
0
 62
     7
 48
0.125
370
    13
390
F
100
AcDbLine
 10
-79.611801
 20
-73.457581
 30
0.0
 11
-76.0
 21
-70.0
 31
0.0
  0
LWPOLYLINE
  5
205
330
843
100
AcDbEntity
  8
0
 62
     7
370
    13
390
F
100
AcDbPolyline
 90
        3
 70
     1
 43
0.0
 10
-80.649338
 20
-75.167412
 10
-79.611801
 20
-73.457581
 10
-81.36525
 20
-74.419571
  0
ENDBLK
  5
ADC
330
843
100
AcDbEntity
  8
0
100
AcDbBlockEnd
  0
BLOCK
  5
ADD
330
846
100
AcDbEntity
  8
0
100
AcDbBlockBegin
  2
BLOCK402
 70
     0
 10
0.0
 20
0.0
 30
0.0
  3
BLOCK402
  1

  0
SOLID
  5
20C
330
846
100
AcDbEntity
  8
0
 62
     7
370
    13
390
F
100
AcDbTrace
 10
-65.138039
 20
64.96788
 30
0.0
 11
-66.246368
 21
63.303066
 31
0.0
 12
-65.138039
 22
64.96788
 32
0.0
 13
-64.454117
 23
64.190666
 33
0.0
  0
SOLID
  5
20D
330
846
100
AcDbEntity
  8
0
 62
     7
370
    13
390
F
100
AcDbTrace
 10
-74.861961
 20
55.03212
 30
0.0
 11
-73.753632
 21
56.696934
 31
0.0
 12
-74.861961
 22
55.03212
 32
0.0
 13
-75.545883
 23
55.80933
 33
0.0
  0
TEXT
  5
20E
330
846
100
AcDbEntity
  8
0
 62
     7
370
    13
390
F
100
AcDbText
 10
-89.782623
 20
45.25605
 30
0.0
 40
2.5
  1
10
 50
41.34668491211923
 41
1.84135219893175
 72
     5
 11
-86.15123
 21
48.451553
 31
0.0
100
AcDbText
  0
TEXT
  5
20F
330
846
100
AcDbEntity
  8
0
 62
     7
370
    13
390
F
100
AcDbText
 10
-92.410172
 20
42.943901
 30
0.0
 40
2.5
  1
%%c
 50
41.34669192337417
 41
1.333333989768481
 72
     5
 11
-90.533356
 21
44.595436
 31
0.0
100
AcDbText
  0
LINE
  5
210
330
846
100
AcDbEntity
  8
0
 62
     7
370
    13
390
F
100
AcDbLine
 10
-91.088943
 20
41.442451
 30
0.0
 11
-75.203926
 21
55.420727
 31
0.0
  0
LINE
  5
211
330
846
100
AcDbEntity
  8
0
 62
     7
 48
0.25
370
    13
390
F
100
AcDbLine
 10
-73.753632
 20
56.696934
 30
0.0
 11
-66.246368
 21
63.303066
 31
0.0
  0
LINE
  5
212
330
846
100
AcDbEntity
  8
0
 62
     7
 48
0.076704
370
    13
390
F
100
AcDbLine
 10
-64.796074
 20
64.579269
 30
0.0
 11
-62.492737
 21
66.606133
 31
0.0
  0
LWPOLYLINE
  5
213
330
846
100
AcDbEntity
  8
0
 62
     7
370
    13
390
F
100
AcDbPolyline
 90
        3
 70
     1
 43
0.0
 10
-65.138039
 20
64.96788
 10
-66.246368
 20
63.303066
 10
-64.454117
 20
64.190666
  0
LWPOLYLINE
  5
218
330
846
100
AcDbEntity
  8
0
 62
     7
370
    13
390
F
100
AcDbPolyline
 90
        3
 70
     1
 43
0.0
 10
-74.861961
 20
55.03212
 10
-73.753632
 20
56.696934
 10
-75.545883
 20
55.80933
  0
ENDBLK
  5
ADE
330
846
100
AcDbEntity
  8
0
100
AcDbBlockEnd
  0
BLOCK
  5
ADF
330
849
100
AcDbEntity
  8
0
100
AcDbBlockBegin
  2
BLOCK403
 70
     0
 10
0.0
 20
0.0
 30
0.0
  3
BLOCK403
  1

  0
SOLID
  5
21F
330
849
100
AcDbEntity
  8
0
 62
     7
370
    13
390
F
100
AcDbTrace
 10
-81.533791
 20
74.206627
 30
0.0
 11
-79.744102
 21
73.313866
 31
0.0
 12
-81.533791
 22
74.206627
 32
0.0
 13
-80.847633
 23
74.981857
 33
0.0
  0
TEXT
  5
220
330
849
100
AcDbEntity
  8
0
 62
     7
370
    13
390
F
100
AcDbText
 10
-86.964622
 20
82.375534
 30
0.0
 40
2.5
  1
5
 50
318.4882651745718
 41
1.577158744518332
 72
     5
 11
-85.340736
 21
80.938248
 31
0.0
100
AcDbText
  0
TEXT
  5
221
330
849
100
AcDbEntity
  8
0
 62
     7
370
    13
390
F
100
AcDbText
 10
-89.337326
 20
84.475586
 30
0.0
 40
2.5
  1
R
 50
318.4882651745718
 41
1.334518937669358
 72
     5
 11
-87.71344
 21
83.0383
 31
0.0
100
AcDbText
  0
LINE
  5
222
330
849
100
AcDbEntity
  8
0
 62
     7
 48
0.316236
370
    13
390
F
100
AcDbLine
 10
-90.662872
 20
82.977943
 30
0.0
 11
-81.190712
 21
74.594238
 31
0.0
  0
LINE
  5
223
330
849
100
AcDbEntity
  8
0
 62
     7
 48
0.125
370
    13
390
F
100
AcDbLine
 10
-79.744102
 20
73.313866
 30
0.0
 11
-76.0
 21
70.0
 31
0.0
  0
LWPOLYLINE
  5
224
330
849
100
AcDbEntity
  8
0
 62
     7
370
    13
390
F
100
AcDbPolyline
 90
        3
 70
     1
 43
0.0
 10
-81.533791
 20
74.206627
 10
-79.744102
 20
73.313866
 10
-80.847633
 20
74.981857
  0
ENDBLK
  5
AE0
330
849
100
AcDbEntity
  8
0
100
AcDbBlockEnd
  0
BLOCK
  5
AE1
330
84C
100
AcDbEntity
  8
0
100
AcDbBlockBegin
  2
BLOCK404
 70
     0
 10
0.0
 20
0.0
 30
0.0
  3
BLOCK404
  1

  0
LINE
  5
22B
330
84C
100
AcDbEntity
  8
0
  6
DASHDOT
 62
     7
 48
0.325
370
    13
390
F
100
AcDbLine
 10
-63.5
 20
-60.0
 30
0.0
 11
-76.5
 21
-60.0
 31
0.0
  0
LINE
  5
22C
330
84C
100
AcDbEntity
  8
0
  6
DASHDOT
 62
     7
 48
0.325
370
    13
390
F
100
AcDbLine
 10
-70.0
 20
-53.5
 30
0.0
 11
-70.0
 21
-66.5
 31
0.0
  0
ENDBLK
  5
AE2
330
84C
100
AcDbEntity
  8
0
100
AcDbBlockEnd
  0
BLOCK
  5
AE3
330
84F
100
AcDbEntity
  8
0
100
AcDbBlockBegin
  2
BLOCK405
 70
     0
 10
0.0
 20
0.0
 30
0.0
  3
BLOCK405
  1

  0
LINE
  5
22F
330
84F
100
AcDbEntity
  8
0
  6
DASHDOT
 62
     7
 48
0.325
370
    13
390
F
100
AcDbLine
 10
-63.5
 20
60.0
 30
0.0
 11
-76.5
 21
60.0
 31
0.0
  0
LINE
  5
230
330
84F
100
AcDbEntity
  8
0
  6
DASHDOT
 62
     7
 48
0.325
370
    13
390
F
100
AcDbLine
 10
-70.0
 20
66.5
 30
0.0
 11
-70.0
 21
53.5
 31
0.0
  0
ENDBLK
  5
AE4
330
84F
100
AcDbEntity
  8
0
100
AcDbBlockEnd
  0
BLOCK
  5
AE5
330
852
100
AcDbEntity
  8
0
100
AcDbBlockBegin
  2
BLOCK406
 70
     0
 10
0.0
 20
0.0
 30
0.0
  3
BLOCK406
  1

  0
LINE
  5
233
330
852
100
AcDbEntity
  8
0
  6
DASHDOT
 62
     7
 48
0.325
370
    13
390
F
100
AcDbLine
 10
76.5
 20
-60.0
 30
0.0
 11
63.5
 21
-60.0
 31
0.0
  0
LINE
  5
234
330
852
100
AcDbEntity
  8
0
  6
DASHDOT
 62
     7
 48
0.325
370
    13
390
F
100
AcDbLine
 10
70.0
 20
-53.5
 30
0.0
 11
70.0
 21
-66.5
 31
0.0
  0
ENDBLK
  5
AE6
330
852
100
AcDbEntity
  8
0
100
AcDbBlockEnd
  0
BLOCK
  5
AE7
330
855
100
AcDbEntity
  8
0
100
AcDbBlockBegin
  2
BLOCK407
 70
     0
 10
0.0
 20
0.0
 30
0.0
  3
BLOCK407
  1

  0
LINE
  5
237
330
855
100
AcDbEntity
  8
0
  6
DASHDOT
 62
     7
 48
0.325
370
    13
390
F
100
AcDbLine
 10
76.5
 20
60.0
 30
0.0
 11
63.5
 21
60.0
 31
0.0
  0
LINE
  5
238
330
855
100
AcDbEntity
  8
0
  6
DASHDOT
 62
     7
 48
0.325
370
    13
390
F
100
AcDbLine
 10
70.0
 20
66.5
 30
0.0
 11
70.0
 21
53.5
 31
0.0
  0
ENDBLK
  5
AE8
330
855
100
AcDbEntity
  8
0
100
AcDbBlockEnd
  0
BLOCK
  5
AE9
330
858
100
AcDbEntity
  8
0
100
AcDbBlockBegin
  2
BLOCK408
 70
     0
 10
0.0
 20
0.0
 30
0.0
  3
BLOCK408
  1

  0
LINE
  5
23B
330
858
100
AcDbEntity
  8
0
  6
DASHDOT
 62
     7
 48
0.325
370
    13
390
F
100
AcDbLine
 10
48.928932
 20
-53.5
 30
0.0
 11
48.928932
 21
-66.5
 31
0.0
  0
LINE
  5
23C
330
858
100
AcDbEntity
  8
0
  6
DASHDOT
 62
     7
 48
0.251777
370
    13
390
F
100
AcDbLine
 10
43.893398
 20
-60.0
 30
0.0
 11
53.964466
 21
-60.0
 31
0.0
  0
ENDBLK
  5
AEA
330
858
100
AcDbEntity
  8
0
100
AcDbBlockEnd
  0
BLOCK
  5
AEB
330
85B
100
AcDbEntity
  8
0
100
AcDbBlockBegin
  2
BLOCK409
 70
     0
 10
0.0
 20
0.0
 30
0.0
  3
BLOCK409
  1

  0
LINE
  5
23F
330
85B
100
AcDbEntity
  8
0
  6
DASHDOT
 62
     7
 48
0.325
370
    13
390
F
100
AcDbLine
 10
-48.928932
 20
-53.5
 30
0.0
 11
-48.928932
 21
-66.5
 31
0.0
  0
LINE
  5
240
330
85B
100
AcDbEntity
  8
0
  6
DASHDOT
 62
     7
 48
0.251777
370
    13
390
F
100
AcDbLine
 10
-53.964466
 20
-60.0
 30
0.0
 11
-43.893398
 21
-60.0
 31
0.0
  0
ENDBLK
  5
AEC
330
85B
100
AcDbEntity
  8
0
100
AcDbBlockEnd
  0
BLOCK
  5
AED
330
85E
100
AcDbEntity
  8
0
100
AcDbBlockBegin
  2
BLOCK410
 70
     0
 10
0.0
 20
0.0
 30
0.0
  3
BLOCK410
  1

  0
ELLIPSE
  5
243
330
85E
100
AcDbEntity
  8
0
 62
     7
370
    35
390
F
100
AcDbEllipse
 10
-0.000215
 20
37.358555
 30
0.0
 11
30.00021743774414
 21
-0.0027992718387395
 31
0.0
210
0.0
220
0.0
230
1.0
 40
0.9698459999999997
 41
4.712486707916179
 42
6.28327473125772
  0
ELLIPSE
  5
244
330
85E
100
AcDbEntity
  8
0
 62
     7
370
    35
390
F
100
AcDbEllipse
 10
0.000107
 20
37.358509
 30
0.0
 11
29.99988174438477
 21
-0.0018854162190109
 31
0.0
210
0.0
220
0.0
230
1.0
 40
0.9698450000000005
 41
0.0000597083039093
 42
1.570860786172584
  0
ELLIPSE
  5
245
330
85E
100
AcDbEntity
  8
0
 62
     7
370
    35
390
F
100
AcDbEllipse
 10
0.000219
 20
37.358555
 30
0.0
 11
30.00021743774414
 21
0.0027980303857476
 31
0.0
210
0.0
220
0.0
230
0.9999999999999999
 40
0.969846
 41
3.1415032722718
 42
4.712291295525127
  0
ELLIPSE
  5
246
330
85E
100
AcDbEntity
  8
0
 62
     7
370
    35
390
F
100
AcDbEllipse
 10
-0.000103
 20
37.358509
 30
0.0
 11
29.99988174438477
 21
0.001884180936031
 31
0.0
210
0.0
220
0.0
230
1.0
 40
0.969845
 41
1.570731909869019
 42
3.141532987843348
  0
ELLIPSE
  5
247
330
85E
100
AcDbEntity
  8
0
 62
     7
370
    35
390
F
100
AcDbEllipse
 10
-0.000371
 20
37.358719
 30
0.0
 11
28.00037574768066
 21
-0.004920628853142303
 31
0.0
210
0.0
220
0.0
230
1.0
 40
0.9698470000000009
 41
4.712572747115205
 42
6.283295937246347
  0
SPLINE
  5
248
330
85E
100
AcDbEntity
  8
0
 62
     7
370
    35
390
F
100
AcDbSpline
210
0.0
220
0.0
230
1.0
 70
     8
 71
     3
 72
    72
 73
    68
 74
     0
 42
0.0
 43
0.0
 40
0.0
 40
0.0
 40
0.0
 40
0.0
 40
0.6562089993108072
 40
1.312444134887495
 40
1.968729436617052
 40
2.625088666483457
 40
3.281545287935354
 40
3.938122439204816
 40
4.594842909760063
 40
5.251729119063762
 40
5.90880309680019
 40
6.566086463731627
 40
7.223600412344982
 40
7.8813656864549
 40
8.539402558938368
 40
9.197730806789483
 40
9.856369682699711
 40
10.51533788239043
 40
11.17465350695846
 40
11.83433399570422
 40
12.49439587834646
 40
13.15485456563148
 40
13.81572430652126
 40
14.47701816715148
 40
15.13874801879228
 40
15.80092453394294
 40
16.46355718966732
 40
17.12665427725787
 40
17.79022291730024
 40
18.45426907920064
 40
19.11879760423188
 40
19.78381223115159
 40
20.44931562344842
 40
21.11530939727775
 40
21.78179414915719
 40
22.44876948250579
 40
23.11623403212602
 40
23.78418548574751
 40
24.45262060177375
 40
25.12153522014815
 40
25.79092416661616
 40
26.46078101616039
 40
27.13109805018256
 40
27.80186628581247
 40
28.47307551437016
 40
29.14471434775061
 40
29.8167702717669
 40
30.48922970547552
 40
31.16207806549861
 40
31.8352998343531
 40
32.50887863179398
 40
33.18279728817995
 40
33.85703791887355
 40
34.53158199869313
 40
35.20641043544389
 40
35.88150364156527
 40
36.55684160294606
 40
37.23240394397428
 40
37.90816998790658
 40
38.58412062576181
 40
39.26036084191496
 40
39.93705661418566
 40
40.61414509777319
 40
41.29141112449297
 40
41.96859923326637
 40
42.64552602962095
 40
43.32219195180858
 40
43.32219195180858
 40
43.32219195180858
 40
43.32219195180858
 10
27.99999893592365
 20
37.35680394812407
 30
0.0
 10
28.00001104495382
 20
37.57555176305394
 30
0.0
 10
27.99458430998513
 20
38.01303623066693
 30
0.0
 10
27.97009645198995
 20
38.66889370570927
 30
0.0
 10
27.92927525419039
 20
39.32398326092356
 30
0.0
 10
27.87214476126575
 20
39.97792761443129
 30
0.0
 10
27.79873854244561
 20
40.63034306337833
 30
0.0
 10
27.70909965040356
 20
41.28084859307953
 30
0.0
 10
27.60328057982251
 20
41.9290637518092
 30
0.0
 10
27.48134322612292
 20
42.57460953631464
 30
0.0
 10
27.34335884422553
 20
43.21710847042825
 30
0.0
 10
27.18940800737035
 20
43.85618489994865
 30
0.0
 10
27.01958056602907
 20
44.49146522958273
 30
0.0
 10
26.83397560673034
 20
45.12257817538822
 30
0.0
 10
26.63270141146942
 20
45.74915501329293
 30
0.0
 10
26.4158754151758
 20
46.37082982795972
 30
0.0
 10
26.18362417065653
 20
46.98723976439221
 30
0.0
 10
25.9360832858185
 20
47.5980252684579
 30
0.0
 10
25.6733974677559
 20
48.20283036203005
 30
0.0
 10
25.39572019961636
 20
48.80130269856535
 30
0.0
 10
25.10321282838532
 20
49.39309320025054
 30
0.0
 10
24.79604578502046
 20
49.97785669380796
 30
0.0
 10
24.47439827164383
 20
50.55525198567251
 30
0.0
 10
24.13845815205522
 20
51.12494207713871
 30
0.0
 10
23.78842178033201
 20
51.68659435938148
 30
0.0
 10
23.42449384569412
 20
52.23988081482317
 30
0.0
 10
23.04688721311469
 20
52.78447821679188
 30
0.0
 10
22.65582276517766
 20
53.32006832964299
 30
0.0
 10
22.25152924370305
 20
53.84633810877226
 30
0.0
 10
21.83424309153259
 20
54.36297990068449
 30
0.0
 10
21.40420829436399
 20
54.8696916430817
 30
0.0
 10
20.96167622266243
 20
55.3661770649961
 30
0.0
 10
20.50690547361632
 20
55.85214588694316
 30
0.0
 10
20.04016171320893
 20
56.32731402120547
 30
0.0
 10
19.56171751811673
 20
56.7914037718624
 30
0.0
 10
19.07185221848285
 20
57.2441440360256
 30
0.0
 10
18.5708517376182
 20
57.68527050084427
 30
0.0
 10
18.05900844334547
 20
58.11452585660585
 30
0.0
 10
17.53662095656122
 20
58.53165994953861
 30
0.0
 10
17.00399414944226
 20
58.93643013769032
 30
0.0
 10
16.46143826867451
 20
59.32860032543833
 30
0.0
 10
15.9092693846968
 20
59.70794160164527
 30
0.0
 10
15.34780951832127
 20
60.07423266241499
 30
0.0
 10
14.77738634743115
 20
60.42725980304886
 30
0.0
 10
14.19833298922217
 20
60.76681704742298
 30
0.0
 10
13.6109877577495
 20
61.09270624400471
 30
0.0
 10
13.01569392816996
 20
61.40473717089274
 30
0.0
 10
12.41279949927338
 20
61.70272763850701
 30
0.0
 10
11.8026569565481
 20
61.98650359298003
 30
0.0
 10
11.1856230351729
 20
62.25589921945222
 30
0.0
 10
10.56205848308011
 20
62.51075704543406
 30
0.0
 10
9.932327824077237
 20
62.75092804440126
 30
0.0
 10
9.296799120890448
 20
62.97627173881226
 30
0.0
 10
8.655843738648205
 20
63.18665630564004
 30
0.0
 10
8.009836106824302
 20
63.38195867286418
 30
0.0
 10
7.359153487007283
 20
63.56206465007955
 30
0.0
 10
6.704175718951664
 20
63.7268689320656
 30
0.0
 10
6.04528504773261
 20
63.87627557709113
 30
0.0
 10
5.382865055278327
 20
64.0101968327984
 30
0.0
 10
4.717260506621004
 20
64.12856563770211
 30
0.0
 10
4.04875256182782
 20
64.23131291661458
 30
0.0
 10
3.377638569050612
 20
64.31837072069779
 30
0.0
 10
2.704326844980633
 20
64.38969365349081
 30
0.0
 10
2.029364579511641
 20
64.44522880904341
 30
0.0
 10
1.353340993464502
 20
64.48492687111046
 30
0.0
 10
0.6767680781813187
 20
64.50875087181285
 30
0.0
 10
0.2255679230019179
 20
64.51404081652825
 30
0.0
 10
0.0000021123864988
 20
64.51404081652825
 30
0.0
  0
ELLIPSE
  5
249
330
85E
100
AcDbEntity
  8
0
 62
     7
370
    35
390
F
100
AcDbEllipse
 10
0.000375
 20
37.357967
 30
0.0
 11
28.00037574768066
 21
-0.0049206339754164
 31
0.0
210
0.0
220
0.0
230
1.0
 40
0.969847
 41
1.570980093705316
 42
3.141703283785042
  0
SPLINE
  5
24A
330
85E
100
AcDbEntity
  8
0
 62
     7
370
    35
390
F
100
AcDbSpline
210
0.0
220
0.0
230
1.0
 70
     8
 71
     3
 72
    72
 73
    68
 74
     0
 42
0.0
 43
0.0
 40
0.0
 40
0.0
 40
0.0
 40
0.0
 40
0.656208999313069
 40
1.312444134903608
 40
1.968729436657917
 40
2.625088666558417
 40
3.28154528805162
 40
3.938122439366912
 40
4.594842909969635
 40
5.25172911931942
 40
5.908803097097578
 40
6.566086464063682
 40
7.223600412702431
 40
7.881365686826829
 40
8.53940255931306
 40
9.19773080715538
 40
9.856369683046562
 40
10.51533788271055
 40
11.17465350724815
 40
11.83433399596483
 40
12.49439587858341
 40
13.15485456585304
 40
13.81572430673728
 40
14.47701816737247
 40
15.13874801902842
 40
15.8009245342033
 40
16.46355718995929
 40
17.12665427758663
 40
17.79022291766845
 40
18.45426907960833
 40
19.11879760467639
 40
19.78381223162773
 40
20.44931562394881
 40
21.11530939779326
 40
21.78179414967764
 40
22.44876948302065
 40
23.11623403262531
 40
23.78418548622293
 40
24.45262060221975
 40
25.12153522056351
 40
25.79092416700722
 40
26.46078101654033
 40
27.13109805056905
 40
27.80186628622539
 40
28.47307551482965
 40
29.14471434827541
 40
29.81677027237296
 40
30.48922970617485
 40
31.16207806629864
 40
31.83529983525612
 40
32.50887863279703
 40
33.1827972892751
 40
33.85703792004825
 40
34.53158199993116
 40
35.20641043672638
 40
35.88150364287213
 40
36.55684160425773
 40
37.23240394527356
 40
37.90816998918086
 40
38.58412062700547
 40
39.26036084312807
 40
39.93705661536823
 40
40.61414509892499
 40
41.29141112561366
 40
41.96859923435584
 40
42.64552603067919
 40
43.32219195283563
 40
43.32219195283563
 40
43.32219195283563
 40
43.32219195283563
 10
-27.99999464019993
 20
37.35988430394843
 30
0.0
 10
-28.00000674923925
 20
37.14113648901781
 30
0.0
 10
-27.99458001428834
 20
36.70365202139922
 30
0.0
 10
-27.97009215631793
 20
36.04779454634232
 30
0.0
 10
-27.92927095854064
 20
35.39270499110233
 30
0.0
 10
-27.87214046563553
 20
34.73876063755937
 30
0.0
 10
-27.79873424683223
 20
34.08634518856977
 30
0.0
 10
-27.70909535480455
 20
33.43583965882128
 30
0.0
 10
-27.60327628423583
 20
32.7876245000425
 30
0.0
 10
-27.48133893054709
 20
32.14207871548911
 30
0.0
 10
-27.34335454865974
 20
31.49957978133158
 30
0.0
 10
-27.18940371181449
 20
30.86050335177387
 30
0.0
 10
-27.0195762704838
 20
30.22522302211124
 30
0.0
 10
-26.83397131119701
 20
29.59411007628741
 30
0.0
 10
-26.63269711595011
 20
28.96753323837523
 30
0.0
 10
-26.41587111967312
 20
28.34585842371149
 30
0.0
 10
-26.18361987517362
 20
27.72944848729098
 30
0.0
 10
-25.9360789903587
 20
27.11866298324335
 30
0.0
 10
-25.67339317232293
 20
26.51385788969093
 30
0.0
 10
-25.39571590421357
 20
25.91538555317221
 30
0.0
 10
-25.103208533012
 20
25.32359505149779
 30
0.0
 10
-24.79604148967336
 20
24.73883155794339
 30
0.0
 10
-24.47439397631781
 20
24.16143626607319
 30
0.0
 10
-24.13845385674413
 20
23.59174617459253
 30
0.0
 10
-23.7884174850294
 20
23.03009389232705
 30
0.0
 10
-23.42448955039374
 20
22.47680743685556
 30
0.0
 10
-23.04688291781106
 20
21.93221003485152
 30
0.0
 10
-22.65581846986643
 20
21.39661992196143
 30
0.0
 10
-22.25152494838123
 20
20.87035014279164
 30
0.0
 10
-21.83423879619885
 20
20.35370835083944
 30
0.0
 10
-21.40420399901863
 20
19.84699660840489
 30
0.0
 10
-20.96167192730746
 20
19.35051118645766
 30
0.0
 10
-20.50690117825529
 20
18.86454236448385
 30
0.0
 10
-20.04015741784674
 20
18.38937423020197
 30
0.0
 10
-19.56171322275932
 20
17.92528447953315
 30
0.0
 10
-19.07184792313677
 20
17.47254421536565
 30
0.0
 10
-18.57084744229013
 20
17.03141775054924
 30
0.0
 10
-18.05900414804162
 20
16.60216239479452
 30
0.0
 10
-17.53661666128641
 20
16.18502830187023
 30
0.0
 10
-17.00398985419904
 20
15.78025811372349
 30
0.0
 10
-16.46143397345902
 20
15.38808792597472
 30
0.0
 10
-15.90926508949842
 20
15.00874664975987
 30
0.0
 10
-15.34780522312471
 20
14.64245558897398
 30
0.0
 10
-14.77738205221858
 20
14.28942844831555
 30
0.0
 10
-14.19832869397515
 20
13.94987120390899
 30
0.0
 10
-13.61098346245047
 20
13.62398200728827
 30
0.0
 10
-13.0156896328037
 20
13.31195108035628
 30
0.0
 10
-12.41279520382791
 20
13.0139606126952
 30
0.0
 10
-11.80265266101551
 20
12.73018465817473
 30
0.0
 10
-11.18561873954982
 20
12.46078903165676
 30
0.0
 10
-10.56205418736785
 20
12.20593120563305
 30
0.0
 10
-9.932323528281742
 20
11.96576020662991
 30
0.0
 10
-9.29679482502188
 20
11.74041651219054
 30
0.0
 10
-8.655839442720332
 20
11.53003194534313
 30
0.0
 10
-8.009831810853498
 20
11.33472957810866
 30
0.0
 10
-7.359149191011353
 20
11.15462360089194
 30
0.0
 10
-6.704171422948285
 20
10.98981931891247
 30
0.0
 10
-6.045280751737616
 20
10.84041267389908
 30
0.0
 10
-5.382860759303548
 20
10.70649141820626
 30
0.0
 10
-4.717256210673367
 20
10.58812261331422
 30
0.0
 10
-4.048748265910237
 20
10.48537533440761
 30
0.0
 10
-3.377634273163324
 20
10.39831753032893
 30
0.0
 10
-2.704322549123785
 20
10.32699459754081
 30
0.0
 10
-2.029360283685437
 20
10.27145944199417
 30
0.0
 10
-1.353336697669162
 20
10.23176137993348
 30
0.0
 10
-0.6767637824170332
 20
10.20793737923653
 30
0.0
 10
-0.2255636272584331
 20
10.20264743452281
 30
0.0
 10
0.0000021833465877
 20
10.20264743452281
 30
0.0
  0
ARC
  5
24B
330
85E
100
AcDbEntity
  8
0
 62
     7
370
    35
390
F
100
AcDbCircle
 10
0.000001
 20
0.0
 30
0.0
 40
30.0
100
AcDbArc
 50
179.999995
 51
0.0
  0
LINE
  5
24C
330
85E
100
AcDbEntity
  8
0
 62
     7
370
    13
390
F
100
AcDbLine
 10
33.0
 20
-75.0
 30
0.0
 11
33.0
 21
75.0
 31
0.0
  0
LINE
  5
24D
330
85E
100
AcDbEntity
  8
0
 62
     7
370
    35
390
F
100
AcDbLine
 10
33.0
 20
75.0
 30
0.0
 11
-33.0
 21
75.0
 31
0.0
  0
LINE
  5
24E
330
85E
100
AcDbEntity
  8
0
 62
     7
370
    13
390
F
100
AcDbLine
 10
-33.0
 20
-75.0
 30
0.0
 11
-33.0
 21
75.0
 31
0.0
  0
LINE
  5
24F
330
85E
100
AcDbEntity
  8
0
 62
     7
370
    35
390
F
100
AcDbLine
 10
33.0
 20
-75.0
 30
0.0
 11
-33.0
 21
-75.0
 31
0.0
  0
LINE
  5
250
330
85E
100
AcDbEntity
  8
0
 62
     7
 48
0.036612
370
    35
390
F
100
AcDbLine
 10
42.464466
 20
75.0
 30
0.0
 11
41.0
 21
75.0
 31
0.0
  0
LINE
  5
251
330
85E
100
AcDbEntity
  8
0
 62
     7
 48
0.301777
370
    35
390
F
100
AcDbLine
 10
54.535534
 20
75.0
 30
0.0
 11
42.464466
 21
75.0
 31
0.0
  0
LINE
  5
252
330
85E
100
AcDbEntity
  8
0
 62
     7
 48
0.088388
370
    35
390
F
100
AcDbLine
 10
58.071068
 20
75.0
 30
0.0
 11
54.535534
 21
75.0
 31
0.0
  0
LINE
  5
253
330
85E
100
AcDbEntity
  8
0
 62
     7
 48
0.448223
370
    35
390
F
100
AcDbLine
 10
76.0
 20
75.0
 30
0.0
 11
58.071068
 21
75.0
 31
0.0
  0
LINE
  5
254
330
85E
100
AcDbEntity
  8
0
 62
     7
 48
0.448223
370
    35
390
F
100
AcDbLine
 10
-58.071068
 20
75.0
 30
0.0
 11
-76.0
 21
75.0
 31
0.0
  0
LINE
  5
255
330
85E
100
AcDbEntity
  8
0
 62
     7
 48
0.088388
370
    35
390
F
100
AcDbLine
 10
-54.535534
 20
75.0
 30
0.0
 11
-58.071068
 21
75.0
 31
0.0
  0
LINE
  5
256
330
85E
100
AcDbEntity
  8
0
 62
     7
 48
0.301777
370
    35
390
F
100
AcDbLine
 10
-54.535534
 20
75.0
 30
0.0
 11
-42.464466
 21
75.0
 31
0.0
  0
LINE
  5
257
330
85E
100
AcDbEntity
  8
0
 62
     7
 48
0.036612
370
    35
390
F
100
AcDbLine
 10
-41.0
 20
75.0
 30
0.0
 11
-42.464466
 21
75.0
 31
0.0
  0
LINE
  5
258
330
85E
100
AcDbEntity
  8
0
 62
     7
 48
0.2
370
    35
390
F
100
AcDbLine
 10
-33.0
 20
75.0
 30
0.0
 11
-41.0
 21
75.0
 31
0.0
  0
LINE
  5
259
330
85E
100
AcDbEntity
  8
0
 62
     7
 48
0.2
370
    35
390
F
100
AcDbLine
 10
41.0
 20
75.0
 30
0.0
 11
33.0
 21
75.0
 31
0.0
  0
LINE
  5
25A
330
85E
100
AcDbEntity
  8
0
 62
     7
 48
0.2
370
    35
390
F
100
AcDbLine
 10
41.0
 20
-75.0
 30
0.0
 11
33.0
 21
-75.0
 31
0.0
  0
LINE
  5
25B
330
85E
100
AcDbEntity
  8
0
 62
     7
370
    35
390
F
100
AcDbLine
 10
41.0
 20
-75.0
 30
0.0
 11
41.0
 21
75.0
 31
0.0
  0
LINE
  5
25C
330
85E
100
AcDbEntity
  8
0
 62
     7
 48
0.036612
370
    35
390
F
100
AcDbLine
 10
42.464466
 20
-75.0
 30
0.0
 11
41.0
 21
-75.0
 31
0.0
  0
LINE
  5
25D
330
85E
100
AcDbEntity
  8
0
 62
     7
370
    13
390
F
100
AcDbLine
 10
42.464466
 20
-75.0
 30
0.0
 11
42.464466
 21
75.0
 31
0.0
  0
LINE
  5
25E
330
85E
100
AcDbEntity
  8
0
 62
     7
370
    13
390
F
100
AcDbLine
 10
54.535534
 20
-75.0
 30
0.0
 11
54.535534
 21
75.0
 31
0.0
  0
LINE
  5
25F
330
85E
100
AcDbEntity
  8
0
 62
     7
 48
0.301777
370
    35
390
F
100
AcDbLine
 10
54.535534
 20
-75.0
 30
0.0
 11
42.464466
 21
-75.0
 31
0.0
  0
ELLIPSE
  5
260
330
85E
100
AcDbEntity
  8
0
 62
     7
370
    35
390
F
100
AcDbEllipse
 10
48.928932
 20
60.0
 30
0.0
 11
3.000000000000000E-16
 21
5.0
 31
0.0
210
0.0
220
0.0
230
1.0
 40
0.707107
 41
0.0000000000000007
 42
3.141592653589794
  0
ELLIPSE
  5
261
330
85E
100
AcDbEntity
  8
0
 62
     7
370
    35
390
F
100
AcDbEllipse
 10
48.928932
 20
60.0
 30
0.0
 11
3.000000000000000E-16
 21
5.0
 31
0.0
210
0.0
220
0.0
230
1.0
 40
0.707107
 41
3.141592653589794
 42
6.283185307179587
  0
ELLIPSE
  5
262
330
85E
100
AcDbEntity
  8
0
 62
     7
370
    35
390
F
100
AcDbEllipse
 10
48.928932
 20
-60.0
 30
0.0
 11
3.000000000000000E-16
 21
5.0
 31
0.0
210
0.0
220
0.0
230
1.0
 40
0.707107
 41
3.141592653589794
 42
6.283185307179587
  0
ELLIPSE
  5
263
330
85E
100
AcDbEntity
  8
0
 62
     7
370
    35
390
F
100
AcDbEllipse
 10
48.928932
 20
-60.0
 30
0.0
 11
3.000000000000000E-16
 21
5.0
 31
0.0
210
0.0
220
0.0
230
1.0
 40
0.707107
 41
6.283185307179584
 42
9.424777960769378
  0
LINE
  5
264
330
85E
100
AcDbEntity
  8
0
 62
     7
 48
0.088388
370
    35
390
F
100
AcDbLine
 10
58.071068
 20
-75.0
 30
0.0
 11
54.535534
 21
-75.0
 31
0.0
  0
LINE
  5
265
330
85E
100
AcDbEntity
  8
0
 62
     7
370
    13
390
F
100
AcDbLine
 10
58.071068
 20
-75.0
 30
0.0
 11
58.071068
 21
75.0
 31
0.0
  0
ARC
  5
266
330
85E
100
AcDbEntity
  8
0
 62
     7
370
    35
390
F
100
AcDbCircle
 10
76.0
 20
-70.0
 30
0.0
 40
5.0
100
AcDbArc
 50
269.999997
 51
0.0
  0
LINE
  5
267
330
85E
100
AcDbEntity
  8
0
 62
     7
370
    35
390
F
100
AcDbLine
 10
81.0
 20
-70.0
 30
0.0
 11
81.0
 21
70.0
 31
0.0
  0
ARC
  5
268
330
85E
100
AcDbEntity
  8
0
 62
     7
370
    35
390
F
100
AcDbCircle
 10
76.0
 20
70.0
 30
0.0
 40
5.0
100
AcDbArc
 50
0.0
 51
90.000003
  0
LINE
  5
269
330
85E
100
AcDbEntity
  8
0
 62
     7
 48
0.448223
370
    35
390
F
100
AcDbLine
 10
76.0
 20
-75.0
 30
0.0
 11
58.071068
 21
-75.0
 31
0.0
  0
CIRCLE
  5
26A
330
85E
100
AcDbEntity
  8
0
 62
     7
370
    35
390
F
100
AcDbCircle
 10
70.0
 20
60.0
 30
0.0
 40
5.0
  0
CIRCLE
  5
26B
330
85E
100
AcDbEntity
  8
0
 62
     7
370
    35
390
F
100
AcDbCircle
 10
70.0
 20
-60.0
 30
0.0
 40
5.0
  0
ELLIPSE
  5
26C
330
85E
100
AcDbEntity
  8
0
 62
     7
370
    35
390
F
100
AcDbEllipse
 10
46.807613
 20
60.0
 30
0.0
 11
-9.000000000000000E-16
 21
-5.0
 31
0.0
210
0.0
220
0.0
230
1.0
 40
0.707107
 41
0.3045808627753744
 42
2.837011974334126
  0
ELLIPSE
  5
26D
330
85E
100
AcDbEntity
  8
0
 62
     7
370
    35
390
F
100
AcDbEllipse
 10
46.807613
 20
-60.0
 30
0.0
 11
-9.000000000000000E-16
 21
-5.0
 31
0.0
210
0.0
220
0.0
230
1.0
 40
0.707107
 41
0.3045808627753785
 42
2.837011974334115
  0
ARC
  5
26E
330
85E
100
AcDbEntity
  8
0
 62
     7
370
    35
390
F
100
AcDbCircle
 10
-76.0
 20
-70.0
 30
0.0
 40
5.0
100
AcDbArc
 50
180.000005
 51
269.999997
  0
LINE
  5
26F
330
85E
100
AcDbEntity
  8
0
 62
     7
370
    35
390
F
100
AcDbLine
 10
-81.0
 20
-70.0
 30
0.0
 11
-81.0
 21
70.0
 31
0.0
  0
CIRCLE
  5
270
330
85E
100
AcDbEntity
  8
0
 62
     7
370
    35
390
F
100
AcDbCircle
 10
-70.0
 20
-60.0
 30
0.0
 40
5.0
  0
CIRCLE
  5
271
330
85E
100
AcDbEntity
  8
0
 62
     7
370
    35
390
F
100
AcDbCircle
 10
-70.0
 20
60.0
 30
0.0
 40
5.0
  0
ELLIPSE
  5
272
330
85E
100
AcDbEntity
  8
0
 62
     7
370
    35
390
F
100
AcDbEllipse
 10
-48.928932
 20
-60.0
 30
0.0
 11
3.000000000000000E-16
 21
5.0
 31
0.0
210
0.0
220
0.0
230
1.0
 40
0.707107
 41
3.141592653589794
 42
6.283185307179588
  0
ELLIPSE
  5
273
330
85E
100
AcDbEntity
  8
0
 62
     7
370
    35
390
F
100
AcDbEllipse
 10
-48.928932
 20
-60.0
 30
0.0
 11
3.000000000000000E-16
 21
5.0
 31
0.0
210
0.0
220
0.0
230
1.0
 40
0.707107
 41
0.0000000000000007
 42
3.141592653589794
  0
ELLIPSE
  5
274
330
85E
100
AcDbEntity
  8
0
 62
     7
370
    35
390
F
100
AcDbEllipse
 10
-46.807613
 20
-60.0
 30
0.0
 11
-9.000000000000000E-16
 21
-5.0
 31
0.0
210
0.0
220
0.0
230
1.0
 40
0.707107
 41
3.446173402845158
 42
5.978604374404768
  0
ELLIPSE
  5
275
330
85E
100
AcDbEntity
  8
0
 62
     7
370
    35
390
F
100
AcDbEllipse
 10
-48.928932
 20
60.0
 30
0.0
 11
3.000000000000000E-16
 21
5.0
 31
0.0
210
0.0
220
0.0
230
1.0
 40
0.707107
 41
0.0000000000000007
 42
3.141592653589794
  0
ELLIPSE
  5
276
330
85E
100
AcDbEntity
  8
0
 62
     7
370
    35
390
F
100
AcDbEllipse
 10
-46.807613
 20
60.0
 30
0.0
 11
-9.000000000000000E-16
 21
-5.0
 31
0.0
210
0.0
220
0.0
230
1.0
 40
0.707107
 41
3.446173402845158
 42
5.978604374404754
  0
ELLIPSE
  5
277
330
85E
100
AcDbEntity
  8
0
 62
     7
370
    35
390
F
100
AcDbEllipse
 10
-48.928932
 20
60.0
 30
0.0
 11
3.000000000000000E-16
 21
5.0
 31
0.0
210
0.0
220
0.0
230
1.0
 40
0.707107
 41
3.141592653589794
 42
6.283185307179588
  0
ARC
  5
278
330
85E
100
AcDbEntity
  8
0
 62
     7
370
    35
390
F
100
AcDbCircle
 10
0.000001
 20
0.0
 30
0.0
 40
15.0
100
AcDbArc
 50
51.578522
 51
128.421913
  0
ARC
  5
279
330
85E
100
AcDbEntity
  8
0
 62
     7
370
    35
390
F
100
AcDbCircle
 10
0.000001
 20
0.0
 30
0.0
 40
28.0
100
AcDbArc
 50
42.63542
 51
90.000003
  0
ARC
  5
27A
330
85E
100
AcDbEntity
  8
0
 62
     7
370
    35
390
F
100
AcDbCircle
 10
0.000001
 20
0.0
 30
0.0
 40
28.0
100
AcDbArc
 50
90.000003
 51
137.365022
  0
LINE
  5
27B
330
85E
100
AcDbEntity
  8
0
 62
     7
370
    35
390
F
100
AcDbLine
 10
-41.0
 20
-75.0
 30
0.0
 11
-41.0
 21
75.0
 31
0.0
  0
LINE
  5
27C
330
85E
100
AcDbEntity
  8
0
 62
     7
370
    13
390
F
100
AcDbLine
 10
-42.464466
 20
-75.0
 30
0.0
 11
-42.464466
 21
75.0
 31
0.0
  0
LINE
  5
27D
330
85E
100
AcDbEntity
  8
0
 62
     7
 48
0.036612
370
    35
390
F
100
AcDbLine
 10
-41.0
 20
-75.0
 30
0.0
 11
-42.464466
 21
-75.0
 31
0.0
  0
LINE
  5
27E
330
85E
100
AcDbEntity
  8
0
 62
     7
 48
0.301777
370
    35
390
F
100
AcDbLine
 10
-54.535534
 20
-75.0
 30
0.0
 11
-42.464466
 21
-75.0
 31
0.0
  0
LINE
  5
27F
330
85E
100
AcDbEntity
  8
0
 62
     7
370
    13
390
F
100
AcDbLine
 10
-54.535534
 20
-75.0
 30
0.0
 11
-54.535534
 21
75.0
 31
0.0
  0
LINE
  5
280
330
85E
100
AcDbEntity
  8
0
 62
     7
370
    13
390
F
100
AcDbLine
 10
-58.071068
 20
-75.0
 30
0.0
 11
-58.071068
 21
75.0
 31
0.0
  0
LINE
  5
281
330
85E
100
AcDbEntity
  8
0
 62
     7
 48
0.088388
370
    35
390
F
100
AcDbLine
 10
-54.535534
 20
-75.0
 30
0.0
 11
-58.071068
 21
-75.0
 31
0.0
  0
LINE
  5
282
330
85E
100
AcDbEntity
  8
0
 62
     7
 48
0.448223
370
    35
390
F
100
AcDbLine
 10
-58.071068
 20
-75.0
 30
0.0
 11
-76.0
 21
-75.0
 31
0.0
  0
ARC
  5
283
330
85E
100
AcDbEntity
  8
0
 62
     7
370
    35
390
F
100
AcDbCircle
 10
-76.0
 20
70.0
 30
0.0
 40
5.0
100
AcDbArc
 50
90.000003
 51
180.000005
  0
LINE
  5
284
330
85E
100
AcDbEntity
  8
0
 62
     7
 48
0.2
370
    35
390
F
100
AcDbLine
 10
-33.0
 20
-75.0
 30
0.0
 11
-41.0
 21
-75.0
 31
0.0
  0
LINE
  5
285
330
85E
100
AcDbEntity
  8
0
 62
     7
370
    35
390
F
100
AcDbLine
 10
30.0
 20
-0.000001
 30
0.0
 11
30.000002
 21
37.35836
 31
0.0
  0
LINE
  5
286
330
85E
100
AcDbEntity
  8
0
 62
     7
370
    35
390
F
100
AcDbLine
 10
-30.0
 20
0.000001
 30
0.0
 11
-29.999998
 21
37.358345
 31
0.0
  0
ENDBLK
  5
AEE
330
85E
100
AcDbEntity
  8
0
100
AcDbBlockEnd
  0
BLOCK
  5
AEF
330
861
100
AcDbEntity
  8
0
100
AcDbBlockBegin
  2
BLOCK411
 70
     0
 10
0.0
 20
0.0
 30
0.0
  3
BLOCK411
  1

  0
TEXT
  5
289
330
861
100
AcDbEntity
  8
0
 62
     7
370
    13
390
F
100
AcDbText
 10
122.49382
 20
-61.377548
 30
0.0
 40
3.0
  1
CORDONE DI SALDATURA
 41
1.192351156930126
 72
     5
 11
174.539948
 21
-61.377548
 31
0.0
100
AcDbText
  0
TEXT
  5
28A
330
861
100
AcDbEntity
  8
0
 62
     7
370
    13
390
F
100
AcDbText
 10
122.49382
 20
-66.560547
 30
0.0
 40
3.0
  1
TO SOLDER
 41
1.210374470284238
 72
     5
 11
145.914566
 21
-66.560547
 31
0.0
100
AcDbText
  0
LWPOLYLINE
  5
28B
330
861
100
AcDbEntity
  8
0
 62
     7
370
    13
390
F
100
AcDbPolyline
 90
        3
 70
     0
 43
0.0
 10
78.139252
 20
-29.975447
 10
119.49382
 20
-67.580719
 10
174.539948
 20
-67.580719
  0
LWPOLYLINE
  5
290
330
861
100
AcDbEntity
  8
0
 62
     7
370
    13
390
F
100
AcDbPolyline
 90
        3
 70
     0
 43
0.0
 10
79.916779
 20
-30.89217
 10
78.139252
 20
-29.975447
 10
79.220276
 20
-31.658117
  0
ENDBLK
  5
AF0
330
861
100
AcDbEntity
  8
0
100
AcDbBlockEnd
  0
BLOCK
  5
AF1
330
864
100
AcDbEntity
  8
0
100
AcDbBlockBegin
  2
BLOCK412
 70
     0
 10
0.0
 20
0.0
 30
0.0
  3
BLOCK412
  1

  0
TEXT
  5
297
330
864
100
AcDbEntity
  8
0
 62
     7
370
    13
390
F
100
AcDbText
 10
112.657944
 20
73.628555
 30
0.0
 40
3.0
  1
CORDONE DI SALDATURA
 41
1.192351134020619
 72
     5
 11
164.704071
 21
73.628555
 31
0.0
100
AcDbText
  0
TEXT
  5
298
330
864
100
AcDbEntity
  8
0
 62
     7
370
    13
390
F
100
AcDbText
 10
112.657944
 20
68.445557
 30
0.0
 40
3.0
  1
TO SOLDER
 41
1.210374470284238
 72
     5
 11
136.07869
 21
68.445557
 31
0.0
100
AcDbText
  0
LWPOLYLINE
  5
299
330
864
100
AcDbEntity
  8
0
 62
     7
370
    13
390
F
100
AcDbPolyline
 90
        3
 70
     0
 43
0.0
 10
78.0
 20
30.301208
 10
109.657944
 20
67.425385
 10
164.704071
 20
67.425385
  0
LWPOLYLINE
  5
29E
330
864
100
AcDbEntity
  8
0
 62
     7
370
    13
390
F
100
AcDbPolyline
 90
        3
 70
     0
 43
0.0
 10
78.859642
 20
32.107037
 10
78.0
 20
30.301208
 10
79.647385
 20
31.435284
  0
ENDBLK
  5
AF2
330
864
100
AcDbEntity
  8
0
100
AcDbBlockEnd
  0
BLOCK
  5
AF3
330
867
100
AcDbEntity
  8
0
100
AcDbBlockBegin
  2
BLOCK413
 70
     0
 10
0.0
 20
0.0
 30
0.0
  3
BLOCK413
  1

  0
TEXT
  5
2A5
330
867
100
AcDbEntity
  8
0
 62
     7
370
    13
390
F
100
AcDbText
 10
240.596161
 20
108.173607
 30
0.0
 40
2.5
  1
TUBO ACCIAIO Ø60 spess.3mm
 41
1.299340803687167
 72
     5
 11
296.979431
 21
108.173607
 31
0.0
100
AcDbText
  0
TEXT
  5
2A6
330
867
100
AcDbEntity
  8
0
 62
     7
370
    13
390
F
100
AcDbText
 10
240.596161
 20
103.854446
 30
0.0
 40
2.5
  1
IRON PIPE D 60 THICKNESS 3mm
 41
1.323246178153092
 72
     5
 11
301.31662
 21
103.854446
 31
0.0
100
AcDbText
  0
LWPOLYLINE
  5
2A7
330
867
100
AcDbEntity
  8
0
 62
     7
370
    13
390
F
100
AcDbPolyline
 90
        3
 70
     0
 43
0.0
 10
208.448029
 20
28.911339
 10
239.172028
 20
103.004295
 10
301.31662
 20
103.004295
  0
LWPOLYLINE
  5
2AC
330
867
100
AcDbEntity
  8
0
 62
     7
370
    13
390
F
100
AcDbPolyline
 90
        3
 70
     0
 43
0.0
 10
208.709854
 20
30.894127
 10
208.448029
 20
28.911339
 10
209.666168
 20
30.497574
  0
ENDBLK
  5
AF4
330
867
100
AcDbEntity
  8
0
100
AcDbBlockEnd
  0
BLOCK
  5
AF5
330
86A
100
AcDbEntity
  8
0
100
AcDbBlockBegin
  2
BLOCK414
 70
     0
 10
0.0
 20
0.0
 30
0.0
  3
BLOCK414
  1

  0
SOLID
  5
2B3
330
86A
100
AcDbEntity
  8
0
 62
     7
370
    13
390
F
100
AcDbTrace
 10
159.279099
 20
1.931852
 30
0.0
 11
159.796738
 21
0.0
 31
0.0
 12
159.279099
 22
1.931852
 32
0.0
 13
160.314377
 23
1.931852
 33
0.0
  0
SOLID
  5
2B4
330
86A
100
AcDbEntity
  8
0
 62
     7
370
    13
390
F
100
AcDbTrace
 10
159.399307
 20
12.39124
 30
0.0
 11
158.554062
 21
14.203856
 31
0.0
 12
159.399307
 22
12.39124
 32
0.0
 13
158.379761
 23
12.211466
 33
0.0
  0
TEXT
  5
2B5
330
86A
100
AcDbEntity
  8
0
 62
     7
370
    13
390
F
100
AcDbText
 10
161.18718
 20
10.625931
 30
0.0
 40
2.5
  1
10
 50
275.0001445813592
 41
1.841353628424532
 72
     5
 11
161.60878
 21
5.807161
 31
0.0
100
AcDbText
  0
TEXT
  5
2B6
330
86A
100
AcDbEntity
  8
0
 62
     7
370
    13
390
F
100
AcDbText
 10
162.106873
 20
5.850739
 30
0.0
 40
2.5
  1
%%d
 50
275.0001417947969
 41
1.629629137926497
 72
     5
 11
162.266663
 21
4.024383
 31
0.0
100
AcDbText
  0
LINE
  5
2B7
330
86A
100
AcDbEntity
  8
0
 62
     7
370
    13
390
F
100
AcDbLine
 10
98.446472
 20
0.0
 30
0.0
 11
161.796738
 21
0.0
 31
0.0
  0
ARC
  5
2B8
330
86A
100
AcDbEntity
  8
0
 62
     7
370
    13
390
F
100
AcDbCircle
 10
78.0
 20
0.0
 30
0.0
 40
81.796745
100
AcDbArc
 50
1.353321
 51
8.646679
  0
LWPOLYLINE
  5
2B9
330
86A
100
AcDbEntity
  8
0
 62
     7
370
    13
390
F
100
AcDbPolyline
 90
        3
 70
     1
 43
0.0
 10
159.279099
 20
1.931852
 10
159.796738
 20
0.0
 10
160.314377
 20
1.931852
  0
LWPOLYLINE
  5
2BE
330
86A
100
AcDbEntity
  8
0
 62
     7
370
    13
390
F
100
AcDbPolyline
 90
        3
 70
     1
 43
0.0
 10
159.399307
 20
12.39124
 10
158.554062
 20
14.203856
 10
158.379761
 20
12.211466
  0
ENDBLK
  5
AF6
330
86A
100
AcDbEntity
  8
0
100
AcDbBlockEnd
  0
BLOCK
  5
AF7
330
86D
100
AcDbEntity
  8
0
100
AcDbBlockBegin
  2
BLOCK415
 70
     0
 10
0.0
 20
0.0
 30
0.0
  3
BLOCK415
  1

  0
SOLID
  5
2C5
330
86D
100
AcDbEntity
  8
0
 62
    34
370
    13
390
F
100
AcDbTrace
 10
308.557343
 20
12.615136
 30
0.0
 11
309.402588
 21
10.802521
 31
0.0
 12
308.557343
 22
12.615136
 32
0.0
 13
309.576904
 23
12.794909
 33
0.0
  0
SOLID
  5
2C6
330
86D
100
AcDbEntity
  8
0
 62
    34
370
    13
390
F
100
AcDbTrace
 10
299.987213
 20
67.180687
 30
0.0
 11
299.141998
 21
68.993301
 31
0.0
 12
299.987213
 22
67.180687
 32
0.0
 13
298.967682
 23
67.000908
 33
0.0
  0
TEXT
  5
2C7
330
86D
100
AcDbEntity
  8
0
 62
    34
370
    13
390
F
100
AcDbText
 10
305.518005
 20
44.350464
 30
0.0
 40
2.5
  1
%%c
 50
280.0005026499134
 41
1.333336271878362
 72
     5
 11
305.952148
 21
41.888443
 31
0.0
100
AcDbText
  0
TEXT
  5
2C8
330
86D
100
AcDbEntity
  8
0
 62
    34
370
    13
390
F
100
AcDbText
 10
306.125793
 20
40.903637
 30
0.0
 40
2.5
  1
60
 50
279.9999936338596
 41
1.546921387163139
 72
     5
 11
306.965759
 21
36.13995
 31
0.0
100
AcDbText
  0
LINE
  5
2C9
330
86D
100
AcDbEntity
  8
0
 62
    34
 48
0.390619
370
    13
390
F
100
AcDbLine
 10
285.724213
 20
66.62738
 30
0.0
 11
301.111603
 21
69.340599
 31
0.0
  0
LINE
  5
2CA
330
86D
100
AcDbEntity
  8
0
 62
    34
 48
0.39062
370
    13
390
F
100
AcDbLine
 10
295.984802
 20
8.436603
 30
0.0
 11
311.372223
 21
11.149817
 31
0.0
  0
LINE
  5
2CB
330
86D
100
AcDbEntity
  8
0
 62
    34
370
    13
390
F
100
AcDbLine
 10
299.477448
 20
67.090797
 30
0.0
 11
309.067139
 21
12.705023
 31
0.0
  0
LWPOLYLINE
  5
2CC
330
86D
100
AcDbEntity
  8
0
 62
    34
370
    13
390
F
100
AcDbPolyline
 90
        3
 70
     1
 43
0.0
 10
308.557343
 20
12.615136
 10
309.402588
 20
10.802521
 10
309.576904
 20
12.794909
  0
LWPOLYLINE
  5
2D1
330
86D
100
AcDbEntity
  8
0
 62
    34
370
    13
390
F
100
AcDbPolyline
 90
        3
 70
     1
 43
0.0
 10
299.987213
 20
67.180687
 10
299.141998
 20
68.993301
 10
298.967682
 20
67.000908
  0
ENDBLK
  5
AF8
330
86D
100
AcDbEntity
  8
0
100
AcDbBlockEnd
  0
BLOCK
  5
AF9
330
BB
100
AcDbEntity
  8
0
100
AcDbBlockBegin
  2
BLOCK416
 70
     0
 10
0.0
 20
0.0
 30
0.0
  3
BLOCK416
  1

  0
LINE
  5
2D8
330
BB
100
AcDbEntity
  8
0
 62
     7
370
    35
390
F
100
AcDbLine
 10
295.0
 20
8.262955
 30
0.0
 11
284.73941
 21
66.453735
 31
0.0
  0
LINE
  5
2D9
330
BB
100
AcDbEntity
  8
0
 62
     7
370
    35
390
F
100
AcDbLine
 10
78.0
 20
-30.0
 30
0.0
 11
295.0
 21
8.262955
 31
0.0
  0
LINE
  5
2DA
330
BB
100
AcDbEntity
  8
0
 62
     7
370
    35
390
F
100
AcDbLine
 10
78.0
 20
30.0
 30
0.0
 11
284.73941
 21
66.453735
 31
0.0
  0
LINE
  5
2DB
330
BB
100
AcDbEntity
  8
0
 62
     7
370
    35
390
F
100
AcDbLine
 10
78.0
 20
-75.0
 30
0.0
 11
78.0
 21
75.0
 31
0.0
  0
LINE
  5
2DC
330
BB
100
AcDbEntity
  8
0
 62
     7
 48
0.075
370
    35
390
F
100
AcDbLine
 10
0.000001
 20
75.0
 30
0.0
 11
3.0
 21
75.0
 31
0.0
  0
LINE
  5
2DD
330
BB
100
AcDbEntity
  8
0
 62
     7
 48
0.036612
370
    35
390
F
100
AcDbLine
 10
4.464467
 20
75.0
 30
0.0
 11
3.0
 21
75.0
 31
0.0
  0
LINE
  5
2DE
330
BB
100
AcDbEntity
  8
0
 62
     7
 48
0.301777
370
    35
390
F
100
AcDbLine
 10
4.464467
 20
75.0
 30
0.0
 11
16.535534
 21
75.0
 31
0.0
  0
LINE
  5
2DF
330
BB
100
AcDbEntity
  8
0
 62
     7
 48
0.088388
370
    35
390
F
100
AcDbLine
 10
20.071068
 20
75.0
 30
0.0
 11
16.535534
 21
75.0
 31
0.0
  0
LINE
  5
2E0
330
BB
100
AcDbEntity
  8
0
 62
     7
370
    35
390
F
100
AcDbLine
 10
20.071068
 20
75.0
 30
0.0
 11
70.0
 21
75.0
 31
0.0
  0
LINE
  5
2E1
330
BB
100
AcDbEntity
  8
0
 62
     7
 48
0.2
370
    35
390
F
100
AcDbLine
 10
78.0
 20
75.0
 30
0.0
 11
70.0
 21
75.0
 31
0.0
  0
LINE
  5
2E2
330
BB
100
AcDbEntity
  8
0
 62
     7
 48
0.075
370
    35
390
F
100
AcDbLine
 10
0.000001
 20
-75.0
 30
0.0
 11
3.0
 21
-75.0
 31
0.0
  0
LINE
  5
2E3
330
BB
100
AcDbEntity
  8
0
 62
     7
 48
0.125
370
    35
390
F
100
AcDbLine
 10
3.0
 20
-70.0
 30
0.0
 11
3.0
 21
-75.0
 31
0.0
  0
LINE
  5
2E4
330
BB
100
AcDbEntity
  8
0
 62
     7
 48
0.075
370
    13
390
F
100
AcDbLine
 10
0.000001
 20
-70.0
 30
0.0
 11
3.000001
 21
-70.0
 31
0.0
  0
LINE
  5
2E5
330
BB
100
AcDbEntity
  8
0
 62
     7
 48
0.125
370
    35
390
F
100
AcDbLine
 10
0.000001
 20
-75.0
 30
0.0
 11
0.000001
 21
-70.0
 31
0.0
  0
LINE
  5
2E6
330
BB
100
AcDbEntity
  8
0
 62
     7
370
    35
390
F
100
AcDbLine
 10
3.000001
 20
-70.0
 30
0.0
 11
3.000001
 21
70.0
 31
0.0
  0
LINE
  5
2E7
330
BB
100
AcDbEntity
  8
0
 62
     7
 48
0.075
370
    13
390
F
100
AcDbLine
 10
0.000001
 20
70.0
 30
0.0
 11
3.000001
 21
70.0
 31
0.0
  0
LINE
  5
2E8
330
BB
100
AcDbEntity
  8
0
 62
     7
370
    35
390
F
100
AcDbLine
 10
0.000001
 20
-70.0
 30
0.0
 11
0.000001
 21
70.0
 31
0.0
  0
ELLIPSE
  5
2E9
330
BB
100
AcDbEntity
  8
0
 62
     7
370
    35
390
F
100
AcDbEllipse
 10
10.071068
 20
-60.0
 30
0.0
 11
-9.000000000000000E-16
 21
-5.0
 31
0.0
210
0.0
220
0.0
230
1.0
 40
0.707107
 41
0.0000000000000004
 42
3.141592653589795
  0
ELLIPSE
  5
2EA
330
BB
100
AcDbEntity
  8
0
 62
     7
370
    35
390
F
100
AcDbEllipse
 10
7.949748
 20
-60.0
 30
0.0
 11
3.000000000000000E-16
 21
5.0
 31
0.0
210
0.0
220
0.0
230
1.0
 40
0.707107
 41
3.446173511527282
 42
5.978604625999316
  0
ELLIPSE
  5
2EB
330
BB
100
AcDbEntity
  8
0
 62
     7
370
    35
390
F
100
AcDbEllipse
 10
10.071068
 20
-60.0
 30
0.0
 11
-9.000000000000000E-16
 21
-5.0
 31
0.0
210
0.0
220
0.0
230
1.0
 40
0.707107
 41
3.141592653589794
 42
6.283185307179587
  0
ELLIPSE
  5
2EC
330
BB
100
AcDbEntity
  8
0
 62
     7
370
    35
390
F
100
AcDbEllipse
 10
10.071068
 20
60.0
 30
0.0
 11
-9.000000000000000E-16
 21
-5.0
 31
0.0
210
0.0
220
0.0
230
1.0
 40
0.707107
 41
3.141592653589794
 42
6.283185307179587
  0
ELLIPSE
  5
2ED
330
BB
100
AcDbEntity
  8
0
 62
     7
370
    35
390
F
100
AcDbEllipse
 10
10.071068
 20
60.0
 30
0.0
 11
-9.000000000000000E-16
 21
-5.0
 31
0.0
210
0.0
220
0.0
230
1.0
 40
0.707107
 41
0.0000000000000007
 42
3.141592653589794
  0
ELLIPSE
  5
2EE
330
BB
100
AcDbEntity
  8
0
 62
     7
370
    35
390
F
100
AcDbEllipse
 10
7.949748
 20
60.0
 30
0.0
 11
3.000000000000000E-16
 21
5.0
 31
0.0
210
0.0
220
0.0
230
1.0
 40
0.707107
 41
3.446173511527283
 42
5.978604625999316
  0
LINE
  5
2EF
330
BB
100
AcDbEntity
  8
0
 62
     7
370
    13
390
F
100
AcDbLine
 10
20.071068
 20
-75.0
 30
0.0
 11
20.071068
 21
75.0
 31
0.0
  0
LINE
  5
2F0
330
BB
100
AcDbEntity
  8
0
 62
     7
370
    35
390
F
100
AcDbLine
 10
20.071068
 20
-75.0
 30
0.0
 11
70.0
 21
-75.0
 31
0.0
  0
LINE
  5
2F1
330
BB
100
AcDbEntity
  8
0
 62
     7
370
    13
390
F
100
AcDbLine
 10
70.0
 20
-75.0
 30
0.0
 11
70.0
 21
75.0
 31
0.0
  0
LINE
  5
2F2
330
BB
100
AcDbEntity
  8
0
 62
     7
370
    13
390
F
100
AcDbLine
 10
16.535534
 20
-75.0
 30
0.0
 11
16.535534
 21
75.0
 31
0.0
  0
LINE
  5
2F3
330
BB
100
AcDbEntity
  8
0
 62
     7
 48
0.088388
370
    35
390
F
100
AcDbLine
 10
20.071068
 20
-75.0
 30
0.0
 11
16.535534
 21
-75.0
 31
0.0
  0
LINE
  5
2F4
330
BB
100
AcDbEntity
  8
0
 62
     7
 48
0.301777
370
    35
390
F
100
AcDbLine
 10
4.464467
 20
-75.0
 30
0.0
 11
16.535534
 21
-75.0
 31
0.0
  0
LINE
  5
2F5
330
BB
100
AcDbEntity
  8
0
 62
     7
370
    13
390
F
100
AcDbLine
 10
4.464467
 20
-75.0
 30
0.0
 11
4.464467
 21
75.0
 31
0.0
  0
LINE
  5
2F6
330
BB
100
AcDbEntity
  8
0
 62
     7
 48
0.036612
370
    35
390
F
100
AcDbLine
 10
4.464467
 20
-75.0
 30
0.0
 11
3.0
 21
-75.0
 31
0.0
  0
LINE
  5
2F7
330
BB
100
AcDbEntity
  8
0
 62
     7
 48
0.125
370
    35
390
F
100
AcDbLine
 10
3.0
 20
75.0
 30
0.0
 11
3.0
 21
70.0
 31
0.0
  0
LINE
  5
2F8
330
BB
100
AcDbEntity
  8
0
 62
     7
 48
0.125
370
    35
390
F
100
AcDbLine
 10
0.000001
 20
70.0
 30
0.0
 11
0.000001
 21
75.0
 31
0.0
  0
LINE
  5
2F9
330
BB
100
AcDbEntity
  8
0
 62
     7
 48
0.2
370
    35
390
F
100
AcDbLine
 10
78.0
 20
-75.0
 30
0.0
 11
70.0
 21
-75.0
 31
0.0
  0
ENDBLK
  5
AFA
330
BB
100
AcDbEntity
  8
0
100
AcDbBlockEnd
  0
BLOCK
  5
AFB
330
BC
100
AcDbEntity
  8
0
100
AcDbBlockBegin
  2
BLOCK417
 70
     0
 10
0.0
 20
0.0
 30
0.0
  3
BLOCK417
  1

  0
LINE
  5
2FC
330
BC
100
AcDbEntity
  8
0
 62
     7
 48
0.125
370
   100
390
F
100
AcDbLine
 10
-94.725632
 20
-60.0
 30
0.0
 11
-89.725632
 21
-60.0
 31
0.0
  0
LINE
  5
2FD
330
BC
100
AcDbEntity
  8
0
 62
     7
 48
0.125
370
   100
390
F
100
AcDbLine
 10
97.831619
 20
-60.0
 30
0.0
 11
92.831619
 21
-60.0
 31
0.0
  0
LINE
  5
2FE
330
BC
100
AcDbEntity
  8
0
  6
DASHDOT
 62
     7
370
    13
390
F
100
AcDbLine
 10
-89.725632
 20
-60.0
 30
0.0
 11
92.831619
 21
-60.0
 31
0.0
  0
LINE
  5
2FF
330
BC
100
AcDbEntity
  8
0
 62
     7
 48
0.375
370
    13
390
F
100
AcDbLine
 10
-92.225632
 20
-60.0
 30
0.0
 11
-92.225632
 21
-45.0
 31
0.0
  0
SOLID
  5
300
330
BC
100
AcDbEntity
  8
0
 62
     7
370
    13
390
F
100
AcDbTrace
 10
-93.297432
 20
-56.0
 30
0.0
 11
-92.225632
 21
-60.0
 31
0.0
 12
-91.153831
 22
-56.0
 32
0.0
 13
-91.153831
 23
-56.0
 33
0.0
  0
TEXT
  5
301
330
BC
100
AcDbEntity
  8
0
 62
     7
370
    13
390
F
100
AcDbText
 10
-89.600632
 20
-50.000099
 30
0.0
 40
3.5
  1
C
 41
1.577156363636367
 72
     5
 11
-86.564606
 21
-50.000099
 31
0.0
100
AcDbText
  0
LINE
  5
302
330
BC
100
AcDbEntity
  8
0
 62
     7
 48
0.375
370
    13
390
F
100
AcDbLine
 10
95.331619
 20
-60.0
 30
0.0
 11
95.331619
 21
-45.0
 31
0.0
  0
SOLID
  5
303
330
BC
100
AcDbEntity
  8
0
 62
     7
370
    13
390
F
100
AcDbTrace
 10
94.259819
 20
-56.0
 30
0.0
 11
95.331619
 21
-60.0
 31
0.0
 12
96.403419
 22
-56.0
 32
0.0
 13
96.403419
 23
-56.0
 33
0.0
  0
TEXT
  5
304
330
BC
100
AcDbEntity
  8
0
 62
     7
370
    13
390
F
100
AcDbText
 10
97.956619
 20
-50.000099
 30
0.0
 40
3.5
  1
C
 41
1.57715636363636
 72
     5
 11
100.992645
 21
-50.000099
 31
0.0
100
AcDbText
  0
ENDBLK
  5
AFC
330
BC
100
AcDbEntity
  8
0
100
AcDbBlockEnd
  0
BLOCK
  5
AFD
330
BD
100
AcDbEntity
  8
0
100
AcDbBlockBegin
  2
BLOCK418
 70
     0
 10
0.0
 20
0.0
 30
0.0
  3
BLOCK418
  1

  0
SOLID
  5
307
330
BD
100
AcDbEntity
  8
0
 62
     7
370
    13
390
F
100
AcDbTrace
 10
-79.068146
 20
93.449829
 30
0.0
 11
-81.0
 21
92.93219
 31
0.0
 12
-79.068146
 22
93.449829
 32
0.0
 13
-79.068146
 23
92.414551
 33
0.0
  0
SOLID
  5
308
330
BD
100
AcDbEntity
  8
0
 62
     7
370
    13
390
F
100
AcDbTrace
 10
-1.931852
 20
92.414551
 30
0.0
 11
-0.000001
 21
92.93219
 31
0.0
 12
-1.931852
 22
92.414551
 32
0.0
 13
-1.931852
 23
93.449829
 33
0.0
  0
TEXT
  5
309
330
BD
100
AcDbEntity
  8
0
 62
     7
370
    13
390
F
100
AcDbText
 10
-42.918587
 20
94.93219
 30
0.0
 40
2.5
  1
81
 41
1.843171802810194
 72
     5
 11
-38.081413
 21
94.93219
 31
0.0
100
AcDbText
  0
LINE
  5
30A
330
BD
100
AcDbEntity
  8
0
 62
     7
370
    13
390
F
100
AcDbLine
 10
-81.0
 20
71.0
 30
0.0
 11
-81.0
 21
94.93219
 31
0.0
  0
LINE
  5
30B
330
BD
100
AcDbEntity
  8
0
 62
     7
 48
0.250122
370
    13
390
F
100
AcDbLine
 10
-0.000001
 20
84.927307
 30
0.0
 11
-0.000001
 21
94.93219
 31
0.0
  0
LINE
  5
30C
330
BD
100
AcDbEntity
  8
0
 62
     7
370
    13
390
F
100
AcDbLine
 10
-79.068146
 20
92.93219
 30
0.0
 11
-1.931852
 21
92.93219
 31
0.0
  0
LWPOLYLINE
  5
30D
330
BD
100
AcDbEntity
  8
0
 62
     7
370
    13
390
F
100
AcDbPolyline
 90
        3
 70
     1
 43
0.0
 10
-79.068146
 20
93.449829
 10
-81.0
 20
92.93219
 10
-79.068146
 20
92.414551
  0
LWPOLYLINE
  5
312
330
BD
100
AcDbEntity
  8
0
 62
     7
370
    13
390
F
100
AcDbPolyline
 90
        3
 70
     1
 43
0.0
 10
-1.931852
 20
92.414551
 10
-0.000001
 20
92.93219
 10
-1.931852
 20
93.449829
  0
ENDBLK
  5
AFE
330
BD
100
AcDbEntity
  8
0
100
AcDbBlockEnd
  0
BLOCK
  5
AFF
330
BE
100
AcDbEntity
  8
0
100
AcDbBlockBegin
  2
BLOCK419
 70
     0
 10
0.0
 20
0.0
 30
0.0
  3
BLOCK419
  1

  0
SOLID
  5
319
330
BE
100
AcDbEntity
  8
0
 62
     7
370
    13
390
F
100
AcDbTrace
 10
79.068146
 20
92.447449
 30
0.0
 11
81.0
 21
92.965088
 31
0.0
 12
79.068146
 22
92.447449
 32
0.0
 13
79.068146
 23
93.482727
 33
0.0
  0
SOLID
  5
31A
330
BE
100
AcDbEntity
  8
0
 62
     7
370
    13
390
F
100
AcDbTrace
 10
1.931851
 20
93.482727
 30
0.0
 11
-0.000001
 21
92.965088
 31
0.0
 12
1.931851
 22
93.482727
 32
0.0
 13
1.931851
 23
92.447449
 33
0.0
  0
TEXT
  5
31B
330
BE
100
AcDbEntity
  8
0
 62
     7
370
    13
390
F
100
AcDbText
 10
38.081413
 20
94.965088
 30
0.0
 40
2.5
  1
81
 41
1.843171802810194
 72
     5
 11
42.918587
 21
94.965088
 31
0.0
100
AcDbText
  0
LINE
  5
31C
330
BE
100
AcDbEntity
  8
0
 62
     7
 48
0.250945
370
    13
390
F
100
AcDbLine
 10
-0.000001
 20
84.927307
 30
0.0
 11
-0.000001
 21
94.965088
 31
0.0
  0
LINE
  5
31D
330
BE
100
AcDbEntity
  8
0
 62
     7
370
    13
390
F
100
AcDbLine
 10
81.0
 20
71.0
 30
0.0
 11
81.0
 21
94.965088
 31
0.0
  0
LINE
  5
31E
330
BE
100
AcDbEntity
  8
0
 62
     7
370
    13
390
F
100
AcDbLine
 10
1.931851
 20
92.965088
 30
0.0
 11
79.068146
 21
92.965088
 31
0.0
  0
LWPOLYLINE
  5
31F
330
BE
100
AcDbEntity
  8
0
 62
     7
370
    13
390
F
100
AcDbPolyline
 90
        3
 70
     1
 43
0.0
 10
79.068146
 20
92.447449
 10
81.0
 20
92.965088
 10
79.068146
 20
93.482727
  0
LWPOLYLINE
  5
324
330
BE
100
AcDbEntity
  8
0
 62
     7
370
    13
390
F
100
AcDbPolyline
 90
        3
 70
     1
 43
0.0
 10
1.931851
 20
93.482727
 10
-0.000001
 20
92.965088
 10
1.931851
 20
92.447449
  0
ENDBLK
  5
B00
330
BE
100
AcDbEntity
  8
0
100
AcDbBlockEnd
  0
BLOCK
  5
B01
330
BF
100
AcDbEntity
  8
0
100
AcDbBlockBegin
  2
BLOCK420
 70
     0
 10
0.0
 20
0.0
 30
0.0
  3
BLOCK420
  1

  0
SOLID
  5
32B
330
BF
100
AcDbEntity
  8
0
 62
     7
370
    13
390
F
100
AcDbTrace
 10
95.874084
 20
73.068146
 30
0.0
 11
95.356445
 21
75.0
 31
0.0
 12
95.874084
 22
73.068146
 32
0.0
 13
94.838814
 23
73.068146
 33
0.0
  0
SOLID
  5
32C
330
BF
100
AcDbEntity
  8
0
 62
     7
370
    13
390
F
100
AcDbTrace
 10
94.838814
 20
1.931852
 30
0.0
 11
95.356445
 21
0.0
 31
0.0
 12
94.838814
 22
1.931852
 32
0.0
 13
95.874084
 23
1.931852
 33
0.0
  0
TEXT
  5
32D
330
BF
100
AcDbEntity
  8
0
 62
     7
370
    13
390
F
100
AcDbText
 10
93.356445
 20
35.081413
 30
0.0
 40
2.5
  1
75
 50
90.0
 41
1.547895680000001
 72
     5
 11
93.356445
 21
39.918587
 31
0.0
100
AcDbText
  0
LINE
  5
32E
330
BF
100
AcDbEntity
  8
0
 62
     7
 48
0.310728
370
    13
390
F
100
AcDbLine
 10
84.927307
 20
0.0
 30
0.0
 11
97.356445
 21
0.0
 31
0.0
  0
LINE
  5
32F
330
BF
100
AcDbEntity
  8
0
 62
     7
370
    13
390
F
100
AcDbLine
 10
34.0
 20
75.0
 30
0.0
 11
97.356445
 21
75.0
 31
0.0
  0
LINE
  5
330
330
BF
100
AcDbEntity
  8
0
 62
     7
370
    13
390
F
100
AcDbLine
 10
95.356445
 20
1.931852
 30
0.0
 11
95.356445
 21
73.068146
 31
0.0
  0
LWPOLYLINE
  5
331
330
BF
100
AcDbEntity
  8
0
 62
     7
370
    13
390
F
100
AcDbPolyline
 90
        3
 70
     1
 43
0.0
 10
95.874084
 20
73.068146
 10
95.356445
 20
75.0
 10
94.838814
 20
73.068146
  0
LWPOLYLINE
  5
336
330
BF
100
AcDbEntity
  8
0
 62
     7
370
    13
390
F
100
AcDbPolyline
 90
        3
 70
     1
 43
0.0
 10
94.838814
 20
1.931852
 10
95.356445
 20
0.0
 10
95.874084
 20
1.931852
  0
ENDBLK
  5
B02
330
BF
100
AcDbEntity
  8
0
100
AcDbBlockEnd
  0
BLOCK
  5
B03
330
C0
100
AcDbEntity
  8
0
100
AcDbBlockBegin
  2
BLOCK421
 70
     0
 10
0.0
 20
0.0
 30
0.0
  3
BLOCK421
  1

  0
SOLID
  5
33D
330
C0
100
AcDbEntity
  8
0
 62
     7
370
    13
390
F
100
AcDbTrace
 10
94.795815
 20
-25.068148
 30
0.0
 11
95.313454
 21
-27.0
 31
0.0
 12
94.795815
 22
-25.068148
 32
0.0
 13
95.831093
 23
-25.068148
 33
0.0
  0
SOLID
  5
33E
330
C0
100
AcDbEntity
  8
0
 62
     7
370
    13
390
F
100
AcDbTrace
 10
95.831093
 20
-1.931852
 30
0.0
 11
95.313454
 21
0.0
 31
0.0
 12
95.831093
 22
-1.931852
 32
0.0
 13
94.795815
 23
-1.931852
 33
0.0
  0
TEXT
  5
33F
330
C0
100
AcDbEntity
  8
0
 62
     7
370
    13
390
F
100
AcDbText
 10
93.313454
 20
-15.918588
 30
0.0
 40
2.5
  1
27
 50
90.0
 41
1.54789632
 72
     5
 11
93.313454
 21
-11.081412
 31
0.0
100
AcDbText
  0
LINE
  5
340
330
C0
100
AcDbEntity
  8
0
 62
     7
370
    13
390
F
100
AcDbLine
 10
7.809301
 20
-27.0
 30
0.0
 11
97.313454
 21
-27.0
 31
0.0
  0
LINE
  5
341
330
C0
100
AcDbEntity
  8
0
 62
     7
 48
0.309654
370
    13
390
F
100
AcDbLine
 10
84.927307
 20
0.0
 30
0.0
 11
97.313454
 21
0.0
 31
0.0
  0
LINE
  5
342
330
C0
100
AcDbEntity
  8
0
 62
     7
370
    13
390
F
100
AcDbLine
 10
95.313454
 20
-25.068148
 30
0.0
 11
95.313454
 21
-1.931852
 31
0.0
  0
LWPOLYLINE
  5
343
330
C0
100
AcDbEntity
  8
0
 62
     7
370
    13
390
F
100
AcDbPolyline
 90
        3
 70
     1
 43
0.0
 10
94.795815
 20
-25.068148
 10
95.313454
 20
-27.0
 10
95.831093
 20
-25.068148
  0
LWPOLYLINE
  5
348
330
C0
100
AcDbEntity
  8
0
 62
     7
370
    13
390
F
100
AcDbPolyline
 90
        3
 70
     1
 43
0.0
 10
95.831093
 20
-1.931852
 10
95.313454
 20
0.0
 10
94.795815
 20
-1.931852
  0
ENDBLK
  5
B04
330
C0
100
AcDbEntity
  8
0
100
AcDbBlockEnd
  0
BLOCK
  5
B05
330
C1
100
AcDbEntity
  8
0
100
AcDbBlockBegin
  2
BLOCK422
 70
     0
 10
0.0
 20
0.0
 30
0.0
  3
BLOCK422
  1

  0
SOLID
  5
34F
330
C1
100
AcDbEntity
  8
0
 62
     7
370
    13
390
F
100
AcDbTrace
 10
13.174703
 20
-10.648133
 30
0.0
 11
11.372505
 21
-9.780906
 31
0.0
 12
13.174703
 22
-10.648133
 32
0.0
 13
12.49964
 23
-11.433045
 33
0.0
  0
SOLID
  5
350
330
C1
100
AcDbEntity
  8
0
 62
     7
370
    13
390
F
100
AcDbTrace
 10
-13.174705
 20
10.648133
 30
0.0
 11
-11.372506
 21
9.780906
 31
0.0
 12
-13.174705
 22
10.648133
 32
0.0
 13
-12.499641
 23
11.433045
 33
0.0
  0
TEXT
  5
351
330
C1
100
AcDbEntity
  8
0
 62
     7
370
    13
390
F
100
AcDbText
 10
-18.547922
 20
18.59005
 30
0.0
 40
2.5
  1
30
 50
319.3028854985698
 41
1.546921852739083
 72
     5
 11
-14.880534
 21
15.43592
 31
0.0
100
AcDbText
  0
TEXT
  5
352
330
C1
100
AcDbEntity
  8
0
 62
     7
370
    13
390
F
100
AcDbText
 10
-21.201504
 20
20.872261
 30
0.0
 40
2.5
  1
%%c
 50
319.3028811112708
 41
1.333332760148036
 72
     5
 11
-19.306087
 21
19.242111
 31
0.0
100
AcDbText
  0
LINE
  5
353
330
C1
100
AcDbEntity
  8
0
 62
     7
 48
0.31881
370
    13
390
F
100
AcDbLine
 10
-22.505627
 20
19.355927
 30
0.0
 11
-12.837173
 21
11.040589
 31
0.0
  0
LINE
  5
354
330
C1
100
AcDbEntity
  8
0
 62
     7
370
    13
390
F
100
AcDbLine
 10
-11.372507
 20
9.780905
 30
0.0
 11
11.372505
 21
-9.780906
 31
0.0
  0
LINE
  5
355
330
C1
100
AcDbEntity
  8
0
 62
     7
 48
0.076704
370
    13
390
F
100
AcDbLine
 10
12.837172
 20
-11.040589
 30
0.0
 11
15.163341
 21
-13.041207
 31
0.0
  0
LWPOLYLINE
  5
356
330
C1
100
AcDbEntity
  8
0
 62
     7
370
    13
390
F
100
AcDbPolyline
 90
        3
 70
     1
 43
0.0
 10
13.174703
 20
-10.648133
 10
11.372505
 20
-9.780906
 10
12.49964
 20
-11.433045
  0
LWPOLYLINE
  5
35B
330
C1
100
AcDbEntity
  8
0
 62
     7
370
    13
390
F
100
AcDbPolyline
 90
        3
 70
     1
 43
0.0
 10
-13.174705
 20
10.648133
 10
-11.372506
 20
9.780906
 10
-12.499641
 20
11.433045
  0
ENDBLK
  5
B06
330
C1
100
AcDbEntity
  8
0
100
AcDbBlockEnd
  0
BLOCK
  5
B07
330
C2
100
AcDbEntity
  8
0
100
AcDbBlockBegin
  2
BLOCK423
 70
     0
 10
0.0
 20
0.0
 30
0.0
  3
BLOCK423
  1

  0
SOLID
  5
362
330
C2
100
AcDbEntity
  8
0
 62
     7
370
    13
390
F
100
AcDbTrace
 10
4.29713
 20
-29.475031
 30
0.0
 11
2.429126
 21
-28.760496
 31
0.0
 12
4.29713
 22
-29.475031
 32
0.0
 13
3.689596
 23
-30.313305
 33
0.0
  0
SOLID
  5
363
330
C2
100
AcDbEntity
  8
0
 62
     7
370
    13
390
F
100
AcDbTrace
 10
-4.297131
 20
-24.524969
 30
0.0
 11
-2.429127
 21
-25.239504
 31
0.0
 12
-4.297131
 22
-24.524969
 32
0.0
 13
-3.689598
 23
-23.686695
 33
0.0
  0
TEXT
  5
364
330
C2
100
AcDbEntity
  8
0
 62
     7
370
    13
390
F
100
AcDbText
 10
-7.059932
 20
-19.413332
 30
0.0
 40
2.5
  1
6
 50
324.0675486358307
 41
1.577153933293032
 72
     5
 11
-5.304007
 21
-20.685926
 31
0.0
100
AcDbText
  0
TEXT
  5
365
330
C2
100
AcDbEntity
  8
0
 62
     7
370
    13
390
F
100
AcDbText
 10
-9.893912
 20
-17.359419
 30
0.0
 40
2.5
  1
%%c
 50
324.0675167310054
 41
1.333333543548784
 72
     5
 11
-7.869639
 21
-18.826498
 31
0.0
100
AcDbText
  0
LINE
  5
366
330
C2
100
AcDbEntity
  8
0
 62
     7
 48
0.218418
370
    13
390
F
100
AcDbLine
 10
-11.067576
 20
-18.978836
 30
0.0
 11
-3.993364
 21
-24.105831
 31
0.0
  0
LINE
  5
367
330
C2
100
AcDbEntity
  8
0
 62
     7
 48
0.15
370
    13
390
F
100
AcDbLine
 10
-2.429127
 20
-25.239504
 30
0.0
 11
2.429126
 21
-28.760496
 31
0.0
  0
LINE
  5
368
330
C2
100
AcDbEntity
  8
0
 62
     7
 48
0.076704
370
    13
390
F
100
AcDbLine
 10
3.993363
 20
-29.894167
 30
0.0
 11
6.47767
 21
-31.694654
 31
0.0
  0
LWPOLYLINE
  5
369
330
C2
100
AcDbEntity
  8
0
 62
     7
370
    13
390
F
100
AcDbPolyline
 90
        3
 70
     1
 43
0.0
 10
4.29713
 20
-29.475031
 10
2.429126
 20
-28.760496
 10
3.689596
 20
-30.313305
  0
LWPOLYLINE
  5
36E
330
C2
100
AcDbEntity
  8
0
 62
     7
370
    13
390
F
100
AcDbPolyline
 90
        3
 70
     1
 43
0.0
 10
-4.297131
 20
-24.524969
 10
-2.429127
 20
-25.239504
 10
-3.689598
 20
-23.686695
  0
ENDBLK
  5
B08
330
C2
100
AcDbEntity
  8
0
100
AcDbBlockEnd
  0
BLOCK
  5
B09
330
C3
100
AcDbEntity
  8
0
100
AcDbBlockBegin
  2
BLOCK424
 70
     0
 10
0.0
 20
0.0
 30
0.0
  3
BLOCK424
  1

  0
LINE
  5
375
330
C3
100
AcDbEntity
  8
0
  6
DASHDOT
 62
     7
 48
0.325
370
    13
390
F
100
AcDbLine
 10
76.5
 20
-60.0
 30
0.0
 11
63.5
 21
-60.0
 31
0.0
  0
LINE
  5
376
330
C3
100
AcDbEntity
  8
0
  6
DASHDOT
 62
     7
 48
0.325
370
    13
390
F
100
AcDbLine
 10
70.0
 20
-53.5
 30
0.0
 11
70.0
 21
-66.5
 31
0.0
  0
ENDBLK
  5
B0A
330
C3
100
AcDbEntity
  8
0
100
AcDbBlockEnd
  0
BLOCK
  5
B0B
330
C4
100
AcDbEntity
  8
0
100
AcDbBlockBegin
  2
BLOCK425
 70
     0
 10
0.0
 20
0.0
 30
0.0
  3
BLOCK425
  1

  0
LINE
  5
379
330
C4
100
AcDbEntity
  8
0
  6
DASHDOT
 62
     7
 48
0.325
370
    13
390
F
100
AcDbLine
 10
76.5
 20
60.0
 30
0.0
 11
63.5
 21
60.0
 31
0.0
  0
LINE
  5
37A
330
C4
100
AcDbEntity
  8
0
  6
DASHDOT
 62
     7
 48
0.325
370
    13
390
F
100
AcDbLine
 10
70.0
 20
66.5
 30
0.0
 11
70.0
 21
53.5
 31
0.0
  0
ENDBLK
  5
B0C
330
C4
100
AcDbEntity
  8
0
100
AcDbBlockEnd
  0
BLOCK
  5
B0D
330
C5
100
AcDbEntity
  8
0
100
AcDbBlockBegin
  2
BLOCK426
 70
     0
 10
0.0
 20
0.0
 30
0.0
  3
BLOCK426
  1

  0
LINE
  5
37D
330
C5
100
AcDbEntity
  8
0
  6
DASHDOT
 62
     7
 48
0.340465
370
    13
390
F
100
AcDbLine
 10
6.809301
 20
-27.0
 30
0.0
 11
-6.809302
 21
-27.0
 31
0.0
  0
LINE
  5
37E
330
C5
100
AcDbEntity
  8
0
  6
DASHDOT
 62
     7
 48
0.340465
370
    13
390
F
100
AcDbLine
 10
-0.000001
 20
-20.190699
 30
0.0
 11
-0.000001
 21
-33.809303
 31
0.0
  0
ENDBLK
  5
B0E
330
C5
100
AcDbEntity
  8
0
100
AcDbBlockEnd
  0
BLOCK
  5
B0F
330
C6
100
AcDbEntity
  8
0
100
AcDbBlockBegin
  2
BLOCK427
 70
     0
 10
0.0
 20
0.0
 30
0.0
  3
BLOCK427
  1

  0
LINE
  5
381
330
C6
100
AcDbEntity
  8
0
  6
DASHDOT
 62
     7
370
    13
390
F
100
AcDbLine
 10
83.927307
 20
0.0
 30
0.0
 11
-83.927307
 21
0.0
 31
0.0
  0
LINE
  5
382
330
C6
100
AcDbEntity
  8
0
  6
DASHDOT
 62
     7
370
    13
390
F
100
AcDbLine
 10
-0.000001
 20
83.927307
 30
0.0
 11
-0.000001
 21
-83.927307
 31
0.0
  0
ENDBLK
  5
B10
330
C6
100
AcDbEntity
  8
0
100
AcDbBlockEnd
  0
BLOCK
  5
B11
330
C7
100
AcDbEntity
  8
0
100
AcDbBlockBegin
  2
BLOCK428
 70
     0
 10
0.0
 20
0.0
 30
0.0
  3
BLOCK428
  1

  0
LINE
  5
385
330
C7
100
AcDbEntity
  8
0
  6
DASHDOT
 62
     7
 48
0.325
370
    13
390
F
100
AcDbLine
 10
-63.5
 20
-60.0
 30
0.0
 11
-76.5
 21
-60.0
 31
0.0
  0
LINE
  5
386
330
C7
100
AcDbEntity
  8
0
  6
DASHDOT
 62
     7
 48
0.325
370
    13
390
F
100
AcDbLine
 10
-70.0
 20
-53.5
 30
0.0
 11
-70.0
 21
-66.5
 31
0.0
  0
ENDBLK
  5
B12
330
C7
100
AcDbEntity
  8
0
100
AcDbBlockEnd
  0
BLOCK
  5
B13
330
C8
100
AcDbEntity
  8
0
100
AcDbBlockBegin
  2
BLOCK429
 70
     0
 10
0.0
 20
0.0
 30
0.0
  3
BLOCK429
  1

  0
LINE
  5
389
330
C8
100
AcDbEntity
  8
0
  6
DASHDOT
 62
     7
 48
0.325
370
    13
390
F
100
AcDbLine
 10
-63.5
 20
60.0
 30
0.0
 11
-76.5
 21
60.0
 31
0.0
  0
LINE
  5
38A
330
C8
100
AcDbEntity
  8
0
  6
DASHDOT
 62
     7
 48
0.325
370
    13
390
F
100
AcDbLine
 10
-70.0
 20
66.5
 30
0.0
 11
-70.0
 21
53.5
 31
0.0
  0
ENDBLK
  5
B14
330
C8
100
AcDbEntity
  8
0
100
AcDbBlockEnd
  0
BLOCK
  5
B15
330
C9
100
AcDbEntity
  8
0
100
AcDbBlockBegin
  2
BLOCK430
 70
     0
 10
0.0
 20
0.0
 30
0.0
  3
BLOCK430
  1

  0
ARC
  5
38D
330
C9
100
AcDbEntity
  8
0
 62
     7
370
    35
390
F
100
AcDbCircle
 10
-0.007047
 20
38.989201
 30
0.0
 40
28.786374
100
AcDbArc
 50
251.11895
 51
270.01402
  0
ARC
  5
38E
330
C9
100
AcDbEntity
  8
0
 62
     7
370
    35
390
F
100
AcDbCircle
 10
0.00715
 20
38.989212
 30
0.0
 40
28.786365
100
AcDbArc
 50
269.985763
 51
288.880375
  0
LINE
  5
38F
330
C9
100
AcDbEntity
  8
0
 62
     7
 48
0.448223
370
    35
390
F
100
AcDbLine
 10
-58.071068
 20
75.0
 30
0.0
 11
-76.0
 21
75.0
 31
0.0
  0
LINE
  5
390
330
C9
100
AcDbEntity
  8
0
 62
     7
 48
0.141421
370
    35
390
F
100
AcDbLine
 10
-52.414215
 20
75.0
 30
0.0
 11
-58.071068
 21
75.0
 31
0.0
  0
LINE
  5
391
330
C9
100
AcDbEntity
  8
0
 62
     7
 48
0.301777
370
    35
390
F
100
AcDbLine
 10
-40.343147
 20
75.0
 30
0.0
 11
-52.414215
 21
75.0
 31
0.0
  0
LINE
  5
392
330
C9
100
AcDbEntity
  8
0
 62
     7
 48
0.058579
370
    35
390
F
100
AcDbLine
 10
-38.0
 20
75.0
 30
0.0
 11
-40.343147
 21
75.0
 31
0.0
  0
LINE
  5
393
330
C9
100
AcDbEntity
  8
0
 62
     7
 48
0.125
370
    35
390
F
100
AcDbLine
 10
-33.0
 20
75.0
 30
0.0
 11
-38.0
 21
75.0
 31
0.0
  0
LINE
  5
394
330
C9
100
AcDbEntity
  8
0
 62
     7
370
    35
390
F
100
AcDbLine
 10
33.0
 20
75.0
 30
0.0
 11
-33.0
 21
75.0
 31
0.0
  0
LINE
  5
395
330
C9
100
AcDbEntity
  8
0
 62
     7
 48
0.125
370
    35
390
F
100
AcDbLine
 10
38.0
 20
75.0
 30
0.0
 11
33.0
 21
75.0
 31
0.0
  0
LINE
  5
396
330
C9
100
AcDbEntity
  8
0
 62
     7
 48
0.058579
370
    35
390
F
100
AcDbLine
 10
40.343147
 20
75.0
 30
0.0
 11
38.0
 21
75.0
 31
0.0
  0
LINE
  5
397
330
C9
100
AcDbEntity
  8
0
 62
     7
 48
0.301777
370
    35
390
F
100
AcDbLine
 10
40.343147
 20
75.0
 30
0.0
 11
52.414215
 21
75.0
 31
0.0
  0
LINE
  5
398
330
C9
100
AcDbEntity
  8
0
 62
     7
 48
0.141421
370
    35
390
F
100
AcDbLine
 10
58.071068
 20
75.0
 30
0.0
 11
52.414215
 21
75.0
 31
0.0
  0
LINE
  5
399
330
C9
100
AcDbEntity
  8
0
 62
     7
 48
0.448223
370
    35
390
F
100
AcDbLine
 10
76.0
 20
75.0
 30
0.0
 11
58.071068
 21
75.0
 31
0.0
  0
ELLIPSE
  5
39A
330
C9
100
AcDbEntity
  8
0
 62
     7
370
    35
390
F
100
AcDbEllipse
 10
-48.928932
 20
60.0
 30
0.0
 11
-9.000000000000000E-16
 21
-5.0
 31
0.0
210
0.0
220
0.0
230
1.0
 40
0.707107
 41
0.3045806792556778
 42
2.837011790814418
  0
ELLIPSE
  5
39B
330
C9
100
AcDbEntity
  8
0
 62
     7
370
    35
390
F
100
AcDbEllipse
 10
-48.928932
 20
-60.0
 30
0.0
 11
-9.000000000000000E-16
 21
-5.0
 31
0.0
210
0.0
220
0.0
230
1.0
 40
0.707107
 41
0.3045806792556698
 42
2.837011790814424
  0
ARC
  5
39C
330
C9
100
AcDbEntity
  8
0
 62
     7
370
    35
390
F
100
AcDbCircle
 10
-76.0
 20
70.0
 30
0.0
 40
5.0
100
AcDbArc
 50
90.000003
 51
180.000005
  0
LINE
  5
39D
330
C9
100
AcDbEntity
  8
0
 62
     7
370
    13
390
F
100
AcDbLine
 10
-58.071068
 20
-75.0
 30
0.0
 11
-58.071068
 21
75.0
 31
0.0
  0
LINE
  5
39E
330
C9
100
AcDbEntity
  8
0
 62
     7
370
    35
390
F
100
AcDbLine
 10
-81.0
 20
-70.0
 30
0.0
 11
-81.0
 21
70.0
 31
0.0
  0
ARC
  5
39F
330
C9
100
AcDbEntity
  8
0
 62
     7
370
    35
390
F
100
AcDbCircle
 10
-76.0
 20
-70.0
 30
0.0
 40
5.0
100
AcDbArc
 50
180.000005
 51
269.999997
  0
LINE
  5
3A0
330
C9
100
AcDbEntity
  8
0
 62
     7
 48
0.448223
370
    35
390
F
100
AcDbLine
 10
-58.071068
 20
-75.0
 30
0.0
 11
-76.0
 21
-75.0
 31
0.0
  0
CIRCLE
  5
3A1
330
C9
100
AcDbEntity
  8
0
 62
     7
370
    35
390
F
100
AcDbCircle
 10
-70.0
 20
60.0
 30
0.0
 40
5.0
  0
CIRCLE
  5
3A2
330
C9
100
AcDbEntity
  8
0
 62
     7
370
    35
390
F
100
AcDbCircle
 10
-70.0
 20
-60.0
 30
0.0
 40
5.0
  0
LINE
  5
3A3
330
C9
100
AcDbEntity
  8
0
 62
     7
370
    13
390
F
100
AcDbLine
 10
-40.343147
 20
-75.0
 30
0.0
 11
-40.343147
 21
75.0
 31
0.0
  0
LINE
  5
3A4
330
C9
100
AcDbEntity
  8
0
 62
     7
370
    13
390
F
100
AcDbLine
 10
-52.414215
 20
-75.0
 30
0.0
 11
-52.414215
 21
75.0
 31
0.0
  0
LINE
  5
3A5
330
C9
100
AcDbEntity
  8
0
 62
     7
 48
0.301777
370
    35
390
F
100
AcDbLine
 10
-40.343147
 20
-75.0
 30
0.0
 11
-52.414215
 21
-75.0
 31
0.0
  0
ELLIPSE
  5
3A6
330
C9
100
AcDbEntity
  8
0
 62
     7
370
    35
390
F
100
AcDbEllipse
 10
-46.807613
 20
60.0
 30
0.0
 11
3.000000000000000E-16
 21
5.0
 31
0.0
210
0.0
220
0.0
230
1.0
 40
0.707107
 41
3.141592653589794
 42
6.283185307179584
  0
ELLIPSE
  5
3A7
330
C9
100
AcDbEntity
  8
0
 62
     7
370
    35
390
F
100
AcDbEllipse
 10
-46.807613
 20
60.0
 30
0.0
 11
3.000000000000000E-16
 21
5.0
 31
0.0
210
0.0
220
0.0
230
1.0
 40
0.707107
 41
0.0000000000000004
 42
3.141592653589792
  0
ELLIPSE
  5
3A8
330
C9
100
AcDbEntity
  8
0
 62
     7
370
    35
390
F
100
AcDbEllipse
 10
-46.807613
 20
-60.0
 30
0.0
 11
3.000000000000000E-16
 21
5.0
 31
0.0
210
0.0
220
0.0
230
1.0
 40
0.707107
 41
0.0000000000000004
 42
3.141592653589792
  0
ELLIPSE
  5
3A9
330
C9
100
AcDbEntity
  8
0
 62
     7
370
    35
390
F
100
AcDbEllipse
 10
-46.807613
 20
-60.0
 30
0.0
 11
3.000000000000000E-16
 21
5.0
 31
0.0
210
0.0
220
0.0
230
1.0
 40
0.707107
 41
3.141592653589792
 42
6.283185307179586
  0
LINE
  5
3AA
330
C9
100
AcDbEntity
  8
0
 62
     7
370
    35
390
F
100
AcDbLine
 10
-38.0
 20
-75.0
 30
0.0
 11
-38.0
 21
75.0
 31
0.0
  0
LINE
  5
3AB
330
C9
100
AcDbEntity
  8
0
 62
     7
 48
0.125
370
    35
390
F
100
AcDbLine
 10
-33.0
 20
-75.0
 30
0.0
 11
-38.0
 21
-75.0
 31
0.0
  0
LINE
  5
3AC
330
C9
100
AcDbEntity
  8
0
 62
     7
370
    13
390
F
100
AcDbLine
 10
-33.0
 20
-75.0
 30
0.0
 11
-33.0
 21
75.0
 31
0.0
  0
LINE
  5
3AD
330
C9
100
AcDbEntity
  8
0
 62
     7
370
    35
390
F
100
AcDbLine
 10
38.0
 20
-75.0
 30
0.0
 11
38.0
 21
75.0
 31
0.0
  0
LINE
  5
3AE
330
C9
100
AcDbEntity
  8
0
 62
     7
 48
0.058579
370
    35
390
F
100
AcDbLine
 10
40.343147
 20
-75.0
 30
0.0
 11
38.0
 21
-75.0
 31
0.0
  0
LINE
  5
3AF
330
C9
100
AcDbEntity
  8
0
 62
     7
370
    13
390
F
100
AcDbLine
 10
40.343147
 20
-75.0
 30
0.0
 11
40.343147
 21
75.0
 31
0.0
  0
LINE
  5
3B0
330
C9
100
AcDbEntity
  8
0
 62
     7
370
    13
390
F
100
AcDbLine
 10
52.414215
 20
-75.0
 30
0.0
 11
52.414215
 21
75.0
 31
0.0
  0
LINE
  5
3B1
330
C9
100
AcDbEntity
  8
0
 62
     7
 48
0.141421
370
    35
390
F
100
AcDbLine
 10
58.071068
 20
-75.0
 30
0.0
 11
52.414215
 21
-75.0
 31
0.0
  0
LINE
  5
3B2
330
C9
100
AcDbEntity
  8
0
 62
     7
370
    13
390
F
100
AcDbLine
 10
58.071068
 20
-75.0
 30
0.0
 11
58.071068
 21
75.0
 31
0.0
  0
ARC
  5
3B3
330
C9
100
AcDbEntity
  8
0
 62
     7
370
    35
390
F
100
AcDbCircle
 10
76.0
 20
-70.0
 30
0.0
 40
5.0
100
AcDbArc
 50
269.999997
 51
0.0
  0
LINE
  5
3B4
330
C9
100
AcDbEntity
  8
0
 62
     7
370
    35
390
F
100
AcDbLine
 10
81.0
 20
-70.0
 30
0.0
 11
81.0
 21
70.0
 31
0.0
  0
CIRCLE
  5
3B5
330
C9
100
AcDbEntity
  8
0
 62
     7
370
    35
390
F
100
AcDbCircle
 10
70.0
 20
-60.0
 30
0.0
 40
5.0
  0
CIRCLE
  5
3B6
330
C9
100
AcDbEntity
  8
0
 62
     7
370
    35
390
F
100
AcDbCircle
 10
70.0
 20
60.0
 30
0.0
 40
5.0
  0
ELLIPSE
  5
3B7
330
C9
100
AcDbEntity
  8
0
 62
     7
370
    35
390
F
100
AcDbEllipse
 10
48.928932
 20
-60.0
 30
0.0
 11
-9.000000000000000E-16
 21
-5.0
 31
0.0
210
0.0
220
0.0
230
1.0
 40
0.707107
 41
3.446173586364615
 42
5.97860455792422
  0
ELLIPSE
  5
3B8
330
C9
100
AcDbEntity
  8
0
 62
     7
370
    35
390
F
100
AcDbEllipse
 10
46.807613
 20
-60.0
 30
0.0
 11
3.000000000000000E-16
 21
5.0
 31
0.0
210
0.0
220
0.0
230
1.0
 40
0.707107
 41
0.0
 42
3.141592653589793
  0
ELLIPSE
  5
3B9
330
C9
100
AcDbEntity
  8
0
 62
     7
370
    35
390
F
100
AcDbEllipse
 10
46.807613
 20
-60.0
 30
0.0
 11
3.000000000000000E-16
 21
5.0
 31
0.0
210
0.0
220
0.0
230
1.0
 40
0.707107
 41
3.141592653589793
 42
6.283185307179586
  0
ELLIPSE
  5
3BA
330
C9
100
AcDbEntity
  8
0
 62
     7
370
    35
390
F
100
AcDbEllipse
 10
46.807613
 20
60.0
 30
0.0
 11
3.000000000000000E-16
 21
5.0
 31
0.0
210
0.0
220
0.0
230
1.0
 40
0.707107
 41
3.141592653589793
 42
6.283185307179586
  0
ELLIPSE
  5
3BB
330
C9
100
AcDbEntity
  8
0
 62
     7
370
    35
390
F
100
AcDbEllipse
 10
48.928932
 20
60.0
 30
0.0
 11
-9.000000000000000E-16
 21
-5.0
 31
0.0
210
0.0
220
0.0
230
1.0
 40
0.707107
 41
3.44617358636461
 42
5.978604557924235
  0
ELLIPSE
  5
3BC
330
C9
100
AcDbEntity
  8
0
 62
     7
370
    35
390
F
100
AcDbEllipse
 10
46.807613
 20
60.0
 30
0.0
 11
3.000000000000000E-16
 21
5.0
 31
0.0
210
0.0
220
0.0
230
1.0
 40
0.707107
 41
0.0000000000000015
 42
3.141592653589791
  0
CIRCLE
  5
3BD
330
C9
100
AcDbEntity
  8
0
 62
     7
370
    35
390
F
100
AcDbCircle
 10
-0.000001
 20
-27.0
 30
0.0
 40
3.0
  0
CIRCLE
  5
3BE
330
C9
100
AcDbEntity
  8
0
 62
     7
370
    35
390
F
100
AcDbCircle
 10
-0.000001
 20
0.0
 30
0.0
 40
15.0
  0
ARC
  5
3BF
330
C9
100
AcDbEntity
  8
0
 62
     7
370
    35
390
F
100
AcDbCircle
 10
-0.000001
 20
0.0
 30
0.0
 40
28.0
100
AcDbArc
 50
264.103441
 51
275.896554
  0
ARC
  5
3C0
330
C9
100
AcDbEntity
  8
0
 62
     7
370
    35
390
F
100
AcDbCircle
 10
76.0
 20
70.0
 30
0.0
 40
5.0
100
AcDbArc
 50
0.0
 51
90.000003
  0
LINE
  5
3C1
330
C9
100
AcDbEntity
  8
0
 62
     7
 48
0.448223
370
    35
390
F
100
AcDbLine
 10
76.0
 20
-75.0
 30
0.0
 11
58.071068
 21
-75.0
 31
0.0
  0
LINE
  5
3C2
330
C9
100
AcDbEntity
  8
0
 62
     7
 48
0.301777
370
    35
390
F
100
AcDbLine
 10
40.343147
 20
-75.0
 30
0.0
 11
52.414215
 21
-75.0
 31
0.0
  0
LINE
  5
3C3
330
C9
100
AcDbEntity
  8
0
 62
     7
370
    13
390
F
100
AcDbLine
 10
33.0
 20
-75.0
 30
0.0
 11
33.0
 21
75.0
 31
0.0
  0
LINE
  5
3C4
330
C9
100
AcDbEntity
  8
0
 62
     7
 48
0.125
370
    35
390
F
100
AcDbLine
 10
38.0
 20
-75.0
 30
0.0
 11
33.0
 21
-75.0
 31
0.0
  0
LINE
  5
3C5
330
C9
100
AcDbEntity
  8
0
 62
     7
370
    35
390
F
100
AcDbLine
 10
33.0
 20
-75.0
 30
0.0
 11
-33.0
 21
-75.0
 31
0.0
  0
LINE
  5
3C6
330
C9
100
AcDbEntity
  8
0
 62
     7
 48
0.058579
370
    35
390
F
100
AcDbLine
 10
-38.0
 20
-75.0
 30
0.0
 11
-40.343147
 21
-75.0
 31
0.0
  0
LINE
  5
3C7
330
C9
100
AcDbEntity
  8
0
 62
     7
 48
0.141421
370
    35
390
F
100
AcDbLine
 10
-52.414215
 20
-75.0
 30
0.0
 11
-58.071068
 21
-75.0
 31
0.0
  0
ENDBLK
  5
B16
330
C9
100
AcDbEntity
  8
0
100
AcDbBlockEnd
  0
BLOCK
  5
B17
330
CA
100
AcDbEntity
  8
0
100
AcDbBlockBegin
  2
BLOCK431
 70
     0
 10
0.0
 20
0.0
 30
0.0
  3
BLOCK431
  1

  0
SOLID
  5
3CA
330
CA
100
AcDbEntity
  8
0
 62
     7
370
    13
390
F
100
AcDbTrace
 10
4.931852
 20
-95.591606
 30
0.0
 11
3.000001
 21
-96.109245
 31
0.0
 12
4.931852
 22
-95.591606
 32
0.0
 13
4.931852
 23
-96.626884
 33
0.0
  0
SOLID
  5
3CB
330
CA
100
AcDbEntity
  8
0
 62
     7
370
    13
390
F
100
AcDbTrace
 10
-1.931851
 20
-96.626884
 30
0.0
 11
0.000001
 21
-96.109245
 31
0.0
 12
-1.931851
 22
-96.626884
 32
0.0
 13
-1.931851
 23
-95.591606
 33
0.0
  0
TEXT
  5
3CC
330
CA
100
AcDbEntity
  8
0
 62
     7
370
    13
390
F
100
AcDbText
 10
9.816402
 20
-94.109245
 30
0.0
 40
2.5
  1
3
 41
1.577155636363637
 72
     5
 11
11.984991
 21
-94.109245
 31
0.0
100
AcDbText
  0
LINE
  5
3CD
330
CA
100
AcDbEntity
  8
0
 62
     7
 48
0.402731
370
    13
390
F
100
AcDbLine
 10
0.000001
 20
-82.0
 30
0.0
 11
0.000001
 21
-98.109245
 31
0.0
  0
LINE
  5
3CE
330
CA
100
AcDbEntity
  8
0
 62
     7
 48
0.402731
370
    13
390
F
100
AcDbLine
 10
3.000001
 20
-82.0
 30
0.0
 11
3.000001
 21
-98.109245
 31
0.0
  0
LINE
  5
3CF
330
CA
100
AcDbEntity
  8
0
 62
     7
 48
0.076704
370
    13
390
F
100
AcDbLine
 10
-5.0
 20
-96.109245
 30
0.0
 11
-1.931851
 21
-96.109245
 31
0.0
  0
LINE
  5
3D0
330
CA
100
AcDbEntity
  8
0
 62
     7
 48
0.075
370
    13
390
F
100
AcDbLine
 10
0.000001
 20
-96.109245
 30
0.0
 11
3.000001
 21
-96.109245
 31
0.0
  0
LINE
  5
3D1
330
CA
100
AcDbEntity
  8
0
 62
     7
 48
0.176328
370
    13
390
F
100
AcDbLine
 10
4.931852
 20
-96.109245
 30
0.0
 11
11.98499
 21
-96.109245
 31
0.0
  0
LWPOLYLINE
  5
3D2
330
CA
100
AcDbEntity
  8
0
 62
     7
370
    13
390
F
100
AcDbPolyline
 90
        3
 70
     1
 43
0.0
 10
4.931852
 20
-95.591606
 10
3.000001
 20
-96.109245
 10
4.931852
 20
-96.626884
  0
LWPOLYLINE
  5
3D7
330
CA
100
AcDbEntity
  8
0
 62
     7
370
    13
390
F
100
AcDbPolyline
 90
        3
 70
     1
 43
0.0
 10
-1.931851
 20
-96.626884
 10
0.000001
 20
-96.109245
 10
-1.931851
 20
-95.591606
  0
ENDBLK
  5
B18
330
CA
100
AcDbEntity
  8
0
100
AcDbBlockEnd
  0
BLOCK
  5
B19
330
CB
100
AcDbEntity
  8
0
100
AcDbBlockBegin
  2
BLOCK432
 70
     0
 10
0.0
 20
0.0
 30
0.0
  3
BLOCK432
  1

  0
SOLID
  5
3DE
330
CB
100
AcDbEntity
  8
0
 62
     7
370
    13
390
F
100
AcDbTrace
 10
1.931852
 20
-108.46833
 30
0.0
 11
0.000001
 21
-108.98597
 31
0.0
 12
1.931852
 22
-108.46833
 32
0.0
 13
1.931852
 23
-109.503609
 33
0.0
  0
SOLID
  5
3DF
330
CB
100
AcDbEntity
  8
0
 62
     7
370
    13
390
F
100
AcDbTrace
 10
76.068146
 20
-109.503609
 30
0.0
 11
78.0
 21
-108.98597
 31
0.0
 12
76.068146
 22
-109.503609
 32
0.0
 13
76.068146
 23
-108.46833
 33
0.0
  0
TEXT
  5
3E0
330
CB
100
AcDbEntity
  8
0
 62
     7
370
    13
390
F
100
AcDbText
 10
36.581413
 20
-106.98597
 30
0.0
 40
2.5
  1
78
 41
1.548205321064214
 72
     5
 11
41.418587
 21
-106.98597
 31
0.0
100
AcDbText
  0
LINE
  5
3E1
330
CB
100
AcDbEntity
  8
0
 62
     7
370
    13
390
F
100
AcDbLine
 10
0.000001
 20
-77.0
 30
0.0
 11
0.000001
 21
-110.98597
 31
0.0
  0
LINE
  5
3E2
330
CB
100
AcDbEntity
  8
0
 62
     7
370
    13
390
F
100
AcDbLine
 10
78.0
 20
-34.0
 30
0.0
 11
78.0
 21
-110.98597
 31
0.0
  0
LINE
  5
3E3
330
CB
100
AcDbEntity
  8
0
 62
     7
370
    13
390
F
100
AcDbLine
 10
1.931852
 20
-108.98597
 30
0.0
 11
76.068146
 21
-108.98597
 31
0.0
  0
LWPOLYLINE
  5
3E4
330
CB
100
AcDbEntity
  8
0
 62
     7
370
    13
390
F
100
AcDbPolyline
 90
        3
 70
     1
 43
0.0
 10
1.931852
 20
-108.46833
 10
0.000001
 20
-108.98597
 10
1.931852
 20
-109.503609
  0
LWPOLYLINE
  5
3E9
330
CB
100
AcDbEntity
  8
0
 62
     7
370
    13
390
F
100
AcDbPolyline
 90
        3
 70
     1
 43
0.0
 10
76.068146
 20
-109.503609
 10
78.0
 20
-108.98597
 10
76.068146
 20
-108.46833
  0
ENDBLK
  5
B1A
330
CB
100
AcDbEntity
  8
0
100
AcDbBlockEnd
  0
BLOCK
  5
B1B
330
CC
100
AcDbEntity
  8
0
100
AcDbBlockBegin
  2
BLOCK433
 70
     0
 10
0.0
 20
0.0
 30
0.0
  3
BLOCK433
  1

  0
SOLID
  5
3F0
330
CC
100
AcDbEntity
  8
0
 62
     7
370
    13
390
F
100
AcDbTrace
 10
293.051575
 20
-127.717606
 30
0.0
 11
294.983429
 21
-127.199974
 31
0.0
 12
293.051575
 22
-127.717606
 32
0.0
 13
293.051575
 23
-126.682335
 33
0.0
  0
SOLID
  5
3F1
330
CC
100
AcDbEntity
  8
0
 62
     7
370
    13
390
F
100
AcDbTrace
 10
1.931852
 20
-126.682335
 30
0.0
 11
0.000001
 21
-127.199974
 31
0.0
 12
1.931852
 22
-126.682335
 32
0.0
 13
1.931852
 23
-127.717606
 33
0.0
  0
TEXT
  5
3F2
330
CC
100
AcDbEntity
  8
0
 62
     7
370
    13
390
F
100
AcDbText
 10
143.738831
 20
-125.199974
 30
0.0
 40
2.5
  1
295
 41
1.536890459897236
 72
     5
 11
151.244598
 21
-125.199974
 31
0.0
100
AcDbText
  0
LINE
  5
3F3
330
CC
100
AcDbEntity
  8
0
 62
     7
370
    13
390
F
100
AcDbLine
 10
0.000001
 20
-77.0
 30
0.0
 11
0.000001
 21
-129.199966
 31
0.0
  0
LINE
  5
3F4
330
CC
100
AcDbEntity
  8
0
 62
     7
370
    13
390
F
100
AcDbLine
 10
294.983429
 20
-0.999776
 30
0.0
 11
294.983429
 21
-129.199966
 31
0.0
  0
LINE
  5
3F5
330
CC
100
AcDbEntity
  8
0
 62
     7
370
    13
390
F
100
AcDbLine
 10
1.931852
 20
-127.199974
 30
0.0
 11
293.051575
 21
-127.199974
 31
0.0
  0
LWPOLYLINE
  5
3F6
330
CC
100
AcDbEntity
  8
0
 62
     7
370
    13
390
F
100
AcDbPolyline
 90
        3
 70
     1
 43
0.0
 10
293.051575
 20
-127.717606
 10
294.983429
 20
-127.199974
 10
293.051575
 20
-126.682335
  0
LWPOLYLINE
  5
3FB
330
CC
100
AcDbEntity
  8
0
 62
     7
370
    13
390
F
100
AcDbPolyline
 90
        3
 70
     1
 43
0.0
 10
1.931852
 20
-126.682335
 10
0.000001
 20
-127.199974
 10
1.931852
 20
-127.717606
  0
ENDBLK
  5
B1C
330
CC
100
AcDbEntity
  8
0
100
AcDbBlockEnd
  0
BLOCK
  5
B1D
330
CD
100
AcDbEntity
  8
0
100
AcDbBlockBegin
  2
BLOCK434
 70
     0
 10
0.0
 20
0.0
 30
0.0
  3
BLOCK434
  1

  0
SOLID
  5
402
330
CD
100
AcDbEntity
  8
0
 62
     7
370
    13
390
F
100
AcDbTrace
 10
320.339813
 20
39.06815
 30
0.0
 11
319.822174
 21
41.0
 31
0.0
 12
320.339813
 22
39.06815
 32
0.0
 13
319.304535
 23
39.06815
 33
0.0
  0
SOLID
  5
403
330
CD
100
AcDbEntity
  8
0
 62
     7
370
    13
390
F
100
AcDbTrace
 10
319.304535
 20
1.931854
 30
0.0
 11
319.822174
 21
0.000002
 31
0.0
 12
319.304535
 22
1.931854
 32
0.0
 13
320.339813
 23
1.931854
 33
0.0
  0
TEXT
  5
404
330
CD
100
AcDbEntity
  8
0
 62
     7
370
    13
390
F
100
AcDbText
 10
317.822174
 20
18.081413
 30
0.0
 40
2.5
  1
41
 50
90.0
 41
1.682496695652173
 72
     5
 11
317.822174
 21
22.918591
 31
0.0
100
AcDbText
  0
LINE
  5
405
330
CD
100
AcDbEntity
  8
0
 62
     7
 48
0.244138
370
    13
390
F
100
AcDbLine
 10
312.056671
 20
0.000002
 30
0.0
 11
321.822174
 21
0.000002
 31
0.0
  0
LINE
  5
406
330
CD
100
AcDbEntity
  8
0
 62
     7
370
    13
390
F
100
AcDbLine
 10
71.0
 20
41.0
 30
0.0
 11
321.822174
 21
41.0
 31
0.0
  0
LINE
  5
407
330
CD
100
AcDbEntity
  8
0
 62
     7
370
    13
390
F
100
AcDbLine
 10
319.822174
 20
1.931854
 30
0.0
 11
319.822174
 21
39.06815
 31
0.0
  0
LWPOLYLINE
  5
408
330
CD
100
AcDbEntity
  8
0
 62
     7
370
    13
390
F
100
AcDbPolyline
 90
        3
 70
     1
 43
0.0
 10
320.339813
 20
39.06815
 10
319.822174
 20
41.0
 10
319.304535
 20
39.06815
  0
LWPOLYLINE
  5
40D
330
CD
100
AcDbEntity
  8
0
 62
     7
370
    13
390
F
100
AcDbPolyline
 90
        3
 70
     1
 43
0.0
 10
319.304535
 20
1.931854
 10
319.822174
 20
0.000002
 10
320.339813
 20
1.931854
  0
ENDBLK
  5
B1E
330
CD
100
AcDbEntity
  8
0
100
AcDbBlockEnd
  0
BLOCK
  5
B1F
330
CE
100
AcDbEntity
  8
0
100
AcDbBlockBegin
  2
BLOCK435
 70
     0
 10
0.0
 20
0.0
 30
0.0
  3
BLOCK435
  1

  0
SOLID
  5
414
330
CE
100
AcDbEntity
  8
0
 62
     7
370
    13
390
F
100
AcDbTrace
 10
319.325378
 20
-39.06815
 30
0.0
 11
319.843018
 21
-41.0
 31
0.0
 12
319.325378
 22
-39.06815
 32
0.0
 13
320.360657
 23
-39.06815
 33
0.0
  0
SOLID
  5
415
330
CE
100
AcDbEntity
  8
0
 62
     7
370
    13
390
F
100
AcDbTrace
 10
320.360657
 20
-1.931849
 30
0.0
 11
319.843018
 21
0.000002
 31
0.0
 12
320.360657
 22
-1.931849
 32
0.0
 13
319.325378
 23
-1.931849
 33
0.0
  0
TEXT
  5
416
330
CE
100
AcDbEntity
  8
0
 62
     7
370
    13
390
F
100
AcDbText
 10
317.843018
 20
-22.918587
 30
0.0
 40
2.5
  1
41
 50
90.0
 41
1.682496695652173
 72
     5
 11
317.843018
 21
-18.081409
 31
0.0
100
AcDbText
  0
LINE
  5
417
330
CE
100
AcDbEntity
  8
0
 62
     7
370
    13
390
F
100
AcDbLine
 10
71.0
 20
-41.0
 30
0.0
 11
321.843018
 21
-41.0
 31
0.0
  0
LINE
  5
418
330
CE
100
AcDbEntity
  8
0
 62
     7
 48
0.244659
370
    13
390
F
100
AcDbLine
 10
312.056671
 20
0.000002
 30
0.0
 11
321.843018
 21
0.000002
 31
0.0
  0
LINE
  5
419
330
CE
100
AcDbEntity
  8
0
 62
     7
370
    13
390
F
100
AcDbLine
 10
319.843018
 20
-39.06815
 30
0.0
 11
319.843018
 21
-1.931849
 31
0.0
  0
LWPOLYLINE
  5
41A
330
CE
100
AcDbEntity
  8
0
 62
     7
370
    13
390
F
100
AcDbPolyline
 90
        3
 70
     1
 43
0.0
 10
319.325378
 20
-39.06815
 10
319.843018
 20
-41.0
 10
320.360657
 20
-39.06815
  0
LWPOLYLINE
  5
41F
330
CE
100
AcDbEntity
  8
0
 62
     7
370
    13
390
F
100
AcDbPolyline
 90
        3
 70
     1
 43
0.0
 10
320.360657
 20
-1.931849
 10
319.843018
 20
0.000002
 10
319.325378
 20
-1.931849
  0
ENDBLK
  5
B20
330
CE
100
AcDbEntity
  8
0
100
AcDbBlockEnd
  0
BLOCK
  5
B21
330
CF
100
AcDbEntity
  8
0
100
AcDbBlockBegin
  2
BLOCK436
 70
     0
 10
0.0
 20
0.0
 30
0.0
  3
BLOCK436
  1

  0
SOLID
  5
426
330
CF
100
AcDbEntity
  8
0
 62
     7
370
    13
390
F
100
AcDbTrace
 10
72.731094
 20
34.490845
 30
0.0
 11
73.928986
 21
36.092426
 31
0.0
 12
72.731094
 22
34.490845
 32
0.0
 13
72.09079
 23
35.304363
 33
0.0
  0
TEXT
  5
427
330
CF
100
AcDbEntity
  8
0
 62
     7
370
    13
390
F
100
AcDbText
 10
62.614994
 20
29.732597
 30
0.0
 40
2.5
  1
5
 50
38.20563714911358
 41
1.577154098231286
 72
     5
 11
64.319061
 21
31.073837
 31
0.0
100
AcDbText
  0
TEXT
  5
428
330
CF
100
AcDbEntity
  8
0
 62
     7
370
    13
390
F
100
AcDbText
 10
60.12513
 20
27.772873
 30
0.0
 40
2.5
  1
R
 50
38.20557178568308
 41
1.33451694046376
 72
     5
 11
61.829201
 21
29.114113
 31
0.0
100
AcDbText
  0
LINE
  5
429
330
CF
100
AcDbEntity
  8
0
 62
     7
 48
0.351517
370
    13
390
F
100
AcDbLine
 10
72.410942
 20
34.897606
 30
0.0
 11
61.362099
 21
26.201281
 31
0.0
  0
LWPOLYLINE
  5
42A
330
CF
100
AcDbEntity
  8
0
 62
     7
370
    13
390
F
100
AcDbPolyline
 90
        3
 70
     1
 43
0.0
 10
72.731094
 20
34.490845
 10
73.928986
 20
36.092426
 10
72.09079
 20
35.304363
  0
ENDBLK
  5
B22
330
CF
100
AcDbEntity
  8
0
100
AcDbBlockEnd
  0
BLOCK
  5
B23
330
D0
100
AcDbEntity
  8
0
100
AcDbBlockBegin
  2
BLOCK437
 70
     0
 10
0.0
 20
0.0
 30
0.0
  3
BLOCK437
  1

  0
SOLID
  5
431
330
D0
100
AcDbEntity
  8
0
 62
     7
370
    13
390
F
100
AcDbTrace
 10
-8.952896
 20
79.068146
 30
0.0
 11
-9.470534
 21
81.0
 31
0.0
 12
-8.952896
 22
79.068146
 32
0.0
 13
-9.988173
 23
79.068146
 33
0.0
  0
SOLID
  5
432
330
D0
100
AcDbEntity
  8
0
 62
     7
370
    13
390
F
100
AcDbTrace
 10
-9.988173
 20
57.93185
 30
0.0
 11
-9.470534
 21
56.0
 31
0.0
 12
-9.988173
 22
57.93185
 32
0.0
 13
-8.952896
 23
57.93185
 33
0.0
  0
TEXT
  5
433
330
D0
100
AcDbEntity
  8
0
 62
     7
370
    13
390
F
100
AcDbText
 10
-11.470534
 20
66.081413
 30
0.0
 40
2.5
  1
25
 50
90.0
 41
1.547895680000001
 72
     5
 11
-11.470534
 21
70.918587
 31
0.0
100
AcDbText
  0
LINE
  5
434
330
D0
100
AcDbEntity
  8
0
 62
     7
 48
0.336763
370
    13
390
F
100
AcDbLine
 10
2.0
 20
56.0
 30
0.0
 11
-11.470534
 21
56.0
 31
0.0
  0
LINE
  5
435
330
D0
100
AcDbEntity
  8
0
 62
     7
 48
0.261763
370
    13
390
F
100
AcDbLine
 10
-1.000001
 20
81.0
 30
0.0
 11
-11.470534
 21
81.0
 31
0.0
  0
LINE
  5
436
330
D0
100
AcDbEntity
  8
0
 62
     7
370
    13
390
F
100
AcDbLine
 10
-9.470534
 20
57.93185
 30
0.0
 11
-9.470534
 21
79.068146
 31
0.0
  0
LWPOLYLINE
  5
437
330
D0
100
AcDbEntity
  8
0
 62
     7
370
    13
390
F
100
AcDbPolyline
 90
        3
 70
     1
 43
0.0
 10
-8.952896
 20
79.068146
 10
-9.470534
 20
81.0
 10
-9.988173
 20
79.068146
  0
LWPOLYLINE
  5
43C
330
D0
100
AcDbEntity
  8
0
 62
     7
370
    13
390
F
100
AcDbPolyline
 90
        3
 70
     1
 43
0.0
 10
-9.988173
 20
57.93185
 10
-9.470534
 20
56.0
 10
-8.952896
 20
57.93185
  0
ENDBLK
  5
B24
330
D0
100
AcDbEntity
  8
0
100
AcDbBlockEnd
  0
BLOCK
  5
B25
330
D1
100
AcDbEntity
  8
0
100
AcDbBlockBegin
  2
BLOCK438
 70
     0
 10
0.0
 20
0.0
 30
0.0
  3
BLOCK438
  1

  0
SOLID
  5
443
330
D1
100
AcDbEntity
  8
0
 62
    34
370
    13
390
F
100
AcDbTrace
 10
16.165747
 20
66.433701
 30
0.0
 11
14.433696
 21
67.433701
 31
0.0
 12
16.165747
 22
66.433701
 32
0.0
 13
15.433696
 23
65.701645
 33
0.0
  0
SOLID
  5
444
330
D1
100
AcDbEntity
  8
0
 62
    34
370
    13
390
F
100
AcDbTrace
 10
27.701645
 20
53.433697
 30
0.0
 11
29.433697
 21
52.433697
 31
0.0
 12
27.701645
 22
53.433697
 32
0.0
 13
28.433697
 23
54.165749
 33
0.0
  0
TEXT
  5
445
330
D1
100
AcDbEntity
  8
0
 62
    34
370
    13
390
F
100
AcDbText
 10
21.637711
 20
63.058109
 30
0.0
 40
2.5
  1
20
 50
314.9999664976146
 41
1.546921903003347
 72
     5
 11
25.058109
 21
59.637707
 31
0.0
100
AcDbText
  0
LINE
  5
446
330
D1
100
AcDbEntity
  8
0
 62
    34
 48
0.429242
370
    13
390
F
100
AcDbLine
 10
3.707106
 20
56.707108
 30
0.0
 11
15.84791
 21
68.847908
 31
0.0
  0
LINE
  5
447
330
D1
100
AcDbEntity
  8
0
 62
    34
 48
0.429242
370
    13
390
F
100
AcDbLine
 10
18.707106
 20
41.707108
 30
0.0
 11
30.84791
 21
53.847912
 31
0.0
  0
LINE
  5
448
330
D1
100
AcDbEntity
  8
0
 62
    34
 48
0.433737
370
    13
390
F
100
AcDbLine
 10
15.799723
 20
66.067673
 30
0.0
 11
28.067671
 21
53.799725
 31
0.0
  0
LWPOLYLINE
  5
449
330
D1
100
AcDbEntity
  8
0
 62
    34
370
    13
390
F
100
AcDbPolyline
 90
        3
 70
     1
 43
0.0
 10
16.165747
 20
66.433701
 10
14.433696
 20
67.433701
 10
15.433696
 20
65.701645
  0
LWPOLYLINE
  5
44E
330
D1
100
AcDbEntity
  8
0
 62
    34
370
    13
390
F
100
AcDbPolyline
 90
        3
 70
     1
 43
0.0
 10
27.701645
 20
53.433697
 10
29.433697
 20
52.433697
 10
28.433697
 20
54.165749
  0
ENDBLK
  5
B26
330
D1
100
AcDbEntity
  8
0
100
AcDbBlockEnd
  0
BLOCK
  5
B27
330
D2
100
AcDbEntity
  8
0
100
AcDbBlockBegin
  2
BLOCK439
 70
     0
 10
0.0
 20
0.0
 30
0.0
  3
BLOCK439
  1

  0
SOLID
  5
455
330
D2
100
AcDbEntity
  8
0
 62
     7
370
    13
390
F
100
AcDbTrace
 10
-20.839434
 20
79.068146
 30
0.0
 11
-21.357071
 21
81.0
 31
0.0
 12
-20.839434
 22
79.068146
 32
0.0
 13
-21.874708
 23
79.068146
 33
0.0
  0
SOLID
  5
456
330
D2
100
AcDbEntity
  8
0
 62
     7
370
    13
390
F
100
AcDbTrace
 10
-21.874708
 20
-79.068146
 30
0.0
 11
-21.357071
 21
-81.0
 31
0.0
 12
-21.874708
 22
-79.068146
 32
0.0
 13
-20.839434
 23
-79.068146
 33
0.0
  0
TEXT
  5
457
330
D2
100
AcDbEntity
  8
0
 62
     7
370
    13
390
F
100
AcDbText
 10
-23.357071
 20
-3.752882
 30
0.0
 40
2.5
  1
162
 50
90.0
 41
1.715386450080599
 72
     5
 11
-23.357071
 21
3.752882
 31
0.0
100
AcDbText
  0
LINE
  5
458
330
D2
100
AcDbEntity
  8
0
 62
     7
370
    13
390
F
100
AcDbLine
 10
-0.999999
 20
-81.0
 30
0.0
 11
-23.357071
 21
-81.0
 31
0.0
  0
LINE
  5
459
330
D2
100
AcDbEntity
  8
0
 62
     7
370
    13
390
F
100
AcDbLine
 10
-1.000001
 20
81.0
 30
0.0
 11
-23.357071
 21
81.0
 31
0.0
  0
LINE
  5
45A
330
D2
100
AcDbEntity
  8
0
 62
     7
370
    13
390
F
100
AcDbLine
 10
-21.357071
 20
-79.068146
 30
0.0
 11
-21.357071
 21
79.068146
 31
0.0
  0
LWPOLYLINE
  5
45B
330
D2
100
AcDbEntity
  8
0
 62
     7
370
    13
390
F
100
AcDbPolyline
 90
        3
 70
     1
 43
0.0
 10
-20.839434
 20
79.068146
 10
-21.357071
 20
81.0
 10
-21.874708
 20
79.068146
  0
LWPOLYLINE
  5
460
330
D2
100
AcDbEntity
  8
0
 62
     7
370
    13
390
F
100
AcDbPolyline
 90
        3
 70
     1
 43
0.0
 10
-21.874708
 20
-79.068146
 10
-21.357071
 20
-81.0
 10
-20.839434
 20
-79.068146
  0
ENDBLK
  5
B28
330
D2
100
AcDbEntity
  8
0
100
AcDbBlockEnd
  0
BLOCK
  5
B29
330
D3
100
AcDbEntity
  8
0
100
AcDbBlockBegin
  2
BLOCK440
 70
     0
 10
0.0
 20
0.0
 30
0.0
  3
BLOCK440
  1

  0
SOLID
  5
467
330
D3
100
AcDbEntity
  8
0
 62
     7
370
    13
390
F
100
AcDbTrace
 10
19.448137
 20
-42.951485
 30
0.0
 11
18.269035
 21
-41.336025
 31
0.0
 12
19.448137
 22
-42.951485
 32
0.0
 13
18.482437
 23
-43.324604
 33
0.0
  0
TEXT
  5
468
330
D3
100
AcDbEntity
  8
0
 62
     7
370
    13
390
F
100
AcDbText
 10
23.078638
 20
-48.234829
 30
0.0
 40
2.5
  1
5
 50
291.1251706019727
 41
1.577155936358425
 72
     5
 11
23.860212
 21
-50.257679
 31
0.0
100
AcDbText
  0
TEXT
  5
469
330
D3
100
AcDbEntity
  8
0
 62
     7
370
    13
390
F
100
AcDbText
 10
21.936657
 20
-45.279186
 30
0.0
 40
2.5
  1
R
 50
291.1251706019728
 41
1.334516561534048
 72
     5
 11
22.718231
 21
-47.302036
 31
0.0
100
AcDbText
  0
LINE
  5
46A
330
D3
100
AcDbEntity
  8
0
 62
     7
 48
0.210133
370
    13
390
F
100
AcDbLine
 10
18.965286
 20
-43.138046
 30
0.0
 11
21.994623
 21
-50.978493
 31
0.0
  0
LWPOLYLINE
  5
46B
330
D3
100
AcDbEntity
  8
0
 62
     7
370
    13
390
F
100
AcDbPolyline
 90
        3
 70
     1
 43
0.0
 10
19.448137
 20
-42.951485
 10
18.269035
 20
-41.336025
 10
18.482437
 20
-43.324604
  0
ENDBLK
  5
B2A
330
D3
100
AcDbEntity
  8
0
100
AcDbBlockEnd
  0
BLOCK
  5
B2B
330
D4
100
AcDbEntity
  8
0
100
AcDbBlockBegin
  2
BLOCK441
 70
     0
 10
0.0
 20
0.0
 30
0.0
  3
BLOCK441
  1

  0
SOLID
  5
472
330
D4
100
AcDbEntity
  8
0
 62
     7
370
    13
390
F
100
AcDbTrace
 10
5.32326
 20
-56.484707
 30
0.0
 11
3.334498
 21
-56.272991
 31
0.0
 12
5.32326
 22
-56.484707
 32
0.0
 13
4.950959
 23
-57.450722
 33
0.0
  0
TEXT
  5
473
330
D4
100
AcDbEntity
  8
0
 62
     7
370
    13
390
F
100
AcDbText
 10
11.675842
 20
-57.344337
 30
0.0
 40
2.5
  1
5
 50
338.9233065945727
 41
1.577155503595774
 72
     5
 11
13.699352
 21
-58.124199
 31
0.0
100
AcDbText
  0
TEXT
  5
474
330
D4
100
AcDbEntity
  8
0
 62
     7
370
    13
390
F
100
AcDbText
 10
8.719232
 20
-56.204865
 30
0.0
 40
2.5
  1
R
 50
338.9233312477913
 41
1.334515974047458
 72
     5
 11
10.742742
 21
-56.984726
 31
0.0
100
AcDbText
  0
LINE
  5
475
330
D4
100
AcDbEntity
  8
0
 62
     7
 48
0.210133
370
    13
390
F
100
AcDbLine
 10
5.137109
 20
-56.967716
 30
0.0
 11
12.980122
 21
-59.990398
 31
0.0
  0
LWPOLYLINE
  5
476
330
D4
100
AcDbEntity
  8
0
 62
     7
370
    13
390
F
100
AcDbPolyline
 90
        3
 70
     1
 43
0.0
 10
5.32326
 20
-56.484707
 10
3.334498
 20
-56.272991
 10
4.950959
 20
-57.450722
  0
ENDBLK
  5
B2C
330
D4
100
AcDbEntity
  8
0
100
AcDbBlockEnd
  0
BLOCK
  5
B2D
330
D5
100
AcDbEntity
  8
0
100
AcDbBlockBegin
  2
BLOCK442
 70
     0
 10
0.0
 20
0.0
 30
0.0
  3
BLOCK442
  1

  0
LINE
  5
47D
330
D5
100
AcDbEntity
  8
0
  6
DASHDOT
 62
     7
370
    13
390
F
100
AcDbLine
 10
289.86969
 20
-39.000061
 30
0.0
 11
289.869629
 21
39.0005
 31
0.0
  0
LINE
  5
47E
330
D5
100
AcDbEntity
  8
0
  6
DASHDOT
 62
     7
370
    13
390
F
100
AcDbLine
 10
304.000061
 20
0.000233
 30
0.0
 11
275.739258
 21
0.000205
 31
0.0
  0
ENDBLK
  5
B2E
330
D5
100
AcDbEntity
  8
0
100
AcDbBlockEnd
  0
BLOCK
  5
B2F
330
D6
100
AcDbEntity
  8
0
100
AcDbBlockBegin
  2
BLOCK443
 70
     0
 10
0.0
 20
0.0
 30
0.0
  3
BLOCK443
  1

  0
ELLIPSE
  5
481
330
D6
100
AcDbEntity
  8
0
 62
     7
370
    35
390
F
100
AcDbEllipse
 10
289.869659
 20
-0.000215
 30
0.0
 11
-2.997236151710000E-5
 21
-30.00021743774414
 31
0.0
210
0.0
220
0.0
230
1.0
 40
0.17101
 41
1.570803730379422
 42
3.141591753721671
  0
ELLIPSE
  5
482
330
D6
100
AcDbEntity
  8
0
 62
     7
370
    35
390
F
100
AcDbEllipse
 10
289.869659
 20
0.000107
 30
0.0
 11
-2.011383003260000E-5
 21
-29.99988174438479
 31
0.0
210
0.0
220
0.0
230
1.0
 40
0.1710099999999999
 41
3.141591524275551
 42
4.712392602145623
  0
ELLIPSE
  5
483
330
D6
100
AcDbEntity
  8
0
 62
     7
370
    35
390
F
100
AcDbEllipse
 10
289.869659
 20
0.000219
 30
0.0
 11
3.041694981219999E-5
 21
-30.00021743774411
 31
0.0
210
0.0
220
0.0
230
0.9999999999999999
 40
0.17101
 41
0.0000008999567589
 42
1.5707889232101
  0
ELLIPSE
  5
484
330
D6
100
AcDbEntity
  8
0
 62
     7
370
    35
390
F
100
AcDbEllipse
 10
289.869659
 20
-0.000103
 30
0.0
 11
2.055847289740000E-5
 21
-29.99988174438477
 31
0.0
210
0.0
220
0.0
230
1.0
 40
0.17101
 41
4.712385358608278
 42
6.28318643658239
  0
ELLIPSE
  5
485
330
D6
100
AcDbEntity
  8
0
 62
     7
370
    35
390
F
100
AcDbEllipse
 10
289.869629
 20
-0.000371
 30
0.0
 11
-5.287433305060000E-5
 21
-28.00037574768066
 31
0.0
210
0.0
220
0.0
230
1.0
 40
0.17101
 41
1.570809981030092
 42
3.141533171162278
  0
SPLINE
  5
486
330
D6
100
AcDbEntity
  8
0
 62
     7
370
    35
390
F
100
AcDbSpline
210
0.0
220
0.0
230
1.0
 70
     8
 71
     3
 72
    72
 73
    68
 74
     0
 42
0.0
 43
0.0
 40
0.0
 40
0.0
 40
0.0
 40
0.0
 40
0.1159843671229837
 40
0.2341795895034412
 40
0.3566762391799412
 40
0.4853459204289641
 40
0.6217931256570096
 40
0.7673488008661328
 40
0.9230912865297338
 40
1.089879990007164
 40
1.268391586845478
 40
1.459153319799856
 40
1.662571296596715
 40
1.878953519320796
 40
2.108528191347803
 40
2.351458100907468
 40
2.607851872256102
 40
2.877772768051544
 40
3.161245598350809
 40
3.458262475722076
 40
3.76878748637155
 40
4.092759526980712
 40
4.430095080569315
 40
4.780690576048184
 40
5.144424336689852
 40
5.521158203498782
 40
5.910738899888796
 40
6.312999189233538
 40
6.727758865560379
 40
7.154825609020662
 40
7.593995731132066
 40
8.04505482965869
 40
8.507778369010081
 40
8.9819321989244
 40
9.467273021754222
 40
9.963548816739447
 40
10.47049922811412
 40
10.98785592266762
 40
11.51534292139463
 40
12.05267696111684
 40
12.5995681228413
 40
13.15571968486441
 40
13.72082814503963
 40
14.29458354438005
 40
14.87666978353672
 40
15.46676493080789
 40
16.06454152274694
 40
16.66966685828461
 40
17.28180328715339
 40
17.90060849329429
 40
18.52573577383414
 40
19.15683431414511
 40
19.79354945943103
 40
20.43552298322913
 40
21.08239335316803
 40
21.73379599428023
 40
22.38936355013307
 40
23.04872614201041
 40
23.71151162635137
 40
24.37734767157862
 40
25.04598472976035
 40
25.71723258684831
 40
26.39067102604484
 40
27.06572713694738
 40
27.74178705430841
 40
28.4183077064532
 40
29.09492854468682
 40
29.09492854468682
 40
29.09492854468682
 40
29.09492854468682
 10
289.8699692174725
 20
27.99999893592365
 30
0.0
 10
289.8312433924937
 20
28.0000110935151
 30
0.0
 10
289.753168052701
 20
27.99446116484951
 30
0.0
 10
289.6365225212353
 20
27.96953226928435
 30
0.0
 10
289.5202475861882
 20
27.92807850587338
 30
0.0
 10
289.4044017417449
 20
27.87022817184693
 30
0.0
 10
289.2890406263537
 20
27.79609985526947
 30
0.0
 10
289.1741859819838
 20
27.70579060509221
 30
0.0
 10
289.0598598078572
 20
27.59937932781097
 30
0.0
 10
288.9460892006561
 20
27.47693556373202
 30
0.0
 10
288.8329104353238
 20
27.3385276287395
 30
0.0
 10
288.7203679417078
 20
27.1842282469079
 30
0.0
 10
288.60851264275
 20
27.01411784543799
 30
0.0
 10
288.4974000636546
 20
26.82828623506539
 30
0.0
 10
288.3870887979141
 20
26.62683332978142
 30
0.0
 10
288.277639338974
 20
26.40986935005762
 30
0.0
 10
288.1691132398697
 20
26.17751477525233
 30
0.0
 10
288.0615725303895
 20
25.92990018373815
 30
0.0
 10
287.955079231168
 20
25.66716598200834
 30
0.0
 10
287.8496951369996
 20
25.38946194690818
 30
0.0
 10
287.7454819649923
 20
25.09694692633077
 30
0.0
 10
287.6425007472436
 20
24.78978896939043
 30
0.0
 10
287.5408119199205
 20
24.46816529060829
 30
0.0
 10
287.4404752283611
 20
24.13226208152344
 30
0.0
 10
287.3415496688568
 20
23.78227428906718
 30
0.0
 10
287.2440934320637
 20
23.418405409726
 30
0.0
 10
287.1481638563695
 20
23.04086729206255
 30
0.0
 10
287.0538173853282
 20
22.6498799472027
 30
0.0
 10
286.9611095284774
 20
22.24567136533112
 30
0.0
 10
286.8700948241619
 20
21.82847733707453
 30
0.0
 10
286.7808268036952
 20
21.39854127875187
 30
0.0
 10
286.6933579563479
 20
20.95611406071543
 30
0.0
 10
286.6077396948362
 20
20.50145383816124
 30
0.0
 10
286.5240223210757
 20
20.03482588392033
 30
0.0
 10
286.4422549921373
 20
19.55650242283257
 30
0.0
 10
286.3624856859907
 20
19.06676246743675
 30
0.0
 10
286.2847611682124
 20
18.56589165457521
 30
0.0
 10
286.2091269548758
 20
18.05418208332104
 30
0.0
 10
286.1356272874348
 20
17.53193213457752
 30
0.0
 10
286.0643050376882
 20
16.99944618664221
 30
0.0
 10
285.9952019723839
 20
16.45703442629681
 30
0.0
 10
285.9283585682968
 20
15.90501282209286
 30
0.0
 10
285.8638139348364
 20
15.34370316680346
 30
0.0
 10
285.8016058369382
 20
14.7734329400779
 30
0.0
 10
285.7417706701465
 20
14.19453507155007
 30
0.0
 10
285.6843434448226
 20
13.60734770205722
 30
0.0
 10
285.6293577677577
 20
13.0122139453282
 30
0.0
 10
285.5768458244426
 20
12.40948164969983
 30
0.0
 10
285.5268383611072
 20
11.79950315995863
 30
0.0
 10
285.4793646667732
 20
11.18263507926136
 30
0.0
 10
285.4344525552687
 20
10.55923803112992
 30
0.0
 10
285.3921283471861
 20
9.929676421509022
 30
0.0
 10
285.3524168519216
 20
9.294318200873974
 30
0.0
 10
285.3153413492761
 20
8.653534626396512
 30
0.0
 10
285.2809235725962
 20
8.007700024103178
 30
0.0
 10
285.2491836859949
 20
7.357191551244757
 30
0.0
 10
285.2201402838008
 20
6.702388958025964
 30
0.0
 10
285.1938103061672
 20
6.043674351881431
 30
0.0
 10
285.1702092485892
 20
5.381431345682715
 30
0.0
 10
285.149348919829
 20
4.716003355328718
 30
0.0
 10
285.1312415743405
 20
4.047672950463977
 30
0.0
 10
285.1158992145158
 20
3.376738579508714
 30
0.0
 10
285.103329803024
 20
2.703606496989301
 30
0.0
 10
285.0935426884954
 20
2.028824028369258
 30
0.0
 10
285.0865465853793
 20
1.352979433319195
 30
0.0
 10
285.0823480179166
 20
0.6765899624192985
 30
0.0
 10
285.0814158418844
 20
0.225542718530719
 30
0.0
 10
285.0814158435556
 20
0.0000021123865027
 30
0.0
  0
ELLIPSE
  5
487
330
D6
100
AcDbEntity
  8
0
 62
     7
370
    35
390
F
100
AcDbEllipse
 10
289.869751
 20
0.000375
 30
0.0
 11
-5.287438398230000E-5
 21
-28.00037574768066
 31
0.0
210
0.0
220
0.0
230
1.0
 40
0.17101
 41
4.712402634631808
 42
6.283125824712235
  0
SPLINE
  5
488
330
D6
100
AcDbEntity
  8
0
 62
     7
370
    35
390
F
100
AcDbSpline
210
0.0
220
0.0
230
1.0
 70
     8
 71
     3
 72
    72
 73
    68
 74
     0
 42
0.0
 43
0.0
 40
0.0
 40
0.0
 40
0.0
 40
0.0
 40
0.1159843671215611
 40
0.2341795894994945
 40
0.3566762391729029
 40
0.4853459204189526
 40
0.621793125644382
 40
0.7673488008513846
 40
0.9230912865132141
 40
1.089879989988752
 40
1.268391586824504
 40
1.459153319775014
 40
1.66257129656603
 40
1.87895351928167
 40
2.108528191297002
 40
2.351458100841401
 40
2.607851872170813
 40
2.877772767943026
 40
3.161245598215221
 40
3.458262475556951
 40
3.768787486177719
 40
4.092759526761674
 40
4.430095080330386
 40
4.780690575795698
 40
5.144424336430455
 40
5.521158203238866
 40
5.910738899633943
 40
6.312999188988179
 40
6.727758865327462
 40
7.154825608801499
 40
7.593995730926164
 40
8.045054829463881
 40
8.50777836882255
 40
8.981932198738887
 40
9.467273021564466
 40
9.963548816538465
 40
10.4704992278948
 40
10.98785592242337
 40
11.51534292112005
 40
12.05267696080903
 40
12.59956812250434
 40
13.15571968450944
 40
13.72082814468254
 40
14.29458354403919
 40
14.87666978323104
 40
15.46676493055537
 40
16.06454152256319
 40
16.66966685818183
 40
17.28180328713966
 40
17.900608493373
 40
18.52573577400389
 40
19.1568343143998
 40
19.79354945976013
 40
20.43552298361851
 40
21.08239335360076
 40
21.73379599473791
 40
22.38936355059732
 40
23.04872614246466
 40
23.71151162678294
 40
24.37734767198112
 40
25.04598473013294
 40
25.71723258719073
 40
26.39067102635682
 40
27.06572713722862
 40
27.74178705455872
 40
28.41830770667244
 40
29.0949285448749
 40
29.0949285448749
 40
29.0949285448749
 40
29.0949285448749
 10
289.8694264825773
 20
-27.99999464019993
 30
0.0
 10
289.9081523075556
 20
-28.00000679780057
 30
0.0
 10
289.9862276473484
 20
-27.9944568691532
 30
0.0
 10
290.1028731788172
 20
-27.9695279736131
 30
0.0
 10
290.2191481138693
 20
-27.92807421022443
 30
0.0
 10
290.3349939583192
 20
-27.87022387621747
 30
0.0
 10
290.4503550737182
 20
-27.79609555965667
 30
0.0
 10
290.5652097180966
 20
-27.7057863094936
 30
0.0
 10
290.679535892232
 20
-27.59937503222456
 30
0.0
 10
290.7933064994417
 20
-27.4769312681563
 30
0.0
 10
290.9064852647817
 20
-27.33852333317367
 30
0.0
 10
291.0190277584042
 20
-27.18422395135189
 30
0.0
 10
291.130883057367
 20
-27.01411354989247
 30
0.0
 10
291.2419956364657
 20
-26.82828193953185
 30
0.0
 10
291.3523069022073
 20
-26.62682903426193
 30
0.0
 10
291.4617563611467
 20
-26.40986505455504
 30
0.0
 10
291.5702824602487
 20
-26.17751047976988
 30
0.0
 10
291.6778231697255
 20
-25.92989588827945
 30
0.0
 10
291.7843164689434
 20
-25.66716168657694
 30
0.0
 10
291.8897005631092
 20
-25.3894576515062
 30
0.0
 10
291.9939137351149
 20
-25.09694263095772
 30
0.0
 10
292.0968949528631
 20
-24.78978467404318
 30
0.0
 10
292.1985837801873
 20
-24.46816099528186
 30
0.0
 10
292.2989204717492
 20
-24.13225778621182
 30
0.0
 10
292.3978460312575
 20
-23.78226999376394
 30
0.0
 10
292.4953022680559
 20
-23.41840111442501
 30
0.0
 10
292.5912318437562
 20
-23.04086299675829
 30
0.0
 10
292.6855783148045
 20
-22.64987565189084
 30
0.0
 10
292.7782861716623
 20
-22.24566707000868
 30
0.0
 10
292.8693008759851
 20
-21.8284730417402
 30
0.0
 10
292.9585688964581
 20
-21.39853698340588
 30
0.0
 10
293.0460377438113
 20
-20.95610976535984
 30
0.0
 10
293.1316560053277
 20
-20.50144954279964
 30
0.0
 10
293.2153733790914
 20
-20.0348215885576
 30
0.0
 10
293.2971407080321
 20
-19.55649812747477
 30
0.0
 10
293.3769100141792
 20
-19.06675817209047
 30
0.0
 10
293.4546345319572
 20
-18.56588735924725
 30
0.0
 10
293.5302687452925
 20
-18.05417778801769
 30
0.0
 10
293.603768412732
 20
-17.53192783930374
 30
0.0
 10
293.6750906624777
 20
-16.9994418913995
 30
0.0
 10
293.7441937277823
 20
-16.45703013108115
 30
0.0
 10
293.8110371318708
 20
-15.90500852689391
 30
0.0
 10
293.8755817653341
 20
-15.34369887160615
 30
0.0
 10
293.9377898632367
 20
-14.77342864486455
 30
0.0
 10
293.9976250300339
 20
-14.19453077630224
 30
0.0
 10
294.0550522553648
 20
-13.60734340675744
 30
0.0
 10
294.1100379324375
 20
-13.01220964996122
 30
0.0
 10
294.1625498757608
 20
-12.40947735425368
 30
0.0
 10
294.2125573391046
 20
-11.79949886442539
 30
0.0
 10
294.2600310334467
 20
-11.18263078363762
 30
0.0
 10
294.3049431449584
 20
-10.559233735417
 30
0.0
 10
294.3472673530475
 20
-9.929672125712887
 30
0.0
 10
294.3869788483168
 20
-9.294313905004785
 30
0.0
 10
294.4240543509659
 20
-8.653530330468085
 30
0.0
 10
294.4584721276476
 20
-8.007695728131917
 30
0.0
 10
294.4902120142492
 20
-7.357187255248526
 30
0.0
 10
294.519255416442
 20
-6.7023846620225
 30
0.0
 10
294.5455853940736
 20
-6.043670055886593
 30
0.0
 10
294.5691864516489
 20
-5.381427049708381
 30
0.0
 10
294.5900467804071
 20
-4.715999059381554
 30
0.0
 10
294.6081541258946
 20
-4.047668654546519
 30
0.0
 10
294.6234964857184
 20
-3.376734283621414
 30
0.0
 10
294.6360658972094
 20
-2.70360220113244
 30
0.0
 10
294.645853011737
 20
-2.028819732543089
 30
0.0
 10
294.6528491148518
 20
-1.35297513752392
 30
0.0
 10
294.6570476823136
 20
-0.6765856666550776
 30
0.0
 10
294.6579798583455
 20
-0.2255384227872412
 30
0.0
 10
294.6579798566743
 20
0.0000021833465884
 30
0.0
  0
LINE
  5
489
330
D6
100
AcDbEntity
  8
0
 62
     7
370
    35
390
F
100
AcDbLine
 10
78.0
 20
33.0
 30
0.0
 11
78.0
 21
-33.0
 31
0.0
  0
LINE
  5
48A
330
D6
100
AcDbEntity
  8
0
 62
     7
370
    35
390
F
100
AcDbLine
 10
20.071068
 20
41.0
 30
0.0
 11
70.0
 21
41.0
 31
0.0
  0
ARC
  5
48B
330
D6
100
AcDbEntity
  8
0
 62
     7
370
    35
390
F
100
AcDbCircle
 10
20.071068
 20
46.0
 30
0.0
 40
5.0
100
AcDbArc
 50
225.0
 51
269.999997
  0
LINE
  5
48C
330
D6
100
AcDbEntity
  8
0
 62
     7
 48
0.426777
370
    35
390
F
100
AcDbLine
 10
4.464466
 20
54.535534
 30
0.0
 11
16.535534
 21
42.464466
 31
0.0
  0
ARC
  5
48D
330
D6
100
AcDbEntity
  8
0
 62
     7
370
    35
390
F
100
AcDbCircle
 10
8.0
 20
58.071068
 30
0.0
 40
5.0
100
AcDbArc
 50
179.999995
 51
225.0
  0
LINE
  5
48E
330
D6
100
AcDbEntity
  8
0
 62
     7
 48
0.448223
370
    35
390
F
100
AcDbLine
 10
3.0
 20
76.0
 30
0.0
 11
3.0
 21
58.071068
 31
0.0
  0
LINE
  5
48F
330
D6
100
AcDbEntity
  8
0
 62
     7
 48
0.075
370
    13
390
F
100
AcDbLine
 10
-0.000001
 20
76.0
 30
0.0
 11
3.0
 21
76.0
 31
0.0
  0
LINE
  5
490
330
D6
100
AcDbEntity
  8
0
 62
     7
 48
0.448223
370
    35
390
F
100
AcDbLine
 10
0.0
 20
58.071068
 30
0.0
 11
-0.000001
 21
76.0
 31
0.0
  0
ARC
  5
491
330
D6
100
AcDbEntity
  8
0
 62
     7
370
    35
390
F
100
AcDbCircle
 10
8.0
 20
58.071068
 30
0.0
 40
8.0
100
AcDbArc
 50
179.999995
 51
225.0
  0
LINE
  5
492
330
D6
100
AcDbEntity
  8
0
 62
     7
 48
0.426777
370
    35
390
F
100
AcDbLine
 10
14.414213
 20
40.343147
 30
0.0
 11
2.343145
 21
52.414215
 31
0.0
  0
ARC
  5
493
330
D6
100
AcDbEntity
  8
0
 62
     7
370
    35
390
F
100
AcDbCircle
 10
20.071068
 20
46.0
 30
0.0
 40
8.0
100
AcDbArc
 50
225.0
 51
269.999997
  0
LINE
  5
494
330
D6
100
AcDbEntity
  8
0
 62
     7
370
    35
390
F
100
AcDbLine
 10
70.0
 20
38.0
 30
0.0
 11
20.071068
 21
38.0
 31
0.0
  0
ARC
  5
495
330
D6
100
AcDbEntity
  8
0
 62
     7
370
    35
390
F
100
AcDbCircle
 10
70.0
 20
33.0
 30
0.0
 40
5.0
100
AcDbArc
 50
0.0
 51
90.000003
  0
LINE
  5
496
330
D6
100
AcDbEntity
  8
0
 62
     7
370
    35
390
F
100
AcDbLine
 10
75.0
 20
-33.0
 30
0.0
 11
75.0
 21
33.0
 31
0.0
  0
ARC
  5
497
330
D6
100
AcDbEntity
  8
0
 62
     7
370
    35
390
F
100
AcDbCircle
 10
70.0
 20
-33.0
 30
0.0
 40
5.0
100
AcDbArc
 50
269.999997
 51
0.0
  0
LINE
  5
498
330
D6
100
AcDbEntity
  8
0
 62
     7
370
    35
390
F
100
AcDbLine
 10
70.0
 20
-38.0
 30
0.0
 11
20.071068
 21
-38.0
 31
0.0
  0
ARC
  5
499
330
D6
100
AcDbEntity
  8
0
 62
     7
370
    35
390
F
100
AcDbCircle
 10
20.071068
 20
-46.0
 30
0.0
 40
8.0
100
AcDbArc
 50
90.000003
 51
135.0
  0
LINE
  5
49A
330
D6
100
AcDbEntity
  8
0
 62
     7
 48
0.426777
370
    35
390
F
100
AcDbLine
 10
14.414214
 20
-40.343147
 30
0.0
 11
2.343146
 21
-52.414215
 31
0.0
  0
ARC
  5
49B
330
D6
100
AcDbEntity
  8
0
 62
     7
370
    35
390
F
100
AcDbCircle
 10
8.0
 20
-58.071068
 30
0.0
 40
8.0
100
AcDbArc
 50
135.0
 51
179.999995
  0
LINE
  5
49C
330
D6
100
AcDbEntity
  8
0
 62
     7
 48
0.448223
370
    35
390
F
100
AcDbLine
 10
0.000001
 20
-76.0
 30
0.0
 11
0.0
 21
-58.071068
 31
0.0
  0
LINE
  5
49D
330
D6
100
AcDbEntity
  8
0
 62
     7
 48
0.075
370
    13
390
F
100
AcDbLine
 10
0.000001
 20
-76.0
 30
0.0
 11
3.0
 21
-76.0
 31
0.0
  0
LINE
  5
49E
330
D6
100
AcDbEntity
  8
0
 62
     7
 48
0.448223
370
    35
390
F
100
AcDbLine
 10
3.0
 20
-58.071068
 30
0.0
 11
3.0
 21
-76.0
 31
0.0
  0
ARC
  5
49F
330
D6
100
AcDbEntity
  8
0
 62
     7
370
    35
390
F
100
AcDbCircle
 10
8.0
 20
-58.071068
 30
0.0
 40
5.0
100
AcDbArc
 50
135.0
 51
179.999995
  0
LINE
  5
4A0
330
D6
100
AcDbEntity
  8
0
 62
     7
 48
0.426777
370
    35
390
F
100
AcDbLine
 10
4.464467
 20
-54.535534
 30
0.0
 11
16.535534
 21
-42.464466
 31
0.0
  0
ARC
  5
4A1
330
D6
100
AcDbEntity
  8
0
 62
     7
370
    35
390
F
100
AcDbCircle
 10
20.071068
 20
-46.0
 30
0.0
 40
5.0
100
AcDbArc
 50
90.000003
 51
135.0
  0
LINE
  5
4A2
330
D6
100
AcDbEntity
  8
0
 62
     7
370
    35
390
F
100
AcDbLine
 10
20.071068
 20
-41.0
 30
0.0
 11
70.0
 21
-41.0
 31
0.0
  0
ARC
  5
4A3
330
D6
100
AcDbEntity
  8
0
 62
     7
370
    35
390
F
100
AcDbCircle
 10
70.0
 20
-33.0
 30
0.0
 40
8.0
100
AcDbArc
 50
269.999997
 51
0.0
  0
ARC
  5
4A4
330
D6
100
AcDbEntity
  8
0
 62
     7
370
    35
390
F
100
AcDbCircle
 10
70.0
 20
33.0
 30
0.0
 40
8.0
100
AcDbArc
 50
0.0
 51
90.000003
  0
LINE
  5
4A5
330
D6
100
AcDbEntity
  8
0
 62
     7
 48
0.125
370
    35
390
F
100
AcDbLine
 10
2.999999
 20
81.0
 30
0.0
 11
3.0
 21
76.0
 31
0.0
  0
LINE
  5
4A6
330
D6
100
AcDbEntity
  8
0
 62
     7
 48
0.125
370
    35
390
F
100
AcDbLine
 10
-0.000001
 20
76.0
 30
0.0
 11
-0.000001
 21
81.0
 31
0.0
  0
LINE
  5
4A7
330
D6
100
AcDbEntity
  8
0
 62
     7
 48
0.075
370
    35
390
F
100
AcDbLine
 10
-0.000001
 20
81.0
 30
0.0
 11
2.999999
 21
81.0
 31
0.0
  0
LINE
  5
4A8
330
D6
100
AcDbEntity
  8
0
 62
     7
 48
0.075
370
    35
390
F
100
AcDbLine
 10
0.000001
 20
-81.0
 30
0.0
 11
3.000001
 21
-81.0
 31
0.0
  0
LINE
  5
4A9
330
D6
100
AcDbEntity
  8
0
 62
     7
 48
0.125
370
    35
390
F
100
AcDbLine
 10
3.0
 20
-76.0
 30
0.0
 11
3.000001
 21
-81.0
 31
0.0
  0
LINE
  5
4AA
330
D6
100
AcDbEntity
  8
0
 62
     7
 48
0.125
370
    35
390
F
100
AcDbLine
 10
0.000001
 20
-81.0
 30
0.0
 11
0.000001
 21
-76.0
 31
0.0
  0
LINE
  5
4AB
330
D6
100
AcDbEntity
  8
0
 62
     7
370
    35
390
F
100
AcDbLine
 10
78.0
 20
30.0
 30
0.0
 11
289.86969
 21
30.000002
 31
0.0
  0
LINE
  5
4AC
330
D6
100
AcDbEntity
  8
0
 62
     7
370
    35
390
F
100
AcDbLine
 10
78.0
 20
-30.0
 30
0.0
 11
289.86969
 21
-29.999998
 31
0.0
  0
ENDBLK
  5
B30
330
D6
100
AcDbEntity
  8
0
100
AcDbBlockEnd
  0
BLOCK
  5
B31
330
D7
100
AcDbEntity
  8
0
100
AcDbBlockBegin
  2
BLOCK444
 70
     0
 10
0.0
 20
0.0
 30
0.0
  3
BLOCK444
  1

  0
TEXT
  5
4AF
330
D7
100
AcDbEntity
  8
0
 62
     7
370
    13
390
F
100
AcDbText
 10
-25.987854
 20
-179.685379
 30
0.0
 40
7.0
  1
Vista isometrica
 41
1.4525338267175
 72
     5
 11
71.164871
 21
-179.685379
 31
0.0
100
AcDbText
  0
TEXT
  5
4B0
330
D7
100
AcDbEntity
  8
0
 62
     7
370
    13
390
F
100
AcDbText
 10
-25.987854
 20
-191.779037
 30
0.0
 40
7.0
  1
Scala:
 41
1.55361526652452
 72
     5
 11
10.444424
 21
-191.779037
 31
0.0
100
AcDbText
  0
TEXT
  5
4B1
330
D7
100
AcDbEntity
  8
0
 62
     7
370
    13
390
F
100
AcDbText
 10
10.444424
 20
-191.779037
 30
0.0
 40
7.0
  1
  1:2
 41
1.470119005053843
 72
     5
 11
40.804657
 21
-191.779037
 31
0.0
100
AcDbText
  0
ENDBLK
  5
B32
330
D7
100
AcDbEntity
  8
0
100
AcDbBlockEnd
  0
BLOCK
  5
B33
330
D8
100
AcDbEntity
  8
0
100
AcDbBlockBegin
  2
BLOCK445
 70
     0
 10
0.0
 20
0.0
 30
0.0
  3
BLOCK445
  1

  0
ELLIPSE
  5
4B4
330
D8
100
AcDbEntity
  8
0
 62
     7
370
    35
390
F
100
AcDbEllipse
 10
198.095673
 20
-29.311939
 30
0.0
 11
-2.625168323516846
 21
-29.44153785705566
 31
0.0
210
0.0
220
0.0
230
1.0
 40
0.7452079999999999
 41
0.1821547752615408
 42
3.14810072250694
  0
ARC
  5
4B5
330
D8
100
AcDbEntity
  8
0
 62
     7
370
    35
390
F
100
AcDbCircle
 10
199.25824
 20
-16.421894
 30
0.0
 40
16.616251
100
AcDbArc
 50
85.444376
 51
98.845862
  0
ARC
  5
4B6
330
D8
100
AcDbEntity
  8
0
 62
     7
370
    35
390
F
100
AcDbCircle
 10
196.933197
 20
-42.202374
 30
0.0
 40
16.61586
100
AcDbArc
 50
265.444063
 51
278.845857
  0
ELLIPSE
  5
4B7
330
D8
100
AcDbEntity
  8
0
 62
     7
370
    35
390
F
100
AcDbEllipse
 10
198.095688
 20
-29.311934
 30
0.0
 11
-2.625181436538695
 21
-29.441535949707
 31
0.0
210
0.0
220
0.0
230
1.0
 40
0.7452070000000003
 41
3.323747673776706
 42
6.28969454178432
  0
ELLIPSE
  5
4B8
330
D8
100
AcDbEntity
  8
0
 62
     7
370
    35
390
F
100
AcDbEllipse
 10
198.095688
 20
-29.311939
 30
0.0
 11
-2.450159788131714
 21
-27.4787654876709
 31
0.0
210
0.0
220
0.0
230
1.0
 40
0.745208
 41
0.1821547887809036
 42
3.148091585112423
  0
ARC
  5
4B9
330
D8
100
AcDbEntity
  8
0
 62
     7
370
    35
390
F
100
AcDbCircle
 10
199.180984
 20
-17.287872
 30
0.0
 40
15.515109
100
AcDbArc
 50
85.44652
 51
98.842994
  0
ELLIPSE
  5
4BA
330
D8
100
AcDbEntity
  8
0
 62
     7
370
    35
390
F
100
AcDbEllipse
 10
198.095703
 20
-29.311939
 30
0.0
 11
-2.450159788131714
 21
-27.4787654876709
 31
0.0
210
0.0
220
0.0
230
1.0
 40
0.745208
 41
3.323747442369195
 42
6.289684238702361
  0
ARC
  5
4BB
330
D8
100
AcDbEntity
  8
0
 62
     7
370
    35
390
F
100
AcDbCircle
 10
197.010391
 20
-41.336006
 30
0.0
 40
15.515109
100
AcDbArc
 50
265.446522
 51
278.842996
  0
ELLIPSE
  5
4BC
330
D8
100
AcDbEntity
  8
0
 62
     7
370
    35
390
F
100
AcDbEllipse
 10
52.590908
 20
-17.613546
 30
0.0
 11
9.527347564697266
 21
28.44696235656738
 31
0.0
210
0.0
220
0.0
230
1.0
 40
0.7031390000000001
 41
0.1725582408562005
 42
0.3482038384477736
  0
LINE
  5
4BD
330
D8
100
AcDbEntity
  8
0
 62
     7
370
    13
390
F
100
AcDbLine
 10
71.522186
 20
-86.427147
 30
0.0
 11
74.268845
 21
-49.009598
 31
0.0
  0
LINE
  5
4BE
330
D8
100
AcDbEntity
  8
0
 62
     7
370
    13
390
F
100
AcDbLine
 10
78.596733
 20
9.948877
 30
0.0
 11
82.175385
 21
58.700657
 31
0.0
  0
LINE
  5
4BF
330
D8
100
AcDbEntity
  8
0
 62
     7
370
    35
390
F
100
AcDbLine
 10
82.175385
 20
58.700657
 30
0.0
 11
33.659637
 21
51.200054
 31
0.0
  0
LINE
  5
4C0
330
D8
100
AcDbEntity
  8
0
 62
     7
370
    13
390
F
100
AcDbLine
 10
23.006432
 20
-93.92775
 30
0.0
 11
33.659637
 21
51.200054
 31
0.0
  0
LINE
  5
4C1
330
D8
100
AcDbEntity
  8
0
 62
     7
370
    35
390
F
100
AcDbLine
 10
71.522186
 20
-86.427147
 30
0.0
 11
23.006432
 21
-93.92775
 31
0.0
  0
ELLIPSE
  5
4C2
330
D8
100
AcDbEntity
  8
0
 62
     7
370
    35
390
F
100
AcDbEllipse
 10
52.590908
 20
-17.613546
 30
0.0
 11
9.527347564697266
 21
28.44696235656738
 31
0.0
210
0.0
220
0.0
230
1.0
 40
0.7031390000000001
 41
0.3482038384477743
 42
3.314150894445994
  0
LINE
  5
4C3
330
D8
100
AcDbEntity
  8
0
 62
     7
370
    35
390
F
100
AcDbLine
 10
48.99794
 20
72.691025
 30
0.0
 11
82.662148
 21
61.41634
 31
0.0
  0
ELLIPSE
  5
4C4
330
D8
100
AcDbEntity
  8
0
 62
     7
370
    35
390
F
100
AcDbEllipse
 10
52.673378
 20
73.259254
 30
0.0
 11
4.986583232879639
 21
-0.3660435378551483
 31
0.0
210
0.0
220
0.0
230
1.0
 40
0.242618
 41
3.141592642347419
 42
3.9016524633739
  0
ELLIPSE
  5
4C5
330
D8
100
AcDbEntity
  8
0
 62
     7
370
    35
390
F
100
AcDbEllipse
 10
52.673378
 20
73.259254
 30
0.0
 11
4.986583232879639
 21
-0.3660435378551483
 31
0.0
210
0.0
220
0.0
230
1.0
 40
0.242618
 41
3.116254299976453
 42
3.141592642347419
  0
LINE
  5
4C6
330
D8
100
AcDbEntity
  8
0
 62
     7
 48
0.104074
370
    35
390
F
100
AcDbLine
 10
48.425106
 20
77.753479
 30
0.0
 11
47.690643
 21
73.65583
 31
0.0
  0
ELLIPSE
  5
4C7
330
D8
100
AcDbEntity
  8
0
 62
     7
370
    35
390
F
100
AcDbEllipse
 10
53.407837
 20
77.356903
 30
0.0
 11
4.986583232879639
 21
-0.3660435378551483
 31
0.0
210
0.0
220
0.0
230
1.0
 40
0.242618
 41
2.330856136579004
 42
3.116254299976453
  0
LINE
  5
4C8
330
D8
100
AcDbEntity
  8
0
 62
     7
 48
0.333398
370
    35
390
F
100
AcDbLine
 10
63.215954
 20
80.523514
 30
0.0
 11
50.036625
 21
78.48597
 31
0.0
  0
LINE
  5
4C9
330
D8
100
AcDbEntity
  8
0
 62
     7
 48
0.053329
370
    13
390
F
100
AcDbLine
 10
61.193226
 20
81.200958
 30
0.0
 11
63.215954
 21
80.523514
 31
0.0
  0
LINE
  5
4CA
330
D8
100
AcDbEntity
  8
0
 62
     7
 48
0.333398
370
    35
390
F
100
AcDbLine
 10
48.013897
 20
79.163414
 30
0.0
 11
61.193226
 21
81.200958
 31
0.0
  0
ELLIPSE
  5
4CB
330
D8
100
AcDbEntity
  8
0
 62
     7
370
    35
390
F
100
AcDbEllipse
 10
53.407837
 20
77.356903
 30
0.0
 11
7.978533267974854
 21
-0.5856696367263794
 31
0.0
210
0.0
220
0.0
230
0.9999999999999999
 40
0.242618
 41
2.330856136579004
 42
3.116254299976453
  0
LINE
  5
4CC
330
D8
100
AcDbEntity
  8
0
 62
     7
 48
0.104074
370
    35
390
F
100
AcDbLine
 10
44.701004
 20
73.893776
 30
0.0
 11
45.435467
 21
77.991425
 31
0.0
  0
ELLIPSE
  5
4CD
330
D8
100
AcDbEntity
  8
0
 62
     7
370
    35
390
F
100
AcDbEllipse
 10
52.673378
 20
73.259254
 30
0.0
 11
7.978533267974854
 21
-0.5856696367263794
 31
0.0
210
0.0
220
0.0
230
0.9999999999999999
 40
0.242618
 41
3.141592642347418
 42
3.9016524633739
  0
ELLIPSE
  5
4CE
330
D8
100
AcDbEntity
  8
0
 62
     7
370
    35
390
F
100
AcDbEllipse
 10
52.673378
 20
73.259254
 30
0.0
 11
7.978533267974854
 21
-0.5856696367263794
 31
0.0
210
0.0
220
0.0
230
0.9999999999999999
 40
0.242618
 41
3.116254299976452
 42
3.141592642347418
  0
LINE
  5
4CF
330
D8
100
AcDbEntity
  8
0
 62
     7
370
    35
390
F
100
AcDbLine
 10
80.456886
 20
61.075401
 30
0.0
 11
46.792679
 21
72.35009
 31
0.0
  0
ELLIPSE
  5
4D0
330
D8
100
AcDbEntity
  8
0
 62
     7
370
    35
390
F
100
AcDbEllipse
 10
76.781448
 20
60.507175
 30
0.0
 11
4.986583232879639
 21
-0.3660435378551483
 31
0.0
210
0.0
220
0.0
230
1.0
 40
0.242618
 41
6.283185295937212
 42
7.043245116963693
  0
ELLIPSE
  5
4D1
330
D8
100
AcDbEntity
  8
0
 62
     7
370
    35
390
F
100
AcDbEllipse
 10
76.781448
 20
60.507175
 30
0.0
 11
4.986583232879639
 21
-0.3660435378551483
 31
0.0
210
0.0
220
0.0
230
1.0
 40
0.242618
 41
5.472448790168797
 42
6.283185295937212
  0
LINE
  5
4D2
330
D8
100
AcDbEntity
  8
0
 62
     7
370
    35
390
F
100
AcDbLine
 10
31.636909
 20
51.877499
 30
0.0
 11
80.152664
 21
59.378101
 31
0.0
  0
ELLIPSE
  5
4D3
330
D8
100
AcDbEntity
  8
0
 62
     7
370
    35
390
F
100
AcDbEllipse
 10
28.265697
 20
53.006573
 30
0.0
 11
4.986583232879639
 21
-0.3660435378551483
 31
0.0
210
0.0
220
0.0
230
1.0
 40
0.242618
 41
3.9016524633739
 42
5.472448790168797
  0
LINE
  5
4D4
330
D8
100
AcDbEntity
  8
0
 62
     7
370
    35
390
F
100
AcDbLine
 10
24.590261
 20
52.438347
 30
0.0
 11
-9.073943
 21
63.713032
 31
0.0
  0
ELLIPSE
  5
4D5
330
D8
100
AcDbEntity
  8
0
 62
     7
370
    35
390
F
100
AcDbEllipse
 10
-14.95464
 20
62.803867
 30
0.0
 11
7.978533267974854
 21
-0.5856696367263794
 31
0.0
210
0.0
220
0.0
230
0.9999999999999999
 40
0.242618
 41
0.7600598097841077
 42
1.545457973181557
  0
LINE
  5
4D6
330
D8
100
AcDbEntity
  8
0
 62
     7
 48
0.426648
370
    35
390
F
100
AcDbLine
 10
-14.610451
 20
64.724144
 30
0.0
 11
-31.622564
 21
66.078148
 31
0.0
  0
ELLIPSE
  5
4D7
330
D8
100
AcDbEntity
  8
0
 62
     7
370
    35
390
F
100
AcDbEllipse
 10
-31.966753
 20
64.157867
 30
0.0
 11
7.978533267974854
 21
-0.5856696367263794
 31
0.0
210
0.0
220
0.0
230
0.9999999999999999
 40
0.242618
 41
1.545457973181556
 42
2.330856136579004
  0
LINE
  5
4D8
330
D8
100
AcDbEntity
  8
0
 62
     7
 48
0.333398
370
    35
390
F
100
AcDbLine
 10
-50.54002
 20
63.926846
 30
0.0
 11
-37.360691
 21
65.964386
 31
0.0
  0
LINE
  5
4D9
330
D8
100
AcDbEntity
  8
0
 62
     7
 48
0.053329
370
    13
390
F
100
AcDbLine
 10
-50.54002
 20
63.926846
 30
0.0
 11
-48.517292
 21
63.249401
 31
0.0
  0
LINE
  5
4DA
330
D8
100
AcDbEntity
  8
0
 62
     7
 48
0.333397
370
    35
390
F
100
AcDbLine
 10
-35.337967
 20
65.286942
 30
0.0
 11
-48.517292
 21
63.249401
 31
0.0
  0
ELLIPSE
  5
4DB
330
D8
100
AcDbEntity
  8
0
 62
     7
370
    35
390
F
100
AcDbEllipse
 10
-31.966753
 20
64.157867
 30
0.0
 11
4.986583232879639
 21
-0.3660435378551483
 31
0.0
210
0.0
220
0.0
230
1.0
 40
0.242618
 41
1.545457973181556
 42
2.330856136579004
  0
LINE
  5
4DC
330
D8
100
AcDbEntity
  8
0
 62
     7
 48
0.426648
370
    35
390
F
100
AcDbLine
 10
-31.751635
 20
65.35804
 30
0.0
 11
-14.739522
 21
64.004044
 31
0.0
  0
ELLIPSE
  5
4DD
330
D8
100
AcDbEntity
  8
0
 62
     7
370
    35
390
F
100
AcDbEllipse
 10
-14.95464
 20
62.803867
 30
0.0
 11
4.986583232879639
 21
-0.3660435378551483
 31
0.0
210
0.0
220
0.0
230
1.0
 40
0.242618
 41
0.7600598097841077
 42
1.545457973181556
  0
LINE
  5
4DE
330
D8
100
AcDbEntity
  8
0
 62
     7
370
    35
390
F
100
AcDbLine
 10
-11.279204
 20
63.372093
 30
0.0
 11
22.385
 21
52.097408
 31
0.0
  0
ELLIPSE
  5
4DF
330
D8
100
AcDbEntity
  8
0
 62
     7
370
    35
390
F
100
AcDbEllipse
 10
28.265697
 20
53.006573
 30
0.0
 11
7.978533267974854
 21
-0.5856696367263794
 31
0.0
210
0.0
220
0.0
230
0.9999999999999999
 40
0.242618
 41
3.901652463373901
 42
5.472448790168797
  0
ELLIPSE
  5
4E0
330
D8
100
AcDbEntity
  8
0
 62
     7
370
    35
390
F
100
AcDbEllipse
 10
76.781448
 20
60.507175
 30
0.0
 11
7.978533267974854
 21
-0.5856696367263794
 31
0.0
210
0.0
220
0.0
230
0.9999999999999999
 40
0.242618
 41
6.283185295937212
 42
7.043245116963693
  0
ELLIPSE
  5
4E1
330
D8
100
AcDbEntity
  8
0
 62
     7
370
    35
390
F
100
AcDbEllipse
 10
76.781448
 20
60.507175
 30
0.0
 11
7.978533267974854
 21
-0.5856696367263794
 31
0.0
210
0.0
220
0.0
230
0.9999999999999999
 40
0.242618
 41
5.472448790168797
 42
6.283185295937212
  0
ELLIPSE
  5
4E2
330
D8
100
AcDbEntity
  8
0
 62
     7
370
    35
390
F
100
AcDbEllipse
 10
66.128242
 20
-84.620628
 30
0.0
 11
7.978533267974854
 21
-0.5856696367263794
 31
0.0
210
0.0
220
0.0
230
0.9999999999999999
 40
0.242618
 41
5.472448790168797
 42
6.283185295937212
  0
LINE
  5
4E3
330
D8
100
AcDbEntity
  8
0
 62
     7
 48
0.001519
370
    13
390
F
100
AcDbLine
 10
47.686195
 20
73.59523
 30
0.0
 11
47.690643
 21
73.65583
 31
0.0
  0
LINE
  5
4E4
330
D8
100
AcDbEntity
  8
0
 62
     7
 48
0.116638
370
    13
390
F
100
AcDbLine
 10
48.083546
 20
73.100464
 30
0.0
 11
48.425106
 21
77.753479
 31
0.0
  0
LINE
  5
4E5
330
D8
100
AcDbEntity
  8
0
 62
     7
 48
0.150288
370
    13
390
F
100
AcDbLine
 10
49.596527
 20
72.49057
 30
0.0
 11
50.036625
 21
78.48597
 31
0.0
  0
LINE
  5
4E6
330
D8
100
AcDbEntity
  8
0
 62
     7
 48
0.230882
370
    35
390
F
100
AcDbLine
 10
65.860176
 20
67.043633
 30
0.0
 11
66.536285
 21
76.25415
 31
0.0
  0
ELLIPSE
  5
4E7
330
D8
100
AcDbEntity
  8
0
 62
     7
370
    35
390
F
100
AcDbEllipse
 10
62.860847
 20
75.685921
 30
0.0
 11
1.587891221046448
 21
4.74116039276123
 31
0.0
210
0.0
220
0.0
230
0.9999999999999999
 40
0.703139
 41
0.0001211178654184
 42
0.3482038384477741
  0
ELLIPSE
  5
4E8
330
D8
100
AcDbEntity
  8
0
 62
     7
370
    35
390
F
100
AcDbEllipse
 10
62.860847
 20
75.685921
 30
0.0
 11
1.587891221046448
 21
4.74116039276123
 31
0.0
210
0.0
220
0.0
230
0.9999999999999999
 40
0.703139
 41
5.060592818832464
 42
6.283306425045005
  0
ELLIPSE
  5
4E9
330
D8
100
AcDbEntity
  8
0
 62
     7
370
    35
390
F
100
AcDbEllipse
 10
57.740108
 20
65.328865
 30
0.0
 11
1.587891221046448
 21
4.74116039276123
 31
0.0
210
0.0
220
0.0
230
0.9999999999999999
 40
0.703139
 41
0.0001211178654184
 42
0.5715073506720367
  0
ELLIPSE
  5
4EA
330
D8
100
AcDbEntity
  8
0
 62
     7
370
    35
390
F
100
AcDbEllipse
 10
57.740108
 20
65.328865
 30
0.0
 11
1.587891221046448
 21
4.74116039276123
 31
0.0
210
0.0
220
0.0
230
0.9999999999999999
 40
0.703139
 41
5.711643596174077
 42
6.283306425045005
  0
ELLIPSE
  5
4EB
330
D8
100
AcDbEntity
  8
0
 62
     7
370
    35
390
F
100
AcDbEllipse
 10
60.83812
 20
76.363365
 30
0.0
 11
-1.587891221046448
 21
-4.74116039276123
 31
0.0
210
0.0
220
0.0
230
0.9999999999999999
 40
0.703139
 41
3.141713771455211
 42
3.489796492037568
  0
ELLIPSE
  5
4EC
330
D8
100
AcDbEntity
  8
0
 62
     7
370
    35
390
F
100
AcDbEllipse
 10
55.717384
 20
66.00631
 30
0.0
 11
-1.587891221046448
 21
-4.74116039276123
 31
0.0
210
0.0
220
0.0
230
0.9999999999999999
 40
0.703139
 41
2.570050942584285
 42
2.833287878791548
  0
LINE
  5
4ED
330
D8
100
AcDbEntity
  8
0
 62
     7
 48
0.459671
370
    13
390
F
100
AcDbLine
 10
45.446602
 20
54.012569
 30
0.0
 11
46.792679
 21
72.35009
 31
0.0
  0
LINE
  5
4EE
330
D8
100
AcDbEntity
  8
0
 62
     7
 48
0.041789
370
    13
390
F
100
AcDbLine
 10
80.334511
 20
59.40831
 30
0.0
 11
80.456886
 21
61.075401
 31
0.0
  0
ELLIPSE
  5
4EF
330
D8
100
AcDbEntity
  8
0
 62
     7
370
    35
390
F
100
AcDbEllipse
 10
-58.815392
 20
-77.04081
 30
0.0
 11
1.587891221046448
 21
4.74116039276123
 31
0.0
210
0.0
220
0.0
230
0.9999999999999999
 40
0.703139
 41
1.919000165242671
 42
3.141713771455211
  0
ELLIPSE
  5
4F0
330
D8
100
AcDbEntity
  8
0
 62
     7
370
    35
390
F
100
AcDbEllipse
 10
-58.815392
 20
-77.04081
 30
0.0
 11
1.587891221046448
 21
4.74116039276123
 31
0.0
210
0.0
220
0.0
230
0.9999999999999999
 40
0.703139
 41
3.141713771455211
 42
3.489796492037568
  0
LINE
  5
4F1
330
D8
100
AcDbEntity
  8
0
 62
     7
 48
0.053329
370
    13
390
F
100
AcDbLine
 10
-64.513557
 20
-76.931595
 30
0.0
 11
-62.490826
 21
-77.609039
 31
0.0
  0
ELLIPSE
  5
4F2
330
D8
100
AcDbEntity
  8
0
 62
     7
370
    35
390
F
100
AcDbEllipse
 10
-60.83812
 20
-76.363365
 30
0.0
 11
-1.587891221046448
 21
-4.74116039276123
 31
0.0
210
0.0
220
0.0
230
0.9999999999999999
 40
0.703139
 41
5.060592818832464
 42
6.283306425045005
  0
LINE
  5
4F3
330
D8
100
AcDbEntity
  8
0
 62
     7
370
    35
390
F
100
AcDbLine
 10
-62.490826
 20
-77.609039
 30
0.0
 11
-52.547836
 21
57.843578
 31
0.0
  0
LINE
  5
4F4
330
D8
100
AcDbEntity
  8
0
 62
     7
 48
0.053329
370
    13
390
F
100
AcDbLine
 10
-54.570564
 20
58.521023
 30
0.0
 11
-52.547836
 21
57.843578
 31
0.0
  0
LINE
  5
4F5
330
D8
100
AcDbEntity
  8
0
 62
     7
370
    35
390
F
100
AcDbLine
 10
-64.513557
 20
-76.931595
 30
0.0
 11
-54.570564
 21
58.521023
 31
0.0
  0
ELLIPSE
  5
4F6
330
D8
100
AcDbEntity
  8
0
 62
     7
370
    35
390
F
100
AcDbEllipse
 10
-53.694656
 20
-66.683754
 30
0.0
 11
1.587891221046448
 21
4.74116039276123
 31
0.0
210
0.0
220
0.0
230
0.9999999999999999
 40
0.703139
 41
0.0001211178654189
 42
3.141713771455213
  0
ELLIPSE
  5
4F7
330
D8
100
AcDbEntity
  8
0
 62
     7
370
    35
390
F
100
AcDbEllipse
 10
-53.694656
 20
-66.683754
 30
0.0
 11
1.587891221046448
 21
4.74116039276123
 31
0.0
210
0.0
220
0.0
230
0.9999999999999999
 40
0.703139
 41
3.489796492037568
 42
6.283306425045005
  0
ELLIPSE
  5
4F8
330
D8
100
AcDbEntity
  8
0
 62
     7
370
    35
390
F
100
AcDbEllipse
 10
-55.717384
 20
-66.00631
 30
0.0
 11
-1.587891221046448
 21
-4.74116039276123
 31
0.0
210
0.0
220
0.0
230
0.9999999999999999
 40
0.703139
 41
0.3482038384477741
 42
2.833287878791546
  0
ELLIPSE
  5
4F9
330
D8
100
AcDbEntity
  8
0
 62
     7
370
    35
390
F
100
AcDbEllipse
 10
-53.694656
 20
-66.683754
 30
0.0
 11
1.587891221046448
 21
4.74116039276123
 31
0.0
210
0.0
220
0.0
230
0.9999999999999999
 40
0.703139
 41
3.141713771455213
 42
3.489796492037568
  0
ELLIPSE
  5
4FA
330
D8
100
AcDbEntity
  8
0
 62
     7
370
    35
390
F
100
AcDbEllipse
 10
-55.717384
 20
-66.00631
 30
0.0
 11
-1.587891221046448
 21
-4.74116039276123
 31
0.0
210
0.0
220
0.0
230
0.9999999999999999
 40
0.703139
 41
0.308398690402177
 42
0.3482038384477741
  0
ELLIPSE
  5
4FB
330
D8
100
AcDbEntity
  8
0
 62
     7
370
    35
390
F
100
AcDbEllipse
 10
-45.172092
 20
49.418491
 30
0.0
 11
1.587891221046448
 21
4.74116039276123
 31
0.0
210
0.0
220
0.0
230
0.9999999999999999
 40
0.703139
 41
3.141713771455213
 42
6.283306425045005
  0
ELLIPSE
  5
4FC
330
D8
100
AcDbEntity
  8
0
 62
     7
370
    35
390
F
100
AcDbEllipse
 10
-45.172092
 20
49.418491
 30
0.0
 11
1.587891221046448
 21
4.74116039276123
 31
0.0
210
0.0
220
0.0
230
0.9999999999999999
 40
0.703139
 41
0.3482038384477741
 42
3.141713771455212
  0
ELLIPSE
  5
4FD
330
D8
100
AcDbEntity
  8
0
 62
     7
370
    35
390
F
100
AcDbEllipse
 10
-47.194817
 20
50.095936
 30
0.0
 11
-1.587891221046448
 21
-4.74116039276123
 31
0.0
210
0.0
220
0.0
230
0.9999999999999999
 40
0.703139
 41
0.3083986904021798
 42
2.833287878791553
  0
ELLIPSE
  5
4FE
330
D8
100
AcDbEntity
  8
0
 62
     7
370
    35
390
F
100
AcDbEllipse
 10
-45.172092
 20
49.418491
 30
0.0
 11
1.587891221046448
 21
4.74116039276123
 31
0.0
210
0.0
220
0.0
230
0.9999999999999999
 40
0.703139
 41
0.0001211178654184
 42
0.3482038384477741
  0
ELLIPSE
  5
4FF
330
D8
100
AcDbEntity
  8
0
 62
     7
370
    35
390
F
100
AcDbEllipse
 10
-33.437969
 20
-65.885872
 30
0.0
 11
-4.921567916870117
 21
0.8821399807929994
 31
0.0
210
0.0
220
0.0
230
0.9999999999999999
 40
0.9698099999999998
 41
3.141601605335782
 42
6.283194258925576
  0
ELLIPSE
  5
500
330
D8
100
AcDbEntity
  8
0
 62
     7
370
    35
390
F
100
AcDbEllipse
 10
-33.437969
 20
-65.885872
 30
0.0
 11
-4.921567916870117
 21
0.8821399807929994
 31
0.0
210
0.0
220
0.0
230
0.9999999999999999
 40
0.9698099999999998
 41
1.671757851746232
 42
3.141601605335782
  0
ELLIPSE
  5
501
330
D8
100
AcDbEntity
  8
0
 62
     7
370
    35
390
F
100
AcDbEllipse
 10
-33.308899
 20
-65.165764
 30
0.0
 11
4.921567916870117
 21
-0.8821399807929994
 31
0.0
210
0.0
220
0.0
230
0.9999999999999999
 40
0.9698099999999998
 41
4.813350505336023
 42
6.207688034530794
  0
ELLIPSE
  5
502
330
D8
100
AcDbEntity
  8
0
 62
     7
370
    35
390
F
100
AcDbEllipse
 10
-33.437969
 20
-65.885872
 30
0.0
 11
-4.921567916870117
 21
0.8821399807929994
 31
0.0
210
0.0
220
0.0
230
0.9999999999999999
 40
0.9698099999999998
 41
0.0000089517459894
 42
1.671757851746232
  0
ELLIPSE
  5
503
330
D8
100
AcDbEntity
  8
0
 62
     7
370
    35
390
F
100
AcDbEllipse
 10
-33.308899
 20
-65.165764
 30
0.0
 11
4.921567916870117
 21
-0.8821399807929994
 31
0.0
210
0.0
220
0.0
230
0.9999999999999999
 40
0.9698099999999998
 41
3.217083674168678
 42
4.813350505336023
  0
ELLIPSE
  5
504
330
D8
100
AcDbEntity
  8
0
 62
     7
370
    35
390
F
100
AcDbEllipse
 10
-24.915405
 20
50.216373
 30
0.0
 11
-4.921567916870117
 21
0.8821399807929994
 31
0.0
210
0.0
220
0.0
230
0.9999999999999999
 40
0.9698099999999998
 41
0.0000089517459894
 42
3.141601605335782
  0
ELLIPSE
  5
505
330
D8
100
AcDbEntity
  8
0
 62
     7
370
    35
390
F
100
AcDbEllipse
 10
-24.915405
 20
50.216373
 30
0.0
 11
-4.921567916870117
 21
0.8821399807929994
 31
0.0
210
0.0
220
0.0
230
0.9999999999999999
 40
0.9698099999999998
 41
4.813350505336025
 42
6.283194258925576
  0
ELLIPSE
  5
506
330
D8
100
AcDbEntity
  8
0
 62
     7
370
    35
390
F
100
AcDbEllipse
 10
-24.786335
 20
50.936478
 30
0.0
 11
4.921567916870117
 21
-0.8821399807929994
 31
0.0
210
0.0
220
0.0
230
0.9999999999999999
 40
0.9698099999999998
 41
3.217083674168602
 42
6.207688034530805
  0
ELLIPSE
  5
507
330
D8
100
AcDbEntity
  8
0
 62
     7
370
    35
390
F
100
AcDbEllipse
 10
-24.915405
 20
50.216373
 30
0.0
 11
-4.921567916870117
 21
0.8821399807929994
 31
0.0
210
0.0
220
0.0
230
0.9999999999999999
 40
0.9698099999999998
 41
3.141601605335782
 42
4.813350505336025
  0
LINE
  5
508
330
D8
100
AcDbEntity
  8
0
 62
     7
370
    13
390
F
100
AcDbLine
 10
-21.932411
 20
-81.755707
 30
0.0
 11
-11.279204
 21
63.372093
 31
0.0
  0
LINE
  5
509
330
D8
100
AcDbEntity
  8
0
 62
     7
370
    35
390
F
100
AcDbLine
 10
-21.932411
 20
-81.755707
 30
0.0
 11
11.731794
 21
-93.030396
 31
0.0
  0
LINE
  5
50A
330
D8
100
AcDbEntity
  8
0
 62
     7
370
    13
390
F
100
AcDbLine
 10
11.731794
 20
-93.030396
 30
0.0
 11
22.385
 21
52.097408
 31
0.0
  0
LINE
  5
50B
330
D8
100
AcDbEntity
  8
0
 62
     7
370
    13
390
F
100
AcDbLine
 10
-25.392727
 20
-81.123764
 30
0.0
 11
-14.739522
 21
64.004044
 31
0.0
  0
ELLIPSE
  5
50C
330
D8
100
AcDbEntity
  8
0
 62
     7
370
    35
390
F
100
AcDbEllipse
 10
-25.607845
 20
-82.323936
 30
0.0
 11
4.986583232879639
 21
-0.3660435378551483
 31
0.0
210
0.0
220
0.0
230
1.0
 40
0.242618
 41
0.7600598097841077
 42
1.545457973181556
  0
LINE
  5
50D
330
D8
100
AcDbEntity
  8
0
 62
     7
 48
0.426648
370
    35
390
F
100
AcDbLine
 10
-42.404839
 20
-79.76976
 30
0.0
 11
-25.392727
 21
-81.123764
 31
0.0
  0
LINE
  5
50E
330
D8
100
AcDbEntity
  8
0
 62
     7
370
    13
390
F
100
AcDbLine
 10
-42.404839
 20
-79.76976
 30
0.0
 11
-31.751635
 21
65.35804
 31
0.0
  0
LINE
  5
50F
330
D8
100
AcDbEntity
  8
0
 62
     7
370
    13
390
F
100
AcDbLine
 10
-45.991173
 20
-79.840858
 30
0.0
 11
-35.337967
 21
65.286942
 31
0.0
  0
ELLIPSE
  5
510
330
D8
100
AcDbEntity
  8
0
 62
     7
370
    35
390
F
100
AcDbEllipse
 10
-42.619957
 20
-80.969933
 30
0.0
 11
4.986583232879639
 21
-0.3660435378551483
 31
0.0
210
0.0
220
0.0
230
1.0
 40
0.242618
 41
1.545457973181556
 42
2.330856136579004
  0
LINE
  5
511
330
D8
100
AcDbEntity
  8
0
 62
     7
 48
0.333397
370
    35
390
F
100
AcDbLine
 10
-45.991173
 20
-79.840858
 30
0.0
 11
-59.170498
 21
-81.878403
 31
0.0
  0
ELLIPSE
  5
512
330
D8
100
AcDbEntity
  8
0
 62
     7
370
    35
390
F
100
AcDbEllipse
 10
-48.872398
 20
58.411808
 30
0.0
 11
1.587891221046448
 21
4.74116039276123
 31
0.0
210
0.0
220
0.0
230
0.9999999999999999
 40
0.703139
 41
0.3482038384477741
 42
1.919000165242671
  0
ELLIPSE
  5
513
330
D8
100
AcDbEntity
  8
0
 62
     7
370
    35
390
F
100
AcDbEllipse
 10
-50.895126
 20
59.089252
 30
0.0
 11
-1.587891221046448
 21
-4.74116039276123
 31
0.0
210
0.0
220
0.0
230
0.9999999999999999
 40
0.703139
 41
3.489796492037568
 42
5.060592818832464
  0
ELLIPSE
  5
514
330
D8
100
AcDbEntity
  8
0
 62
     7
370
    35
390
F
100
AcDbEllipse
 10
17.612492
 20
-92.121231
 30
0.0
 11
7.978533267974854
 21
-0.5856696367263794
 31
0.0
210
0.0
220
0.0
230
0.9999999999999999
 40
0.242618
 41
3.901652463373901
 42
5.472448790168797
  0
LINE
  5
515
330
D8
100
AcDbEntity
  8
0
 62
     7
370
    35
390
F
100
AcDbLine
 10
58.543106
 20
11.561129
 30
0.0
 11
200.578003
 21
0.141709
 31
0.0
  0
LINE
  5
516
330
D8
100
AcDbEntity
  8
0
 62
     7
370
    35
390
F
100
AcDbLine
 10
74.106773
 20
-85.206299
 30
0.0
 11
76.749184
 21
-49.209007
 31
0.0
  0
LINE
  5
517
330
D8
100
AcDbEntity
  8
0
 62
     7
370
    35
390
F
100
AcDbLine
 10
81.077072
 20
9.749469
 30
0.0
 11
84.759979
 21
59.921505
 31
0.0
  0
LINE
  5
518
330
D8
100
AcDbEntity
  8
0
 62
     7
 48
0.053329
370
    35
390
F
100
AcDbLine
 10
62.425606
 20
81.10466
 30
0.0
 11
64.448334
 21
80.427216
 31
0.0
  0
LINE
  5
519
330
D8
100
AcDbEntity
  8
0
 62
     7
 48
0.053329
370
    35
390
F
100
AcDbLine
 10
-60.402878
 20
-81.782104
 30
0.0
 11
-62.425606
 21
-81.10466
 31
0.0
  0
LINE
  5
51A
330
D8
100
AcDbEntity
  8
0
 62
     7
370
    35
390
F
100
AcDbLine
 10
43.213696
 20
53.667366
 30
0.0
 11
44.694843
 21
73.844925
 31
0.0
  0
LINE
  5
51B
330
D8
100
AcDbEntity
  8
0
 62
     7
370
    35
390
F
100
AcDbLine
 10
46.638714
 20
-46.788219
 30
0.0
 11
195.613373
 21
-58.765587
 31
0.0
  0
ENDBLK
  5
B34
330
D8
100
AcDbEntity
  8
0
100
AcDbBlockEnd
  0
BLOCK
  5
B35
330
D9
100
AcDbEntity
  8
0
100
AcDbBlockBegin
  2
BLOCK446
 70
     0
 10
0.0
 20
0.0
 30
0.0
  3
BLOCK446
  1

  0
TEXT
  5
51E
330
D9
100
AcDbEntity
  8
0
 62
     7
370
    13
390
F
100
AcDbText
 10
60.654297
 20
64.850105
 30
0.0
 40
2.5
  1
Vista in sezione C-C
 41
1.46340808097849
 72
     5
 11
104.026054
 21
64.850105
 31
0.0
100
AcDbText
  0
TEXT
  5
51F
330
D9
100
AcDbEntity
  8
0
 62
     7
370
    13
390
F
100
AcDbText
 10
60.654297
 20
60.530941
 30
0.0
 40
2.5
  1
Scala:
 41
1.553615283582089
 72
     5
 11
73.665825
 21
60.530941
 31
0.0
100
AcDbText
  0
TEXT
  5
520
330
D9
100
AcDbEntity
  8
0
 62
     7
370
    13
390
F
100
AcDbText
 10
73.665825
 20
60.530941
 30
0.0
 40
2.5
  1
  1:1
 41
1.577154036363636
 72
     5
 11
84.508759
 21
60.530941
 31
0.0
100
AcDbText
  0
ENDBLK
  5
B36
330
D9
100
AcDbEntity
  8
0
100
AcDbBlockEnd
  0
BLOCK
  5
B37
330
DA
100
AcDbEntity
  8
0
100
AcDbBlockBegin
  2
BLOCK447
 70
     0
 10
0.0
 20
0.0
 30
0.0
  3
BLOCK447
  1

  0
SOLID
  5
523
330
DA
100
AcDbEntity
  8
0
 62
     7
370
    13
390
F
100
AcDbTrace
 10
56.14352
 20
27.088776
 30
0.0
 11
57.875572
 21
26.088776
 31
0.0
 12
56.14352
 22
27.088776
 32
0.0
 13
56.875572
 23
27.820827
 33
0.0
  0
SOLID
  5
524
330
DA
100
AcDbEntity
  8
0
 62
     7
370
    13
390
F
100
AcDbTrace
 10
66.678688
 20
18.017708
 30
0.0
 11
64.94664
 21
19.017708
 31
0.0
 12
66.678688
 22
18.017708
 32
0.0
 13
65.94664
 23
17.285658
 33
0.0
  0
TEXT
  5
525
330
DA
100
AcDbEntity
  8
0
 62
     7
370
    13
390
F
100
AcDbText
 10
52.333851
 20
34.458923
 30
0.0
 40
2.5
  1
10
 50
315.0000167511878
 41
1.841353436748585
 72
     5
 11
55.754253
 21
31.038523
 31
0.0
100
AcDbText
  0
TEXT
  5
526
330
DA
100
AcDbEntity
  8
0
 62
     7
370
    13
390
F
100
AcDbText
 10
49.858974
 20
36.933796
 30
0.0
 40
2.5
  1
%%c
 50
314.9999999999999
 41
1.333334877302784
 72
     5
 11
51.626743
 21
35.166027
 31
0.0
100
AcDbText
  0
LINE
  5
527
330
DA
100
AcDbEntity
  8
0
 62
     7
 48
0.466311
370
    13
390
F
100
AcDbLine
 10
46.100506
 20
14.313709
 30
0.0
 11
59.289787
 21
27.502989
 31
0.0
  0
LINE
  5
528
330
DA
100
AcDbEntity
  8
0
 62
     7
 48
0.466311
370
    13
390
F
100
AcDbLine
 10
53.171574
 20
7.242641
 30
0.0
 11
66.360855
 21
20.431921
 31
0.0
  0
LINE
  5
529
330
DA
100
AcDbEntity
  8
0
 62
     7
 48
0.285133
370
    13
390
F
100
AcDbLine
 10
48.444763
 20
35.519585
 30
0.0
 11
56.509544
 21
27.454802
 31
0.0
  0
LINE
  5
52A
330
DA
100
AcDbEntity
  8
0
 62
     7
 48
0.25
370
    13
390
F
100
AcDbLine
 10
57.875572
 20
26.088776
 30
0.0
 11
64.94664
 21
19.017706
 31
0.0
  0
LINE
  5
52B
330
DA
100
AcDbEntity
  8
0
 62
     7
 48
0.076704
370
    13
390
F
100
AcDbLine
 10
66.31266
 20
17.651682
 30
0.0
 11
68.48217
 21
15.482175
 31
0.0
  0
LWPOLYLINE
  5
52C
330
DA
100
AcDbEntity
  8
0
 62
     7
370
    13
390
F
100
AcDbPolyline
 90
        3
 70
     1
 43
0.0
 10
56.14352
 20
27.088776
 10
57.875572
 20
26.088776
 10
56.875572
 20
27.820827
  0
LWPOLYLINE
  5
531
330
DA
100
AcDbEntity
  8
0
 62
     7
370
    13
390
F
100
AcDbPolyline
 90
        3
 70
     1
 43
0.0
 10
66.678688
 20
18.017708
 10
64.94664
 20
19.017708
 10
65.94664
 20
17.285658
  0
ENDBLK
  5
B38
330
DA
100
AcDbEntity
  8
0
100
AcDbBlockEnd
  0
BLOCK
  5
B39
330
DB
100
AcDbEntity
  8
0
100
AcDbBlockBegin
  2
BLOCK448
 70
     0
 10
0.0
 20
0.0
 30
0.0
  3
BLOCK448
  1

  0
SOLID
  5
538
330
DB
100
AcDbEntity
  8
0
 62
     7
370
    13
390
F
100
AcDbTrace
 10
-58.399849
 20
29.345102
 30
0.0
 11
-59.399849
 21
27.613052
 31
0.0
 12
-58.399849
 22
29.345102
 32
0.0
 13
-57.667797
 23
28.613052
 33
0.0
  0
SOLID
  5
539
330
DB
100
AcDbEntity
  8
0
 62
     7
370
    13
390
F
100
AcDbTrace
 10
-67.470917
 20
18.809933
 30
0.0
 11
-66.470917
 21
20.541985
 31
0.0
 12
-67.470917
 22
18.809933
 32
0.0
 13
-68.202965
 23
19.541985
 33
0.0
  0
TEXT
  5
53A
330
DB
100
AcDbEntity
  8
0
 62
     7
370
    13
390
F
100
AcDbText
 10
-54.803654
 20
35.03767
 30
0.0
 40
2.5
  1
10
 50
45.0
 41
1.841354513437141
 72
     5
 11
-51.383251
 21
38.458073
 31
0.0
100
AcDbText
  0
TEXT
  5
53B
330
DB
100
AcDbEntity
  8
0
 62
     7
370
    13
390
F
100
AcDbText
 10
-57.27853
 20
32.562798
 30
0.0
 40
2.5
  1
%%c
 50
44.99998379432042
 41
1.333334500179222
 72
     5
 11
-55.510761
 21
34.330566
 31
0.0
100
AcDbText
  0
LINE
  5
53C
330
DB
100
AcDbEntity
  8
0
 62
     7
370
    13
390
F
100
AcDbLine
 10
-53.171574
 20
7.24264
 30
0.0
 11
-67.885132
 21
21.956198
 31
0.0
  0
LINE
  5
53D
330
DB
100
AcDbEntity
  8
0
 62
     7
370
    13
390
F
100
AcDbLine
 10
-46.100506
 20
14.313708
 30
0.0
 11
-60.814064
 21
29.027266
 31
0.0
  0
LINE
  5
53E
330
DB
100
AcDbEntity
  8
0
 62
     7
 48
0.076704
370
    13
390
F
100
AcDbLine
 10
-70.006454
 20
17.006451
 30
0.0
 11
-67.836945
 21
19.175961
 31
0.0
  0
LINE
  5
53F
330
DB
100
AcDbEntity
  8
0
 62
     7
 48
0.25
370
    13
390
F
100
AcDbLine
 10
-66.470917
 20
20.541986
 30
0.0
 11
-59.399849
 21
27.613052
 31
0.0
  0
LINE
  5
540
330
DB
100
AcDbEntity
  8
0
 62
     7
 48
0.285133
370
    13
390
F
100
AcDbLine
 10
-58.033825
 20
28.979078
 30
0.0
 11
-49.96904
 21
37.043861
 31
0.0
  0
LWPOLYLINE
  5
541
330
DB
100
AcDbEntity
  8
0
 62
     7
370
    13
390
F
100
AcDbPolyline
 90
        3
 70
     1
 43
0.0
 10
-58.399849
 20
29.345102
 10
-59.399849
 20
27.613052
 10
-57.667797
 20
28.613052
  0
LWPOLYLINE
  5
546
330
DB
100
AcDbEntity
  8
0
 62
     7
370
    13
390
F
100
AcDbPolyline
 90
        3
 70
     1
 43
0.0
 10
-67.470917
 20
18.809933
 10
-66.470917
 20
20.541985
 10
-68.202965
 20
19.541985
  0
ENDBLK
  5
B3A
330
DB
100
AcDbEntity
  8
0
100
AcDbBlockEnd
  0
BLOCK
  5
B3B
330
DC
100
AcDbEntity
  8
0
100
AcDbBlockBegin
  2
BLOCK449
 70
     0
 10
0.0
 20
0.0
 30
0.0
  3
BLOCK449
  1

  0
SOLID
  5
54D
330
DC
100
AcDbEntity
  8
0
 62
     7
370
    13
390
F
100
AcDbTrace
 10
-30.235834
 20
21.789474
 30
0.0
 11
-31.967884
 21
22.789474
 31
0.0
 12
-30.235834
 22
21.789474
 32
0.0
 13
-30.967884
 23
21.057425
 33
0.0
  0
SOLID
  5
54E
330
DC
100
AcDbEntity
  8
0
 62
     7
370
    13
390
F
100
AcDbTrace
 10
30.967884
 20
21.057425
 30
0.0
 11
31.967884
 21
22.789474
 31
0.0
 12
30.967884
 22
21.057425
 32
0.0
 13
30.235834
 23
21.789474
 33
0.0
  0
TEXT
  5
54F
330
DC
100
AcDbEntity
  8
0
 62
     7
370
    13
390
F
100
AcDbText
 10
-3.335255
 20
11.547944
 30
0.0
 40
2.5
  1
90
 41
1.542612278031194
 72
     5
 11
1.501921
 21
11.547944
 31
0.0
100
AcDbText
  0
TEXT
  5
550
330
DC
100
AcDbEntity
  8
0
 62
     7
370
    13
390
F
100
AcDbText
 10
1.501921
 20
12.047944
 30
0.0
 40
2.5
  1
%%d
 41
1.629630222222222
 72
     5
 11
3.335255
 21
12.047944
 31
0.0
100
AcDbText
  0
LINE
  5
551
330
DC
100
AcDbEntity
  8
0
 62
     7
 48
0.32111
370
    13
390
F
100
AcDbLine
 10
-39.63604
 20
15.12132
 30
0.0
 11
-30.553671
 21
24.203688
 31
0.0
  0
LINE
  5
552
330
DC
100
AcDbEntity
  8
0
 62
     7
 48
0.32111
370
    13
390
F
100
AcDbLine
 10
39.63604
 20
15.121321
 30
0.0
 11
30.553671
 21
24.20369
 31
0.0
  0
ARC
  5
553
330
DC
100
AcDbEntity
  8
0
 62
     7
370
    13
390
F
100
AcDbCircle
 10
0.0
 20
54.757359
 30
0.0
 40
45.209415
100
AcDbArc
 50
227.449073
 51
312.550932
  0
LWPOLYLINE
  5
554
330
DC
100
AcDbEntity
  8
0
 62
     7
370
    13
390
F
100
AcDbPolyline
 90
        3
 70
     1
 43
0.0
 10
-30.235834
 20
21.789474
 10
-31.967884
 20
22.789474
 10
-30.967884
 20
21.057425
  0
LWPOLYLINE
  5
559
330
DC
100
AcDbEntity
  8
0
 62
     7
370
    13
390
F
100
AcDbPolyline
 90
        3
 70
     1
 43
0.0
 10
30.967884
 20
21.057425
 10
31.967884
 20
22.789474
 10
30.235834
 20
21.789474
  0
ENDBLK
  5
B3C
330
DC
100
AcDbEntity
  8
0
100
AcDbBlockEnd
  0
BLOCK
  5
B3D
330
DD
100
AcDbEntity
  8
0
100
AcDbBlockBegin
  2
BLOCK450
 70
     0
 10
0.0
 20
0.0
 30
0.0
  3
BLOCK450
  1

  0
SOLID
  5
560
330
DD
100
AcDbEntity
  8
0
 62
     7
370
    13
390
F
100
AcDbTrace
 10
47.017448
 20
-11.735788
 30
0.0
 11
48.949299
 21
-11.21815
 31
0.0
 12
47.017448
 22
-11.735788
 32
0.0
 13
47.017448
 23
-10.700512
 33
0.0
  0
SOLID
  5
561
330
DD
100
AcDbEntity
  8
0
 62
     7
370
    13
390
F
100
AcDbTrace
 10
-47.017448
 20
-10.700512
 30
0.0
 11
-48.949299
 21
-11.21815
 31
0.0
 12
-47.017448
 22
-10.700512
 32
0.0
 13
-47.017448
 23
-11.735788
 33
0.0
  0
TEXT
  5
562
330
DD
100
AcDbEntity
  8
0
 62
     7
370
    13
390
F
100
AcDbText
 10
-2.418588
 20
-9.21815
 30
0.0
 40
2.5
  1
98
 41
1.543889210523607
 72
     5
 11
2.418588
 21
-9.21815
 31
0.0
100
AcDbText
  0
LINE
  5
563
330
DD
100
AcDbEntity
  8
0
 62
     7
370
    13
390
F
100
AcDbLine
 10
-48.949299
 20
9.091434
 30
0.0
 11
-48.949299
 21
-13.21815
 31
0.0
  0
LINE
  5
564
330
DD
100
AcDbEntity
  8
0
 62
     7
370
    13
390
F
100
AcDbLine
 10
48.949299
 20
9.091435
 30
0.0
 11
48.949299
 21
-13.21815
 31
0.0
  0
LINE
  5
565
330
DD
100
AcDbEntity
  8
0
 62
     7
370
    13
390
F
100
AcDbLine
 10
-47.017448
 20
-11.21815
 30
0.0
 11
47.017448
 21
-11.21815
 31
0.0
  0
LWPOLYLINE
  5
566
330
DD
100
AcDbEntity
  8
0
 62
     7
370
    13
390
F
100
AcDbPolyline
 90
        3
 70
     1
 43
0.0
 10
47.017448
 20
-11.735788
 10
48.949299
 20
-11.21815
 10
47.017448
 20
-10.700512
  0
LWPOLYLINE
  5
56B
330
DD
100
AcDbEntity
  8
0
 62
     7
370
    13
390
F
100
AcDbPolyline
 90
        3
 70
     1
 43
0.0
 10
-47.017448
 20
-10.700512
 10
-48.949299
 20
-11.21815
 10
-47.017448
 20
-11.735788
  0
ENDBLK
  5
B3E
330
DD
100
AcDbEntity
  8
0
100
AcDbBlockEnd
  0
BLOCK
  5
B3F
330
DE
100
AcDbEntity
  8
0
100
AcDbBlockBegin
  2
BLOCK451
 70
     0
 10
0.0
 20
0.0
 30
0.0
  3
BLOCK451
  1

  0
LINE
  5
572
330
DE
100
AcDbEntity
  8
0
 62
     7
 48
0.15
370
    35
390
F
100
AcDbLine
 10
81.0
 20
0.000001
 30
0.0
 11
75.0
 21
0.000001
 31
0.0
  0
LINE
  5
573
330
DE
100
AcDbEntity
  8
0
 62
     7
 48
0.125
370
    35
390
F
100
AcDbLine
 10
75.0
 20
0.000001
 30
0.0
 11
70.0
 21
0.000001
 31
0.0
  0
LINE
  5
574
330
DE
100
AcDbEntity
  8
0
 62
     7
 48
0.125
370
    35
390
F
100
AcDbLine
 10
70.0
 20
0.000001
 30
0.0
 11
65.0
 21
0.0
 31
0.0
  0
LINE
  5
575
330
DE
100
AcDbEntity
  8
0
 62
     7
 48
0.173223
370
    35
390
F
100
AcDbLine
 10
65.0
 20
0.0
 30
0.0
 11
58.071068
 21
0.0
 31
0.0
  0
LINE
  5
576
330
DE
100
AcDbEntity
  8
0
 62
     7
 48
0.075
370
    35
390
F
100
AcDbLine
 10
81.0
 20
0.000001
 30
0.0
 11
81.0
 21
3.000001
 31
0.0
  0
LINE
  5
577
330
DE
100
AcDbEntity
  8
0
 62
     7
 48
0.173223
370
    35
390
F
100
AcDbLine
 10
58.071068
 20
3.0
 30
0.0
 11
65.0
 21
3.0
 31
0.0
  0
LINE
  5
578
330
DE
100
AcDbEntity
  8
0
 62
     7
 48
0.125
370
    35
390
F
100
AcDbLine
 10
65.0
 20
3.0
 30
0.0
 11
70.0
 21
3.0
 31
0.0
  0
LINE
  5
579
330
DE
100
AcDbEntity
  8
0
 62
     7
 48
0.125
370
    35
390
F
100
AcDbLine
 10
70.0
 20
3.0
 30
0.0
 11
75.0
 21
3.0
 31
0.0
  0
LINE
  5
57A
330
DE
100
AcDbEntity
  8
0
 62
     7
 48
0.15
370
    35
390
F
100
AcDbLine
 10
75.0
 20
3.0
 30
0.0
 11
81.0
 21
3.000001
 31
0.0
  0
ARC
  5
57B
330
DE
100
AcDbEntity
  8
0
 62
     7
370
    35
390
F
100
AcDbCircle
 10
58.071068
 20
8.0
 30
0.0
 40
8.0
100
AcDbArc
 50
225.0
 51
269.999997
  0
LINE
  5
57C
330
DE
100
AcDbEntity
  8
0
 62
     7
 48
0.075
370
    35
390
F
100
AcDbLine
 10
65.0
 20
3.0
 30
0.0
 11
65.0
 21
0.0
 31
0.0
  0
LINE
  5
57D
330
DE
100
AcDbEntity
  8
0
 62
     7
 48
0.075
370
    35
390
F
100
AcDbLine
 10
75.0
 20
3.0
 30
0.0
 11
75.0
 21
0.000001
 31
0.0
  0
ARC
  5
57E
330
DE
100
AcDbEntity
  8
0
 62
     7
370
    35
390
F
100
AcDbCircle
 10
58.071068
 20
8.0
 30
0.0
 40
5.0
100
AcDbArc
 50
225.0
 51
269.999997
  0
LINE
  5
57F
330
DE
100
AcDbEntity
  8
0
 62
     7
370
    35
390
F
100
AcDbLine
 10
-41.0
 20
20.071068
 30
0.0
 11
-41.0
 21
70.0
 31
0.0
  0
ARC
  5
580
330
DE
100
AcDbEntity
  8
0
 62
     7
370
    35
390
F
100
AcDbCircle
 10
-46.0
 20
20.071068
 30
0.0
 40
5.0
100
AcDbArc
 50
314.999999
 51
0.0
  0
LINE
  5
581
330
DE
100
AcDbEntity
  8
0
 62
     7
 48
0.073223
370
    35
390
F
100
AcDbLine
 10
-54.535534
 20
4.464466
 30
0.0
 11
-52.464466
 21
6.535533
 31
0.0
  0
LINE
  5
582
330
DE
100
AcDbEntity
  8
0
 62
     7
 48
0.125
370
    35
390
F
100
AcDbLine
 10
-52.464466
 20
6.535533
 30
0.0
 11
-48.928932
 21
10.071068
 31
0.0
  0
LINE
  5
583
330
DE
100
AcDbEntity
  8
0
 62
     7
 48
0.125
370
    35
390
F
100
AcDbLine
 10
-48.928932
 20
10.071068
 30
0.0
 11
-45.393398
 21
13.606602
 31
0.0
  0
LINE
  5
584
330
DE
100
AcDbEntity
  8
0
 62
     7
 48
0.103553
370
    35
390
F
100
AcDbLine
 10
-45.393398
 20
13.606602
 30
0.0
 11
-42.464466
 21
16.535534
 31
0.0
  0
ARC
  5
585
330
DE
100
AcDbEntity
  8
0
 62
     7
370
    35
390
F
100
AcDbCircle
 10
-58.071068
 20
8.0
 30
0.0
 40
5.0
100
AcDbArc
 50
269.999997
 51
314.999999
  0
LINE
  5
586
330
DE
100
AcDbEntity
  8
0
 62
     7
 48
0.15
370
    35
390
F
100
AcDbLine
 10
-81.0
 20
2.999999
 30
0.0
 11
-75.0
 21
3.0
 31
0.0
  0
LINE
  5
587
330
DE
100
AcDbEntity
  8
0
 62
     7
 48
0.125
370
    35
390
F
100
AcDbLine
 10
-75.0
 20
3.0
 30
0.0
 11
-70.0
 21
3.0
 31
0.0
  0
LINE
  5
588
330
DE
100
AcDbEntity
  8
0
 62
     7
 48
0.125
370
    35
390
F
100
AcDbLine
 10
-70.0
 20
3.0
 30
0.0
 11
-65.0
 21
3.0
 31
0.0
  0
LINE
  5
589
330
DE
100
AcDbEntity
  8
0
 62
     7
 48
0.173223
370
    35
390
F
100
AcDbLine
 10
-65.0
 20
3.0
 30
0.0
 11
-58.071068
 21
3.0
 31
0.0
  0
LINE
  5
58A
330
DE
100
AcDbEntity
  8
0
 62
     7
 48
0.173223
370
    35
390
F
100
AcDbLine
 10
-58.071068
 20
0.0
 30
0.0
 11
-65.0
 21
0.0
 31
0.0
  0
LINE
  5
58B
330
DE
100
AcDbEntity
  8
0
 62
     7
 48
0.125
370
    35
390
F
100
AcDbLine
 10
-65.0
 20
0.0
 30
0.0
 11
-70.0
 21
-0.000001
 31
0.0
  0
LINE
  5
58C
330
DE
100
AcDbEntity
  8
0
 62
     7
 48
0.125
370
    35
390
F
100
AcDbLine
 10
-70.0
 20
-0.000001
 30
0.0
 11
-75.0
 21
-0.000001
 31
0.0
  0
LINE
  5
58D
330
DE
100
AcDbEntity
  8
0
 62
     7
 48
0.15
370
    35
390
F
100
AcDbLine
 10
-75.0
 20
-0.000001
 30
0.0
 11
-81.0
 21
-0.000001
 31
0.0
  0
ARC
  5
58E
330
DE
100
AcDbEntity
  8
0
 62
     7
370
    35
390
F
100
AcDbCircle
 10
-58.071068
 20
8.0
 30
0.0
 40
8.0
100
AcDbArc
 50
269.999997
 51
314.999999
  0
LINE
  5
58F
330
DE
100
AcDbEntity
  8
0
 62
     7
 48
0.103553
370
    35
390
F
100
AcDbLine
 10
-40.343147
 20
14.414213
 30
0.0
 11
-43.272079
 21
11.485281
 31
0.0
  0
LINE
  5
590
330
DE
100
AcDbEntity
  8
0
 62
     7
 48
0.125
370
    35
390
F
100
AcDbLine
 10
-43.272079
 20
11.485281
 30
0.0
 11
-46.807613
 21
7.949747
 31
0.0
  0
LINE
  5
591
330
DE
100
AcDbEntity
  8
0
 62
     7
 48
0.125
370
    35
390
F
100
AcDbLine
 10
-46.807613
 20
7.949747
 30
0.0
 11
-50.343147
 21
4.414213
 31
0.0
  0
LINE
  5
592
330
DE
100
AcDbEntity
  8
0
 62
     7
 48
0.073223
370
    35
390
F
100
AcDbLine
 10
-50.343147
 20
4.414213
 30
0.0
 11
-52.414215
 21
2.343145
 31
0.0
  0
ARC
  5
593
330
DE
100
AcDbEntity
  8
0
 62
     7
370
    35
390
F
100
AcDbCircle
 10
-46.0
 20
20.071068
 30
0.0
 40
8.0
100
AcDbArc
 50
314.999999
 51
0.0
  0
LINE
  5
594
330
DE
100
AcDbEntity
  8
0
 62
     7
370
    35
390
F
100
AcDbLine
 10
-38.0
 20
70.0
 30
0.0
 11
-38.0
 21
20.071068
 31
0.0
  0
ARC
  5
595
330
DE
100
AcDbEntity
  8
0
 62
     7
370
    35
390
F
100
AcDbCircle
 10
-33.0
 20
70.0
 30
0.0
 40
5.0
100
AcDbArc
 50
90.000003
 51
179.999995
  0
LINE
  5
596
330
DE
100
AcDbEntity
  8
0
 62
     7
370
    35
390
F
100
AcDbLine
 10
33.0
 20
75.0
 30
0.0
 11
-33.0
 21
75.0
 31
0.0
  0
ARC
  5
597
330
DE
100
AcDbEntity
  8
0
 62
     7
370
    35
390
F
100
AcDbCircle
 10
33.0
 20
70.0
 30
0.0
 40
5.0
100
AcDbArc
 50
0.0
 51
90.000003
  0
LINE
  5
598
330
DE
100
AcDbEntity
  8
0
 62
     7
370
    35
390
F
100
AcDbLine
 10
38.0
 20
70.0
 30
0.0
 11
38.0
 21
20.071068
 31
0.0
  0
ARC
  5
599
330
DE
100
AcDbEntity
  8
0
 62
     7
370
    35
390
F
100
AcDbCircle
 10
46.0
 20
20.071068
 30
0.0
 40
8.0
100
AcDbArc
 50
179.999995
 51
225.0
  0
LINE
  5
59A
330
DE
100
AcDbEntity
  8
0
 62
     7
 48
0.073223
370
    35
390
F
100
AcDbLine
 10
50.343147
 20
4.414214
 30
0.0
 11
52.414215
 21
2.343146
 31
0.0
  0
LINE
  5
59B
330
DE
100
AcDbEntity
  8
0
 62
     7
 48
0.125
370
    35
390
F
100
AcDbLine
 10
46.807613
 20
7.949748
 30
0.0
 11
50.343147
 21
4.414214
 31
0.0
  0
LINE
  5
59C
330
DE
100
AcDbEntity
  8
0
 62
     7
 48
0.125
370
    35
390
F
100
AcDbLine
 10
43.272079
 20
11.485282
 30
0.0
 11
46.807613
 21
7.949748
 31
0.0
  0
LINE
  5
59D
330
DE
100
AcDbEntity
  8
0
 62
     7
 48
0.103553
370
    35
390
F
100
AcDbLine
 10
40.343147
 20
14.414214
 30
0.0
 11
43.272079
 21
11.485282
 31
0.0
  0
LINE
  5
59E
330
DE
100
AcDbEntity
  8
0
 62
     7
 48
0.103553
370
    35
390
F
100
AcDbLine
 10
45.393398
 20
13.606602
 30
0.0
 11
42.464466
 21
16.535534
 31
0.0
  0
LINE
  5
59F
330
DE
100
AcDbEntity
  8
0
 62
     7
 48
0.125
370
    35
390
F
100
AcDbLine
 10
48.928932
 20
10.071068
 30
0.0
 11
45.393398
 21
13.606602
 31
0.0
  0
LINE
  5
5A0
330
DE
100
AcDbEntity
  8
0
 62
     7
 48
0.125
370
    35
390
F
100
AcDbLine
 10
52.464466
 20
6.535534
 30
0.0
 11
48.928932
 21
10.071068
 31
0.0
  0
LINE
  5
5A1
330
DE
100
AcDbEntity
  8
0
 62
     7
 48
0.073223
370
    35
390
F
100
AcDbLine
 10
54.535534
 20
4.464467
 30
0.0
 11
52.464466
 21
6.535534
 31
0.0
  0
ARC
  5
5A2
330
DE
100
AcDbEntity
  8
0
 62
     7
370
    35
390
F
100
AcDbCircle
 10
46.0
 20
20.071068
 30
0.0
 40
5.0
100
AcDbArc
 50
179.999995
 51
225.0
  0
LINE
  5
5A3
330
DE
100
AcDbEntity
  8
0
 62
     7
370
    35
390
F
100
AcDbLine
 10
41.0
 20
20.071068
 30
0.0
 11
41.0
 21
70.0
 31
0.0
  0
ARC
  5
5A4
330
DE
100
AcDbEntity
  8
0
 62
     7
370
    35
390
F
100
AcDbCircle
 10
33.0
 20
70.0
 30
0.0
 40
8.0
100
AcDbArc
 50
0.0
 51
90.000003
  0
LINE
  5
5A5
330
DE
100
AcDbEntity
  8
0
 62
     7
370
    35
390
F
100
AcDbLine
 10
-33.0
 20
78.0
 30
0.0
 11
33.0
 21
78.0
 31
0.0
  0
ARC
  5
5A6
330
DE
100
AcDbEntity
  8
0
 62
     7
370
    35
390
F
100
AcDbCircle
 10
-33.0
 20
70.0
 30
0.0
 40
8.0
100
AcDbArc
 50
90.000003
 51
179.999995
  0
LINE
  5
5A7
330
DE
100
AcDbEntity
  8
0
 62
     7
 48
0.075
370
    35
390
F
100
AcDbLine
 10
-43.272079
 20
11.485281
 30
0.0
 11
-45.393398
 21
13.606602
 31
0.0
  0
LINE
  5
5A8
330
DE
100
AcDbEntity
  8
0
 62
     7
 48
0.075
370
    35
390
F
100
AcDbLine
 10
-50.343147
 20
4.414213
 30
0.0
 11
-52.464466
 21
6.535533
 31
0.0
  0
LINE
  5
5A9
330
DE
100
AcDbEntity
  8
0
 62
     7
 48
0.075
370
    35
390
F
100
AcDbLine
 10
-81.0
 20
-0.000001
 30
0.0
 11
-81.0
 21
2.999999
 31
0.0
  0
LINE
  5
5AA
330
DE
100
AcDbEntity
  8
0
 62
     7
 48
0.075
370
    35
390
F
100
AcDbLine
 10
-65.0
 20
0.0
 30
0.0
 11
-65.0
 21
3.0
 31
0.0
  0
LINE
  5
5AB
330
DE
100
AcDbEntity
  8
0
 62
     7
 48
0.075
370
    35
390
F
100
AcDbLine
 10
-75.0
 20
-0.000001
 30
0.0
 11
-75.0
 21
3.0
 31
0.0
  0
LINE
  5
5AC
330
DE
100
AcDbEntity
  8
0
 62
     7
 48
0.075
370
    35
390
F
100
AcDbLine
 10
52.464466
 20
6.535534
 30
0.0
 11
50.343147
 21
4.414214
 31
0.0
  0
LINE
  5
5AD
330
DE
100
AcDbEntity
  8
0
 62
     7
 48
0.075
370
    35
390
F
100
AcDbLine
 10
45.393398
 20
13.606602
 30
0.0
 11
43.272079
 21
11.485282
 31
0.0
  0
ENDBLK
  5
B40
330
DE
100
AcDbEntity
  8
0
100
AcDbBlockEnd
  0
BLOCK
  5
B41
330
DF
100
AcDbEntity
  8
0
100
AcDbBlockBegin
  2
BLOCK452
 70
     0
 10
0.0
 20
0.0
 30
0.0
  3
BLOCK452
  1

  0
LINE
  5
5B0
330
DF
100
AcDbEntity
  8
0
 62
     7
 48
0.028868
370
    13
390
F
100
AcDbLine
 10
-76.0
 20
-0.000001
 30
0.0
 11
-75.0
 21
0.57735
 31
0.0
  0
LINE
  5
5B1
330
DF
100
AcDbEntity
  8
0
 62
     7
 48
0.144338
370
    13
390
F
100
AcDbLine
 10
-80.0
 20
-0.000001
 30
0.0
 11
-75.0
 21
2.886751
 31
0.0
  0
LINE
  5
5B2
330
DF
100
AcDbEntity
  8
0
 62
     7
 48
0.063397
370
    13
390
F
100
AcDbLine
 10
-81.0
 20
1.732051
 30
0.0
 11
-78.803848
 21
3.0
 31
0.0
  0
ENDBLK
  5
B42
330
DF
100
AcDbEntity
  8
0
100
AcDbBlockEnd
  0
BLOCK
  5
B43
330
E0
100
AcDbEntity
  8
0
100
AcDbBlockBegin
  2
BLOCK453
 70
     0
 10
0.0
 20
0.0
 30
0.0
  3
BLOCK453
  1

  0
LINE
  5
5B5
330
E0
100
AcDbEntity
  8
0
 62
     7
 48
0.03784
370
    13
390
F
100
AcDbLine
 10
-54.732826
 20
0.731603
 30
0.0
 11
-53.421993
 21
1.488413
 31
0.0
  0
LINE
  5
5B6
330
E0
100
AcDbEntity
  8
0
 62
     7
 48
0.257518
370
    13
390
F
100
AcDbLine
 10
-60.0
 20
0.0
 30
0.0
 11
-51.0793
 21
5.150368
 31
0.0
  0
LINE
  5
5B7
330
E0
100
AcDbEntity
  8
0
 62
     7
 48
0.15
370
    13
390
F
100
AcDbLine
 10
-64.0
 20
0.0
 30
0.0
 11
-58.803848
 21
3.0
 31
0.0
  0
LINE
  5
5B8
330
E0
100
AcDbEntity
  8
0
 62
     7
 48
0.063397
370
    13
390
F
100
AcDbLine
 10
-65.0
 20
1.732051
 30
0.0
 11
-62.803848
 21
3.0
 31
0.0
  0
ENDBLK
  5
B44
330
E0
100
AcDbEntity
  8
0
100
AcDbBlockEnd
  0
BLOCK
  5
B45
330
E1
100
AcDbEntity
  8
0
100
AcDbBlockBegin
  2
BLOCK454
 70
     0
 10
0.0
 20
0.0
 30
0.0
  3
BLOCK454
  1

  0
LINE
  5
5BB
330
E1
100
AcDbEntity
  8
0
 62
     7
 48
0.077646
370
    13
390
F
100
AcDbLine
 10
42.035282
 20
12.722076
 30
0.0
 11
44.72501
 21
14.274991
 31
0.0
  0
LINE
  5
5BC
330
E1
100
AcDbEntity
  8
0
 62
     7
 48
0.077646
370
    13
390
F
100
AcDbLine
 10
40.571182
 20
14.186178
 30
0.0
 11
43.260906
 21
15.739093
 31
0.0
  0
LINE
  5
5BD
330
E1
100
AcDbEntity
  8
0
 62
     7
 48
0.075139
370
    13
390
F
100
AcDbLine
 10
39.271595
 20
15.745262
 30
0.0
 11
41.874485
 21
17.248043
 31
0.0
  0
LINE
  5
5BE
330
E1
100
AcDbEntity
  8
0
 62
     7
 48
0.077583
370
    13
390
F
100
AcDbLine
 10
38.407158
 20
17.55558
 30
0.0
 11
41.094704
 21
19.107235
 31
0.0
  0
LINE
  5
5BF
330
E1
100
AcDbEntity
  8
0
 62
     7
 48
0.086221
370
    13
390
F
100
AcDbLine
 10
38.013226
 20
19.637545
 30
0.0
 11
41.0
 21
21.361959
 31
0.0
  0
LINE
  5
5C0
330
E1
100
AcDbEntity
  8
0
 62
     7
 48
0.086603
370
    13
390
F
100
AcDbLine
 10
38.0
 20
21.93931
 30
0.0
 11
41.0
 21
23.67136
 31
0.0
  0
LINE
  5
5C1
330
E1
100
AcDbEntity
  8
0
 62
     7
 48
0.086603
370
    13
390
F
100
AcDbLine
 10
38.0
 20
24.248711
 30
0.0
 11
41.0
 21
25.980762
 31
0.0
  0
LINE
  5
5C2
330
E1
100
AcDbEntity
  8
0
 62
     7
 48
0.086603
370
    13
390
F
100
AcDbLine
 10
38.0
 20
26.558113
 30
0.0
 11
41.0
 21
28.290163
 31
0.0
  0
LINE
  5
5C3
330
E1
100
AcDbEntity
  8
0
 62
     7
 48
0.086603
370
    13
390
F
100
AcDbLine
 10
38.0
 20
28.867514
 30
0.0
 11
41.0
 21
30.599564
 31
0.0
  0
LINE
  5
5C4
330
E1
100
AcDbEntity
  8
0
 62
     7
 48
0.086603
370
    13
390
F
100
AcDbLine
 10
38.0
 20
31.176914
 30
0.0
 11
41.0
 21
32.908966
 31
0.0
  0
LINE
  5
5C5
330
E1
100
AcDbEntity
  8
0
 62
     7
 48
0.086603
370
    13
390
F
100
AcDbLine
 10
38.0
 20
33.486317
 30
0.0
 11
41.0
 21
35.218365
 31
0.0
  0
LINE
  5
5C6
330
E1
100
AcDbEntity
  8
0
 62
     7
 48
0.086603
370
    13
390
F
100
AcDbLine
 10
38.0
 20
35.795715
 30
0.0
 11
41.0
 21
37.527767
 31
0.0
  0
LINE
  5
5C7
330
E1
100
AcDbEntity
  8
0
 62
     7
 48
0.086603
370
    13
390
F
100
AcDbLine
 10
38.0
 20
38.105118
 30
0.0
 11
41.0
 21
39.83717
 31
0.0
  0
LINE
  5
5C8
330
E1
100
AcDbEntity
  8
0
 62
     7
 48
0.086603
370
    13
390
F
100
AcDbLine
 10
38.0
 20
40.41452
 30
0.0
 11
41.0
 21
42.146568
 31
0.0
  0
LINE
  5
5C9
330
E1
100
AcDbEntity
  8
0
 62
     7
 48
0.086603
370
    13
390
F
100
AcDbLine
 10
38.0
 20
42.723919
 30
0.0
 11
41.0
 21
44.455971
 31
0.0
  0
LINE
  5
5CA
330
E1
100
AcDbEntity
  8
0
 62
     7
 48
0.086603
370
    13
390
F
100
AcDbLine
 10
38.0
 20
45.033321
 30
0.0
 11
41.0
 21
46.765373
 31
0.0
  0
LINE
  5
5CB
330
E1
100
AcDbEntity
  8
0
 62
     7
 48
0.086603
370
    13
390
F
100
AcDbLine
 10
38.0
 20
47.34272
 30
0.0
 11
41.0
 21
49.074772
 31
0.0
  0
LINE
  5
5CC
330
E1
100
AcDbEntity
  8
0
 62
     7
 48
0.086603
370
    13
390
F
100
AcDbLine
 10
38.0
 20
49.652122
 30
0.0
 11
41.0
 21
51.384174
 31
0.0
  0
LINE
  5
5CD
330
E1
100
AcDbEntity
  8
0
 62
     7
 48
0.086603
370
    13
390
F
100
AcDbLine
 10
38.0
 20
51.961525
 30
0.0
 11
41.0
 21
53.693573
 31
0.0
  0
LINE
  5
5CE
330
E1
100
AcDbEntity
  8
0
 62
     7
 48
0.086603
370
    13
390
F
100
AcDbLine
 10
38.0
 20
54.270924
 30
0.0
 11
41.0
 21
56.002975
 31
0.0
  0
LINE
  5
5CF
330
E1
100
AcDbEntity
  8
0
 62
     7
 48
0.086603
370
    13
390
F
100
AcDbLine
 10
38.0
 20
56.580326
 30
0.0
 11
41.0
 21
58.312378
 31
0.0
  0
LINE
  5
5D0
330
E1
100
AcDbEntity
  8
0
 62
     7
 48
0.041742
370
    13
390
F
100
AcDbLine
 10
-43.577648
 20
11.790851
 30
0.0
 11
-42.131676
 21
12.625682
 31
0.0
  0
LINE
  5
5D1
330
E1
100
AcDbEntity
  8
0
 62
     7
 48
0.086603
370
    13
390
F
100
AcDbLine
 10
38.0
 20
58.889729
 30
0.0
 11
41.0
 21
60.621777
 31
0.0
  0
LINE
  5
5D2
330
E1
100
AcDbEntity
  8
0
 62
     7
 48
0.184989
370
    13
390
F
100
AcDbLine
 10
-45.041748
 20
13.254952
 30
0.0
 11
-38.633541
 21
16.954733
 31
0.0
  0
LINE
  5
5D3
330
E1
100
AcDbEntity
  8
0
 62
     7
 48
0.086603
370
    13
390
F
100
AcDbLine
 10
38.0
 20
61.199127
 30
0.0
 11
41.0
 21
62.931179
 31
0.0
  0
LINE
  5
5D4
330
E1
100
AcDbEntity
  8
0
 62
     7
 48
0.107118
370
    13
390
F
100
AcDbLine
 10
-41.724895
 20
17.47934
 30
0.0
 11
-38.014206
 21
19.621706
 31
0.0
  0
LINE
  5
5D5
330
E1
100
AcDbEntity
  8
0
 62
     7
 48
0.086603
370
    13
390
F
100
AcDbLine
 10
38.0
 20
63.50853
 30
0.0
 11
41.0
 21
65.240578
 31
0.0
  0
LINE
  5
5D6
330
E1
100
AcDbEntity
  8
0
 62
     7
 48
0.086603
370
    13
390
F
100
AcDbLine
 10
-41.0
 20
20.20726
 30
0.0
 11
-38.0
 21
21.93931
 31
0.0
  0
LINE
  5
5D7
330
E1
100
AcDbEntity
  8
0
 62
     7
 48
0.086603
370
    13
390
F
100
AcDbLine
 10
38.0
 20
65.817932
 30
0.0
 11
41.0
 21
67.54998
 31
0.0
  0
LINE
  5
5D8
330
E1
100
AcDbEntity
  8
0
 62
     7
 48
0.086603
370
    13
390
F
100
AcDbLine
 10
-41.0
 20
22.516661
 30
0.0
 11
-38.0
 21
24.248711
 31
0.0
  0
LINE
  5
5D9
330
E1
100
AcDbEntity
  8
0
 62
     7
 48
0.086603
370
    13
390
F
100
AcDbLine
 10
38.0
 20
68.127335
 30
0.0
 11
41.0
 21
69.859383
 31
0.0
  0
LINE
  5
5DA
330
E1
100
AcDbEntity
  8
0
 62
     7
 48
0.086603
370
    13
390
F
100
AcDbLine
 10
-41.0
 20
24.826061
 30
0.0
 11
-38.0
 21
26.558113
 31
0.0
  0
LINE
  5
5DB
330
E1
100
AcDbEntity
  8
0
 62
     7
 48
0.079644
370
    13
390
F
100
AcDbLine
 10
37.980469
 20
70.425453
 30
0.0
 11
40.73941
 21
72.018333
 31
0.0
  0
LINE
  5
5DC
330
E1
100
AcDbEntity
  8
0
 62
     7
 48
0.086603
370
    13
390
F
100
AcDbLine
 10
-41.0
 20
27.135462
 30
0.0
 11
-38.0
 21
28.867514
 31
0.0
  0
LINE
  5
5DD
330
E1
100
AcDbEntity
  8
0
 62
     7
 48
0.07499
370
    13
390
F
100
AcDbLine
 10
37.38903
 20
72.393394
 30
0.0
 11
39.986752
 21
73.893188
 31
0.0
  0
LINE
  5
5DE
330
E1
100
AcDbEntity
  8
0
 62
     7
 48
0.086603
370
    13
390
F
100
AcDbLine
 10
-41.0
 20
29.444864
 30
0.0
 11
-38.0
 21
31.176914
 31
0.0
  0
LINE
  5
5DF
330
E1
100
AcDbEntity
  8
0
 62
     7
 48
0.078565
370
    13
390
F
100
AcDbLine
 10
36.073524
 20
73.943283
 30
0.0
 11
38.795086
 21
75.51458
 31
0.0
  0
LINE
  5
5E0
330
E1
100
AcDbEntity
  8
0
 62
     7
 48
0.086603
370
    13
390
F
100
AcDbLine
 10
-41.0
 20
31.754265
 30
0.0
 11
-38.0
 21
33.486317
 31
0.0
  0
LINE
  5
5E1
330
E1
100
AcDbEntity
  8
0
 62
     7
 48
0.09605
370
    13
390
F
100
AcDbLine
 10
33.792854
 20
74.935944
 30
0.0
 11
37.120136
 21
76.856949
 31
0.0
  0
LINE
  5
5E2
330
E1
100
AcDbEntity
  8
0
 62
     7
 48
0.086603
370
    13
390
F
100
AcDbLine
 10
-41.0
 20
34.063667
 30
0.0
 11
-38.0
 21
35.795715
 31
0.0
  0
LINE
  5
5E3
330
E1
100
AcDbEntity
  8
0
 62
     7
 48
0.14018
370
    13
390
F
100
AcDbLine
 10
29.903811
 20
75.0
 30
0.0
 11
34.759785
 21
77.803596
 31
0.0
  0
LINE
  5
5E4
330
E1
100
AcDbEntity
  8
0
 62
     7
 48
0.086603
370
    13
390
F
100
AcDbLine
 10
-41.0
 20
36.373066
 30
0.0
 11
-38.0
 21
38.105118
 31
0.0
  0
LINE
  5
5E5
330
E1
100
AcDbEntity
  8
0
 62
     7
 48
0.15
370
    13
390
F
100
AcDbLine
 10
25.903811
 20
75.0
 30
0.0
 11
31.099964
 21
78.0
 31
0.0
  0
LINE
  5
5E6
330
E1
100
AcDbEntity
  8
0
 62
     7
 48
0.086603
370
    13
390
F
100
AcDbLine
 10
-41.0
 20
38.682468
 30
0.0
 11
-38.0
 21
40.41452
 31
0.0
  0
LINE
  5
5E7
330
E1
100
AcDbEntity
  8
0
 62
     7
 48
0.15
370
    13
390
F
100
AcDbLine
 10
21.903811
 20
75.0
 30
0.0
 11
27.099964
 21
78.0
 31
0.0
  0
LINE
  5
5E8
330
E1
100
AcDbEntity
  8
0
 62
     7
 48
0.086603
370
    13
390
F
100
AcDbLine
 10
-41.0
 20
40.991867
 30
0.0
 11
-38.0
 21
42.723919
 31
0.0
  0
LINE
  5
5E9
330
E1
100
AcDbEntity
  8
0
 62
     7
 48
0.15
370
    13
390
F
100
AcDbLine
 10
17.903811
 20
75.0
 30
0.0
 11
23.099964
 21
78.0
 31
0.0
  0
LINE
  5
5EA
330
E1
100
AcDbEntity
  8
0
 62
     7
 48
0.086603
370
    13
390
F
100
AcDbLine
 10
-41.0
 20
43.30127
 30
0.0
 11
-38.0
 21
45.033321
 31
0.0
  0
LINE
  5
5EB
330
E1
100
AcDbEntity
  8
0
 62
     7
 48
0.15
370
    13
390
F
100
AcDbLine
 10
13.903811
 20
75.0
 30
0.0
 11
19.099964
 21
78.0
 31
0.0
  0
LINE
  5
5EC
330
E1
100
AcDbEntity
  8
0
 62
     7
 48
0.086603
370
    13
390
F
100
AcDbLine
 10
-41.0
 20
45.610672
 30
0.0
 11
-38.0
 21
47.34272
 31
0.0
  0
LINE
  5
5ED
330
E1
100
AcDbEntity
  8
0
 62
     7
 48
0.15
370
    13
390
F
100
AcDbLine
 10
9.903811
 20
75.0
 30
0.0
 11
15.099963
 21
78.0
 31
0.0
  0
LINE
  5
5EE
330
E1
100
AcDbEntity
  8
0
 62
     7
 48
0.086603
370
    13
390
F
100
AcDbLine
 10
-41.0
 20
47.920071
 30
0.0
 11
-38.0
 21
49.652122
 31
0.0
  0
LINE
  5
5EF
330
E1
100
AcDbEntity
  8
0
 62
     7
 48
0.15
370
    13
390
F
100
AcDbLine
 10
5.903811
 20
75.0
 30
0.0
 11
11.099963
 21
78.0
 31
0.0
  0
LINE
  5
5F0
330
E1
100
AcDbEntity
  8
0
 62
     7
 48
0.086603
370
    13
390
F
100
AcDbLine
 10
-41.0
 20
50.229473
 30
0.0
 11
-38.0
 21
51.961525
 31
0.0
  0
LINE
  5
5F1
330
E1
100
AcDbEntity
  8
0
 62
     7
 48
0.15
370
    13
390
F
100
AcDbLine
 10
1.903811
 20
75.0
 30
0.0
 11
7.099963
 21
78.0
 31
0.0
  0
LINE
  5
5F2
330
E1
100
AcDbEntity
  8
0
 62
     7
 48
0.086603
370
    13
390
F
100
AcDbLine
 10
-41.0
 20
52.538876
 30
0.0
 11
-38.0
 21
54.270924
 31
0.0
  0
LINE
  5
5F3
330
E1
100
AcDbEntity
  8
0
 62
     7
 48
0.15
370
    13
390
F
100
AcDbLine
 10
-2.096189
 20
75.0
 30
0.0
 11
3.099963
 21
78.0
 31
0.0
  0
LINE
  5
5F4
330
E1
100
AcDbEntity
  8
0
 62
     7
 48
0.086603
370
    13
390
F
100
AcDbLine
 10
-41.0
 20
54.848274
 30
0.0
 11
-38.0
 21
56.580326
 31
0.0
  0
LINE
  5
5F5
330
E1
100
AcDbEntity
  8
0
 62
     7
 48
0.15
370
    13
390
F
100
AcDbLine
 10
-6.096189
 20
75.0
 30
0.0
 11
-0.900037
 21
78.0
 31
0.0
  0
LINE
  5
5F6
330
E1
100
AcDbEntity
  8
0
 62
     7
 48
0.086603
370
    13
390
F
100
AcDbLine
 10
-41.0
 20
57.157677
 30
0.0
 11
-38.0
 21
58.889729
 31
0.0
  0
LINE
  5
5F7
330
E1
100
AcDbEntity
  8
0
 62
     7
 48
0.15
370
    13
390
F
100
AcDbLine
 10
-10.096189
 20
75.0
 30
0.0
 11
-4.900037
 21
78.0
 31
0.0
  0
LINE
  5
5F8
330
E1
100
AcDbEntity
  8
0
 62
     7
 48
0.086603
370
    13
390
F
100
AcDbLine
 10
-41.0
 20
59.467079
 30
0.0
 11
-38.0
 21
61.199127
 31
0.0
  0
LINE
  5
5F9
330
E1
100
AcDbEntity
  8
0
 62
     7
 48
0.15
370
    13
390
F
100
AcDbLine
 10
-14.096189
 20
75.0
 30
0.0
 11
-8.900037
 21
78.0
 31
0.0
  0
LINE
  5
5FA
330
E1
100
AcDbEntity
  8
0
 62
     7
 48
0.086603
370
    13
390
F
100
AcDbLine
 10
-41.0
 20
61.776478
 30
0.0
 11
-38.0
 21
63.50853
 31
0.0
  0
LINE
  5
5FB
330
E1
100
AcDbEntity
  8
0
 62
     7
 48
0.15
370
    13
390
F
100
AcDbLine
 10
-18.096189
 20
75.0
 30
0.0
 11
-12.900037
 21
78.0
 31
0.0
  0
LINE
  5
5FC
330
E1
100
AcDbEntity
  8
0
 62
     7
 48
0.086603
370
    13
390
F
100
AcDbLine
 10
-41.0
 20
64.085876
 30
0.0
 11
-38.0
 21
65.817932
 31
0.0
  0
LINE
  5
5FD
330
E1
100
AcDbEntity
  8
0
 62
     7
 48
0.15
370
    13
390
F
100
AcDbLine
 10
-22.096189
 20
75.0
 30
0.0
 11
-16.900038
 21
78.0
 31
0.0
  0
LINE
  5
5FE
330
E1
100
AcDbEntity
  8
0
 62
     7
 48
0.086603
370
    13
390
F
100
AcDbLine
 10
-41.0
 20
66.395279
 30
0.0
 11
-38.0
 21
68.127335
 31
0.0
  0
LINE
  5
5FF
330
E1
100
AcDbEntity
  8
0
 62
     7
 48
0.15
370
    13
390
F
100
AcDbLine
 10
-26.096189
 20
75.0
 30
0.0
 11
-20.900038
 21
78.0
 31
0.0
  0
LINE
  5
600
330
E1
100
AcDbEntity
  8
0
 62
     7
 48
0.087182
370
    13
390
F
100
AcDbLine
 10
-41.0
 20
68.704681
 30
0.0
 11
-37.979939
 21
70.448311
 31
0.0
  0
LINE
  5
601
330
E1
100
AcDbEntity
  8
0
 62
     7
 48
0.15
370
    13
390
F
100
AcDbLine
 10
-30.096189
 20
75.0
 30
0.0
 11
-24.900038
 21
78.0
 31
0.0
  0
LINE
  5
602
330
E1
100
AcDbEntity
  8
0
 62
     7
 48
0.131204
370
    13
390
F
100
AcDbLine
 10
-40.929111
 20
71.055008
 30
0.0
 11
-36.384075
 21
73.679085
 31
0.0
  0
LINE
  5
603
330
E1
100
AcDbEntity
  8
0
 62
     7
 48
0.161453
370
    13
390
F
100
AcDbLine
 10
-34.492924
 20
74.770943
 30
0.0
 11
-28.900038
 21
78.0
 31
0.0
  0
LINE
  5
604
330
E1
100
AcDbEntity
  8
0
 62
     7
 48
0.204271
370
    13
390
F
100
AcDbLine
 10
-39.976208
 20
73.914574
 30
0.0
 11
-32.900036
 21
78.0
 31
0.0
  0
ENDBLK
  5
B46
330
E1
100
AcDbEntity
  8
0
100
AcDbBlockEnd
  0
BLOCK
  5
B47
330
E2
100
AcDbEntity
  8
0
100
AcDbBlockBegin
  2
BLOCK455
 70
     0
 10
0.0
 20
0.0
 30
0.0
  3
BLOCK455
  1

  0
LINE
  5
607
330
E2
100
AcDbEntity
  8
0
 62
     7
 48
0.028868
370
    13
390
F
100
AcDbLine
 10
64.0
 20
0.0
 30
0.0
 11
65.0
 21
0.57735
 31
0.0
  0
LINE
  5
608
330
E2
100
AcDbEntity
  8
0
 62
     7
 48
0.144338
370
    13
390
F
100
AcDbLine
 10
60.0
 20
0.0
 30
0.0
 11
65.0
 21
2.886751
 31
0.0
  0
LINE
  5
609
330
E2
100
AcDbEntity
  8
0
 62
     7
 48
0.140423
370
    13
390
F
100
AcDbLine
 10
56.331757
 20
0.19154
 30
0.0
 11
61.196152
 21
3.0
 31
0.0
  0
LINE
  5
60A
330
E2
100
AcDbEntity
  8
0
 62
     7
 48
0.096259
370
    13
390
F
100
AcDbLine
 10
53.966408
 20
1.135306
 30
0.0
 11
57.300934
 21
3.060495
 31
0.0
  0
LINE
  5
60B
330
E2
100
AcDbEntity
  8
0
 62
     7
 48
0.078685
370
    13
390
F
100
AcDbLine
 10
52.283993
 20
2.473365
 30
0.0
 11
55.009712
 21
4.047059
 31
0.0
  0
LINE
  5
60C
330
E2
100
AcDbEntity
  8
0
 62
     7
 48
0.077646
370
    13
390
F
100
AcDbLine
 10
50.819893
 20
3.937467
 30
0.0
 11
53.509621
 21
5.490381
 31
0.0
  0
ENDBLK
  5
B48
330
E2
100
AcDbEntity
  8
0
100
AcDbBlockEnd
  0
BLOCK
  5
B49
330
E3
100
AcDbEntity
  8
0
100
AcDbBlockBegin
  2
BLOCK456
 70
     0
 10
0.0
 20
0.0
 30
0.0
  3
BLOCK456
  1

  0
LINE
  5
60F
330
E3
100
AcDbEntity
  8
0
 62
     7
 48
0.028868
370
    13
390
F
100
AcDbLine
 10
80.0
 20
0.000001
 30
0.0
 11
81.0
 21
0.57735
 31
0.0
  0
LINE
  5
610
330
E3
100
AcDbEntity
  8
0
 62
     7
 48
0.144338
370
    13
390
F
100
AcDbLine
 10
76.0
 20
0.000001
 30
0.0
 11
81.0
 21
2.886751
 31
0.0
  0
LINE
  5
611
330
E3
100
AcDbEntity
  8
0
 62
     7
 48
0.063397
370
    13
390
F
100
AcDbLine
 10
75.0
 20
1.732051
 30
0.0
 11
77.196152
 21
3.0
 31
0.0
  0
ENDBLK
  5
B4A
330
E3
100
AcDbEntity
  8
0
100
AcDbBlockEnd
  0
BLOCK
  5
B4B
330
6D1
100
AcDbEntity
  8
0
100
AcDbBlockBegin
  2
*D107
 70
     1
 10
0.0
 20
0.0
 30
0.0
  3
*D107
  1

  0
POINT
  5
6C8
330
6D1
100
AcDbEntity
  8
DEFPOINTS
  6
ByBlock
 62
     0
380
     1
100
AcDbPoint
 10
550.5669172853609
 20
499.0018328447575
 30
0.0
  0
POINT
  5
6C9
330
6D1
100
AcDbEntity
  8
DEFPOINTS
  6
ByBlock
 62
     0
380
     1
100
AcDbPoint
 10
560.8275214514892
 20
440.811055262371
 30
0.0
  0
LINE
  5
6CA
330
6D1
100
AcDbEntity
  8
0
  6
ByBlock
 62
     0
370
    -2
380
     1
100
AcDbLine
 10
551.1824221309032
 20
499.1103629563117
 30
0.0
 11
582.2080695385008
 21
504.5810217148498
 31
0.0
  0
LINE
  5
6CB
330
6D1
100
AcDbEntity
  8
0
  6
ByBlock
 62
     0
370
    -2
380
     1
100
AcDbLine
 10
561.4430262970316
 20
440.9195853739253
 30
0.0
 11
592.4686737046293
 21
446.3902441324634
 31
0.0
  0
LINE
  5
6CC
330
6D1
100
AcDbEntity
  8
0
  6
ByBlock
 62
     0
370
    -2
380
     1
100
AcDbLine
 10
581.4111802936332
 20
501.9019421095722
 30
0.0
 11
590.8035435673278
 21
448.6352032915241
 31
0.0
  0
SOLID
  5
6CD
330
6D1
100
AcDbEntity
  8
0
  6
ByBlock
 62
     0
380
     1
100
AcDbTrace
 10
580.9770598474163
 20
504.3639614917414
 30
0.0
 11
581.0008437299383
 21
501.8295887018695
 31
0.0
 12
581.821516857328
 22
501.9742955172751
 32
0.0
 13
581.821516857328
 23
501.9742955172751
 33
0.0
  0
SOLID
  5
6CE
330
6D1
100
AcDbEntity
  8
0
  6
ByBlock
 62
     0
380
     1
100
AcDbTrace
 10
591.2376640135446
 20
446.173183909355
 30
0.0
 11
590.3932070036329
 21
448.5628498838213
 31
0.0
 12
591.2138801310226
 22
448.7075566992269
 32
0.0
 13
591.2138801310226
 23
448.7075566992269
 33
0.0
  0
MTEXT
  5
6CF
330
6D1
100
AcDbEntity
  8
0
  6
ByBlock
 62
     0
370
    -2
380
     1
100
AcDbMText
 10
588.0775724558533
 20
475.6159739755383
 30
0.0
 40
2.5
 41
0.0
 71
     5
 72
     1
  1
\A1;59,09
 11
0.1736481784867556
 21
-0.9848077528676508
 31
0.0
 73
     1
 44
1.0
  0
ENDBLK
  5
B4C
330
6D1
100
AcDbEntity
  8
0
100
AcDbBlockEnd
  0
BLOCK
  5
B4D
330
6DC
100
AcDbEntity
  8
0
100
AcDbBlockBegin
  2
*D108
 70
     1
 10
0.0
 20
0.0
 30
0.0
  3
*D108
  1

  0
POINT
  5
6D3
330
6DC
100
AcDbEntity
  8
DEFPOINTS
  6
ByBlock
 62
     0
380
     1
100
AcDbPoint
 10
550.5669172853609
 20
499.0018328447575
 30
0.0
  0
POINT
  5
6D4
330
6DC
100
AcDbEntity
  8
DEFPOINTS
  6
ByBlock
 62
     0
380
     1
100
AcDbPoint
 10
560.8275214514892
 20
440.811055262371
 30
0.0
  0
LINE
  5
6D5
330
6DC
100
AcDbEntity
  8
0
  6
ByBlock
 62
     0
370
    -2
380
     1
100
AcDbLine
 10
551.1824221309032
 20
499.1103629563117
 30
0.0
 11
577.9508675300111
 21
503.8303621347727
 31
0.0
  0
LINE
  5
6D6
330
6DC
100
AcDbEntity
  8
0
  6
ByBlock
 62
     0
370
    -2
380
     1
100
AcDbLine
 10
561.4430262970316
 20
440.9195853739253
 30
0.0
 11
588.2114716961395
 21
445.6395845523862
 31
0.0
  0
LINE
  5
6D7
330
6DC
100
AcDbEntity
  8
0
  6
ByBlock
 62
     0
370
    -2
380
     1
100
AcDbLine
 10
577.1539782851435
 20
501.1512825294951
 30
0.0
 11
586.5463415588381
 21
447.8845437114469
 31
0.0
  0
SOLID
  5
6D8
330
6DC
100
AcDbEntity
  8
0
  6
ByBlock
 62
     0
380
     1
100
AcDbTrace
 10
576.7198578389266
 20
503.6133019116642
 30
0.0
 11
576.7436417214486
 21
501.0789291217923
 31
0.0
 12
577.5643148488383
 22
501.2236359371979
 32
0.0
 13
577.5643148488383
 23
501.2236359371979
 33
0.0
  0
SOLID
  5
6D9
330
6DC
100
AcDbEntity
  8
0
  6
ByBlock
 62
     0
380
     1
100
AcDbTrace
 10
586.980462005055
 20
445.4225243292777
 30
0.0
 11
586.1360049951433
 21
447.812190303744
 31
0.0
 12
586.9566781225329
 22
447.9568971191497
 32
0.0
 13
586.9566781225329
 23
447.9568971191497
 33
0.0
  0
MTEXT
  5
6DA
330
6DC
100
AcDbEntity
  8
0
  6
ByBlock
 62
     0
370
    -2
380
     1
100
AcDbMText
 10
583.6267526912128
 20
475.9633752505285
 30
0.0
 40
2.5
 41
0.0
 71
     5
 72
     1
  1
\A1;59,09
 11
0.1736481784867556
 21
-0.9848077528676508
 31
0.0
 73
     1
 44
1.0
  0
ENDBLK
  5
B4E
330
6DC
100
AcDbEntity
  8
0
100
AcDbBlockEnd
  0
BLOCK
  5
B4F
330
6E7
100
AcDbEntity
  8
0
100
AcDbBlockBegin
  2
*D109
 70
     1
 10
0.0
 20
0.0
 30
0.0
  3
*D109
  1

  0
POINT
  5
6DE
330
6E7
100
AcDbEntity
  8
DEFPOINTS
  6
ByBlock
 62
     0
380
     1
100
AcDbPoint
 10
550.5669172853609
 20
499.0018328447575
 30
0.0
  0
POINT
  5
6DF
330
6E7
100
AcDbEntity
  8
DEFPOINTS
  6
ByBlock
 62
     0
380
     1
100
AcDbPoint
 10
560.8275214514892
 20
440.811055262371
 30
0.0
  0
LINE
  5
6E0
330
6E7
100
AcDbEntity
  8
0
  6
ByBlock
 62
     0
370
    -2
380
     1
100
AcDbLine
 10
551.1824221309032
 20
499.1103629563117
 30
0.0
 11
577.9508675300111
 21
503.8303621347727
 31
0.0
  0
LINE
  5
6E1
330
6E7
100
AcDbEntity
  8
0
  6
ByBlock
 62
     0
370
    -2
380
     1
100
AcDbLine
 10
561.4430262970316
 20
440.9195853739253
 30
0.0
 11
588.2114716961395
 21
445.6395845523862
 31
0.0
  0
LINE
  5
6E2
330
6E7
100
AcDbEntity
  8
0
  6
ByBlock
 62
     0
370
    -2
380
     1
100
AcDbLine
 10
577.1539782851435
 20
501.1512825294951
 30
0.0
 11
586.5463415588381
 21
447.8845437114469
 31
0.0
  0
SOLID
  5
6E3
330
6E7
100
AcDbEntity
  8
0
  6
ByBlock
 62
     0
380
     1
100
AcDbTrace
 10
576.7198578389266
 20
503.6133019116642
 30
0.0
 11
576.7436417214486
 21
501.0789291217923
 31
0.0
 12
577.5643148488383
 22
501.2236359371979
 32
0.0
 13
577.5643148488383
 23
501.2236359371979
 33
0.0
  0
SOLID
  5
6E4
330
6E7
100
AcDbEntity
  8
0
  6
ByBlock
 62
     0
380
     1
100
AcDbTrace
 10
586.980462005055
 20
445.4225243292777
 30
0.0
 11
586.1360049951433
 21
447.812190303744
 31
0.0
 12
586.9566781225329
 22
447.9568971191497
 32
0.0
 13
586.9566781225329
 23
447.9568971191497
 33
0.0
  0
MTEXT
  5
6E5
330
6E7
100
AcDbEntity
  8
0
  6
ByBlock
 62
     0
370
    -2
380
     1
100
AcDbMText
 10
583.6267526912128
 20
475.9633752505285
 30
0.0
 40
2.5
 41
0.0
 71
     5
 72
     1
  1
\A1;59,09
 11
0.1736481784867556
 21
-0.9848077528676508
 31
0.0
 73
     1
 44
1.0
  0
ENDBLK
  5
B50
330
6E7
100
AcDbEntity
  8
0
100
AcDbBlockEnd
  0
BLOCK
  5
B51
330
6F2
100
AcDbEntity
  8
0
100
AcDbBlockBegin
  2
*D110
 70
     1
 10
0.0
 20
0.0
 30
0.0
  3
*D110
  1

  0
POINT
  5
6E9
330
6F2
100
AcDbEntity
  8
DEFPOINTS
  6
ByBlock
 62
     0
380
     1
100
AcDbPoint
 10
550.5669172853609
 20
499.0018328447575
 30
0.0
  0
POINT
  5
6EA
330
6F2
100
AcDbEntity
  8
DEFPOINTS
  6
ByBlock
 62
     0
380
     1
100
AcDbPoint
 10
560.8275214514892
 20
440.811055262371
 30
0.0
  0
LINE
  5
6EB
330
6F2
100
AcDbEntity
  8
0
  6
ByBlock
 62
     0
370
    -2
380
     1
100
AcDbLine
 10
551.1824221309032
 20
499.1103629563117
 30
0.0
 11
577.9508675300111
 21
503.8303621347727
 31
0.0
  0
LINE
  5
6EC
330
6F2
100
AcDbEntity
  8
0
  6
ByBlock
 62
     0
370
    -2
380
     1
100
AcDbLine
 10
561.4430262970316
 20
440.9195853739253
 30
0.0
 11
588.2114716961395
 21
445.6395845523862
 31
0.0
  0
LINE
  5
6ED
330
6F2
100
AcDbEntity
  8
0
  6
ByBlock
 62
     0
370
    -2
380
     1
100
AcDbLine
 10
577.1539782851435
 20
501.1512825294951
 30
0.0
 11
586.5463415588381
 21
447.8845437114469
 31
0.0
  0
SOLID
  5
6EE
330
6F2
100
AcDbEntity
  8
0
  6
ByBlock
 62
     0
380
     1
100
AcDbTrace
 10
576.7198578389266
 20
503.6133019116642
 30
0.0
 11
576.7436417214486
 21
501.0789291217923
 31
0.0
 12
577.5643148488383
 22
501.2236359371979
 32
0.0
 13
577.5643148488383
 23
501.2236359371979
 33
0.0
  0
SOLID
  5
6EF
330
6F2
100
AcDbEntity
  8
0
  6
ByBlock
 62
     0
380
     1
100
AcDbTrace
 10
586.980462005055
 20
445.4225243292777
 30
0.0
 11
586.1360049951433
 21
447.812190303744
 31
0.0
 12
586.9566781225329
 22
447.9568971191497
 32
0.0
 13
586.9566781225329
 23
447.9568971191497
 33
0.0
  0
MTEXT
  5
6F0
330
6F2
100
AcDbEntity
  8
0
  6
ByBlock
 62
     0
370
    -2
380
     1
100
AcDbMText
 10
583.6267526912129
 20
475.9633752505285
 30
0.0
 40
2.5
 41
0.0
 71
     5
 72
     1
  1
\A1;59,09
 11
0.1736481784867556
 21
-0.9848077528676508
 31
0.0
 73
     1
 44
1.0
  0
ENDBLK
  5
B52
330
6F2
100
AcDbEntity
  8
0
100
AcDbBlockEnd
  0
BLOCK
  5
B53
330
6FD
100
AcDbEntity
  8
0
100
AcDbBlockBegin
  2
*D111
 70
     1
 10
0.0
 20
0.0
 30
0.0
  3
*D111
  1

  0
POINT
  5
6F4
330
6FD
100
AcDbEntity
  8
DEFPOINTS
  6
ByBlock
 62
     0
380
     1
100
AcDbPoint
 10
550.5669172853609
 20
499.0018328447575
 30
0.0
  0
POINT
  5
6F5
330
6FD
100
AcDbEntity
  8
DEFPOINTS
  6
ByBlock
 62
     0
380
     1
100
AcDbPoint
 10
560.8275214514892
 20
440.811055262371
 30
0.0
  0
LINE
  5
6F6
330
6FD
100
AcDbEntity
  8
0
  6
ByBlock
 62
     0
370
    -2
380
     1
100
AcDbLine
 10
551.1824221309032
 20
499.1103629563117
 30
0.0
 11
577.9508675300111
 21
503.8303621347727
 31
0.0
  0
LINE
  5
6F7
330
6FD
100
AcDbEntity
  8
0
  6
ByBlock
 62
     0
370
    -2
380
     1
100
AcDbLine
 10
561.4430262970316
 20
440.9195853739253
 30
0.0
 11
588.2114716961395
 21
445.6395845523862
 31
0.0
  0
LINE
  5
6F8
330
6FD
100
AcDbEntity
  8
0
  6
ByBlock
 62
     0
370
    -2
380
     1
100
AcDbLine
 10
577.1539782851435
 20
501.1512825294951
 30
0.0
 11
586.5463415588381
 21
447.8845437114469
 31
0.0
  0
SOLID
  5
6F9
330
6FD
100
AcDbEntity
  8
0
  6
ByBlock
 62
     0
380
     1
100
AcDbTrace
 10
576.7198578389266
 20
503.6133019116642
 30
0.0
 11
576.7436417214486
 21
501.0789291217923
 31
0.0
 12
577.5643148488383
 22
501.2236359371979
 32
0.0
 13
577.5643148488383
 23
501.2236359371979
 33
0.0
  0
SOLID
  5
6FA
330
6FD
100
AcDbEntity
  8
0
  6
ByBlock
 62
     0
380
     1
100
AcDbTrace
 10
586.980462005055
 20
445.4225243292777
 30
0.0
 11
586.1360049951433
 21
447.812190303744
 31
0.0
 12
586.9566781225329
 22
447.9568971191497
 32
0.0
 13
586.9566781225329
 23
447.9568971191497
 33
0.0
  0
MTEXT
  5
6FB
330
6FD
100
AcDbEntity
  8
0
  6
ByBlock
 62
     0
370
    -2
380
     1
100
AcDbMText
 10
583.6267526912129
 20
475.9633752505285
 30
0.0
 40
2.5
 41
0.0
 71
     5
 72
     1
  1
\A1;59,09
 11
0.1736481784867556
 21
-0.9848077528676508
 31
0.0
 73
     1
 44
1.0
  0
ENDBLK
  5
B54
330
6FD
100
AcDbEntity
  8
0
100
AcDbBlockEnd
  0
BLOCK
  5
B55
330
708
100
AcDbEntity
  8
0
100
AcDbBlockBegin
  2
*D112
 70
     1
 10
0.0
 20
0.0
 30
0.0
  3
*D112
  1

  0
POINT
  5
6FF
330
708
100
AcDbEntity
  8
DEFPOINTS
  6
ByBlock
 62
     0
380
     1
100
AcDbPoint
 10
550.5669172853609
 20
499.0018328447575
 30
0.0
  0
POINT
  5
700
330
708
100
AcDbEntity
  8
DEFPOINTS
  6
ByBlock
 62
     0
380
     1
100
AcDbPoint
 10
560.8275214514892
 20
440.811055262371
 30
0.0
  0
LINE
  5
701
330
708
100
AcDbEntity
  8
0
  6
ByBlock
 62
     0
370
    -2
380
     1
100
AcDbLine
 10
551.1824221309032
 20
499.1103629563117
 30
0.0
 11
579.921078055384
 21
504.1777634097628
 31
0.0
  0
LINE
  5
702
330
708
100
AcDbEntity
  8
0
  6
ByBlock
 62
     0
370
    -2
380
     1
100
AcDbLine
 10
561.4430262970316
 20
440.9195853739253
 30
0.0
 11
590.1816822215123
 21
445.9869858273764
 31
0.0
  0
LINE
  5
703
330
708
100
AcDbEntity
  8
0
  6
ByBlock
 62
     0
370
    -2
380
     1
100
AcDbLine
 10
579.1241888105163
 20
501.4986838044852
 30
0.0
 11
588.516552084211
 21
448.231944986437
 31
0.0
  0
SOLID
  5
704
330
708
100
AcDbEntity
  8
0
  6
ByBlock
 62
     0
380
     1
100
AcDbTrace
 10
578.6900683642995
 20
503.9607031866544
 30
0.0
 11
578.7138522468215
 21
501.4263303967824
 31
0.0
 12
579.5345253742112
 22
501.5710372121881
 32
0.0
 13
579.5345253742112
 23
501.5710372121881
 33
0.0
  0
SOLID
  5
705
330
708
100
AcDbEntity
  8
0
  6
ByBlock
 62
     0
380
     1
100
AcDbTrace
 10
588.9506725304278
 20
445.7699256042679
 30
0.0
 11
588.1062155205161
 21
448.1595915787343
 31
0.0
 12
588.9268886479058
 22
448.3042983941399
 32
0.0
 13
588.9268886479058
 23
448.3042983941399
 33
0.0
  0
MTEXT
  5
706
330
708
100
AcDbEntity
  8
0
  6
ByBlock
 62
     0
370
    -2
380
     1
100
AcDbMText
 10
585.5969632165857
 20
476.3107765255186
 30
0.0
 40
2.5
 41
0.0
 71
     5
 72
     1
  1
\A1;59,09
 11
0.1736481784867556
 21
-0.9848077528676508
 31
0.0
 73
     1
 44
1.0
  0
ENDBLK
  5
B56
330
708
100
AcDbEntity
  8
0
100
AcDbBlockEnd
  0
BLOCK
  5
B57
330
71B
100
AcDbEntity
  8
0
100
AcDbBlockBegin
  2
*D113
 70
     1
 10
0.0
 20
0.0
 30
0.0
  3
*D113
  1

  0
POINT
  5
712
330
71B
100
AcDbEntity
  8
DEFPOINTS
  6
ByBlock
 62
     7
380
     1
100
AcDbPoint
 10
550.5669172853609
 20
499.0018328447575
 30
0.0
  0
POINT
  5
713
330
71B
100
AcDbEntity
  8
DEFPOINTS
  6
ByBlock
 62
     7
380
     1
100
AcDbPoint
 10
560.8275214514892
 20
440.811055262371
 30
0.0
  0
LINE
  5
714
330
71B
100
AcDbEntity
  8
0
  6
ByBlock
 62
     7
370
    -2
380
     1
100
AcDbLine
 10
551.1824221309032
 20
499.1103629563117
 30
0.0
 11
579.921078055384
 21
504.1777634097628
 31
0.0
  0
LINE
  5
715
330
71B
100
AcDbEntity
  8
0
  6
ByBlock
 62
     7
370
    -2
380
     1
100
AcDbLine
 10
561.4430262970316
 20
440.9195853739253
 30
0.0
 11
590.1816822215123
 21
445.9869858273764
 31
0.0
  0
LINE
  5
716
330
71B
100
AcDbEntity
  8
0
  6
ByBlock
 62
     7
370
    -2
380
     1
100
AcDbLine
 10
580.426550149167
 20
494.1126256579778
 30
0.0
 11
587.2141907455602
 21
455.6180031329445
 31
0.0
  0
SOLID
  5
717
330
71B
100
AcDbEntity
  8
0
  6
ByBlock
 62
     7
380
     1
100
AcDbTrace
 10
578.6900683642995
 20
503.9607031866544
 30
0.0
 11
578.7852038943876
 21
493.8232120271666
 31
0.0
 12
582.0678964039464
 22
494.4020392887891
 32
0.0
 13
582.0678964039464
 23
494.4020392887891
 33
0.0
  0
SOLID
  5
718
330
71B
100
AcDbEntity
  8
0
  6
ByBlock
 62
     7
380
     1
100
AcDbTrace
 10
588.9506725304278
 20
445.7699256042679
 30
0.0
 11
585.5728444907809
 21
455.3285895021332
 31
0.0
 12
588.8555370003397
 22
455.9074167637557
 32
0.0
 13
588.8555370003397
 23
455.9074167637557
 33
0.0
  0
MTEXT
  5
719
330
71B
100
AcDbEntity
  8
0
  6
ByBlock
 62
     0
370
    -2
380
     1
100
AcDbMText
 10
594.7584124085874
 20
477.9261872083221
 30
0.0
 40
14.0
 41
0.0
 71
     5
 72
     1
  1
\A1;59
 11
0.1736481784867556
 21
-0.9848077528676508
 31
0.0
 73
     1
 44
1.0
  0
ENDBLK
  5
B58
330
71B
100
AcDbEntity
  8
0
100
AcDbBlockEnd
  0
BLOCK
  5
B59
330
773
100
AcDbEntity
  8
0
100
AcDbBlockBegin
  2
*D114
 70
     1
 10
0.0
 20
0.0
 30
0.0
  3
*D114
  1

  0
POINT
  5
76A
330
773
100
AcDbEntity
  8
DEFPOINTS
  6
ByBlock
 62
     0
380
     1
100
AcDbPoint
 10
56.805655
 20
462.5252362478553
 30
0.0
  0
POINT
  5
76B
330
773
100
AcDbEntity
  8
DEFPOINTS
  6
ByBlock
 62
     0
380
     1
100
AcDbPoint
 10
218.805655
 20
462.5252362478553
 30
0.0
  0
LINE
  5
76C
330
773
100
AcDbEntity
  8
0
  6
ByBlock
 62
     0
370
    -2
380
     1
100
AcDbLine
 10
56.805655
 20
463.1502362478553
 30
0.0
 11
56.805655
 21
525.1543501079949
 31
0.0
  0
LINE
  5
76D
330
773
100
AcDbEntity
  8
0
  6
ByBlock
 62
     0
370
    -2
380
     1
100
AcDbLine
 10
218.805655
 20
463.1502362478553
 30
0.0
 11
218.805655
 21
525.1543501079949
 31
0.0
  0
LINE
  5
76E
330
773
100
AcDbEntity
  8
0
  6
ByBlock
 62
     0
370
    -2
380
     1
100
AcDbLine
 10
59.305655
 20
523.9043501079949
 30
0.0
 11
216.305655
 21
523.9043501079949
 31
0.0
  0
SOLID
  5
76F
330
773
100
AcDbEntity
  8
0
  6
ByBlock
 62
     0
380
     1
100
AcDbTrace
 10
56.805655
 20
523.9043501079949
 30
0.0
 11
59.305655
 21
523.4876834413283
 31
0.0
 12
59.305655
 22
524.3210167746615
 32
0.0
 13
59.305655
 23
524.3210167746615
 33
0.0
  0
SOLID
  5
770
330
773
100
AcDbEntity
  8
0
  6
ByBlock
 62
     0
380
     1
100
AcDbTrace
 10
218.805655
 20
523.9043501079949
 30
0.0
 11
216.305655
 21
523.4876834413283
 31
0.0
 12
216.305655
 22
524.3210167746615
 32
0.0
 13
216.305655
 23
524.3210167746615
 33
0.0
  0
MTEXT
  5
771
330
773
100
AcDbEntity
  8
0
  6
ByBlock
 62
     0
370
    -2
380
     1
100
AcDbMText
 10
137.805655
 20
525.6543501079949
 30
0.0
 40
2.5
 41
0.0
 71
     5
 72
     1
  1
\A1;162
 73
     1
 44
1.0
  0
ENDBLK
  5
B5A
330
773
100
AcDbEntity
  8
0
100
AcDbBlockEnd
  0
BLOCK
  5
B5B
330
77E
100
AcDbEntity
  8
0
100
AcDbBlockBegin
  2
*D115
 70
     1
 10
0.0
 20
0.0
 30
0.0
  3
*D115
  1

  0
POINT
  5
775
330
77E
100
AcDbEntity
  8
DEFPOINTS
  6
ByBlock
 62
     0
380
     1
100
AcDbPoint
 10
56.805655
 20
462.5252362478553
 30
0.0
  0
POINT
  5
776
330
77E
100
AcDbEntity
  8
DEFPOINTS
  6
ByBlock
 62
     0
380
     1
100
AcDbPoint
 10
218.805655
 20
462.5252362478553
 30
0.0
  0
LINE
  5
777
330
77E
100
AcDbEntity
  8
0
  6
ByBlock
 62
     0
370
    -2
380
     1
100
AcDbLine
 10
56.805655
 20
463.1502362478553
 30
0.0
 11
56.805655
 21
542.1027231483669
 31
0.0
  0
LINE
  5
778
330
77E
100
AcDbEntity
  8
0
  6
ByBlock
 62
     0
370
    -2
380
     1
100
AcDbLine
 10
218.805655
 20
463.1502362478553
 30
0.0
 11
218.805655
 21
542.1027231483669
 31
0.0
  0
LINE
  5
779
330
77E
100
AcDbEntity
  8
0
  6
ByBlock
 62
     0
370
    -2
380
     1
100
AcDbLine
 10
59.305655
 20
540.8527231483669
 30
0.0
 11
216.305655
 21
540.8527231483669
 31
0.0
  0
SOLID
  5
77A
330
77E
100
AcDbEntity
  8
0
  6
ByBlock
 62
     0
380
     1
100
AcDbTrace
 10
56.805655
 20
540.8527231483669
 30
0.0
 11
59.305655
 21
540.4360564817002
 31
0.0
 12
59.305655
 22
541.2693898150335
 32
0.0
 13
59.305655
 23
541.2693898150335
 33
0.0
  0
SOLID
  5
77B
330
77E
100
AcDbEntity
  8
0
  6
ByBlock
 62
     0
380
     1
100
AcDbTrace
 10
218.805655
 20
540.8527231483669
 30
0.0
 11
216.305655
 21
540.4360564817002
 31
0.0
 12
216.305655
 22
541.2693898150335
 32
0.0
 13
216.305655
 23
541.2693898150335
 33
0.0
  0
MTEXT
  5
77C
330
77E
100
AcDbEntity
  8
0
  6
ByBlock
 62
     0
370
    -2
380
     1
100
AcDbMText
 10
137.805655
 20
542.6027231483669
 30
0.0
 40
2.5
 41
0.0
 71
     5
 72
     1
  1
\A1;162
 73
     1
 44
1.0
  0
ENDBLK
  5
B5C
330
77E
100
AcDbEntity
  8
0
100
AcDbBlockEnd
  0
BLOCK
  5
B5D
330
789
100
AcDbEntity
  8
0
100
AcDbBlockBegin
  2
*D116
 70
     1
 10
0.0
 20
0.0
 30
0.0
  3
*D116
  1

  0
POINT
  5
780
330
789
100
AcDbEntity
  8
DEFPOINTS
  6
ByBlock
 62
     0
380
     1
100
AcDbPoint
 10
56.805655
 20
462.5252362478553
 30
0.0
  0
POINT
  5
781
330
789
100
AcDbEntity
  8
DEFPOINTS
  6
ByBlock
 62
     0
380
     1
100
AcDbPoint
 10
218.805655
 20
462.5252362478553
 30
0.0
  0
LINE
  5
782
330
789
100
AcDbEntity
  8
0
  6
ByBlock
 62
     0
370
    -2
380
     1
100
AcDbLine
 10
56.805655
 20
463.1502362478553
 30
0.0
 11
56.805655
 21
528.5189222043693
 31
0.0
  0
LINE
  5
783
330
789
100
AcDbEntity
  8
0
  6
ByBlock
 62
     0
370
    -2
380
     1
100
AcDbLine
 10
218.805655
 20
463.1502362478553
 30
0.0
 11
218.805655
 21
528.5189222043693
 31
0.0
  0
LINE
  5
784
330
789
100
AcDbEntity
  8
0
  6
ByBlock
 62
     0
370
    -2
380
     1
100
AcDbLine
 10
59.305655
 20
527.2689222043693
 30
0.0
 11
216.305655
 21
527.2689222043693
 31
0.0
  0
SOLID
  5
785
330
789
100
AcDbEntity
  8
0
  6
ByBlock
 62
     0
380
     1
100
AcDbTrace
 10
56.805655
 20
527.2689222043693
 30
0.0
 11
59.305655
 21
526.8522555377027
 31
0.0
 12
59.305655
 22
527.685588871036
 32
0.0
 13
59.305655
 23
527.685588871036
 33
0.0
  0
SOLID
  5
786
330
789
100
AcDbEntity
  8
0
  6
ByBlock
 62
     0
380
     1
100
AcDbTrace
 10
218.805655
 20
527.2689222043693
 30
0.0
 11
216.305655
 21
526.8522555377027
 31
0.0
 12
216.305655
 22
527.685588871036
 32
0.0
 13
216.305655
 23
527.685588871036
 33
0.0
  0
MTEXT
  5
787
330
789
100
AcDbEntity
  8
0
  6
ByBlock
 62
     0
370
    -2
380
     1
100
AcDbMText
 10
137.805655
 20
529.0189222043693
 30
0.0
 40
2.5
 41
0.0
 71
     5
 72
     1
  1
\A1;162
 73
     1
 44
1.0
  0
ENDBLK
  5
B5E
330
789
100
AcDbEntity
  8
0
100
AcDbBlockEnd
  0
BLOCK
  5
B5F
330
794
100
AcDbEntity
  8
0
100
AcDbBlockBegin
  2
*D117
 70
     1
 10
0.0
 20
0.0
 30
0.0
  3
*D117
  1

  0
POINT
  5
78B
330
794
100
AcDbEntity
  8
DEFPOINTS
  6
ByBlock
 62
     7
380
     1
100
AcDbPoint
 10
56.805655
 20
462.5252362478553
 30
0.0
  0
POINT
  5
78C
330
794
100
AcDbEntity
  8
DEFPOINTS
  6
ByBlock
 62
     7
380
     1
100
AcDbPoint
 10
218.805655
 20
462.5252362478553
 30
0.0
  0
LINE
  5
78D
330
794
100
AcDbEntity
  8
0
  6
ByBlock
 62
     7
370
    -2
380
     1
100
AcDbLine
 10
56.805655
 20
463.1502362478553
 30
0.0
 11
56.805655
 21
528.5189222043693
 31
0.0
  0
LINE
  5
78E
330
794
100
AcDbEntity
  8
0
  6
ByBlock
 62
     7
370
    -2
380
     1
100
AcDbLine
 10
218.805655
 20
463.1502362478553
 30
0.0
 11
218.805655
 21
528.5189222043693
 31
0.0
  0
LINE
  5
78F
330
794
100
AcDbEntity
  8
0
  6
ByBlock
 62
     7
370
    -2
380
     1
100
AcDbLine
 10
66.805655
 20
527.2689222043693
 30
0.0
 11
208.805655
 21
527.2689222043693
 31
0.0
  0
SOLID
  5
790
330
794
100
AcDbEntity
  8
0
  6
ByBlock
 62
     7
380
     1
100
AcDbTrace
 10
56.805655
 20
527.2689222043693
 30
0.0
 11
66.805655
 21
525.6022555377027
 31
0.0
 12
66.805655
 22
528.935588871036
 32
0.0
 13
66.805655
 23
528.935588871036
 33
0.0
  0
SOLID
  5
791
330
794
100
AcDbEntity
  8
0
  6
ByBlock
 62
     7
380
     1
100
AcDbTrace
 10
218.805655
 20
527.2689222043693
 30
0.0
 11
208.805655
 21
525.6022555377027
 31
0.0
 12
208.805655
 22
528.935588871036
 32
0.0
 13
208.805655
 23
528.935588871036
 33
0.0
  0
MTEXT
  5
792
330
794
100
AcDbEntity
  8
0
  6
ByBlock
 62
     0
370
    -2
380
     1
100
AcDbMText
 10
137.805655
 20
538.5689222043693
 30
0.0
 40
14.0
 41
0.0
 71
     5
 72
     1
  1
\A1;162
 73
     1
 44
1.0
  0
ENDBLK
  5
B60
330
794
100
AcDbEntity
  8
0
100
AcDbBlockEnd
  0
BLOCK
  5
B61
330
79F
100
AcDbEntity
  8
0
100
AcDbBlockBegin
  2
*D118
 70
     1
 10
0.0
 20
0.0
 30
0.0
  3
*D118
  1

  0
POINT
  5
796
330
79F
100
AcDbEntity
  8
DEFPOINTS
  6
ByBlock
 62
     7
380
     1
100
AcDbPoint
 10
56.805655
 20
462.5252362478553
 30
0.0
  0
POINT
  5
797
330
79F
100
AcDbEntity
  8
DEFPOINTS
  6
ByBlock
 62
     7
380
     1
100
AcDbPoint
 10
218.805655
 20
462.5252362478553
 30
0.0
  0
LINE
  5
798
330
79F
100
AcDbEntity
  8
0
  6
ByBlock
 62
     7
370
    -2
380
     1
100
AcDbLine
 10
56.805655
 20
463.1502362478553
 30
0.0
 11
56.805655
 21
528.5189222043693
 31
0.0
  0
LINE
  5
799
330
79F
100
AcDbEntity
  8
0
  6
ByBlock
 62
     7
370
    -2
380
     1
100
AcDbLine
 10
218.805655
 20
463.1502362478553
 30
0.0
 11
218.805655
 21
528.5189222043693
 31
0.0
  0
LINE
  5
79A
330
79F
100
AcDbEntity
  8
0
  6
ByBlock
 62
     7
370
    -2
380
     1
100
AcDbLine
 10
66.805655
 20
527.2689222043693
 30
0.0
 11
208.805655
 21
527.2689222043693
 31
0.0
  0
SOLID
  5
79B
330
79F
100
AcDbEntity
  8
0
  6
ByBlock
 62
     7
380
     1
100
AcDbTrace
 10
56.805655
 20
527.2689222043693
 30
0.0
 11
66.805655
 21
525.6022555377027
 31
0.0
 12
66.805655
 22
528.935588871036
 32
0.0
 13
66.805655
 23
528.935588871036
 33
0.0
  0
SOLID
  5
79C
330
79F
100
AcDbEntity
  8
0
  6
ByBlock
 62
     7
380
     1
100
AcDbTrace
 10
218.805655
 20
527.2689222043693
 30
0.0
 11
208.805655
 21
525.6022555377027
 31
0.0
 12
208.805655
 22
528.935588871036
 32
0.0
 13
208.805655
 23
528.935588871036
 33
0.0
  0
MTEXT
  5
79D
330
79F
100
AcDbEntity
  8
0
  6
ByBlock
 62
     0
370
    -2
380
     1
100
AcDbMText
 10
137.805655
 20
538.5689222043693
 30
0.0
 40
14.0
 41
0.0
 71
     5
 72
     1
  1
\A1;162
 73
     1
 44
1.0
  0
ENDBLK
  5
B62
330
79F
100
AcDbEntity
  8
0
100
AcDbBlockEnd
  0
BLOCK
  5
B63
330
7AB
100
AcDbEntity
  8
0
100
AcDbBlockBegin
  2
*D119
 70
     1
 10
0.0
 20
0.0
 30
0.0
  3
*D119
  1

  0
POINT
  5
7A2
330
7AB
100
AcDbEntity
  8
DEFPOINTS
  6
ByBlock
 62
     0
380
     1
100
AcDbPoint
 10
132.9558640002176
 20
510.123047
 30
0.0
  0
POINT
  5
7A3
330
7AB
100
AcDbEntity
  8
DEFPOINTS
  6
ByBlock
 62
     0
380
     1
100
AcDbPoint
 10
132.9558640002176
 20
360.123047
 30
0.0
  0
LINE
  5
7A4
330
7AB
100
AcDbEntity
  8
0
  6
ByBlock
 62
     0
370
    -2
380
     1
100
AcDbLine
 10
132.3308640002176
 20
510.123047
 30
0.0
 11
36.61925739223545
 21
510.123047
 31
0.0
  0
LINE
  5
7A5
330
7AB
100
AcDbEntity
  8
0
  6
ByBlock
 62
     0
370
    -2
380
     1
100
AcDbLine
 10
132.3308640002176
 20
360.123047
 30
0.0
 11
36.61925739223545
 21
360.123047
 31
0.0
  0
LINE
  5
7A6
330
7AB
100
AcDbEntity
  8
0
  6
ByBlock
 62
     0
370
    -2
380
     1
100
AcDbLine
 10
37.86925739223545
 20
507.623047
 30
0.0
 11
37.86925739223545
 21
362.623047
 31
0.0
  0
SOLID
  5
7A7
330
7AB
100
AcDbEntity
  8
0
  6
ByBlock
 62
     0
380
     1
100
AcDbTrace
 10
37.86925739223545
 20
510.123047
 30
0.0
 11
37.45259072556878
 21
507.623047
 31
0.0
 12
38.28592405890213
 22
507.623047
 32
0.0
 13
38.28592405890213
 23
507.623047
 33
0.0
  0
SOLID
  5
7A8
330
7AB
100
AcDbEntity
  8
0
  6
ByBlock
 62
     0
380
     1
100
AcDbTrace
 10
37.86925739223545
 20
360.123047
 30
0.0
 11
37.45259072556878
 21
362.623047
 31
0.0
 12
38.28592405890213
 22
362.623047
 32
0.0
 13
38.28592405890213
 23
362.623047
 33
0.0
  0
MTEXT
  5
7A9
330
7AB
100
AcDbEntity
  8
0
  6
ByBlock
 62
     0
370
    -2
380
     1
100
AcDbMText
 10
36.11827314026692
 20
435.123047
 30
0.0
 40
2.5
 41
0.0
 71
     5
 72
     1
  1
\A1;150
 11
6.123031769111886E-17
 21
1.0
 31
0.0
 73
     1
 44
1.0
  0
ENDBLK
  5
B64
330
7AB
100
AcDbEntity
  8
0
100
AcDbBlockEnd
  0
BLOCK
  5
B65
330
7B6
100
AcDbEntity
  8
0
100
AcDbBlockBegin
  2
*D120
 70
     1
 10
0.0
 20
0.0
 30
0.0
  3
*D120
  1

  0
POINT
  5
7AD
330
7B6
100
AcDbEntity
  8
DEFPOINTS
  6
ByBlock
 62
     7
380
     1
100
AcDbPoint
 10
132.9558640002176
 20
510.123047
 30
0.0
  0
POINT
  5
7AE
330
7B6
100
AcDbEntity
  8
DEFPOINTS
  6
ByBlock
 62
     7
380
     1
100
AcDbPoint
 10
132.9558640002176
 20
360.123047
 30
0.0
  0
LINE
  5
7AF
330
7B6
100
AcDbEntity
  8
0
  6
ByBlock
 62
     7
370
    -2
380
     1
100
AcDbLine
 10
132.3308640002176
 20
510.123047
 30
0.0
 11
36.61925739223545
 21
510.123047
 31
0.0
  0
LINE
  5
7B0
330
7B6
100
AcDbEntity
  8
0
  6
ByBlock
 62
     7
370
    -2
380
     1
100
AcDbLine
 10
132.3308640002176
 20
360.123047
 30
0.0
 11
36.61925739223545
 21
360.123047
 31
0.0
  0
LINE
  5
7B1
330
7B6
100
AcDbEntity
  8
0
  6
ByBlock
 62
     7
370
    -2
380
     1
100
AcDbLine
 10
37.86925739223545
 20
500.123047
 30
0.0
 11
37.86925739223545
 21
370.123047
 31
0.0
  0
SOLID
  5
7B2
330
7B6
100
AcDbEntity
  8
0
  6
ByBlock
 62
     7
380
     1
100
AcDbTrace
 10
37.86925739223545
 20
510.123047
 30
0.0
 11
36.20259072556878
 21
500.123047
 31
0.0
 12
39.53592405890213
 22
500.123047
 32
0.0
 13
39.53592405890213
 23
500.123047
 33
0.0
  0
SOLID
  5
7B3
330
7B6
100
AcDbEntity
  8
0
  6
ByBlock
 62
     7
380
     1
100
AcDbTrace
 10
37.86925739223545
 20
360.123047
 30
0.0
 11
36.20259072556878
 21
370.123047
 31
0.0
 12
39.53592405890213
 22
370.123047
 32
0.0
 13
39.53592405890213
 23
370.123047
 33
0.0
  0
MTEXT
  5
7B4
330
7B6
100
AcDbEntity
  8
0
  6
ByBlock
 62
     0
370
    -2
380
     1
100
AcDbMText
 10
26.56374558121183
 20
435.123047
 30
0.0
 40
14.0
 41
0.0
 71
     5
 72
     1
  1
\A1;150
 11
6.123031769111886E-17
 21
1.0
 31
0.0
 73
     1
 44
1.0
  0
ENDBLK
  5
B66
330
7B6
100
AcDbEntity
  8
0
100
AcDbBlockEnd
  0
BLOCK
  5
B67
330
7C1
100
AcDbEntity
  8
0
100
AcDbBlockBegin
  2
*D121
 70
     1
 10
0.0
 20
0.0
 30
0.0
  3
*D121
  1

  0
POINT
  5
7B8
330
7C1
100
AcDbEntity
  8
DEFPOINTS
  6
ByBlock
 62
     7
380
     1
100
AcDbPoint
 10
56.805655
 20
462.5252362478553
 30
0.0
  0
POINT
  5
7B9
330
7C1
100
AcDbEntity
  8
DEFPOINTS
  6
ByBlock
 62
     7
380
     1
100
AcDbPoint
 10
218.805655
 20
462.5252362478553
 30
0.0
  0
LINE
  5
7BA
330
7C1
100
AcDbEntity
  8
0
  6
ByBlock
 62
     7
370
    -2
380
     1
100
AcDbLine
 10
56.805655
 20
463.1502362478553
 30
0.0
 11
56.805655
 21
528.5189222043693
 31
0.0
  0
LINE
  5
7BB
330
7C1
100
AcDbEntity
  8
0
  6
ByBlock
 62
     7
370
    -2
380
     1
100
AcDbLine
 10
218.805655
 20
463.1502362478553
 30
0.0
 11
218.805655
 21
528.5189222043693
 31
0.0
  0
LINE
  5
7BC
330
7C1
100
AcDbEntity
  8
0
  6
ByBlock
 62
     7
370
    -2
380
     1
100
AcDbLine
 10
66.805655
 20
527.2689222043693
 30
0.0
 11
208.805655
 21
527.2689222043693
 31
0.0
  0
SOLID
  5
7BD
330
7C1
100
AcDbEntity
  8
0
  6
ByBlock
 62
     7
380
     1
100
AcDbTrace
 10
56.805655
 20
527.2689222043693
 30
0.0
 11
66.805655
 21
525.6022555377027
 31
0.0
 12
66.805655
 22
528.935588871036
 32
0.0
 13
66.805655
 23
528.935588871036
 33
0.0
  0
SOLID
  5
7BE
330
7C1
100
AcDbEntity
  8
0
  6
ByBlock
 62
     7
380
     1
100
AcDbTrace
 10
218.805655
 20
527.2689222043693
 30
0.0
 11
208.805655
 21
525.6022555377027
 31
0.0
 12
208.805655
 22
528.935588871036
 32
0.0
 13
208.805655
 23
528.935588871036
 33
0.0
  0
MTEXT
  5
7BF
330
7C1
100
AcDbEntity
  8
0
  6
ByBlock
 62
     0
370
    -2
380
     1
100
AcDbMText
 10
137.805655
 20
538.5689222043693
 30
0.0
 40
14.0
 41
0.0
 71
     5
 72
     1
  1
\A1;162
 73
     1
 44
1.0
  0
ENDBLK
  5
B68
330
7C1
100
AcDbEntity
  8
0
100
AcDbBlockEnd
  0
BLOCK
  5
B69
330
8F1
100
AcDbEntity
  8
0
100
AcDbBlockBegin
  2
*D122
 70
     1
 10
0.0
 20
0.0
 30
0.0
  3
*D122
  1

  0
POINT
  5
8E8
330
8F1
100
AcDbEntity
  8
DEFPOINTS
  6
ByBlock
 62
     7
380
     1
100
AcDbPoint
 10
132.9558640002176
 20
510.123047
 30
0.0
  0
POINT
  5
8E9
330
8F1
100
AcDbEntity
  8
DEFPOINTS
  6
ByBlock
 62
     7
380
     1
100
AcDbPoint
 10
132.9558640002176
 20
360.123047
 30
0.0
  0
LINE
  5
8EA
330
8F1
100
AcDbEntity
  8
0
  6
ByBlock
 62
     7
370
    -2
380
     1
100
AcDbLine
 10
132.3308640002176
 20
510.123047
 30
0.0
 11
36.61925739223545
 21
510.123047
 31
0.0
  0
LINE
  5
8EB
330
8F1
100
AcDbEntity
  8
0
  6
ByBlock
 62
     7
370
    -2
380
     1
100
AcDbLine
 10
132.3308640002176
 20
360.123047
 30
0.0
 11
36.61925739223545
 21
360.123047
 31
0.0
  0
LINE
  5
8EC
330
8F1
100
AcDbEntity
  8
0
  6
ByBlock
 62
     7
370
    -2
380
     1
100
AcDbLine
 10
37.86925739223545
 20
500.123047
 30
0.0
 11
37.86925739223545
 21
370.123047
 31
0.0
  0
SOLID
  5
8ED
330
8F1
100
AcDbEntity
  8
0
  6
ByBlock
 62
     7
380
     1
100
AcDbTrace
 10
37.86925739223545
 20
510.123047
 30
0.0
 11
36.20259072556878
 21
500.123047
 31
0.0
 12
39.53592405890213
 22
500.123047
 32
0.0
 13
39.53592405890213
 23
500.123047
 33
0.0
  0
SOLID
  5
8EE
330
8F1
100
AcDbEntity
  8
0
  6
ByBlock
 62
     7
380
     1
100
AcDbTrace
 10
37.86925739223545
 20
360.123047
 30
0.0
 11
36.20259072556878
 21
370.123047
 31
0.0
 12
39.53592405890213
 22
370.123047
 32
0.0
 13
39.53592405890213
 23
370.123047
 33
0.0
  0
MTEXT
  5
8EF
330
8F1
100
AcDbEntity
  8
0
  6
ByBlock
 62
     0
370
    -2
380
     1
100
AcDbMText
 10
26.56374558121183
 20
435.123047
 30
0.0
 40
14.0
 41
0.0
 71
     5
 72
     1
  1
\A1;150
 11
6.123031769111886E-17
 21
1.0
 31
0.0
 73
     1
 44
1.0
  0
ENDBLK
  5
B6A
330
8F1
100
AcDbEntity
  8
0
100
AcDbBlockEnd
  0
BLOCK
  5
B6B
330
8FC
100
AcDbEntity
  8
0
100
AcDbBlockBegin
  2
*D123
 70
     1
 10
0.0
 20
0.0
 30
0.0
  3
*D123
  1

  0
POINT
  5
8F3
330
8FC
100
AcDbEntity
  8
DEFPOINTS
  6
ByBlock
 62
     7
380
     1
100
AcDbPoint
 10
132.9558640002176
 20
510.123047
 30
0.0
  0
POINT
  5
8F4
330
8FC
100
AcDbEntity
  8
DEFPOINTS
  6
ByBlock
 62
     7
380
     1
100
AcDbPoint
 10
132.9558640002176
 20
360.123047
 30
0.0
  0
LINE
  5
8F5
330
8FC
100
AcDbEntity
  8
0
  6
ByBlock
 62
     7
370
    -2
380
     1
100
AcDbLine
 10
132.3308640002176
 20
510.123047
 30
0.0
 11
36.61925739223545
 21
510.123047
 31
0.0
  0
LINE
  5
8F6
330
8FC
100
AcDbEntity
  8
0
  6
ByBlock
 62
     7
370
    -2
380
     1
100
AcDbLine
 10
132.3308640002176
 20
360.123047
 30
0.0
 11
36.61925739223545
 21
360.123047
 31
0.0
  0
LINE
  5
8F7
330
8FC
100
AcDbEntity
  8
0
  6
ByBlock
 62
     7
370
    -2
380
     1
100
AcDbLine
 10
37.86925739223545
 20
500.123047
 30
0.0
 11
37.86925739223545
 21
370.123047
 31
0.0
  0
SOLID
  5
8F8
330
8FC
100
AcDbEntity
  8
0
  6
ByBlock
 62
     7
380
     1
100
AcDbTrace
 10
37.86925739223545
 20
510.123047
 30
0.0
 11
36.20259072556878
 21
500.123047
 31
0.0
 12
39.53592405890213
 22
500.123047
 32
0.0
 13
39.53592405890213
 23
500.123047
 33
0.0
  0
SOLID
  5
8F9
330
8FC
100
AcDbEntity
  8
0
  6
ByBlock
 62
     7
380
     1
100
AcDbTrace
 10
37.86925739223545
 20
360.123047
 30
0.0
 11
36.20259072556878
 21
370.123047
 31
0.0
 12
39.53592405890213
 22
370.123047
 32
0.0
 13
39.53592405890213
 23
370.123047
 33
0.0
  0
MTEXT
  5
8FA
330
8FC
100
AcDbEntity
  8
0
  6
ByBlock
 62
     0
370
    -2
380
     1
100
AcDbMText
 10
26.56374558121183
 20
435.123047
 30
0.0
 40
14.0
 41
0.0
 71
     5
 72
     1
  1
\A1;150
 11
6.123031769111886E-17
 21
1.0
 31
0.0
 73
     1
 44
1.0
  0
ENDBLK
  5
B6C
330
8FC
100
AcDbEntity
  8
0
100
AcDbBlockEnd
  0
BLOCK
  5
B6D
330
A09
100
AcDbEntity
  8
0
100
AcDbBlockBegin
  2
*D124
 70
     1
 10
0.0
 20
0.0
 30
0.0
  3
*D124
  1

  0
POINT
  5
A00
330
A09
100
AcDbEntity
  8
DEFPOINTS
  6
ByBlock
 62
     7
380
     1
100
AcDbPoint
 10
56.805655
 20
462.5252362478553
 30
0.0
  0
POINT
  5
A01
330
A09
100
AcDbEntity
  8
DEFPOINTS
  6
ByBlock
 62
     7
380
     1
100
AcDbPoint
 10
218.805655
 20
462.5252362478553
 30
0.0
  0
LINE
  5
A02
330
A09
100
AcDbEntity
  8
0
  6
ByBlock
 62
     7
370
    -2
380
     1
100
AcDbLine
 10
56.805655
 20
463.1502362478553
 30
0.0
 11
56.805655
 21
528.5189222043693
 31
0.0
  0
LINE
  5
A03
330
A09
100
AcDbEntity
  8
0
  6
ByBlock
 62
     7
370
    -2
380
     1
100
AcDbLine
 10
218.805655
 20
463.1502362478553
 30
0.0
 11
218.805655
 21
528.5189222043693
 31
0.0
  0
LINE
  5
A04
330
A09
100
AcDbEntity
  8
0
  6
ByBlock
 62
     7
370
    -2
380
     1
100
AcDbLine
 10
66.805655
 20
527.2689222043693
 30
0.0
 11
208.805655
 21
527.2689222043693
 31
0.0
  0
SOLID
  5
A05
330
A09
100
AcDbEntity
  8
0
  6
ByBlock
 62
     7
380
     1
100
AcDbTrace
 10
56.805655
 20
527.2689222043693
 30
0.0
 11
66.805655
 21
525.6022555377027
 31
0.0
 12
66.805655
 22
528.935588871036
 32
0.0
 13
66.805655
 23
528.935588871036
 33
0.0
  0
SOLID
  5
A06
330
A09
100
AcDbEntity
  8
0
  6
ByBlock
 62
     7
380
     1
100
AcDbTrace
 10
218.805655
 20
527.2689222043693
 30
0.0
 11
208.805655
 21
525.6022555377027
 31
0.0
 12
208.805655
 22
528.935588871036
 32
0.0
 13
208.805655
 23
528.935588871036
 33
0.0
  0
MTEXT
  5
A07
330
A09
100
AcDbEntity
  8
0
  6
ByBlock
 62
     0
370
    -2
380
     1
100
AcDbMText
 10
137.805655
 20
553.4689222043694
 30
0.0
 40
36.0
 41
0.0
 71
     5
 72
     1
  1
\A1;162
 73
     1
 44
1.0
  0
ENDBLK
  5
B6E
330
A09
100
AcDbEntity
  8
0
100
AcDbBlockEnd
  0
BLOCK
  5
B6F
330
A14
100
AcDbEntity
  8
0
100
AcDbBlockBegin
  2
*D125
 70
     1
 10
0.0
 20
0.0
 30
0.0
  3
*D125
  1

  0
POINT
  5
A0B
330
A14
100
AcDbEntity
  8
DEFPOINTS
  6
ByBlock
 62
     7
380
     1
100
AcDbPoint
 10
132.9558640002176
 20
510.123047
 30
0.0
  0
POINT
  5
A0C
330
A14
100
AcDbEntity
  8
DEFPOINTS
  6
ByBlock
 62
     7
380
     1
100
AcDbPoint
 10
132.9558640002176
 20
360.123047
 30
0.0
  0
LINE
  5
A0D
330
A14
100
AcDbEntity
  8
0
  6
ByBlock
 62
     7
370
    -2
380
     1
100
AcDbLine
 10
132.3308640002176
 20
510.123047
 30
0.0
 11
36.61925739223545
 21
510.123047
 31
0.0
  0
LINE
  5
A0E
330
A14
100
AcDbEntity
  8
0
  6
ByBlock
 62
     7
370
    -2
380
     1
100
AcDbLine
 10
132.3308640002176
 20
360.123047
 30
0.0
 11
36.61925739223545
 21
360.123047
 31
0.0
  0
LINE
  5
A0F
330
A14
100
AcDbEntity
  8
0
  6
ByBlock
 62
     7
370
    -2
380
     1
100
AcDbLine
 10
37.86925739223545
 20
500.123047
 30
0.0
 11
37.86925739223545
 21
370.123047
 31
0.0
  0
SOLID
  5
A10
330
A14
100
AcDbEntity
  8
0
  6
ByBlock
 62
     7
380
     1
100
AcDbTrace
 10
37.86925739223545
 20
510.123047
 30
0.0
 11
36.20259072556878
 21
500.123047
 31
0.0
 12
39.53592405890213
 22
500.123047
 32
0.0
 13
39.53592405890213
 23
500.123047
 33
0.0
  0
SOLID
  5
A11
330
A14
100
AcDbEntity
  8
0
  6
ByBlock
 62
     7
380
     1
100
AcDbTrace
 10
37.86925739223545
 20
360.123047
 30
0.0
 11
36.20259072556878
 21
370.123047
 31
0.0
 12
39.53592405890213
 22
370.123047
 32
0.0
 13
39.53592405890213
 23
370.123047
 33
0.0
  0
MTEXT
  5
A12
330
A14
100
AcDbEntity
  8
0
  6
ByBlock
 62
     0
370
    -2
380
     1
100
AcDbMText
 10
11.655084163889
 20
435.123047
 30
0.0
 40
36.0
 41
0.0
 71
     5
 72
     1
  1
\A1;150
 11
6.123031769111886E-17
 21
1.0
 31
0.0
 73
     1
 44
1.0
  0
ENDBLK
  5
B70
330
A14
100
AcDbEntity
  8
0
100
AcDbBlockEnd
  0
BLOCK
  5
B71
330
A20
100
AcDbEntity
  8
0
100
AcDbBlockBegin
  2
*D126
 70
     1
 10
0.0
 20
0.0
 30
0.0
  3
*D126
  1

  0
POINT
  5
A17
330
A20
100
AcDbEntity
  8
DEFPOINTS
  6
ByBlock
 62
     0
380
     1
100
AcDbPoint
 10
565.1684174150141
 20
501.5764712087193
 30
0.0
  0
POINT
  5
A18
330
A20
100
AcDbEntity
  8
DEFPOINTS
  6
ByBlock
 62
     0
380
     1
100
AcDbPoint
 10
575.4290215674193
 20
443.3856937041606
 30
0.0
  0
LINE
  5
A19
330
A20
100
AcDbEntity
  8
0
  6
ByBlock
 62
     0
370
    -2
380
     1
100
AcDbLine
 10
565.7839222605564
 20
501.6850013202736
 30
0.0
 11
581.5144430236954
 21
504.458716564912
 31
0.0
  0
LINE
  5
A1A
330
A20
100
AcDbEntity
  8
0
  6
ByBlock
 62
     0
370
    -2
380
     1
100
AcDbLine
 10
576.0445264129617
 20
443.4942238157149
 30
0.0
 11
591.7750471761007
 21
446.2679390603533
 31
0.0
  0
LINE
  5
A1B
330
A20
100
AcDbEntity
  8
0
  6
ByBlock
 62
     0
370
    -2
380
     1
100
AcDbLine
 10
580.7175537788278
 20
501.7796369596344
 30
0.0
 11
590.1099170387992
 21
448.512898219414
 31
0.0
  0
SOLID
  5
A1C
330
A20
100
AcDbEntity
  8
0
  6
ByBlock
 62
     0
380
     1
100
AcDbTrace
 10
580.2834333326109
 20
504.2416563418036
 30
0.0
 11
580.3072172151329
 21
501.7072835519317
 31
0.0
 12
581.1278903425226
 22
501.8519903673373
 32
0.0
 13
581.1278903425226
 23
501.8519903673373
 33
0.0
  0
SOLID
  5
A1D
330
A20
100
AcDbEntity
  8
0
  6
ByBlock
 62
     0
380
     1
100
AcDbTrace
 10
590.544037485016
 20
446.0508788372449
 30
0.0
 11
589.6995804751043
 21
448.4405448117112
 31
0.0
 12
590.520253602494
 22
448.5852516271169
 32
0.0
 13
590.520253602494
 23
448.5852516271169
 33
0.0
  0
MTEXT
  5
A1E
330
A20
100
AcDbEntity
  8
0
  6
ByBlock
 62
     0
370
    -2
380
     1
100
AcDbMText
 10
587.3839459341863
 20
475.4936688645144
 30
0.0
 40
2.5
 41
0.0
 71
     5
 72
     1
  1
\A1;59,09
 11
0.1736481784867547
 21
-0.9848077528676509
 31
0.0
 73
     1
 44
1.0
  0
ENDBLK
  5
B72
330
A20
100
AcDbEntity
  8
0
100
AcDbBlockEnd
  0
BLOCK
  5
B73
330
A2C
100
AcDbEntity
  8
0
100
AcDbBlockBegin
  2
*D127
 70
     1
 10
0.0
 20
0.0
 30
0.0
  3
*D127
  1

  0
POINT
  5
A23
330
A2C
100
AcDbEntity
  8
DEFPOINTS
  6
ByBlock
 62
     0
380
     1
100
AcDbPoint
 10
562.7887270794884
 20
501.1568676078707
 30
0.0
  0
POINT
  5
A24
330
A2C
100
AcDbEntity
  8
DEFPOINTS
  6
ByBlock
 62
     0
380
     1
100
AcDbPoint
 10
573.1499528036499
 20
442.9838323882619
 30
0.0
  0
LINE
  5
A25
330
A2C
100
AcDbEntity
  8
0
  6
ByBlock
 62
     0
370
    -2
380
     1
100
AcDbLine
 10
563.4040433384455
 20
501.2664618662197
 30
0.0
 11
576.699959579925
 21
503.6346035467672
 31
0.0
  0
LINE
  5
A26
330
A2C
100
AcDbEntity
  8
0
  6
ByBlock
 62
     0
370
    -2
380
     1
100
AcDbLine
 10
573.765269062607
 20
443.0934266466109
 30
0.0
 11
587.0611853040865
 21
445.4615683271584
 31
0.0
  0
LINE
  5
A27
330
A2C
100
AcDbEntity
  8
0
  6
ByBlock
 62
     0
370
    -2
380
     1
100
AcDbLine
 10
575.9077040954066
 20
500.9541499942409
 30
0.0
 11
585.3921757527764
 21
447.7036448462889
 31
0.0
  0
SOLID
  5
A28
330
A2C
100
AcDbEntity
  8
0
  6
ByBlock
 62
     0
380
     1
100
AcDbTrace
 10
575.4693270620108
 20
503.4154150300693
 30
0.0
 11
575.497493256102
 21
500.8810871553416
 31
0.0
 12
576.3179149347113
 22
501.0272128331403
 32
0.0
 13
576.3179149347113
 23
501.0272128331403
 33
0.0
  0
SOLID
  5
A29
330
A2C
100
AcDbEntity
  8
0
  6
ByBlock
 62
     0
380
     1
100
AcDbTrace
 10
585.8305527861723
 20
445.2423798104605
 30
0.0
 11
584.9819649134718
 21
447.6305820073895
 31
0.0
 12
585.8023865920812
 22
447.7767076851881
 32
0.0
 13
585.8023865920812
 23
447.7767076851881
 33
0.0
  0
MTEXT
  5
A2A
330
A2C
100
AcDbEntity
  8
0
  6
ByBlock
 62
     0
370
    -2
380
     1
100
AcDbMText
 10
582.6195467900817
 20
474.6797049937281
 30
0.0
 40
2.5
 41
0.0
 71
     5
 72
     1
  1
\A1;59,09
 11
0.1753508133583362
 21
-0.9845060143313346
 31
0.0
 73
     1
 44
1.0
  0
ENDBLK
  5
B74
330
A2C
100
AcDbEntity
  8
0
100
AcDbBlockEnd
  0
BLOCK
  5
B75
330
A38
100
AcDbEntity
  8
0
100
AcDbBlockBegin
  2
*D128
 70
     1
 10
0.0
 20
0.0
 30
0.0
  3
*D128
  1

  0
POINT
  5
A2E
330
A38
100
AcDbEntity
  8
DEFPOINTS
  6
ByBlock
 62
     0
380
     1
100
AcDbPoint
 10
562.7887270794884
 20
501.1568676078707
 30
0.0
  0
POINT
  5
A2F
330
A38
100
AcDbEntity
  8
DEFPOINTS
  6
ByBlock
 62
     0
380
     1
100
AcDbPoint
 10
573.1499528036499
 20
442.9838323882619
 30
0.0
  0
LINE
  5
A30
330
A38
100
AcDbEntity
  8
0
  6
ByBlock
 62
     0
370
    -2
380
     1
100
AcDbLine
 10
563.4040433384455
 20
501.2664618662197
 30
0.0
 11
576.699959579925
 21
503.6346035467672
 31
0.0
  0
LINE
  5
A31
330
A38
100
AcDbEntity
  8
0
  6
ByBlock
 62
     0
370
    -2
380
     1
100
AcDbLine
 10
573.765269062607
 20
443.0934266466109
 30
0.0
 11
587.0611853040865
 21
445.4615683271584
 31
0.0
  0
LINE
  5
A32
330
A38
100
AcDbEntity
  8
0
  6
ByBlock
 62
     0
370
    -2
380
     1
100
AcDbLine
 10
577.2228351955943
 20
493.5703548867559
 30
0.0
 11
584.0770446525889
 21
455.0874399537739
 31
0.0
  0
LINE
  5
A33
330
A38
100
AcDbEntity
  8
0
  6
ByBlock
 62
     0
370
    -2
380
     1
100
AcDbLine
 10
585.8305527861723
 20
445.2423798104605
 30
0.0
 11
597.7051430885431
 21
378.5725688953878
 31
0.0
  0
SOLID
  5
A34
330
A38
100
AcDbEntity
  8
0
  6
ByBlock
 62
     0
380
     1
100
AcDbTrace
 10
575.4693270620108
 20
503.4154150300693
 30
0.0
 11
575.5819918383753
 21
493.2781035311587
 31
0.0
 12
578.8636785528131
 22
493.8626062423531
 32
0.0
 13
578.8636785528131
 23
493.8626062423531
 33
0.0
  0
SOLID
  5
A35
330
A38
100
AcDbEntity
  8
0
  6
ByBlock
 62
     0
380
     1
100
AcDbTrace
 10
585.8305527861723
 20
445.2423798104605
 30
0.0
 11
582.4362012953701
 21
454.7951885981766
 31
0.0
 12
585.7178880098079
 22
455.3796913093711
 32
0.0
 13
585.7178880098079
 23
455.3796913093711
 33
0.0
  0
MTEXT
  5
A36
330
A38
100
AcDbEntity
  8
0
  6
ByBlock
 62
     0
370
    -2
380
     1
100
AcDbMText
 10
618.4386595796303
 20
411.5791355912559
 30
0.0
 40
36.0
 41
0.0
 71
     5
 72
     1
  1
\A1;59
 11
0.1753508133583362
 21
-0.9845060143313346
 31
0.0
 73
     1
 44
1.0
  0
ENDBLK
  5
B76
330
A38
100
AcDbEntity
  8
0
100
AcDbBlockEnd
  0
BLOCK
  5
B77
330
A43
100
AcDbEntity
  8
0
100
AcDbBlockBegin
  2
*D129
 70
     1
 10
0.0
 20
0.0
 30
0.0
  3
*D129
  1

  0
POINT
  5
A3A
330
A43
100
AcDbEntity
  8
DEFPOINTS
  6
ByBlock
 62
     0
380
     1
100
AcDbPoint
 10
562.7887270794884
 20
501.1568676078707
 30
0.0
  0
POINT
  5
A3B
330
A43
100
AcDbEntity
  8
DEFPOINTS
  6
ByBlock
 62
     0
380
     1
100
AcDbPoint
 10
573.1499528036499
 20
442.9838323882619
 30
0.0
  0
LINE
  5
A3C
330
A43
100
AcDbEntity
  8
0
  6
ByBlock
 62
     0
370
    -2
380
     1
100
AcDbLine
 10
563.4040433384455
 20
501.2664618662197
 30
0.0
 11
592.8583371523746
 21
506.5125795150547
 31
0.0
  0
LINE
  5
A3D
330
A43
100
AcDbEntity
  8
0
  6
ByBlock
 62
     0
370
    -2
380
     1
100
AcDbLine
 10
573.765269062607
 20
443.0934266466109
 30
0.0
 11
603.2195628765361
 21
448.3395442954459
 31
0.0
  0
LINE
  5
A3E
330
A43
100
AcDbEntity
  8
0
  6
ByBlock
 62
     0
370
    -2
380
     1
100
AcDbLine
 10
591.6277046344604
 20
506.2933909983568
 30
0.0
 11
601.9889303586219
 21
448.120355778748
 31
0.0
  0
SOLID
  5
A3F
330
A43
100
AcDbEntity
  8
0
  6
ByBlock
 62
     0
380
     1
100
AcDbTrace
 10
591.6277046344604
 20
506.2933909983568
 30
0.0
 11
591.7403694108249
 21
496.1560794994463
 31
0.0
 12
595.0220561252627
 22
496.7405822106407
 32
0.0
 13
595.0220561252627
 23
496.7405822106407
 33
0.0
  0
SOLID
  5
A40
330
A43
100
AcDbEntity
  8
0
  6
ByBlock
 62
     0
380
     1
100
AcDbTrace
 10
601.9889303586219
 20
448.120355778748
 30
0.0
 11
598.5945788678197
 21
457.6731645664642
 31
0.0
 12
601.8762655822574
 22
458.2576672776586
 32
0.0
 13
601.8762655822574
 23
458.2576672776586
 33
0.0
  0
MTEXT
  5
A41
330
A43
100
AcDbEntity
  8
0
  6
ByBlock
 62
     0
370
    -2
380
     1
100
AcDbMText
 10
622.602375072022
 20
481.8010646985408
 30
0.0
 40
36.0
 41
0.0
 71
     5
 72
     1
  1
\A1;59
 11
0.1753508133583362
 21
-0.9845060143313346
 31
0.0
 73
     1
 44
1.0
  0
ENDBLK
  5
B78
330
A43
100
AcDbEntity
  8
0
100
AcDbBlockEnd
  0
BLOCK
  5
B79
330
A4E
100
AcDbEntity
  8
0
100
AcDbBlockBegin
  2
*D130
 70
     1
 10
0.0
 20
0.0
 30
0.0
  3
*D130
  1

  0
POINT
  5
A45
330
A4E
100
AcDbEntity
  8
DEFPOINTS
  6
ByBlock
 62
     0
380
     1
100
AcDbPoint
 10
562.7887270794884
 20
501.1568676078707
 30
0.0
  0
POINT
  5
A46
330
A4E
100
AcDbEntity
  8
DEFPOINTS
  6
ByBlock
 62
     0
380
     1
100
AcDbPoint
 10
573.1499528036499
 20
442.9838323882619
 30
0.0
  0
LINE
  5
A47
330
A4E
100
AcDbEntity
  8
0
  6
ByBlock
 62
     0
370
    -2
380
     1
100
AcDbLine
 10
563.4040433384455
 20
501.2664618662197
 30
0.0
 11
592.8583371523746
 21
506.5125795150548
 31
0.0
  0
LINE
  5
A48
330
A4E
100
AcDbEntity
  8
0
  6
ByBlock
 62
     0
370
    -2
380
     1
100
AcDbLine
 10
573.765269062607
 20
443.0934266466109
 30
0.0
 11
603.2195628765361
 21
448.339544295446
 31
0.0
  0
LINE
  5
A49
330
A4E
100
AcDbEntity
  8
0
  6
ByBlock
 62
     0
370
    -2
380
     1
100
AcDbLine
 10
591.6277046344604
 20
506.2933909983568
 30
0.0
 11
601.9889303586219
 21
448.120355778748
 31
0.0
  0
SOLID
  5
A4A
330
A4E
100
AcDbEntity
  8
0
  6
ByBlock
 62
     0
380
     1
100
AcDbTrace
 10
591.6277046344604
 20
506.2933909983568
 30
0.0
 11
591.7403694108249
 21
496.1560794994463
 31
0.0
 12
595.0220561252627
 22
496.7405822106407
 32
0.0
 13
595.0220561252627
 23
496.7405822106407
 33
0.0
  0
SOLID
  5
A4B
330
A4E
100
AcDbEntity
  8
0
  6
ByBlock
 62
     0
380
     1
100
AcDbTrace
 10
601.9889303586219
 20
448.120355778748
 30
0.0
 11
598.5945788678197
 21
457.6731645664642
 31
0.0
 12
601.8762655822575
 22
458.2576672776586
 32
0.0
 13
601.8762655822575
 23
458.2576672776586
 33
0.0
  0
MTEXT
  5
A4C
330
A4E
100
AcDbEntity
  8
0
  6
ByBlock
 62
     0
370
    -2
380
     1
100
AcDbMText
 10
622.6023750720221
 20
481.8010646985408
 30
0.0
 40
36.0
 41
0.0
 71
     5
 72
     1
  1
\A1;59
 11
0.1753508133583362
 21
-0.9845060143313346
 31
0.0
 73
     1
 44
1.0
  0
ENDBLK
  5
B7A
330
A4E
100
AcDbEntity
  8
0
100
AcDbBlockEnd
  0
BLOCK
  5
B7B
330
A59
100
AcDbEntity
  8
0
100
AcDbBlockBegin
  2
*D131
 70
     1
 10
0.0
 20
0.0
 30
0.0
  3
*D131
  1

  0
POINT
  5
A50
330
A59
100
AcDbEntity
  8
DEFPOINTS
  6
ByBlock
 62
     0
380
     1
100
AcDbPoint
 10
562.7887270794884
 20
501.1568676078707
 30
0.0
  0
POINT
  5
A51
330
A59
100
AcDbEntity
  8
DEFPOINTS
  6
ByBlock
 62
     0
380
     1
100
AcDbPoint
 10
573.1499528036499
 20
442.9838323882619
 30
0.0
  0
LINE
  5
A52
330
A59
100
AcDbEntity
  8
0
  6
ByBlock
 62
     0
370
    -2
380
     1
100
AcDbLine
 10
563.4040433384455
 20
501.2664618662197
 30
0.0
 11
592.8583371523746
 21
506.5125795150548
 31
0.0
  0
LINE
  5
A53
330
A59
100
AcDbEntity
  8
0
  6
ByBlock
 62
     0
370
    -2
380
     1
100
AcDbLine
 10
573.765269062607
 20
443.0934266466109
 30
0.0
 11
603.2195628765361
 21
448.339544295446
 31
0.0
  0
LINE
  5
A54
330
A59
100
AcDbEntity
  8
0
  6
ByBlock
 62
     0
370
    -2
380
     1
100
AcDbLine
 10
591.6277046344604
 20
506.2933909983568
 30
0.0
 11
601.9889303586219
 21
448.120355778748
 31
0.0
  0
SOLID
  5
A55
330
A59
100
AcDbEntity
  8
0
  6
ByBlock
 62
     0
380
     1
100
AcDbTrace
 10
591.6277046344604
 20
506.2933909983568
 30
0.0
 11
591.7403694108249
 21
496.1560794994463
 31
0.0
 12
595.0220561252627
 22
496.7405822106407
 32
0.0
 13
595.0220561252627
 23
496.7405822106407
 33
0.0
  0
SOLID
  5
A56
330
A59
100
AcDbEntity
  8
0
  6
ByBlock
 62
     0
380
     1
100
AcDbTrace
 10
601.9889303586219
 20
448.120355778748
 30
0.0
 11
598.5945788678197
 21
457.6731645664642
 31
0.0
 12
601.8762655822575
 22
458.2576672776586
 32
0.0
 13
601.8762655822575
 23
458.2576672776586
 33
0.0
  0
MTEXT
  5
A57
330
A59
100
AcDbEntity
  8
0
  6
ByBlock
 62
     0
370
    -2
380
     1
100
AcDbMText
 10
622.6023750720221
 20
481.8010646985408
 30
0.0
 40
36.0
 41
0.0
 71
     5
 72
     1
  1
hh
 11
0.1753508133583362
 21
-0.9845060143313346
 31
0.0
 73
     1
 44
1.0
  0
ENDBLK
  5
B7C
330
A59
100
AcDbEntity
  8
0
100
AcDbBlockEnd
  0
BLOCK
  5
B7D
330
A64
100
AcDbEntity
  8
0
100
AcDbBlockBegin
  2
*D132
 70
     1
 10
0.0
 20
0.0
 30
0.0
  3
*D132
  1

  0
POINT
  5
A5B
330
A64
100
AcDbEntity
  8
DEFPOINTS
  6
ByBlock
 62
     0
380
     1
100
AcDbPoint
 10
562.7887270794884
 20
501.1568676078707
 30
0.0
  0
POINT
  5
A5C
330
A64
100
AcDbEntity
  8
DEFPOINTS
  6
ByBlock
 62
     0
380
     1
100
AcDbPoint
 10
573.1499528036499
 20
442.9838323882619
 30
0.0
  0
LINE
  5
A5D
330
A64
100
AcDbEntity
  8
0
  6
ByBlock
 62
     0
370
    -2
380
     1
100
AcDbLine
 10
563.4040433384455
 20
501.2664618662197
 30
0.0
 11
592.8583371523746
 21
506.5125795150548
 31
0.0
  0
LINE
  5
A5E
330
A64
100
AcDbEntity
  8
0
  6
ByBlock
 62
     0
370
    -2
380
     1
100
AcDbLine
 10
573.765269062607
 20
443.0934266466109
 30
0.0
 11
603.2195628765361
 21
448.339544295446
 31
0.0
  0
LINE
  5
A5F
330
A64
100
AcDbEntity
  8
0
  6
ByBlock
 62
     0
370
    -2
380
     1
100
AcDbLine
 10
591.6277046344604
 20
506.2933909983568
 30
0.0
 11
601.9889303586219
 21
448.120355778748
 31
0.0
  0
SOLID
  5
A60
330
A64
100
AcDbEntity
  8
0
  6
ByBlock
 62
     0
380
     1
100
AcDbTrace
 10
591.6277046344604
 20
506.2933909983568
 30
0.0
 11
591.7403694108249
 21
496.1560794994463
 31
0.0
 12
595.0220561252627
 22
496.7405822106407
 32
0.0
 13
595.0220561252627
 23
496.7405822106407
 33
0.0
  0
SOLID
  5
A61
330
A64
100
AcDbEntity
  8
0
  6
ByBlock
 62
     0
380
     1
100
AcDbTrace
 10
601.9889303586219
 20
448.120355778748
 30
0.0
 11
598.5945788678197
 21
457.6731645664642
 31
0.0
 12
601.8762655822575
 22
458.2576672776586
 32
0.0
 13
601.8762655822575
 23
458.2576672776586
 33
0.0
  0
MTEXT
  5
A62
330
A64
100
AcDbEntity
  8
0
  6
ByBlock
 62
     0
370
    -2
380
     1
100
AcDbMText
 10
622.6109407295376
 20
481.8025903316913
 30
0.0
 40
36.0
 41
0.0
 71
     5
 72
     1
  1
Ø59
 11
0.1753508133583362
 21
-0.9845060143313346
 31
0.0
 73
     1
 44
1.0
  0
ENDBLK
  5
B7E
330
A64
100
AcDbEntity
  8
0
100
AcDbBlockEnd
  0
BLOCK
  5
B7F
330
A70
100
AcDbEntity
  8
0
100
AcDbBlockBegin
  2
*D133
 70
     1
 10
0.0
 20
0.0
 30
0.0
  3
*D133
  1

  0
POINT
  5
A66
330
A70
100
AcDbEntity
  8
DEFPOINTS
  6
ByBlock
 62
     0
380
     1
100
AcDbPoint
 10
562.7887270794884
 20
501.1568676078707
 30
0.0
  0
POINT
  5
A67
330
A70
100
AcDbEntity
  8
DEFPOINTS
  6
ByBlock
 62
     0
380
     1
100
AcDbPoint
 10
573.1499528036499
 20
442.9838323882619
 30
0.0
  0
LINE
  5
A68
330
A70
100
AcDbEntity
  8
0
  6
ByBlock
 62
     0
370
    -2
380
     1
100
AcDbLine
 10
563.4040433384455
 20
501.2664618662197
 30
0.0
 11
597.0988308063045
 21
507.2678557657158
 31
0.0
  0
LINE
  5
A69
330
A70
100
AcDbEntity
  8
0
  6
ByBlock
 62
     0
370
    -2
380
     1
100
AcDbLine
 10
573.765269062607
 20
443.0934266466109
 30
0.0
 11
607.460056530466
 21
449.094820546107
 31
0.0
  0
LINE
  5
A6A
330
A70
100
AcDbEntity
  8
0
  6
ByBlock
 62
     0
370
    -2
380
     1
100
AcDbLine
 10
597.6217064219736
 20
497.2036071057046
 30
0.0
 11
604.4759158789684
 21
458.7206921727225
 31
0.0
  0
LINE
  5
A6B
330
A70
100
AcDbEntity
  8
0
  6
ByBlock
 62
     0
370
    -2
380
     1
100
AcDbLine
 10
606.2294240125518
 20
448.8756320294091
 30
0.0
 11
621.2690853726489
 21
364.4355500078662
 31
0.0
  0
SOLID
  5
A6C
330
A70
100
AcDbEntity
  8
0
  6
ByBlock
 62
     0
380
     1
100
AcDbTrace
 10
595.8681982883903
 20
507.0486672490179
 30
0.0
 11
595.9808630647548
 21
496.9113557501073
 31
0.0
 12
599.2625497791926
 22
497.4958584613018
 32
0.0
 13
599.2625497791926
 23
497.4958584613018
 33
0.0
  0
SOLID
  5
A6D
330
A70
100
AcDbEntity
  8
0
  6
ByBlock
 62
     0
380
     1
100
AcDbTrace
 10
606.2294240125518
 20
448.8756320294091
 30
0.0
 11
602.8350725217495
 21
458.4284408171252
 31
0.0
 12
606.1167592361872
 22
459.0129435283197
 32
0.0
 13
606.1167592361872
 23
459.0129435283197
 33
0.0
  0
MTEXT
  5
A6E
330
A70
100
AcDbEntity
  8
0
  6
ByBlock
 62
     0
370
    -2
380
     1
100
AcDbMText
 10
641.7049062680901
 20
399.1631441739132
 30
0.0
 40
36.0
 41
0.0
 71
     5
 72
     1
  1
Ø59
 11
0.1753508133583362
 21
-0.9845060143313346
 31
0.0
 73
     1
 44
1.0
  0
ENDBLK
  5
B80
330
A70
100
AcDbEntity
  8
0
100
AcDbBlockEnd
  0
ENDSEC
  0
SECTION
  2
ENTITIES
  0
POINT
  5
68
330
1F
100
AcDbEntity
  8
0
 62
     7
370
    60
390
F
100
AcDbPoint
 10
565.17018
 20
501.576782
 30
0.0
  0
POINT
  5
69
330
1F
100
AcDbEntity
  8
0
 62
     7
370
    60
390
F
100
AcDbPoint
 10
575.43077
 20
443.386002
 30
0.0
  0
LINE
  5
6A3
330
1F
100
AcDbEntity
  8
0
 62
     7
370
    60
390
F
100
AcDbLine
 10
575.4307699999999
 20
443.386002
 30
0.0
 11
565.1701800000001
 21
501.576782
 31
0.0
  0
LINE
  5
6A4
330
1F
100
AcDbEntity
  8
0
 62
     7
370
    60
390
F
100
AcDbLine
 10
358.43077
 20
405.123047
 30
0.0
 11
575.4307699999999
 21
443.386002
 31
0.0
  0
LINE
  5
6A5
330
1F
100
AcDbEntity
  8
0
 62
     7
370
    60
390
F
100
AcDbLine
 10
358.43077
 20
465.123047
 30
0.0
 11
565.1701800000001
 21
501.576782
 31
0.0
  0
LINE
  5
6A6
330
1F
100
AcDbEntity
  8
0
 62
     7
370
    60
390
F
100
AcDbLine
 10
358.43077
 20
360.123047
 30
0.0
 11
358.43077
 21
510.123047
 31
0.0
  0
LINE
  5
6A7
330
1F
100
AcDbEntity
  8
0
 62
     7
 48
0.075
370
    60
390
F
100
AcDbLine
 10
280.430771
 20
510.123047
 30
0.0
 11
283.43077
 21
510.123047
 31
0.0
  0
LINE
  5
6A8
330
1F
100
AcDbEntity
  8
0
 62
     7
 48
0.036612
370
    60
390
F
100
AcDbLine
 10
284.895237
 20
510.123047
 30
0.0
 11
283.43077
 21
510.123047
 31
0.0
  0
LINE
  5
6A9
330
1F
100
AcDbEntity
  8
0
 62
     7
 48
0.301777
370
    60
390
F
100
AcDbLine
 10
284.895237
 20
510.123047
 30
0.0
 11
296.966304
 21
510.123047
 31
0.0
  0
LINE
  5
6AA
330
1F
100
AcDbEntity
  8
0
 62
     7
 48
0.088388
370
    60
390
F
100
AcDbLine
 10
300.501838
 20
510.123047
 30
0.0
 11
296.966304
 21
510.123047
 31
0.0
  0
LINE
  5
6AB
330
1F
100
AcDbEntity
  8
0
 62
     7
370
    60
390
F
100
AcDbLine
 10
300.501838
 20
510.123047
 30
0.0
 11
350.43077
 21
510.123047
 31
0.0
  0
LINE
  5
6AC
330
1F
100
AcDbEntity
  8
0
 62
     7
 48
0.2
370
    60
390
F
100
AcDbLine
 10
358.43077
 20
510.123047
 30
0.0
 11
350.43077
 21
510.123047
 31
0.0
  0
LINE
  5
6AD
330
1F
100
AcDbEntity
  8
0
 62
     7
 48
0.075
370
    60
390
F
100
AcDbLine
 10
280.430771
 20
360.123047
 30
0.0
 11
283.43077
 21
360.123047
 31
0.0
  0
LINE
  5
6B0
330
1F
100
AcDbEntity
  8
0
 62
     7
 48
0.125
370
    60
390
F
100
AcDbLine
 10
280.430771
 20
360.123047
 30
0.0
 11
280.430771
 21
365.123047
 31
0.0
  0
LINE
  5
6B3
330
1F
100
AcDbEntity
  8
0
 62
     7
370
    60
390
F
100
AcDbLine
 10
280.430771
 20
365.123047
 30
0.0
 11
280.430771
 21
505.123047
 31
0.0
  0
ELLIPSE
  5
6B4
330
1F
100
AcDbEntity
  8
0
 62
     7
370
    60
100
AcDbEllipse
 10
290.501838
 20
375.123047
 30
0.0
 11
-9.000000000000000E-16
 21
-5.0
 31
0.0
210
0.0
220
0.0
230
1.0
 40
0.707107
 41
0.0000000000000004
 42
3.141592653589795
  0
ELLIPSE
  5
6B6
330
1F
100
AcDbEntity
  8
0
 62
     7
370
    60
100
AcDbEllipse
 10
290.501838
 20
375.123047
 30
0.0
 11
-9.000000000000000E-16
 21
-5.0
 31
0.0
210
0.0
220
0.0
230
1.0
 40
0.707107
 41
3.141592653589794
 42
6.283185307179587
  0
ELLIPSE
  5
6B7
330
1F
100
AcDbEntity
  8
0
 62
     7
370
    60
100
AcDbEllipse
 10
290.501838
 20
495.123047
 30
0.0
 11
-9.000000000000000E-16
 21
-5.0
 31
0.0
210
0.0
220
0.0
230
1.0
 40
0.707107
 41
3.141592653589794
 42
6.283185307179587
  0
ELLIPSE
  5
6B8
330
1F
100
AcDbEntity
  8
0
 62
     7
370
    60
100
AcDbEllipse
 10
290.501838
 20
495.123047
 30
0.0
 11
-9.000000000000000E-16
 21
-5.0
 31
0.0
210
0.0
220
0.0
230
1.0
 40
0.707107
 41
0.0000000000000007
 42
3.141592653589794
  0
LINE
  5
6BA
330
1F
100
AcDbEntity
  8
0
 62
     7
370
    60
390
F
100
AcDbLine
 10
300.501838
 20
360.123047
 30
0.0
 11
300.501838
 21
510.123047
 31
0.0
  0
LINE
  5
6BB
330
1F
100
AcDbEntity
  8
0
 62
     7
370
    60
390
F
100
AcDbLine
 10
300.501838
 20
360.123047
 30
0.0
 11
350.43077
 21
360.123047
 31
0.0
  0
LINE
  5
6BC
330
1F
100
AcDbEntity
  8
0
 62
     7
370
    60
390
F
100
AcDbLine
 10
350.43077
 20
360.123047
 30
0.0
 11
350.43077
 21
510.123047
 31
0.0
  0
LINE
  5
6BD
330
1F
100
AcDbEntity
  8
0
 62
     7
370
    60
390
F
100
AcDbLine
 10
296.966304
 20
360.123047
 30
0.0
 11
296.966304
 21
510.123047
 31
0.0
  0
LINE
  5
6BE
330
1F
100
AcDbEntity
  8
0
 62
     7
 48
0.088388
370
    60
390
F
100
AcDbLine
 10
300.501838
 20
360.123047
 30
0.0
 11
296.966304
 21
360.123047
 31
0.0
  0
LINE
  5
6BF
330
1F
100
AcDbEntity
  8
0
 62
     7
 48
0.301777
370
    60
390
F
100
AcDbLine
 10
284.895237
 20
360.123047
 30
0.0
 11
296.966304
 21
360.123047
 31
0.0
  0
LINE
  5
6C0
330
1F
100
AcDbEntity
  8
0
 62
     7
370
    60
390
F
100
AcDbLine
 10
284.895237
 20
360.123047
 30
0.0
 11
284.895237
 21
510.123047
 31
0.0
  0
LINE
  5
6C1
330
1F
100
AcDbEntity
  8
0
 62
     7
 48
0.036612
370
    60
390
F
100
AcDbLine
 10
284.895237
 20
360.123047
 30
0.0
 11
283.43077
 21
360.123047
 31
0.0
  0
LINE
  5
6C3
330
1F
100
AcDbEntity
  8
0
 62
     7
 48
0.125
370
    60
390
F
100
AcDbLine
 10
280.430771
 20
505.123047
 30
0.0
 11
280.430771
 21
510.123047
 31
0.0
  0
LINE
  5
6C4
330
1F
100
AcDbEntity
  8
0
 62
     7
 48
0.2
370
    60
390
F
100
AcDbLine
 10
358.43077
 20
360.123047
 30
0.0
 11
350.43077
 21
360.123047
 31
0.0
  0
POINT
  5
71C
330
1F
100
AcDbEntity
  8
0
 62
     7
100
AcDbPoint
 10
550.5669172853609
 20
499.0018328447575
 30
0.0
  0
POINT
  5
71D
330
1F
100
AcDbEntity
  8
0
 62
     7
100
AcDbPoint
 10
560.8275214514892
 20
440.811055262371
 30
0.0
  0
ELLIPSE
  5
724
330
1F
100
AcDbEntity
  8
0
 62
     7
370
    60
100
AcDbEllipse
 10
137.80544
 20
472.481602
 30
0.0
 11
30.00021743774414
 21
-0.0027992718387395
 31
0.0
210
0.0
220
0.0
230
1.0
 40
0.9698459999999997
 41
4.712486707916179
 42
6.28327473125772
  0
ELLIPSE
  5
725
330
1F
100
AcDbEntity
  8
0
 62
     7
370
    60
100
AcDbEllipse
 10
137.805762
 20
472.481556
 30
0.0
 11
29.99988174438477
 21
-0.0018854162190109
 31
0.0
210
0.0
220
0.0
230
1.0
 40
0.9698450000000005
 41
0.0000597083039093
 42
1.570860786172584
  0
ELLIPSE
  5
726
330
1F
100
AcDbEntity
  8
0
 62
     7
370
    60
100
AcDbEllipse
 10
137.805874
 20
472.481602
 30
0.0
 11
30.00021743774414
 21
0.0027980303857476
 31
0.0
210
0.0
220
0.0
230
0.9999999999999999
 40
0.969846
 41
3.1415032722718
 42
4.712291295525127
  0
ELLIPSE
  5
727
330
1F
100
AcDbEntity
  8
0
 62
     7
370
    60
100
AcDbEllipse
 10
137.805552
 20
472.481556
 30
0.0
 11
29.99988174438477
 21
0.001884180936031
 31
0.0
210
0.0
220
0.0
230
1.0
 40
0.969845
 41
1.570731909869019
 42
3.141532987843348
  0
ARC
  5
72C
330
1F
100
AcDbEntity
  8
0
 62
     7
370
    60
390
F
100
AcDbCircle
 10
137.805656
 20
435.123047
 30
0.0
 40
30.0
100
AcDbArc
 50
179.999995
 51
0.0
  0
LINE
  5
72D
330
1F
100
AcDbEntity
  8
0
 62
     7
370
    60
390
F
100
AcDbLine
 10
170.805655
 20
360.123047
 30
0.0
 11
170.805655
 21
510.123047
 31
0.0
  0
LINE
  5
72E
330
1F
100
AcDbEntity
  8
0
 62
     7
370
    60
390
F
100
AcDbLine
 10
170.805655
 20
510.123047
 30
0.0
 11
104.805655
 21
510.123047
 31
0.0
  0
LINE
  5
72F
330
1F
100
AcDbEntity
  8
0
 62
     7
370
    60
390
F
100
AcDbLine
 10
104.805655
 20
360.123047
 30
0.0
 11
104.805655
 21
510.123047
 31
0.0
  0
LINE
  5
730
330
1F
100
AcDbEntity
  8
0
 62
     7
370
    60
390
F
100
AcDbLine
 10
170.805655
 20
360.123047
 30
0.0
 11
104.805655
 21
360.123047
 31
0.0
  0
LINE
  5
731
330
1F
100
AcDbEntity
  8
0
 62
     7
 48
0.036612
370
    60
390
F
100
AcDbLine
 10
180.270121
 20
510.123047
 30
0.0
 11
178.805655
 21
510.123047
 31
0.0
  0
LINE
  5
732
330
1F
100
AcDbEntity
  8
0
 62
     7
 48
0.301777
370
    60
390
F
100
AcDbLine
 10
192.341189
 20
510.123047
 30
0.0
 11
180.270121
 21
510.123047
 31
0.0
  0
LINE
  5
733
330
1F
100
AcDbEntity
  8
0
 62
     7
 48
0.088388
370
    60
390
F
100
AcDbLine
 10
195.876723
 20
510.123047
 30
0.0
 11
192.341189
 21
510.123047
 31
0.0
  0
LINE
  5
734
330
1F
100
AcDbEntity
  8
0
 62
     7
 48
0.448223
370
    60
390
F
100
AcDbLine
 10
213.805655
 20
510.123047
 30
0.0
 11
195.876723
 21
510.123047
 31
0.0
  0
LINE
  5
735
330
1F
100
AcDbEntity
  8
0
 62
     7
 48
0.448223
370
    60
390
F
100
AcDbLine
 10
79.734587
 20
510.123047
 30
0.0
 11
61.805655
 21
510.123047
 31
0.0
  0
LINE
  5
736
330
1F
100
AcDbEntity
  8
0
 62
     7
 48
0.088388
370
    60
390
F
100
AcDbLine
 10
83.270121
 20
510.123047
 30
0.0
 11
79.734587
 21
510.123047
 31
0.0
  0
LINE
  5
737
330
1F
100
AcDbEntity
  8
0
 62
     7
 48
0.301777
370
    60
390
F
100
AcDbLine
 10
83.270121
 20
510.123047
 30
0.0
 11
95.341189
 21
510.123047
 31
0.0
  0
LINE
  5
738
330
1F
100
AcDbEntity
  8
0
 62
     7
 48
0.036612
370
    60
390
F
100
AcDbLine
 10
96.805655
 20
510.123047
 30
0.0
 11
95.341189
 21
510.123047
 31
0.0
  0
LINE
  5
739
330
1F
100
AcDbEntity
  8
0
 62
     7
 48
0.2
370
    60
390
F
100
AcDbLine
 10
104.805655
 20
510.123047
 30
0.0
 11
96.805655
 21
510.123047
 31
0.0
  0
LINE
  5
73A
330
1F
100
AcDbEntity
  8
0
 62
     7
 48
0.2
370
    60
390
F
100
AcDbLine
 10
178.805655
 20
510.123047
 30
0.0
 11
170.805655
 21
510.123047
 31
0.0
  0
LINE
  5
73B
330
1F
100
AcDbEntity
  8
0
 62
     7
 48
0.2
370
    60
390
F
100
AcDbLine
 10
178.805655
 20
360.123047
 30
0.0
 11
170.805655
 21
360.123047
 31
0.0
  0
LINE
  5
73D
330
1F
100
AcDbEntity
  8
0
 62
     7
 48
0.036612
370
    60
390
F
100
AcDbLine
 10
180.270121
 20
360.123047
 30
0.0
 11
178.805655
 21
360.123047
 31
0.0
  0
LINE
  5
73E
330
1F
100
AcDbEntity
  8
0
 62
     7
370
    60
390
F
100
AcDbLine
 10
180.270121
 20
360.123047
 30
0.0
 11
180.270121
 21
510.123047
 31
0.0
  0
LINE
  5
73F
330
1F
100
AcDbEntity
  8
0
 62
     7
370
    60
390
F
100
AcDbLine
 10
192.341189
 20
360.123047
 30
0.0
 11
192.341189
 21
510.123047
 31
0.0
  0
LINE
  5
740
330
1F
100
AcDbEntity
  8
0
 62
     7
 48
0.301777
370
    60
390
F
100
AcDbLine
 10
192.341189
 20
360.123047
 30
0.0
 11
180.270121
 21
360.123047
 31
0.0
  0
ELLIPSE
  5
741
330
1F
100
AcDbEntity
  8
0
 62
     7
370
    60
100
AcDbEllipse
 10
186.734587
 20
495.123047
 30
0.0
 11
3.000000000000000E-16
 21
5.0
 31
0.0
210
0.0
220
0.0
230
1.0
 40
0.707107
 41
0.0000000000000007
 42
3.141592653589794
  0
ELLIPSE
  5
742
330
1F
100
AcDbEntity
  8
0
 62
     7
370
    60
100
AcDbEllipse
 10
186.734587
 20
495.123047
 30
0.0
 11
3.000000000000000E-16
 21
5.0
 31
0.0
210
0.0
220
0.0
230
1.0
 40
0.707107
 41
3.141592653589794
 42
6.283185307179587
  0
ELLIPSE
  5
743
330
1F
100
AcDbEntity
  8
0
 62
     7
370
    60
100
AcDbEllipse
 10
186.734587
 20
375.123047
 30
0.0
 11
3.000000000000000E-16
 21
5.0
 31
0.0
210
0.0
220
0.0
230
1.0
 40
0.707107
 41
3.141592653589794
 42
6.283185307179587
  0
ELLIPSE
  5
744
330
1F
100
AcDbEntity
  8
0
 62
     7
370
    60
100
AcDbEllipse
 10
186.734587
 20
375.123047
 30
0.0
 11
3.000000000000000E-16
 21
5.0
 31
0.0
210
0.0
220
0.0
230
1.0
 40
0.707107
 41
6.283185307179584
 42
9.424777960769378
  0
LINE
  5
745
330
1F
100
AcDbEntity
  8
0
 62
     7
 48
0.088388
370
    60
390
F
100
AcDbLine
 10
195.876723
 20
360.123047
 30
0.0
 11
192.341189
 21
360.123047
 31
0.0
  0
LINE
  5
746
330
1F
100
AcDbEntity
  8
0
 62
     7
370
    60
390
F
100
AcDbLine
 10
195.876723
 20
360.123047
 30
0.0
 11
195.876723
 21
510.123047
 31
0.0
  0
ARC
  5
747
330
1F
100
AcDbEntity
  8
0
 62
     7
370
    60
390
F
100
AcDbCircle
 10
213.805655
 20
365.123047
 30
0.0
 40
5.0
100
AcDbArc
 50
269.999997
 51
0.0
  0
LINE
  5
748
330
1F
100
AcDbEntity
  8
0
 62
     7
370
    60
390
F
100
AcDbLine
 10
218.805655
 20
365.123047
 30
0.0
 11
218.805655
 21
505.123047
 31
0.0
  0
ARC
  5
749
330
1F
100
AcDbEntity
  8
0
 62
     7
370
    60
390
F
100
AcDbCircle
 10
213.805655
 20
505.123047
 30
0.0
 40
5.0
100
AcDbArc
 50
0.0
 51
90.000003
  0
LINE
  5
74A
330
1F
100
AcDbEntity
  8
0
 62
     7
 48
0.448223
370
    60
390
F
100
AcDbLine
 10
213.805655
 20
360.123047
 30
0.0
 11
195.876723
 21
360.123047
 31
0.0
  0
CIRCLE
  5
74B
330
1F
100
AcDbEntity
  8
0
 62
     7
370
    60
390
F
100
AcDbCircle
 10
207.805655
 20
495.123047
 30
0.0
 40
5.0
  0
CIRCLE
  5
74C
330
1F
100
AcDbEntity
  8
0
 62
     7
370
    60
390
F
100
AcDbCircle
 10
207.805655
 20
375.123047
 30
0.0
 40
5.0
  0
ARC
  5
74F
330
1F
100
AcDbEntity
  8
0
 62
     7
370
    60
390
F
100
AcDbCircle
 10
61.805655
 20
365.123047
 30
0.0
 40
5.0
100
AcDbArc
 50
180.000005
 51
269.999997
  0
LINE
  5
750
330
1F
100
AcDbEntity
  8
0
 62
     7
370
    60
390
F
100
AcDbLine
 10
56.805655
 20
365.123047
 30
0.0
 11
56.805655
 21
505.123047
 31
0.0
  0
CIRCLE
  5
751
330
1F
100
AcDbEntity
  8
0
 62
     7
370
    60
390
F
100
AcDbCircle
 10
67.805655
 20
375.123047
 30
0.0
 40
5.0
  0
CIRCLE
  5
752
330
1F
100
AcDbEntity
  8
0
 62
     7
370
    60
390
F
100
AcDbCircle
 10
67.805655
 20
495.123047
 30
0.0
 40
5.0
  0
ELLIPSE
  5
753
330
1F
100
AcDbEntity
  8
0
 62
     7
370
    60
100
AcDbEllipse
 10
88.876723
 20
375.123047
 30
0.0
 11
3.000000000000000E-16
 21
5.0
 31
0.0
210
0.0
220
0.0
230
1.0
 40
0.707107
 41
3.141592653589794
 42
6.283185307179588
  0
ELLIPSE
  5
754
330
1F
100
AcDbEntity
  8
0
 62
     7
370
    60
100
AcDbEllipse
 10
88.876723
 20
375.123047
 30
0.0
 11
3.000000000000000E-16
 21
5.0
 31
0.0
210
0.0
220
0.0
230
1.0
 40
0.707107
 41
0.0000000000000007
 42
3.141592653589794
  0
ELLIPSE
  5
756
330
1F
100
AcDbEntity
  8
0
 62
     7
370
    60
100
AcDbEllipse
 10
88.876723
 20
495.123047
 30
0.0
 11
3.000000000000000E-16
 21
5.0
 31
0.0
210
0.0
220
0.0
230
1.0
 40
0.707107
 41
0.0000000000000007
 42
3.141592653589794
  0
ELLIPSE
  5
758
330
1F
100
AcDbEntity
  8
0
 62
     7
370
    60
100
AcDbEllipse
 10
88.876723
 20
495.123047
 30
0.0
 11
3.000000000000000E-16
 21
5.0
 31
0.0
210
0.0
220
0.0
230
1.0
 40
0.707107
 41
3.141592653589794
 42
6.283185307179588
  0
LINE
  5
75D
330
1F
100
AcDbEntity
  8
0
 62
     7
370
    60
390
F
100
AcDbLine
 10
95.341189
 20
360.123047
 30
0.0
 11
95.341189
 21
510.123047
 31
0.0
  0
LINE
  5
75E
330
1F
100
AcDbEntity
  8
0
 62
     7
 48
0.036612
370
    60
390
F
100
AcDbLine
 10
96.805655
 20
360.123047
 30
0.0
 11
95.341189
 21
360.123047
 31
0.0
  0
LINE
  5
75F
330
1F
100
AcDbEntity
  8
0
 62
     7
 48
0.301777
370
    60
390
F
100
AcDbLine
 10
83.270121
 20
360.123047
 30
0.0
 11
95.341189
 21
360.123047
 31
0.0
  0
LINE
  5
760
330
1F
100
AcDbEntity
  8
0
 62
     7
370
    60
390
F
100
AcDbLine
 10
83.270121
 20
360.123047
 30
0.0
 11
83.270121
 21
510.123047
 31
0.0
  0
LINE
  5
761
330
1F
100
AcDbEntity
  8
0
 62
     7
370
    60
390
F
100
AcDbLine
 10
79.734587
 20
360.123047
 30
0.0
 11
79.734587
 21
510.123047
 31
0.0
  0
LINE
  5
762
330
1F
100
AcDbEntity
  8
0
 62
     7
 48
0.088388
370
    60
390
F
100
AcDbLine
 10
83.270121
 20
360.123047
 30
0.0
 11
79.734587
 21
360.123047
 31
0.0
  0
LINE
  5
763
330
1F
100
AcDbEntity
  8
0
 62
     7
 48
0.448223
370
    60
390
F
100
AcDbLine
 10
79.734587
 20
360.123047
 30
0.0
 11
61.805655
 21
360.123047
 31
0.0
  0
ARC
  5
764
330
1F
100
AcDbEntity
  8
0
 62
     7
370
    60
390
F
100
AcDbCircle
 10
61.805655
 20
505.123047
 30
0.0
 40
5.0
100
AcDbArc
 50
90.000003
 51
180.000005
  0
LINE
  5
765
330
1F
100
AcDbEntity
  8
0
 62
     7
 48
0.2
370
    60
390
F
100
AcDbLine
 10
104.805655
 20
360.123047
 30
0.0
 11
96.805655
 21
360.123047
 31
0.0
  0
LINE
  5
766
330
1F
100
AcDbEntity
  8
0
 62
     7
370
    60
390
F
100
AcDbLine
 10
167.805655
 20
435.123046
 30
0.0
 11
167.805657
 21
472.481407
 31
0.0
  0
LINE
  5
767
330
1F
100
AcDbEntity
  8
0
 62
     7
370
    60
390
F
100
AcDbLine
 10
107.805655
 20
435.123048
 30
0.0
 11
107.805657
 21
472.481392
 31
0.0
  0
DIMENSION
  5
768
330
1F
100
AcDbEntity
  8
0
370
    40
100
AcDbDimension
  2
*D124
 10
218.805655
 20
527.2689222043693
 30
0.0
 11
137.805655
 21
553.4689222043694
 31
0.0
 70
   160
 71
     5
 41
2.5
 42
162.0
  3
Standard
100
AcDbAlignedDimension
 13
56.805655
 23
462.5252362478553
 33
0.0
 14
218.805655
 24
462.5252362478553
 34
0.0
100
AcDbRotatedDimension
1001
ACAD
1000
DSTYLE
1002
{
1070
    41
1040
10.0
1070
   140
1040
36.0
1070
   147
1040
10.0
1070
   176
1070
     7
1070
   177
1070
     7
1070
   271
1070
     0
1002
}
  0
DIMENSION
  5
7A0
330
1F
100
AcDbEntity
  8
0
370
    40
100
AcDbDimension
  2
*D125
 10
37.86925739223545
 20
360.123047
 30
0.0
 11
11.655084163889
 21
435.123047
 31
0.0
 70
    32
 71
     5
 41
2.5
 42
150.0
  3
Standard
100
AcDbAlignedDimension
 13
132.9558640002176
 23
510.123047
 33
0.0
 14
132.9558640002176
 24
360.123047
 34
0.0
 50
90.0
100
AcDbRotatedDimension
1001
ACAD
1000
DSTYLE
1002
{
1070
    41
1040
10.0
1070
   140
1040
36.0
1070
   147
1040
10.0
1070
   176
1070
     7
1070
   177
1070
     7
1070
   271
1070
     0
1002
}
  0
DIMENSION
  5
A21
330
1F
100
AcDbEntity
  8
0
370
    25
100
AcDbDimension
  2
*D133
 10
606.2294240125518
 20
448.8756320294091
 30
0.0
 11
641.7049062680901
 21
399.1631441739132
 31
0.0
 70
   161
  1
Ø59
 71
     5
 41
2.5
 42
59.08855240373443
  3
Standard
100
AcDbAlignedDimension
 13
562.7887270794884
 23
501.1568676078707
 33
0.0
 14
573.1499528036499
 24
442.9838323882619
 34
0.0
1001
ACAD
1000
DSTYLE
1002
{
1070
    41
1040
10.0
1070
   140
1040
36.0
1070
   147
1040
10.0
1070
   271
1070
     0
1002
}
  0
VIEWPORT
  5
78
330
73
100
AcDbEntity
 67
     1
  8
0
 62
     0
370
     0
390
F
100
AcDbViewport
 10
0.0
 20
0.0
 30
0.0
 40
1000.0
 41
1000.0
 68
     1
 69
     1
 12
0.0
 22
0.0
 13
0.0
 23
0.0
 14
1.0
 24
1.0
 15
1.0
 25
1.0
 16
0.0
 26
0.0
 36
1.0
 17
0.0
 27
0.0
 37
0.0
 42
50.0
 43
0.0
 44
0.0
 45
1000.0
 50
0.0
 51
0.0
 72
   100
 90
   557056
  1

281
     0
 71
     0
 74
     0
110
0.0
120
0.0
130
0.0
111
1.0
121
0.0
131
0.0
112
0.0
122
1.0
132
0.0
 79
     0
146
0.0
170
     0
  0
ENDSEC
  0
SECTION
  2
OBJECTS
  0
DICTIONARY
  5
C
330
0
100
AcDbDictionary
281
     1
  3
ACAD_COLOR
350
6C
  3
ACAD_GROUP
350
D
  3
ACAD_LAYOUT
350
1A
  3
ACAD_MATERIAL
350
6B
  3
ACAD_MLEADERSTYLE
350
8E0
  3
ACAD_MLINESTYLE
350
17
  3
ACAD_PLOTSETTINGS
350
19
  3
ACAD_PLOTSTYLENAME
350
E
  3
ACAD_SCALELIST
350
99
  3
ACAD_TABLESTYLE
350
92
  3
ACAD_WIPEOUT_VARS
350
A74
  3
AcDbVariableDictionary
350
59
  0
DICTIONARY
  5
6C
102
{ACAD_REACTORS
330
C
102
}
330
C
100
AcDbDictionary
281
     1
  0
DICTIONARY
  5
D
102
{ACAD_REACTORS
330
C
102
}
330
C
100
AcDbDictionary
281
     1
  0
DICTIONARY
  5
1A
102
{ACAD_REACTORS
330
C
102
}
330
C
100
AcDbDictionary
281
     1
  3
Layout1
350
74
  3
Model
350
22
  0
DICTIONARY
  5
6B
102
{ACAD_REACTORS
330
C
102
}
330
C
100
AcDbDictionary
281
     1
  0
DICTIONARY
  5
8E0
102
{ACAD_REACTORS
330
C
102
}
330
C
100
AcDbDictionary
281
     1
  0
DICTIONARY
  5
17
102
{ACAD_REACTORS
330
C
102
}
330
C
100
AcDbDictionary
281
     1
  3
Standard
350
18
  0
DICTIONARY
  5
19
102
{ACAD_REACTORS
330
C
102
}
330
C
100
AcDbDictionary
281
     1
  0
ACDBDICTIONARYWDFLT
  5
E
102
{ACAD_REACTORS
330
C
102
}
330
C
100
AcDbDictionary
281
     1
  3
Normal
350
F
100
AcDbDictionaryWithDefault
340
F
  0
DICTIONARY
  5
99
102
{ACAD_REACTORS
330
C
102
}
330
C
100
AcDbDictionary
281
     1
  3
A0
350
67F
  3
A1
350
680
  3
A2
350
681
  3
A3
350
682
  3
A4
350
683
  3
A5
350
684
  3
A6
350
685
  3
A7
350
686
  3
A8
350
687
  3
A9
350
688
  3
B0
350
689
  3
B1
350
68A
  3
B2
350
68B
  3
B3
350
68C
  3
B4
350
68D
  3
B5
350
68E
  3
B6
350
68F
  3
B7
350
690
  3
B8
350
691
  3
B9
350
692
  3
C0
350
693
  3
C1
350
694
  3
C2
350
695
  3
C3
350
696
  3
C4
350
697
  3
C5
350
698
  3
C6
350
699
  3
C7
350
69A
  3
C8
350
69B
  3
C9
350
69C
  3
D0
350
69D
  3
D1
350
69E
  3
D2
350
69F
  0
DICTIONARY
  5
92
102
{ACAD_REACTORS
330
C
102
}
330
C
100
AcDbDictionary
281
     1
  3
Standard
350
93
  0
WIPEOUTVARIABLES
  5
A74
102
{ACAD_REACTORS
330
C
102
}
330
C
100
AcDbWipeoutVariables
 70
     1
  0
DICTIONARY
  5
59
102
{ACAD_REACTORS
330
C
102
}
330
C
100
AcDbDictionary
281
     1
  3
CTABLESTYLE
350
98
  3
DIMASSOC
350
5A
  3
HIDETEXT
350
5E
  0
LAYOUT
  5
74
102
{ACAD_REACTORS
330
1A
102
}
330
1A
100
AcDbPlotSettings
  1

  2
none_device
  4
none_user_media
  6

 40
0.0
 41
0.0
 42
0.0
 43
0.0
 44
0.0
 45
0.0
 46
0.0
 47
0.0
 48
0.0
 49
0.0
140
0.0
141
0.0
142
1.0
143
1.0
 70
   544
 72
     0
 73
     0
 74
     0
  7

 75
    16
 76
     0
 77
     2
 78
   300
147
1.0
148
0.0
149
0.0
100
AcDbLayout
  1
Layout1
 70
     1
 71
     0
 10
0.0
 20
0.0
 11
420.0
 21
297.0
 12
0.0
 22
0.0
 32
0.0
 14
0.0
 24
0.0
 34
0.0
 15
841.0
 25
594.0
 35
2.0
146
0.0
 13
0.0
 23
0.0
 33
0.0
 16
1.0
 26
0.0
 36
0.0
 17
0.0
 27
1.0
 37
0.0
 76
     0
330
73
331
78
  0
LAYOUT
  5
22
102
{ACAD_REACTORS
330
1A
102
}
330
1A
100
AcDbPlotSettings
  1

  2
none_device
  4
none_user_media
  6

 40
6.349999904632568
 41
6.349999904632568
 42
6.350006103515625
 43
6.350006103515625
 44
215.8999938964844
 45
279.3999938964844
 46
0.0
 47
0.0
 48
0.0
 49
0.0
140
0.0
141
0.0
142
1.0
143
1.0
 70
 11936
 72
     0
 73
     0
 74
     0
  7

 75
     0
 76
     0
 77
     2
 78
   300
147
0.17345307090267
148
0.0
149
0.0
100
AcDbLayout
  1
Model
 70
     1
 71
     0
 10
0.0
 20
0.0
 11
420.0
 21
297.0
 12
0.0
 22
0.0
 32
0.0
 14
20.60823377018821
 24
360.123047
 34
0.0
 15
662.3195594296757
 25
544.5189222043692
 35
0.0
146
0.0
 13
0.0
 23
0.0
 33
0.0
 16
1.0
 26
0.0
 36
0.0
 17
0.0
 27
1.0
 37
0.0
 76
     0
330
1F
331
97
  0
MLINESTYLE
  5
18
102
{ACAD_REACTORS
330
17
102
}
330
17
100
AcDbMlineStyle
  2
Standard
 70
     0
  3

 62
     0
 51
90.0
 52
90.0
 71
     2
 49
0.5
 62
   256
  6
BYLAYER
 49
-0.5
 62
   256
  6
BYLAYER
  0
ACDBPLACEHOLDER
  5
F
102
{ACAD_REACTORS
330
E
102
}
330
E
  0
SCALE
  5
67F
102
{ACAD_REACTORS
330
99
102
}
330
99
100
AcDbScale
 70
     0
300
1:1
140
1.0
141
1.0
290
     1
  0
SCALE
  5
680
102
{ACAD_REACTORS
330
99
102
}
330
99
100
AcDbScale
 70
     0
300
1:2
140
1.0
141
2.0
290
     0
  0
SCALE
  5
681
102
{ACAD_REACTORS
330
99
102
}
330
99
100
AcDbScale
 70
     0
300
1:4
140
1.0
141
4.0
290
     0
  0
SCALE
  5
682
102
{ACAD_REACTORS
330
99
102
}
330
99
100
AcDbScale
 70
     0
300
1:5
140
1.0
141
5.0
290
     0
  0
SCALE
  5
683
102
{ACAD_REACTORS
330
99
102
}
330
99
100
AcDbScale
 70
     0
300
1:8
140
1.0
141
8.0
290
     0
  0
SCALE
  5
684
102
{ACAD_REACTORS
330
99
102
}
330
99
100
AcDbScale
 70
     0
300
1:10
140
1.0
141
10.0
290
     0
  0
SCALE
  5
685
102
{ACAD_REACTORS
330
99
102
}
330
99
100
AcDbScale
 70
     0
300
1:16
140
1.0
141
16.0
290
     0
  0
SCALE
  5
686
102
{ACAD_REACTORS
330
99
102
}
330
99
100
AcDbScale
 70
     0
300
1:20
140
1.0
141
20.0
290
     0
  0
SCALE
  5
687
102
{ACAD_REACTORS
330
99
102
}
330
99
100
AcDbScale
 70
     0
300
1:30
140
1.0
141
30.0
290
     0
  0
SCALE
  5
688
102
{ACAD_REACTORS
330
99
102
}
330
99
100
AcDbScale
 70
     0
300
1:40
140
1.0
141
40.0
290
     0
  0
SCALE
  5
689
102
{ACAD_REACTORS
330
99
102
}
330
99
100
AcDbScale
 70
     0
300
1:50
140
1.0
141
50.0
290
     0
  0
SCALE
  5
68A
102
{ACAD_REACTORS
330
99
102
}
330
99
100
AcDbScale
 70
     0
300
1:100
140
1.0
141
100.0
290
     0
  0
SCALE
  5
68B
102
{ACAD_REACTORS
330
99
102
}
330
99
100
AcDbScale
 70
     0
300
2:1
140
2.0
141
1.0
290
     0
  0
SCALE
  5
68C
102
{ACAD_REACTORS
330
99
102
}
330
99
100
AcDbScale
 70
     0
300
4:1
140
4.0
141
1.0
290
     0
  0
SCALE
  5
68D
102
{ACAD_REACTORS
330
99
102
}
330
99
100
AcDbScale
 70
     0
300
8:1
140
8.0
141
1.0
290
     0
  0
SCALE
  5
68E
102
{ACAD_REACTORS
330
99
102
}
330
99
100
AcDbScale
 70
     0
300
10:1
140
10.0
141
1.0
290
     0
  0
SCALE
  5
68F
102
{ACAD_REACTORS
330
99
102
}
330
99
100
AcDbScale
 70
     0
300
100:1
140
100.0
141
1.0
290
     0
  0
SCALE
  5
690
102
{ACAD_REACTORS
330
99
102
}
330
99
100
AcDbScale
 70
     0
300
1/128" = 1'-0"
140
0.0078125
141
12.0
290
     0
  0
SCALE
  5
691
102
{ACAD_REACTORS
330
99
102
}
330
99
100
AcDbScale
 70
     0
300
1/64" = 1'-0"
140
0.015625
141
12.0
290
     0
  0
SCALE
  5
692
102
{ACAD_REACTORS
330
99
102
}
330
99
100
AcDbScale
 70
     0
300
1/32" = 1'-0"
140
0.03125
141
12.0
290
     0
  0
SCALE
  5
693
102
{ACAD_REACTORS
330
99
102
}
330
99
100
AcDbScale
 70
     0
300
1/16" = 1'-0"
140
0.0625
141
12.0
290
     0
  0
SCALE
  5
694
102
{ACAD_REACTORS
330
99
102
}
330
99
100
AcDbScale
 70
     0
300
3/32" = 1'-0"
140
0.09375
141
12.0
290
     0
  0
SCALE
  5
695
102
{ACAD_REACTORS
330
99
102
}
330
99
100
AcDbScale
 70
     0
300
1/8" = 1'-0"
140
0.125
141
12.0
290
     0
  0
SCALE
  5
696
102
{ACAD_REACTORS
330
99
102
}
330
99
100
AcDbScale
 70
     0
300
3/16" = 1'-0"
140
0.1875
141
12.0
290
     0
  0
SCALE
  5
697
102
{ACAD_REACTORS
330
99
102
}
330
99
100
AcDbScale
 70
     0
300
1/4" = 1'-0"
140
0.25
141
12.0
290
     0
  0
SCALE
  5
698
102
{ACAD_REACTORS
330
99
102
}
330
99
100
AcDbScale
 70
     0
300
3/8" = 1'-0"
140
0.375
141
12.0
290
     0
  0
SCALE
  5
699
102
{ACAD_REACTORS
330
99
102
}
330
99
100
AcDbScale
 70
     0
300
1/2" = 1'-0"
140
0.5
141
12.0
290
     0
  0
SCALE
  5
69A
102
{ACAD_REACTORS
330
99
102
}
330
99
100
AcDbScale
 70
     0
300
3/4" = 1'-0"
140
0.75
141
12.0
290
     0
  0
SCALE
  5
69B
102
{ACAD_REACTORS
330
99
102
}
330
99
100
AcDbScale
 70
     0
300
1" = 1'-0"
140
1.0
141
12.0
290
     0
  0
SCALE
  5
69C
102
{ACAD_REACTORS
330
99
102
}
330
99
100
AcDbScale
 70
     0
300
1-1/2" = 1'-0"
140
1.5
141
12.0
290
     0
  0
SCALE
  5
69D
102
{ACAD_REACTORS
330
99
102
}
330
99
100
AcDbScale
 70
     0
300
3" = 1'-0"
140
3.0
141
12.0
290
     0
  0
SCALE
  5
69E
102
{ACAD_REACTORS
330
99
102
}
330
99
100
AcDbScale
 70
     0
300
6" = 1'-0"
140
6.0
141
12.0
290
     0
  0
SCALE
  5
69F
102
{ACAD_REACTORS
330
99
102
}
330
99
100
AcDbScale
 70
     0
300
1'-0" = 1'-0"
140
12.0
141
12.0
290
     0
  0
TABLESTYLE
  5
93
102
{ACAD_REACTORS
330
92
102
}
102
{ACAD_XDICTIONARY
360
B81
102
}
330
92
100
AcDbTableStyle
  3
Standard
 70
     0
 71
     0
 40
0.06
 41
0.06
280
     0
281
     0
  7
Standard
140
0.18
170
     2
 62
     0
 63
     7
283
     0
274
    -2
284
     1
 64
     0
275
    -2
285
     1
 65
     0
276
    -2
286
     1
 66
     0
277
    -2
287
     1
 67
     0
278
    -2
288
     1
 68
     0
279
    -2
289
     1
 69
     0
  7
Standard
140
0.25
170
     5
 62
     0
 63
     7
283
     0
274
    -2
284
     1
 64
     0
275
    -2
285
     1
 65
     0
276
    -2
286
     1
 66
     0
277
    -2
287
     1
 67
     0
278
    -2
288
     1
 68
     0
279
    -2
289
     1
 69
     0
  7
Standard
140
0.18
170
     5
 62
     0
 63
     7
283
     0
274
    -2
284
     1
 64
     0
275
    -2
285
     1
 65
     0
276
    -2
286
     1
 66
     0
277
    -2
287
     1
 67
     0
278
    -2
288
     1
 68
     0
279
    -2
289
     1
 69
     0
  0
DICTIONARYVAR
  5
98
102
{ACAD_REACTORS
330
59
102
}
330
59
100
DictionaryVariables
280
     0
  1
Standard
  0
DICTIONARYVAR
  5
5A
102
{ACAD_REACTORS
330
59
102
}
330
59
100
DictionaryVariables
280
     0
  1
2
  0
DICTIONARYVAR
  5
5E
102
{ACAD_REACTORS
330
59
102
}
330
59
100
DictionaryVariables
280
     0
  1
1
  0
DICTIONARY
  5
B81
330
93
100
AcDbDictionary
280
     1
281
     1
  3
ACAD_XREC_ROUNDTRIP
360
B82
  0
XRECORD
  5
B82
102
{ACAD_REACTORS
330
B81
102
}
330
B81
100
AcDbXrecord
280
     1
102
ACAD_ROUNDTRIP_PRE2007_TABLESTYLE
 90
      512
 91
        0
  1

 92
      512
 93
        0
  2

 94
      512
 95
        0
  3

  0
ENDSEC
  0
SECTION
  2
THUMBNAILIMAGE
 90
    17264
310
28000000B40000005A0000000100080000000000483F00000000000000000000000100000000000000000000000080000080000000808000800000008000800080800000C0C0C000C0DCC000F0CAA6000020400000206000002080000020A0000020C0000020E00000400000004020000040400000406000004080000040A0
310
000040C0000040E00000600000006020000060400000606000006080000060A0000060C0000060E00000800000008020000080400000806000008080000080A0000080C0000080E00000A0000000A0200000A0400000A0600000A0800000A0A00000A0C00000A0E00000C0000000C0200000C0400000C0600000C0800000C0
310
A00000C0C00000C0E00000E0000000E0200000E0400000E0600000E0800000E0A00000E0C00000E0E00040000000400020004000400040006000400080004000A0004000C0004000E00040200000402020004020400040206000402080004020A0004020C0004020E000404000004040200040404000404060004040800040
310
40A0004040C0004040E00040600000406020004060400040606000406080004060A0004060C0004060E00040800000408020004080400040806000408080004080A0004080C0004080E00040A0000040A0200040A0400040A0600040A0800040A0A00040A0C00040A0E00040C0000040C0200040C0400040C0600040C08000
310
40C0A00040C0C00040C0E00040E0000040E0200040E0400040E0600040E0800040E0A00040E0C00040E0E00080000000800020008000400080006000800080008000A0008000C0008000E00080200000802020008020400080206000802080008020A0008020C0008020E00080400000804020008040400080406000804080
310
008040A0008040C0008040E00080600000806020008060400080606000806080008060A0008060C0008060E00080800000808020008080400080806000808080008080A0008080C0008080E00080A0000080A0200080A0400080A0600080A0800080A0A00080A0C00080A0E00080C0000080C0200080C0400080C0600080C0
310
800080C0A00080C0C00080C0E00080E0000080E0200080E0400080E0600080E0800080E0A00080E0C00080E0E000C0000000C0002000C0004000C0006000C0008000C000A000C000C000C000E000C0200000C0202000C0204000C0206000C0208000C020A000C020C000C020E000C0400000C0402000C0404000C0406000C0
310
408000C040A000C040C000C040E000C0600000C0602000C0604000C0606000C0608000C060A000C060C000C060E000C0800000C0802000C0804000C0806000C0808000C080A000C080C000C080E000C0A00000C0A02000C0A04000C0A06000C0A08000C0A0A000C0A0C000C0A0E000C0C00000C0C02000C0C04000C0C06000
310
C0C08000C0C0A000F0FBFF00A4A0A000808080000000FF0000FF000000FFFF00FF000000FF00FF00FFFF0000FFFFFF0000000000000000000000000000000000000000000000000000000000000000000000000000000000000000000000000000000000000000000000000000000000000000000000000000000000000000
310
00000000000000000000000000000000000000000000000000000000000000000000000000000000000000000000000000000000000000000000000000000000000000000000000000000000000000000000000000000000000000000000000000000000000000000000000000000000000000000000000000000000000000
310
00000000000000000000000000000000000000000000000000000000000000000000000000000000000000000000000000000000000000000000000000000000000000000000000000000000000000000000000000000000000000000000000000000000000000000000000000000000000000000000000000000000000000
310
00000000000000000000000000000000000000000000000000000000000000000000000000000000000000000000000000000000000000000000000000000000000000000000000000000000000000000000000000000000000000000000000000000000000000000000000000000000000000000000000000000000000000
310
00000000000000000000000000000000000000000000000000000000000000000000000000000000000000000000000000000000000000000000000000000000000000000000000000000000000000000000000000000000000000000000000000000000000000000000000000000000000000000000000000000000000000
310
00000000000000000000000000000000000000000000000000000000000000000000000000000000000000000000000000000000000000000000000000000000000000000000000000000000000000000000000000000000000000000000000000000000000000000000000000000000000000000000000000000000000000
310
00000000000000000000000000000000000000000000000000000000000000000000000000000000000000000000000000000000000000000000000000000000000000000000000000000000000000000000000000000000000000000000000000000000000000000000000000000000000000000000000000000000000000
310
00000000000000000000000000000000000000000000000000000000000000000000000000000000000000000000000000000000000000000000000000000000000000000000000000000000000000000000000000000000000000000000000000000000000000000000000000000000000000000000000000000000000000
310
00000000000000000000000000000000000000000000000000000000000000000000000000000000000000000000000000000000000000000000000000000000000000000000000000000000000000000000000000000000000000000000000000000000000000000000000000000000000000000000000000000000000000
310
00000000000000000000000000000000000000000000000000000000000000000000000000000000000000000000000000000000000000000000000000000000000000000000000000000000000000000000000000000000000000000000000000000000000000000000000000000000000000000000000000000000000000
310
00000000000000000000000000000000000000000000000000000000000000000000000000000000000000000000000000000000000000000000000000000000000000000000000000000000000000000000000000000000000000000000000000000000000000000000000000000000000000000000000000000000000000
310
00000000000000000000000000000000000000000000000000000000000000000000000000000000000000000000000000000000000000000000000000000000000000000000000000000000000000000000000000000000000000000000000000000000000000000000000000000000000000000000000000000000000000
310
00000000000000000000000000000000000000000000000000000000000000000000000000000000000000000000000000000000000000000000000000000000000000000000000000000000000000000000000000000000000000000000000000000000000000000000000000000000000000000000000000000000000000
310
00000000000000000000000000000000000000000000000000000000000000000000000000000000000000000000000000000000000000000000000000000000000000000000000000000000000000000000000000000000000000000000000000000000000000000000000000000000000000000000000000000000000000
310
00000000000000000000000000000000000000000000000000000000000000000000000000000000000000000000000000000000000000000000000000000000000000000000000000000000000000000000000000000000000000000000000000000000000000000000000000000000000000000000000000000000000000
310
00000000000000000000000000000000000000000000000000000000000000000000000000000000000000000000000000000000000000000000000000000000000000000000000000000000000000000000000000000000000000000000000000000000000000000000000000000000000000000000000000000000000000
310
00000000000000000000000000000000000000000000000000000000000000000000000000000000000000000000000000000000000000000000000000000000000000000000000000000000000000000000000000000000000000000000000000000000000000000000000000000000000000000000000000000000000000
310
00000000000000000000000000000000000000000000000000000000000000000000000000000000000000000000000000000000000000000000000000000000000000000000000000000000000000000000000000000000000000000000000000000000000000000000000000000000000000000000000000000000000000
310
00000000000000000000000000000000000000000000000000000000000000000000000000000000000000000000000000000000000000000000000000000000000000000000000000000000000000000000000000000000000000000000000000000000000000000000000000000000000000000000000000000000000000
310
00000000000000000000000000000000000000000000000000000000000000000000000000000000000000000000000000000000000000000000000000000000000000000000000000000000000000000000000000000000000000000000000000000000000000000000000000000000000000000000000000000000000000
310
00000000000000000000000000000000000000000000000000000000000000000000000000000000000000000000000000000000000000000000000000000000000000000000000000000000000000000000000000000000000000000000000000000000000000000000000000000000000000000000000000000000000000
310
00000000000000000000000000000000000000000000000000000000000000000000000000000000000000000000000000000000000000000000000000000000000000000000000000000000000000000000000000000000000000000000000000000000000000000000000000000000000000000000000000000000000000
310
00000000000000000000000000000000000000000000000000000000000000000000000000000000000000000000000000000000000000000000000000000000000000000000000000000000000000000000000000000000000000000000000000000000000000000000000000000000000000000000000000000000000000
310
00000000000000000000000000000000000000000000000000000000000000000000000000000000000000000000000000000000000000000000000000000000000000000000000000000000000000000000000000000000000000000000000000000000000000000000000000000000000000000000000000000000000000
310
00000000000000000000000000000000000000000000000000000000000000000000000000000000000000000000000000000000000000000000000000000000000000000000000000000000000000000000000000000000000000000000000000000000000000000000000000000000000000000000000000000000000000
310
00000000000000000000000000000000000000000000000000000000000000000000000000000000000000000000000000000000000000000000000000000000000000000000000000000000000000000000000000000000000000000000000000000000000000000000000000000000000000000000000000000000000000
310
00000000000000000000000000000000000000000000000000000000000000000000000000000000000000000000000000000000000000000000000000000000000000000000000000000000000000000000000000000000000000000000000000000000000000000000000000000000000000000000000000000000000000
310
00000000000000000000000000000000000000000000000000000000000000000000000000000000000000000000000000000000000000000000000000000000000000000000000000000000000000000000000000000000000000000000000000000000000000000000000000000000000000000000000000000000000000
310
00000000000000000000000000000000000000000000000000000000000000000000000000000000000000000000000000000000000000000000000000000000000000000000000000000000000000000000000000000000000000000000000000000000000000000000000000000000000000000000000000000000000000
310
00000000000000000000000000000000000000000000000000000000000000000000000000000000000000000000000000000000000000000000000000000000000000000000000000000000000000000000000000000000000000000000000000000000000000000000000000000000000000000000000000000000000000
310
00000000000000000000000000000000000000000000000000000000000000000000000000000000000000000000000000000000000000000000000000000000000000000000000000000000000000000000000000000000000000000000000000000000000000000000000000000000000000000000000000000000000000
310
00000000000000000000000000000000000000000000000000000000000000000000000000000000000000000000000000000000000000000000000000000000000000000000000000000000000000000000000000000000000000000000000000000000000000000000000000000000000000000000000000000000000000
310
00000000000000000000000000000000000000000000000000000000000000000000000000000000000000000000000000000000000000000000000000000000000000000000000000000000000000000000000000000000000000000000000000000000000000000000000000000000000000000000000000000000000000
310
00000000000000000000000000000000000000000000000000000000000000000000000000000000000000000000000000000000000000000000000000000000000000000000000000000000000000000000000000000000000000000000000000000000000000000000000000000000000000000000000000000000000000
310
00000000000000000000000000000000000000000000000000000000000000000000000000000000000000000000000000000000000000000000000000000000000000000000000000000000000000000000000000000000000000000000000000000000000000000000000000000000000000000000000000000000000000
310
00000000000000000000000000000000000000000000000000000000000000000000000000000000000000000000000000000000000000000000000000000000000000000000000000000000000000000000000000000000000000000000000000000000000000000000000000000000000000000000000000000000000000
310
00000000000000000000000000000000000000000000000000000000000000000000000000000000000000000000000000000000000000000000000000000000000000000000000000000000000000000000000000000000000000000000000000000000000000000000000000000000000000000000000000000000000000
310
00000000000000000000000000000000000000000000000000000000000000000000000000000000000000000000000000000000000000000000000000000000000000000000000000000000000000000000000000000000000000000000000000000000000000000000000000000000000000000000000000000000000000
310
00000000000000000000000000000000000000000000000000000000000000000000000000000000000000000000000000000000000000000000000000000000000000000000000000000000000000000000000000000000000000000000000000000000000000000000000000000000000000000000000000000000000000
310
00000000000000000000000000000000000000000000000000000000000000000000000000000000000000000000000000000000000000000000000000000000000000000000000000000000000000000000000000000000000000000000000000000000000000000000000000000000000000000000000000000000000000
310
00000000000000000000000000000000000000000000000000000000000000000000000000000000000000000000000000000000000000000000000000000000000000000000000000000000000000000000000000000000000000000000000000000000000000000000000000000000000000000000000000000000000000
310
00000000000000000000000000000000000000000000000000000000000000000000000000000000000000000000000000000000000000000000000000000000000000000000000000000000000000000000000000000000000000000000000000000000000000000000000000000000000000000000000000000000000000
310
00000000000000000000000000000000000000000000000000000000000000000000000000000000000000000000000000000000000000000000000000000000000000000000000000000000000000000000000000000000000000000000000000000000000000000000000000000000000000000000000000000000000000
310
00000000000000000000000000000000000000000000000000000000000000000000000000000000000000000000000000000000000000000000000000000000000000000000000000000000000000000000000000000000000000000000000000000000000000000000000000000000000000000000000000000000000000
310
00000000000000000000000000000000000000000000000000000000000000000000000000000000000000000000000000000000000000000000000000000000000000000000000000000000000000000000000000000000000000000000000000000000000000000000000000000000000000000000000000000000000000
310
00000000000000000000000000000000000000000000000000000000000000000000000000000000000000000000000000000000000000000000000000000000000000000000000000000000000000000000000000000000000000000000000000000000000000000000000000000000000000000000000000000000000000
310
00000000000000000000000000000000000000000000000000000000000000000000000000000000000000000000000000000000000000000000000000000000000000000000000000000000000000000000000000000000000000000000000000000000000000000000000000000000000000000000000000000000000000
310
00000000000000000000000000000000000000000000000000000000000000000000000000000000000000000000000000000000000000000000000000000000000000000000000000000000000000000000000000000000000000000000000000000000000000000000000000000000000000000000000000000000000000
310
00000000000000000000000000000000000000000000000000000000000000000000000000000000000000000000000000000000000000000000000000000000000000000000000000000000000000000000000000000000000000000000000000000000000000000000000000000000000000000000000000000000000000
310
00000000000000000000000000000000000000000000000000000000000000000000000000000000000000000000000000000000000000000000000000000000000000000000000000000000000000000000000000000000000000000000000000000000000000000000000000000000000000000000000000000000000000
310
00000000000000000000000000000000000000000000000000000000000000000000000000000000000000000000000000000000000000000000000000000000000000000000000000000000000000000000000000000000000000000000000000000000000000000000000000000000000000000000000000000000000000
310
00000000000000000000000000000000000000000000000000000000000000000000000000000000000000000000000000000000000000000000000000000000000000000000000000000000000000000000000000000000000000000000000000000000000000000000000000000000000000000000000000000000000000
310
00000000000000000000000000000000000000000000000000000000000000000000000000000000000000000000000000000000000000000000000000000000000000000000000000000000000000000000000000000000000000000000000000000000000000000000000000000000000000000000000000000000000000
310
00000000000000000000000000000000000000000000000000000000000000000000000000000000000000000000000000000000000000000000000000000000000000000000000000000000000000000000000000000000000000000000000000000000000000000000000000000000000000000000000000000000000000
310
00000000000000000000000000000000000000000000000000000000000000000000000000000000000000000000000000000000000000000000000000000000000000000000000000000000000000000000000000000000000000000000000000000000000000000000000000000000000000000000000000000000000000
310
00000000000000000000000000000000000000000000000000000000000000000000000000000000000000000000000000000000000000000000000000000000000000000000000000000000000000000000000000000000000000000000000000000000000000000000000000000000000000000000000000000000000000
310
00000000000000000000000000000000000000000000000000000000000000000000000000000000FFFFFFFFFFFFFFFFFFFFFFFF000000FFFFFFFFFF000000000000000000000000000000FFFFFF00000000000000000000000000000000000000000000000000000000000000000000000000000000000000000000000000
310
000000000000000000000000000000000000000000000000000000000000000000000000000000000000000000000000000000000000000000000000000000000000000000000000000000000000000000000000000000000000000000FFFFFFFFFF000000FFFFFFFF000000FFFF0000FF0000000000000000000000000000
310
00FFFFFF000000000000000000000000000000000000000000000000000000000000000000000000000000000000000000000000000000000000000000000000000000000000000000000000000000000000000000000000000000000000000000000000000000000000000000000000000000000000000000000000000000
310
0000000000000000000000000000000000000000FFFFFFFF000000FFFFFFFF000000FFFF0000FF000000000000000000000000000000FFFFFF00000000000000000000000000000000000000000000000000000000000000000000000000000000000000000000000000000000000000000000000000000000000000000000
310
00000000000000000000000000000000000000000000000000000000000000000000000000000000000000000000000000000000000000000000000000000000000000000000FFFFFFFFFFFFFFFFFFFFFFFFFFFF000000FFFF0000FFFFFFFF0000000000000000000000FFFFFFFF0000000000000000000000000000000000
310
000000000000000000000000000000000000000000000000000000000000000000000000000000000000000000000000000000000000000000000000000000000000000000000000000000000000000000000000000000000000000000000000000000000000000000000000000000000000000000000000000000FFFFFFFF
310
FFFFFFFF0000FFFFFFFF000000FFFF0000FF000000FFFFFFFFFFFF0000000000FFFFFFFF00000000000000000000000000000000000000000000000000000000000000000000000000000000000000000000000000000000000000000000000000000000000000000000000000000000000000000000000000000000000000
310
00000000000000000000000000000000000000000000000000000000000000000000000000000000000000000000000000FFFFFFFFFFFFFFFFFFFFFFFFFFFF000000FFFF0000FF000000000000000000FFFFFFFFFFFF0000000000000000000000000000000000000000000000000000000000000000000000000000000000
310
000000000000000000000000000000000000000000000000000000000000000000000000000000000000000000000000000000000000000000000000000000000000000000000000000000000000000000000000000000000000000000000000000000000000FFFFFFFFFFFFFFFF0000FFFFFFFF000000FFFF0000FFFFFF00
310
000000000000000000FF00FF00000000000000000000000000000000000000000000000000000000000000000000000000000000000000000000000000000000000000000000000000000000000000000000000000000000000000000000000000000000000000000000000000000000000000000000000000000000000000
310
00000000000000000000000000000000000000000000000000000000000000FFFFFFFFFF0000FFFFFFFF000000FFFF0000FF0000FFFFFFFFFFFF000000FF00FF000000000000000000000000000000000000000000000000000000000000000000000000000000000000000000000000000000000000000000000000000000
310
0000000000000000000000000000000000000000000000000000000000000000000000000000000000000000000000000000000000000000000000000000000000000000000000000000000000000000000000FFFFFFFFFFFFFFFFFFFFFFFF000000FFFF0000FF0000000000000000FFFFFFFF00FF00000000000000000000
310
00000000000000000000000000000000000000000000000000000000000000000000000000000000000000000000000000000000000000000000000000000000000000000000000000000000000000000000000000000000000000000000000000000000000000000000000000000000000000000000000000000000000000
310
000000000000000000FFFFFFFFFFFFFFFFFFFFFFFF000000FFFFFFFFFF000000000000000000000000FFFF000000000000000000000000000000000000000000000000000000000000000000000000000000000000000000000000000000000000000000000000000000000000000000000000000000000000000000000000
310
00000000000000000000000000000000000000000000000000000000000000000000000000000000000000000000000000000000000000000000000000000000FFFFFFFFFFFFFFFFFFFF0000000000000000000000000000000000000000000000000000000000000000000000000000000000000000000000000000000000
310
000000000000000000000000000000000000000000000000000000000000000000000000000000000000000000000000000000000000000000000000000000000000000000000000000000000000000000000000000000000000000000000000000000000000000000000000000000000000000000000000FFFFFFFF000000
310
00000000000000000000000000000000000000000000000000000000000000000000000000000000000000000000000000000000000000000000000000000000000000000000000000000000000000000000000000000000000000000000000000000000000000000000000000000000000000000000000000000000000000
310
00000000000000000000000000000000000000000000000000000000000000000000000000000000000000000000FFFFFFFF0000000000000000000000000000000000000000000000000000000000000000000000000000000000000000000000000000000000000000000000000000000000000000000000000000000000
310
00000000000000000000000000000000000000000000000000000000000000000000000000000000000000000000000000000000000000000000000000000000000000000000000000000000000000000000000000000000000000000000000000000000000000000000000000000000000000000000000000000000000000
310
00000000000000000000000000000000000000000000000000000000000000000000000000000000000000000000000000000000000000000000000000000000000000000000000000000000000000000000000000000000000000000000000000000000000000000000000000000000000000000000000000000000000000
310
00000000000000000000000000000000000000000000000000000000000000000000000000000000000000000000000000000000000000000000000000000000000000000000000000000000000000000000000000000000000000000000000000000000000000000000000000000000000000000000000000000000000000
310
00000000000000000000000000000000000000000000000000000000000000000000000000000000000000000000000000000000000000000000000000000000000000000000000000000000000000000000000000000000000000000000000000000000000000000000000000000000000000000000000000000000000000
310
00000000000000000000000000000000000000000000000000000000000000000000000000000000000000000000000000000000000000000000000000000000000000000000000000000000000000000000000000000000000000000000000000000000000000000000000000000000000000000000000000000000000000
310
00000000000000000000000000000000000000000000000000000000000000000000000000000000000000000000000000000000000000000000000000000000000000000000000000000000000000000000000000000000000000000000000000000000000000000000000000000000000000000000000000000000000000
310
00000000000000000000000000000000000000000000000000000000000000000000000000000000000000000000000000000000000000000000000000000000000000000000000000000000000000000000000000000000000000000000000000000000000000000000000000000000000000000000000000000000000000
310
00000000000000000000000000000000000000000000000000000000000000000000000000000000000000000000000000000000000000000000000000000000000000000000000000000000000000000000000000000000000000000000000000000000000000000000000000000000000000000000000000000000000000
310
00000000000000000000000000000000000000000000000000000000000000000000000000000000000000000000000000000000000000000000000000000000000000000000000000000000000000000000000000000000000000000000000000000000000000000000000000000000000000000000000000000000000000
310
00000000000000000000000000000000000000000000000000000000000000000000000000000000000000000000000000000000000000000000000000000000000000000000000000000000000000000000000000000000000000000000000000000000000000000000000000000000000000000000000000000000000000
310
00000000000000000000000000000000000000000000000000000000000000000000000000000000000000000000000000000000000000000000000000000000000000000000000000000000000000000000000000000000000000000000000000000000000000000000000000000000000000000000000000000000000000
310
00000000000000000000000000000000000000000000000000000000000000000000000000000000000000000000000000000000000000000000000000000000000000000000000000000000000000000000000000000000000000000000000000000000000000000000000000000000000000000000000000000000000000
310
00000000000000000000000000000000000000000000000000000000000000000000000000000000000000000000000000000000000000000000000000000000000000000000000000000000000000000000000000000000000000000000000000000000000000000000000000000000000000000000000000000000000000
310
00000000000000000000000000000000000000000000000000000000000000000000000000000000000000000000000000000000000000000000000000000000000000000000000000000000000000000000000000000000000000000000000000000000000000000000000000000000000000000000000000000000000000
310
00000000000000000000000000000000000000000000000000000000000000000000000000000000000000000000000000000000000000000000000000000000000000000000000000000000000000000000000000000000000000000000000000000000000000000000000000000000000000000000000000000000000000
310
00000000000000000000000000000000000000000000000000000000000000000000000000000000000000000000000000000000000000000000000000000000000000000000000000000000000000000000000000000000000000000000000000000000000000000000000000000000000000000000000000000000000000
310
00000000000000000000000000000000000000000000000000000000000000000000000000000000000000000000000000000000000000000000000000000000000000000000000000000000000000000000000000000000000000000000000000000000000000000000000000000000000000000000000000000000000000
310
00000000000000000000000000000000000000000000000000000000000000000000000000000000000000000000000000000000000000000000000000000000000000000000000000000000000000000000000000000000000000000000000000000000000000000000000000000000000000000000000000000000000000
310
00000000000000000000000000000000000000000000000000000000000000000000000000000000000000000000000000000000000000000000000000000000000000000000000000000000000000000000000000000000000000000000000000000000000000000000000000000000000000000000000000000000000000
310
00000000000000000000000000000000000000000000000000000000000000000000000000000000000000000000000000000000000000000000000000000000000000000000000000000000000000000000000000000000000000000000000000000000000000000000000000000000000000000000000000000000000000
310
00000000000000000000000000000000000000000000000000000000000000000000000000000000000000000000000000000000000000000000000000000000000000000000000000000000000000000000000000000000000000000000000000000000000000000000000000000000000000000000000000000000000000
310
00000000000000000000000000000000000000000000000000000000000000000000000000000000000000000000000000000000000000000000000000000000000000000000000000000000000000000000000000000000000000000000000000000000000000000000000000000000000000000000000000000000000000
310
00000000000000000000000000000000000000000000000000000000000000000000000000000000000000000000000000000000000000000000000000000000000000000000000000000000000000000000000000000000000000000000000000000000000000000000000000000000000000000000000000000000000000
310
00000000000000000000000000000000000000000000000000000000000000000000000000000000000000000000000000000000000000000000000000000000000000000000000000000000000000000000000000000000000000000000000000000000000000000000000000000000000000000000000000000000000000
310
00000000000000000000000000000000000000000000000000000000000000000000000000000000000000000000000000000000000000000000000000000000000000000000000000000000000000000000000000000000000000000000000000000000000000000000000000000000000000000000000000000000000000
310
00000000000000000000000000000000000000000000000000000000000000000000000000000000000000000000000000000000000000000000000000000000000000000000000000000000000000000000000000000000000000000000000000000000000000000000000000000000000000000000000000000000000000
310
00000000000000000000000000000000000000000000000000000000000000000000000000000000000000000000000000000000000000000000000000000000000000000000000000000000000000000000000000000000000000000000000000000000000000000000000000000000000000000000000000000000000000
310
00000000000000000000000000000000000000000000000000000000000000000000000000000000000000000000000000000000000000000000000000000000000000000000000000000000000000000000000000000000000000000000000000000000000000000000000000000000000000000000000000000000000000
310
00000000000000000000000000000000000000000000000000000000000000000000000000000000000000000000000000000000000000000000000000000000000000000000000000000000000000000000000000000000000000000000000000000000000000000000000000000000000000000000000000000000000000
310
00000000000000000000000000000000000000000000000000000000000000000000000000000000000000000000000000000000000000000000000000000000000000000000000000000000000000000000000000000000000000000000000000000000000000000000000000000000000000000000000000000000000000
310
00000000000000000000000000000000000000000000000000000000000000000000000000000000000000000000000000000000000000000000000000000000000000000000000000000000000000000000000000000000000000000000000000000000000000000000000000000000000000000000000000000000000000
310
00000000000000000000000000000000000000000000000000000000000000000000000000000000000000000000000000000000000000000000000000000000000000000000000000000000000000000000000000000000000000000000000000000000000000000000000000000000000000000000000000000000000000
310
00000000000000000000000000000000000000000000000000000000000000000000000000000000000000000000000000000000000000000000000000000000000000000000000000000000000000000000000000000000000000000000000000000000000000000000000000000000000000000000000000000000000000
310
00000000000000000000000000000000000000000000000000000000000000000000000000000000000000000000000000000000000000000000000000000000000000000000000000000000000000000000000000000000000000000000000000000000000000000000000000000000000000000000000000000000000000
310
00000000000000000000000000000000000000000000000000000000000000000000000000000000000000000000000000000000000000000000000000000000000000000000000000000000000000000000000000000000000000000000000000000000000000000000000000000000000000000000000000000000000000
310
00000000000000000000000000000000000000000000000000000000000000000000000000000000000000000000000000000000000000000000000000000000000000000000000000000000000000000000000000000000000000000000000000000000000000000000000000000000000000000000000000000000000000
310
00000000000000000000000000000000000000000000000000000000000000000000000000000000000000000000000000000000000000000000000000000000000000000000000000000000000000000000000000000000000000000000000000000000000000000000000000000000000000000000000000000000000000
310
00000000000000000000000000000000000000000000000000000000000000000000000000000000000000000000000000000000000000000000000000000000000000000000000000000000000000000000000000000000000000000000000000000000000000000000000000000000000000000000000000000000000000
310
00000000000000000000000000000000000000000000000000000000000000000000000000000000000000000000000000000000000000000000000000000000000000000000000000000000000000000000000000000000000000000000000000000000000000000000000000000000000000000000000000000000000000
310
00000000000000000000000000000000000000000000000000000000000000000000000000000000000000000000000000000000000000000000000000000000000000000000000000000000000000000000000000000000000000000000000000000000000000000000000000000000000000000000000000000000000000
310
00000000000000000000000000000000000000000000000000000000000000000000000000000000000000000000000000000000000000000000000000000000000000000000000000000000000000000000000000000000000000000000000000000000000000000000000000000000000000000000000000000000000000
310
00000000000000000000000000000000000000000000000000000000000000000000000000000000000000000000000000000000000000000000000000000000000000000000000000000000000000000000000000000000000000000000000000000000000000000000000000000000000000000000000000000000000000
310
00000000000000000000000000000000000000000000000000000000000000000000000000000000000000000000000000000000000000000000000000000000000000000000000000000000000000000000000000000000000000000000000000000000000000000000000000000000000000000000000000000000000000
310
00000000000000000000000000000000000000000000000000000000000000000000000000000000000000000000000000000000000000000000000000000000000000000000000000000000000000000000000000000000000000000000000000000000000000000000000000000000000000000000000000000000000000
310
00000000000000000000000000000000000000000000000000000000000000000000000000000000000000000000000000000000000000000000000000000000000000000000000000000000000000000000000000000000000000000000000000000000000000000000000000000000000000000000000000000000000000
310
00000000000000000000000000000000000000000000000000000000000000000000000000000000000000000000000000000000000000000000000000000000000000000000000000000000000000000000000000000000000000000000000000000000000000000000000000000000000000000000000000000000000000
310
00000000000000000000000000000000000000000000000000000000000000000000000000000000000000000000000000000000000000000000000000000000000000000000000000000000000000000000000000000000000000000000000000000000000000000000000000000000000000000000000000000000000000
310
00000000000000000000000000000000000000000000000000000000000000000000000000000000000000000000000000000000000000000000000000000000000000000000000000000000000000000000000000000000000000000000000000000000000000000000000000000000000000000000000000000000000000
310
00000000000000000000000000000000000000000000000000000000000000000000000000000000000000000000000000000000000000000000000000000000000000000000000000000000000000000000000000000000000000000000000000000000000000000000000000000000000000000000000000000000000000
310
00000000000000000000000000000000000000000000000000000000000000000000000000000000000000000000000000000000000000000000000000000000000000000000000000000000000000000000000000000000000000000000000000000000000000000000000000000000000000000000000000000000000000
310
00000000000000000000000000000000000000000000000000000000000000000000000000000000000000000000000000000000000000000000000000000000000000000000000000000000000000000000000000000000000000000000000000000000000000000000000000000000000000000000000000000000000000
310
00000000000000000000000000000000000000000000000000000000000000000000000000000000000000000000000000000000000000000000000000000000000000000000000000000000000000000000000000000000000000000000000000000000000000000000000000000000000000000000000000000000000000
310
00000000000000000000000000000000000000000000000000000000000000000000000000000000000000000000000000000000000000000000000000000000000000000000000000000000000000000000000000000000000000000000000000000000000000000000000000000000000000000000000000000000000000
310
0000000000000000000000000000000000000000000000000000000000000000000000000000000000000000000000000000000000000000000000000000000000000000000000000000000000000000000000000000000000000000000000000000000000000000000000000000000000000000000000
  0
ENDSEC
  0
EOF
