  0
SECTION
  2
HEADER
  9
$ACADVER
  1
AC1018
  9
$ACADMAINTVER
 70
     0
  9
$DWGCODEPAGE
  3
ANSI_1252
  9
$LASTSAVEDBY
  1
BelottiMc
  9
$INSBASE
 10
0.0
 20
0.0
 30
0.0
  9
$EXTMIN
 10
682.8619104780879
 20
263.9606265517252
 30
0.0
  9
$EXTMAX
 10
1215.620994024668
 20
714.4425840201772
 30
0.0
  9
$LIMMIN
 10
0.0
 20
0.0
  9
$LIMMAX
 10
420.0
 20
297.0
  9
$ORTHOMODE
 70
     0
  9
$REGENMODE
 70
     1
  9
$FILLMODE
 70
     1
  9
$QTEXTMODE
 70
     0
  9
$MIRRTEXT
 70
     1
  9
$LTSCALE
 40
1.0
  9
$ATTMODE
 70
     1
  9
$TEXTSIZE
 40
2.5
  9
$TRACEWID
 40
1.0
  9
$TEXTSTYLE
  7
Standard
  9
$CLAYER
  8
0
  9
$CELTYPE
  6
ByLayer
  9
$CECOLOR
 62
   256
  9
$CELTSCALE
 40
1.0
  9
$DISPSILH
 70
     0
  9
$DIMSCALE
 40
1.0
  9
$DIMASZ
 40
2.5
  9
$DIMEXO
 40
0.625
  9
$DIMDLI
 40
3.75
  9
$DIMRND
 40
0.0
  9
$DIMDLE
 40
0.0
  9
$DIMEXE
 40
1.25
  9
$DIMTP
 40
0.0
  9
$DIMTM
 40
0.0
  9
$DIMTXT
 40
2.5
  9
$DIMCEN
 40
2.5
  9
$DIMTSZ
 40
0.0
  9
$DIMTOL
 70
     0
  9
$DIMLIM
 70
     0
  9
$DIMTIH
 70
     0
  9
$DIMTOH
 70
     0
  9
$DIMSE1
 70
     0
  9
$DIMSE2
 70
     0
  9
$DIMTAD
 70
     1
  9
$DIMZIN
 70
     8
  9
$DIMBLK
  1

  9
$DIMASO
 70
     1
  9
$DIMSHO
 70
     1
  9
$DIMPOST
  1

  9
$DIMAPOST
  1

  9
$DIMALT
 70
     0
  9
$DIMALTD
 70
     3
  9
$DIMALTF
 40
0.03937
  9
$DIMLFAC
 40
1.0
  9
$DIMTOFL
 70
     1
  9
$DIMTVP
 40
0.0
  9
$DIMTIX
 70
     0
  9
$DIMSOXD
 70
     0
  9
$DIMSAH
 70
     0
  9
$DIMBLK1
  1

  9
$DIMBLK2
  1

  9
$DIMSTYLE
  2
Standard
  9
$DIMCLRD
 70
     0
  9
$DIMCLRE
 70
     0
  9
$DIMCLRT
 70
     0
  9
$DIMTFAC
 40
1.0
  9
$DIMGAP
 40
0.625
  9
$DIMJUST
 70
     0
  9
$DIMSD1
 70
     0
  9
$DIMSD2
 70
     0
  9
$DIMTOLJ
 70
     0
  9
$DIMTZIN
 70
     8
  9
$DIMALTZ
 70
     0
  9
$DIMALTTZ
 70
     0
  9
$DIMUPT
 70
     0
  9
$DIMDEC
 70
     2
  9
$DIMTDEC
 70
     2
  9
$DIMALTU
 70
     2
  9
$DIMALTTD
 70
     3
  9
$DIMTXSTY
  7
Standard
  9
$DIMAUNIT
 70
     0
  9
$DIMADEC
 70
     0
  9
$DIMALTRND
 40
0.0
  9
$DIMAZIN
 70
     0
  9
$DIMDSEP
 70
    44
  9
$DIMATFIT
 70
     0
  9
$DIMFRAC
 70
     0
  9
$DIMLDRBLK
  1

  9
$DIMLUNIT
 70
     2
  9
$DIMLWD
 70
    -2
  9
$DIMLWE
 70
    -2
  9
$DIMTMOVE
 70
     0
  9
$LUNITS
 70
     2
  9
$LUPREC
 70
     4
  9
$SKETCHINC
 40
1.0
  9
$FILLETRAD
 40
2.5
  9
$AUNITS
 70
     0
  9
$AUPREC
 70
     0
  9
$MENU
  1
.
  9
$ELEVATION
 40
0.0
  9
$PELEVATION
 40
0.0
  9
$THICKNESS
 40
0.0
  9
$LIMCHECK
 70
     0
  9
$CHAMFERA
 40
2.5
  9
$CHAMFERB
 40
2.5
  9
$CHAMFERC
 40
0.0
  9
$CHAMFERD
 40
0.0
  9
$SKPOLY
 70
     0
  9
$TDCREATE
 40
2447893.08333331
  9
$TDUCREATE
 40
2447892.999999977
  9
$TDUPDATE
 40
2447893.083333333
  9
$TDUUPDATE
 40
2447893.0
  9
$TDINDWG
 40
0.1691781829
  9
$TDUSRTIMER
 40
0.1691550231
  9
$USRTIMER
 70
     1
  9
$ANGBASE
 50
0.0
  9
$ANGDIR
 70
     0
  9
$PDMODE
 70
     0
  9
$PDSIZE
 40
0.0
  9
$PLINEWID
 40
0.0
  9
$SPLFRAME
 70
     0
  9
$SPLINETYPE
 70
     6
  9
$SPLINESEGS
 70
     8
  9
$HANDSEED
  5
AB5
  9
$SURFTAB1
 70
     6
  9
$SURFTAB2
 70
     6
  9
$SURFTYPE
 70
     6
  9
$SURFU
 70
     6
  9
$SURFV
 70
     6
  9
$UCSBASE
  2

  9
$UCSNAME
  2

  9
$UCSORG
 10
0.0
 20
0.0
 30
0.0
  9
$UCSXDIR
 10
1.0
 20
0.0
 30
0.0
  9
$UCSYDIR
 10
0.0
 20
1.0
 30
0.0
  9
$UCSORTHOREF
  2

  9
$UCSORTHOVIEW
 70
     0
  9
$UCSORGTOP
 10
0.0
 20
0.0
 30
0.0
  9
$UCSORGBOTTOM
 10
0.0
 20
0.0
 30
0.0
  9
$UCSORGLEFT
 10
0.0
 20
0.0
 30
0.0
  9
$UCSORGRIGHT
 10
0.0
 20
0.0
 30
0.0
  9
$UCSORGFRONT
 10
0.0
 20
0.0
 30
0.0
  9
$UCSORGBACK
 10
0.0
 20
0.0
 30
0.0
  9
$PUCSBASE
  2

  9
$PUCSNAME
  2

  9
$PUCSORG
 10
0.0
 20
0.0
 30
0.0
  9
$PUCSXDIR
 10
1.0
 20
0.0
 30
0.0
  9
$PUCSYDIR
 10
0.0
 20
1.0
 30
0.0
  9
$PUCSORTHOREF
  2

  9
$PUCSORTHOVIEW
 70
     0
  9
$PUCSORGTOP
 10
0.0
 20
0.0
 30
0.0
  9
$PUCSORGBOTTOM
 10
0.0
 20
0.0
 30
0.0
  9
$PUCSORGLEFT
 10
0.0
 20
0.0
 30
0.0
  9
$PUCSORGRIGHT
 10
0.0
 20
0.0
 30
0.0
  9
$PUCSORGFRONT
 10
0.0
 20
0.0
 30
0.0
  9
$PUCSORGBACK
 10
0.0
 20
0.0
 30
0.0
  9
$USERI1
 70
     0
  9
$USERI2
 70
     0
  9
$USERI3
 70
     0
  9
$USERI4
 70
     0
  9
$USERI5
 70
     0
  9
$USERR1
 40
0.0
  9
$USERR2
 40
0.0
  9
$USERR3
 40
0.0
  9
$USERR4
 40
0.0
  9
$USERR5
 40
0.0
  9
$WORLDVIEW
 70
     1
  9
$SHADEDGE
 70
     3
  9
$SHADEDIF
 70
    70
  9
$TILEMODE
 70
     1
  9
$MAXACTVP
 70
    48
  9
$PINSBASE
 10
0.0
 20
0.0
 30
0.0
  9
$PLIMCHECK
 70
     0
  9
$PEXTMIN
 10
0.0
 20
0.0
 30
0.0
  9
$PEXTMAX
 10
361.953827
 20
137.496246
 30
2.0
  9
$PLIMMIN
 10
0.0
 20
0.0
  9
$PLIMMAX
 10
420.0
 20
297.0
  9
$UNITMODE
 70
     0
  9
$VISRETAIN
 70
     0
  9
$PLINEGEN
 70
     0
  9
$PSLTSCALE
 70
     1
  9
$TREEDEPTH
 70
  3020
  9
$CMLSTYLE
  2
Standard
  9
$CMLJUST
 70
     0
  9
$CMLSCALE
 40
20.0
  9
$PROXYGRAPHICS
 70
     1
  9
$MEASUREMENT
 70
     1
  9
$CELWEIGHT
370
    -1
  9
$ENDCAPS
280
     0
  9
$JOINSTYLE
280
     0
  9
$LWDISPLAY
290
     0
  9
$INSUNITS
 70
     0
  9
$HYPERLINKBASE
  1

  9
$STYLESHEET
  1

  9
$XEDIT
290
     1
  9
$CEPSNTYPE
380
     0
  9
$PSTYLEMODE
290
     0
  9
$FINGERPRINTGUID
  2

  9
$VERSIONGUID
  2

  9
$EXTNAMES
290
     0
  9
$PSVPSCALE
 40
0.0
  9
$OLESTARTUP
290
     0
  9
$SORTENTS
280
   127
  9
$INDEXCTL
280
     0
  9
$HIDETEXT
280
     1
  9
$XCLIPFRAME
290
     0
  9
$HALOGAP
280
     0
  9
$OBSCOLOR
 70
   257
  9
$OBSLTYPE
280
     0
  9
$INTERSECTIONDISPLAY
280
     0
  9
$INTERSECTIONCOLOR
 70
   257
  9
$DIMASSOC
280
     2
  9
$PROJECTNAME
  1

  0
ENDSEC
  0
SECTION
  2
CLASSES
  0
CLASS
  1
ACDBDICTIONARYWDFLT
  2
AcDbDictionaryWithDefault
  3
ObjectDBX Classes
 90
        0
 91
        4
280
     0
281
     0
  0
CLASS
  1
ACDBPLACEHOLDER
  2
AcDbPlaceHolder
  3
ObjectDBX Classes
 90
        0
 91
        1
280
     0
281
     0
  0
CLASS
  1
LAYOUT
  2
AcDbLayout
  3
ObjectDBX Classes
 90
        0
 91
        1
280
     0
281
     0
  0
CLASS
  1
DICTIONARYVAR
  2
AcDbDictionaryVar
  3
ObjectDBX Classes
 90
        0
 91
        4
280
     0
281
     0
  0
CLASS
  1
TABLESTYLE
  2
AcDbTableStyle
  3
ObjectDBX Classes
 90
     4095
 91
        6
280
     0
281
     0
  0
CLASS
  1
SCALE
  2
AcDbScale
  3
ObjectDBX Classes
 90
     1153
 91
       70
280
     0
281
     0
  0
CLASS
  1
WIPEOUTVARIABLES
  2
AcDbWipeoutVariables
  3
WipeOut|AutoCAD Express Tool|expresstools@autodesk.com
 90
        0
 91
        4
280
     0
281
     0
  0
ENDSEC
  0
SECTION
  2
TABLES
  0
TABLE
  2
VPORT
  5
8
330
0
100
AcDbSymbolTable
 70
     2
  0
VPORT
  5
97
330
8
100
AcDbSymbolTableRecord
100
AcDbViewportTableRecord
  2
*ACTIVE
 70
     0
 10
0.0
 20
0.0
 11
1.0
 21
1.0
 12
907.7138502543496
 22
573.5126026888207
 13
0.0
 23
0.0
 14
1.0
 24
1.0
 15
0.5
 25
0.5
 16
0.0
 26
0.0
 36
1.0
 17
0.0
 27
0.0
 37
0.0
 40
797.4031361195272
 41
0.688564
 42
50.0
 43
0.0
 44
0.0
 50
0.0
 51
0.0
 71
     0
 72
   100
 73
     1
 74
     1
 75
     0
 76
     0
 77
     0
 78
     0
281
     0
 65
     1
110
0.0
120
0.0
130
0.0
111
1.0
121
0.0
131
0.0
112
0.0
122
1.0
132
0.0
 79
     0
146
0.0
  0
ENDTAB
  0
TABLE
  2
LTYPE
  5
5
330
0
100
AcDbSymbolTable
 70
     2
  0
LTYPE
  5
14
330
5
100
AcDbSymbolTableRecord
100
AcDbLinetypeTableRecord
  2
ByBlock
 70
     0
  3

 72
    65
 73
     0
 40
0.0
  0
LTYPE
  5
15
330
5
100
AcDbSymbolTableRecord
100
AcDbLinetypeTableRecord
  2
ByLayer
 70
     0
  3

 72
    65
 73
     0
 40
0.0
  0
LTYPE
  5
16
330
5
100
AcDbSymbolTableRecord
100
AcDbLinetypeTableRecord
  2
Continuous
 70
     0
  3
Solid line
 72
    65
 73
     0
 40
0.0
  0
LTYPE
  5
A4F
330
5
100
AcDbSymbolTableRecord
100
AcDbLinetypeTableRecord
  2
DASHDOT
 70
     0
  3
 __ . __ . __ . __ . __ . __ . __ . 
 72
    65
 73
     4
 40
18.5
 49
12.0
 74
     0
 49
-3.0
 74
     0
 49
0.5
 74
     0
 49
-3.0
 74
     0
  0
ENDTAB
  0
TABLE
  2
LAYER
  5
2
330
0
100
AcDbSymbolTable
 70
     2
  0
LAYER
  5
10
330
2
100
AcDbSymbolTableRecord
100
AcDbLayerTableRecord
  2
0
 70
     0
 62
     7
  6
Continuous
370
    13
390
F
  0
LAYER
  5
7F2
330
2
100
AcDbSymbolTableRecord
100
AcDbLayerTableRecord
  2
DEFPOINTS
 70
     0
 62
     7
  6
Continuous
290
     0
370
    -3
390
F
  0
ENDTAB
  0
TABLE
  2
STYLE
  5
3
330
0
100
AcDbSymbolTable
 70
     2
  0
STYLE
  5
11
330
3
100
AcDbSymbolTableRecord
100
AcDbTextStyleTableRecord
  2
Standard
 70
     0
 40
0.0
 41
1.0
 50
0.0
 71
     0
 42
0.2
  3
isocp.shx
  4

  0
STYLE
  5
25
330
3
100
AcDbSymbolTableRecord
100
AcDbTextStyleTableRecord
  2
GDT
 70
     0
 40
0.0
 41
1.0
 50
0.0
 71
     0
 42
0.2
  3
gdt.shx
  4

  0
ENDTAB
  0
TABLE
  2
VIEW
  5
6
330
0
100
AcDbSymbolTable
 70
     0
  0
ENDTAB
  0
TABLE
  2
UCS
  5
7
330
0
100
AcDbSymbolTable
 70
     0
  0
ENDTAB
  0
TABLE
  2
APPID
  5
9
330
0
100
AcDbSymbolTable
 70
     2
  0
APPID
  5
12
330
9
100
AcDbSymbolTableRecord
100
AcDbRegAppTableRecord
  2
ACAD
 70
     0
  0
APPID
  5
A4E
330
9
100
AcDbSymbolTableRecord
100
AcDbRegAppTableRecord
  2
Conv5506CA
 70
     0
  0
ENDTAB
  0
TABLE
  2
DIMSTYLE
  5
A
330
0
100
AcDbSymbolTable
 70
     1
100
AcDbDimStyleTable
  0
DIMSTYLE
105
27
102
{ACAD_REACTORS
330
7F3
330
862
330
8A5
102
}
330
A
100
AcDbSymbolTableRecord
100
AcDbDimStyleTableRecord
  2
Standard
 70
     0
 41
2.5
 42
0.625
 43
3.75
 44
1.25
 73
     0
 74
     0
 77
     1
 78
     8
140
2.5
141
2.5
143
0.03937
147
0.625
171
     3
172
     1
271
     2
272
     2
274
     3
278
    44
283
     0
284
     8
289
     0
340
11
  0
ENDTAB
  0
TABLE
  2
BLOCK_RECORD
  5
1
330
0
100
AcDbSymbolTable
 70
    48
  0
BLOCK_RECORD
  5
1F
330
1
100
AcDbSymbolTableRecord
100
AcDbBlockTableRecord
  2
*Model_Space
340
22
  0
BLOCK_RECORD
  5
73
330
1
100
AcDbSymbolTableRecord
100
AcDbBlockTableRecord
  2
*Paper_Space
340
74
  0
BLOCK_RECORD
  5
5E3
330
1
100
AcDbSymbolTableRecord
100
AcDbBlockTableRecord
  2
BLOCK1
340
0
  0
BLOCK_RECORD
  5
5E4
330
1
100
AcDbSymbolTableRecord
100
AcDbBlockTableRecord
  2
BLOCK2
340
0
  0
BLOCK_RECORD
  5
5E5
330
1
100
AcDbSymbolTableRecord
100
AcDbBlockTableRecord
  2
BLOCK3
340
0
  0
BLOCK_RECORD
  5
5E6
330
1
100
AcDbSymbolTableRecord
100
AcDbBlockTableRecord
  2
BLOCK4
340
0
  0
BLOCK_RECORD
  5
5E7
330
1
100
AcDbSymbolTableRecord
100
AcDbBlockTableRecord
  2
BLOCK5
340
0
  0
BLOCK_RECORD
  5
5E8
330
1
100
AcDbSymbolTableRecord
100
AcDbBlockTableRecord
  2
BLOCK6
340
0
  0
BLOCK_RECORD
  5
5E9
330
1
100
AcDbSymbolTableRecord
100
AcDbBlockTableRecord
  2
BLOCK7
340
0
  0
BLOCK_RECORD
  5
5EA
330
1
100
AcDbSymbolTableRecord
100
AcDbBlockTableRecord
  2
BLOCK8
340
0
  0
BLOCK_RECORD
  5
5EB
330
1
100
AcDbSymbolTableRecord
100
AcDbBlockTableRecord
  2
BLOCK9
340
0
  0
BLOCK_RECORD
  5
5EC
330
1
100
AcDbSymbolTableRecord
100
AcDbBlockTableRecord
  2
BLOCK10
340
0
  0
BLOCK_RECORD
  5
5ED
330
1
100
AcDbSymbolTableRecord
100
AcDbBlockTableRecord
  2
BLOCK11
340
0
  0
BLOCK_RECORD
  5
5EE
330
1
100
AcDbSymbolTableRecord
100
AcDbBlockTableRecord
  2
BLOCK12
340
0
  0
BLOCK_RECORD
  5
5EF
330
1
100
AcDbSymbolTableRecord
100
AcDbBlockTableRecord
  2
BLOCK13
340
0
  0
BLOCK_RECORD
  5
5F0
330
1
100
AcDbSymbolTableRecord
100
AcDbBlockTableRecord
  2
BLOCK14
340
0
  0
BLOCK_RECORD
  5
7FE
330
1
100
AcDbSymbolTableRecord
100
AcDbBlockTableRecord
  2
*D14
340
0
  0
BLOCK_RECORD
  5
809
330
1
100
AcDbSymbolTableRecord
100
AcDbBlockTableRecord
  2
*D15
340
0
  0
BLOCK_RECORD
  5
814
330
1
100
AcDbSymbolTableRecord
100
AcDbBlockTableRecord
  2
*D16
340
0
  0
BLOCK_RECORD
  5
81F
330
1
100
AcDbSymbolTableRecord
100
AcDbBlockTableRecord
  2
*D17
340
0
  0
BLOCK_RECORD
  5
82A
330
1
100
AcDbSymbolTableRecord
100
AcDbBlockTableRecord
  2
*D18
340
0
  0
BLOCK_RECORD
  5
835
330
1
100
AcDbSymbolTableRecord
100
AcDbBlockTableRecord
  2
*D19
340
0
  0
BLOCK_RECORD
  5
840
330
1
100
AcDbSymbolTableRecord
100
AcDbBlockTableRecord
  2
*D20
340
0
  0
BLOCK_RECORD
  5
84B
330
1
100
AcDbSymbolTableRecord
100
AcDbBlockTableRecord
  2
*D21
340
0
  0
BLOCK_RECORD
  5
856
330
1
100
AcDbSymbolTableRecord
100
AcDbBlockTableRecord
  2
*D22
340
0
  0
BLOCK_RECORD
  5
861
330
1
100
AcDbSymbolTableRecord
100
AcDbBlockTableRecord
  2
*D23
340
0
  0
BLOCK_RECORD
  5
86D
330
1
100
AcDbSymbolTableRecord
100
AcDbBlockTableRecord
  2
*D24
340
0
  0
BLOCK_RECORD
  5
878
330
1
100
AcDbSymbolTableRecord
100
AcDbBlockTableRecord
  2
*D25
340
0
  0
BLOCK_RECORD
  5
883
330
1
100
AcDbSymbolTableRecord
100
AcDbBlockTableRecord
  2
*D26
340
0
  0
BLOCK_RECORD
  5
88E
330
1
100
AcDbSymbolTableRecord
100
AcDbBlockTableRecord
  2
*D27
340
0
  0
BLOCK_RECORD
  5
899
330
1
100
AcDbSymbolTableRecord
100
AcDbBlockTableRecord
  2
*D28
340
0
  0
BLOCK_RECORD
  5
8A4
330
1
100
AcDbSymbolTableRecord
100
AcDbBlockTableRecord
  2
*D29
340
0
  0
BLOCK_RECORD
  5
8B0
330
1
100
AcDbSymbolTableRecord
100
AcDbBlockTableRecord
  2
*D30
340
0
  0
BLOCK_RECORD
  5
8BC
330
1
100
AcDbSymbolTableRecord
100
AcDbBlockTableRecord
  2
*D31
340
0
  0
BLOCK_RECORD
  5
8C7
330
1
100
AcDbSymbolTableRecord
100
AcDbBlockTableRecord
  2
*D32
340
0
  0
BLOCK_RECORD
  5
8D2
330
1
100
AcDbSymbolTableRecord
100
AcDbBlockTableRecord
  2
*D33
340
0
  0
BLOCK_RECORD
  5
8DD
330
1
100
AcDbSymbolTableRecord
100
AcDbBlockTableRecord
  2
*D34
340
0
  0
BLOCK_RECORD
  5
986
330
1
100
AcDbSymbolTableRecord
100
AcDbBlockTableRecord
  2
*D35
340
0
  0
BLOCK_RECORD
  5
991
330
1
100
AcDbSymbolTableRecord
100
AcDbBlockTableRecord
  2
*D36
340
0
  0
BLOCK_RECORD
  5
99C
330
1
100
AcDbSymbolTableRecord
100
AcDbBlockTableRecord
  2
*D37
340
0
  0
BLOCK_RECORD
  5
9A7
330
1
100
AcDbSymbolTableRecord
100
AcDbBlockTableRecord
  2
*D38
340
0
  0
BLOCK_RECORD
  5
9B2
330
1
100
AcDbSymbolTableRecord
100
AcDbBlockTableRecord
  2
*D39
340
0
  0
BLOCK_RECORD
  5
9BD
330
1
100
AcDbSymbolTableRecord
100
AcDbBlockTableRecord
  2
*D40
340
0
  0
BLOCK_RECORD
  5
9C8
330
1
100
AcDbSymbolTableRecord
100
AcDbBlockTableRecord
  2
*D41
340
0
  0
BLOCK_RECORD
  5
9D3
330
1
100
AcDbSymbolTableRecord
100
AcDbBlockTableRecord
  2
*D42
340
0
  0
BLOCK_RECORD
  5
9DE
330
1
100
AcDbSymbolTableRecord
100
AcDbBlockTableRecord
  2
*D43
340
0
  0
BLOCK_RECORD
  5
A2B
330
1
100
AcDbSymbolTableRecord
100
AcDbBlockTableRecord
  2
*D44
340
0
  0
BLOCK_RECORD
  5
A36
330
1
100
AcDbSymbolTableRecord
100
AcDbBlockTableRecord
  2
*D45
340
0
  0
BLOCK_RECORD
  5
A41
330
1
100
AcDbSymbolTableRecord
100
AcDbBlockTableRecord
  2
*D46
340
0
  0
BLOCK_RECORD
  5
A4C
330
1
100
AcDbSymbolTableRecord
100
AcDbBlockTableRecord
  2
*D47
340
0
  0
ENDTAB
  0
ENDSEC
  0
SECTION
  2
BLOCKS
  0
BLOCK
  5
20
330
1F
100
AcDbEntity
  8
0
100
AcDbBlockBegin
  2
*Model_Space
 70
     0
 10
0.0
 20
0.0
 30
0.0
  3
*Model_Space
  1

  0
ENDBLK
  5
21
330
1F
100
AcDbEntity
  8
0
100
AcDbBlockEnd
  0
BLOCK
  5
75
330
73
100
AcDbEntity
 67
     1
  8
0
100
AcDbBlockBegin
  2
*Paper_Space
 70
     0
 10
0.0
 20
0.0
 30
0.0
  3
*Paper_Space
  1

  0
ENDBLK
  5
76
330
73
100
AcDbEntity
 67
     1
  8
0
100
AcDbBlockEnd
  0
BLOCK
  5
A53
102
{ACAD_REACTORS
330
7F3
330
862
330
8A5
102
}
330
5E3
100
AcDbEntity
  8
0
100
AcDbBlockBegin
  2
BLOCK1
 70
     0
 10
0.0
 20
0.0
 30
0.0
  3
BLOCK1
  1

  0
TEXT
  5
5F2
330
5E3
100
AcDbEntity
  8
0
 62
     7
370
    13
390
F
100
AcDbText
 10
241.982544
 20
-165.602615
 30
0.0
 40
3.5
  1
223
 41
1.539642051282053
 72
     5
 11
252.490601
 21
-165.602615
 31
0.0
100
AcDbText
  0
LINE
  5
5F3
330
5E3
100
AcDbEntity
  8
0
 62
     7
370
    13
390
F
100
AcDbLine
 10
135.651001
 20
-35.99913
 30
0.0
 11
135.651001
 21
-169.602615
 31
0.0
  0
LINE
  5
5F4
330
5E3
100
AcDbEntity
  8
0
 62
     7
370
    13
390
F
100
AcDbLine
 10
358.822144
 20
-36.291203
 30
0.0
 11
358.822144
 21
-169.602615
 31
0.0
  0
LWPOLYLINE
  5
5F5
330
5E3
100
AcDbEntity
  8
0
 62
     7
370
    13
390
F
100
AcDbPolyline
 90
        3
 70
     0
 43
0.0
 10
356.890289
 20
-168.120255
 10
358.822144
 20
-167.602615
 10
356.890289
 20
-167.084976
  0
LWPOLYLINE
  5
5FA
330
5E3
100
AcDbEntity
  8
0
 62
     7
370
    13
390
F
100
AcDbPolyline
 90
        3
 70
     0
 43
0.0
 10
137.582855
 20
-167.084976
 10
135.651001
 20
-167.602615
 10
137.582855
 20
-168.120255
  0
LINE
  5
5FF
330
5E3
100
AcDbEntity
  8
0
 62
     7
370
    13
390
F
100
AcDbLine
 10
135.651001
 20
-167.602615
 30
0.0
 11
358.822144
 21
-167.602615
 31
0.0
  0
ENDBLK
  5
A54
330
5E3
100
AcDbEntity
  8
0
100
AcDbBlockEnd
  0
BLOCK
  5
A55
330
5E4
100
AcDbEntity
  8
0
100
AcDbBlockBegin
  2
BLOCK2
 70
     0
 10
0.0
 20
0.0
 30
0.0
  3
BLOCK2
  1

  0
TEXT
  5
602
330
5E4
100
AcDbEntity
  8
0
 62
     7
370
    13
390
F
100
AcDbText
 10
114.161079
 20
-9.939941
 30
0.0
 40
3.5
  1
281
 50
90.0
 41
1.715848223215561
 72
     5
 11
114.161079
 21
0.568128
 31
0.0
100
AcDbText
  0
LINE
  5
603
330
5E4
100
AcDbEntity
  8
0
 62
     7
370
    13
390
F
100
AcDbLine
 10
202.815979
 20
-144.936203
 30
0.0
 11
114.161079
 21
-144.936203
 31
0.0
  0
LINE
  5
604
330
5E4
100
AcDbEntity
  8
0
 62
     7
370
    13
390
F
100
AcDbLine
 10
197.747025
 20
135.564392
 30
0.0
 11
114.161079
 21
135.564392
 31
0.0
  0
LWPOLYLINE
  5
605
330
5E4
100
AcDbEntity
  8
0
 62
     7
370
    13
390
F
100
AcDbPolyline
 90
        3
 70
     0
 43
0.0
 10
115.64344
 20
-143.004349
 10
116.161079
 20
-144.936203
 10
116.678719
 20
-143.004349
  0
LWPOLYLINE
  5
60A
330
5E4
100
AcDbEntity
  8
0
 62
     7
370
    13
390
F
100
AcDbPolyline
 90
        3
 70
     0
 43
0.0
 10
116.678719
 20
133.632538
 10
116.161079
 20
135.564392
 10
115.64344
 20
133.632538
  0
LINE
  5
60F
330
5E4
100
AcDbEntity
  8
0
 62
     7
370
    13
390
F
100
AcDbLine
 10
116.161079
 20
-144.936203
 30
0.0
 11
116.161079
 21
135.564392
 31
0.0
  0
ENDBLK
  5
A56
330
5E4
100
AcDbEntity
  8
0
100
AcDbBlockEnd
  0
BLOCK
  5
A57
330
5E5
100
AcDbEntity
  8
0
100
AcDbBlockBegin
  2
BLOCK3
 70
     0
 10
0.0
 20
0.0
 30
0.0
  3
BLOCK3
  1

  0
LINE
  5
612
330
5E5
100
AcDbEntity
  8
0
  6
DASHDOT
 62
     7
 48
0.14625
370
    13
390
F
100
AcDbLine
 10
270.023804
 20
-23.844238
 30
0.0
 11
264.173798
 21
-23.844238
 31
0.0
  0
LINE
  5
613
330
5E5
100
AcDbEntity
  8
0
  6
DASHDOT
 62
     7
 48
0.14625
370
    13
390
F
100
AcDbLine
 10
267.098785
 20
-20.919239
 30
0.0
 11
267.098785
 21
-26.769238
 31
0.0
  0
ENDBLK
  5
A58
330
5E5
100
AcDbEntity
  8
0
100
AcDbBlockEnd
  0
BLOCK
  5
A59
330
5E6
100
AcDbEntity
  8
0
100
AcDbBlockBegin
  2
BLOCK4
 70
     0
 10
0.0
 20
0.0
 30
0.0
  3
BLOCK4
  1

  0
LINE
  5
616
330
5E6
100
AcDbEntity
  8
0
  6
DASHDOT
 62
     7
 48
0.14625
370
    13
390
F
100
AcDbLine
 10
266.523804
 20
-23.844238
 30
0.0
 11
260.673798
 21
-23.844238
 31
0.0
  0
LINE
  5
617
330
5E6
100
AcDbEntity
  8
0
  6
DASHDOT
 62
     7
 48
0.14625
370
    13
390
F
100
AcDbLine
 10
263.598785
 20
-20.919239
 30
0.0
 11
263.598785
 21
-26.769238
 31
0.0
  0
ENDBLK
  5
A5A
330
5E6
100
AcDbEntity
  8
0
100
AcDbBlockEnd
  0
BLOCK
  5
A5B
330
5E7
100
AcDbEntity
  8
0
100
AcDbBlockBegin
  2
BLOCK5
 70
     0
 10
0.0
 20
0.0
 30
0.0
  3
BLOCK5
  1

  0
LINE
  5
61A
330
5E7
100
AcDbEntity
  8
0
  6
DASHDOT
 62
     7
 48
0.14625
370
    13
390
F
100
AcDbLine
 10
266.523804
 20
23.844238
 30
0.0
 11
260.673798
 21
23.844238
 31
0.0
  0
LINE
  5
61B
330
5E7
100
AcDbEntity
  8
0
  6
DASHDOT
 62
     7
 48
0.14625
370
    13
390
F
100
AcDbLine
 10
263.598785
 20
26.769238
 30
0.0
 11
263.598785
 21
20.919239
 31
0.0
  0
ENDBLK
  5
A5C
330
5E7
100
AcDbEntity
  8
0
100
AcDbBlockEnd
  0
BLOCK
  5
A5D
330
5E8
100
AcDbEntity
  8
0
100
AcDbBlockBegin
  2
BLOCK6
 70
     0
 10
0.0
 20
0.0
 30
0.0
  3
BLOCK6
  1

  0
LINE
  5
61E
330
5E8
100
AcDbEntity
  8
0
  6
DASHDOT
 62
     7
 48
0.14625
370
    13
390
F
100
AcDbLine
 10
270.023804
 20
23.844238
 30
0.0
 11
264.173798
 21
23.844238
 31
0.0
  0
LINE
  5
61F
330
5E8
100
AcDbEntity
  8
0
  6
DASHDOT
 62
     7
 48
0.14625
370
    13
390
F
100
AcDbLine
 10
267.098785
 20
26.769238
 30
0.0
 11
267.098785
 21
20.919239
 31
0.0
  0
ENDBLK
  5
A5E
330
5E8
100
AcDbEntity
  8
0
100
AcDbBlockEnd
  0
BLOCK
  5
A5F
330
5E9
100
AcDbEntity
  8
0
100
AcDbBlockBegin
  2
BLOCK7
 70
     0
 10
0.0
 20
0.0
 30
0.0
  3
BLOCK7
  1

  0
LINE
  5
622
330
5E9
100
AcDbEntity
  8
0
  6
DASHDOT
 62
     7
 48
0.1365
370
    13
390
F
100
AcDbLine
 10
251.126999
 20
-22.5
 30
0.0
 11
245.667007
 21
-22.5
 31
0.0
  0
LINE
  5
623
330
5E9
100
AcDbEntity
  8
0
  6
DASHDOT
 62
     7
 48
0.1365
370
    13
390
F
100
AcDbLine
 10
248.397003
 20
-19.77
 30
0.0
 11
248.397003
 21
-25.23
 31
0.0
  0
ENDBLK
  5
A60
330
5E9
100
AcDbEntity
  8
0
100
AcDbBlockEnd
  0
BLOCK
  5
A61
330
5EA
100
AcDbEntity
  8
0
100
AcDbBlockBegin
  2
BLOCK8
 70
     0
 10
0.0
 20
0.0
 30
0.0
  3
BLOCK8
  1

  0
LINE
  5
626
330
5EA
100
AcDbEntity
  8
0
  6
DASHDOT
 62
     7
 48
0.1365
370
    13
390
F
100
AcDbLine
 10
251.126999
 20
22.5
 30
0.0
 11
245.667007
 21
22.5
 31
0.0
  0
LINE
  5
627
330
5EA
100
AcDbEntity
  8
0
  6
DASHDOT
 62
     7
 48
0.1365
370
    13
390
F
100
AcDbLine
 10
248.397003
 20
25.23
 30
0.0
 11
248.397003
 21
19.77
 31
0.0
  0
ENDBLK
  5
A62
330
5EA
100
AcDbEntity
  8
0
100
AcDbBlockEnd
  0
BLOCK
  5
A63
330
5EB
100
AcDbEntity
  8
0
100
AcDbBlockBegin
  2
BLOCK9
 70
     0
 10
0.0
 20
0.0
 30
0.0
  3
BLOCK9
  1

  0
LINE
  5
62A
330
5EB
100
AcDbEntity
  8
0
  6
DASHDOT
 62
     7
 48
0.146249
370
    13
390
F
100
AcDbLine
 10
294.328796
 20
-27.677582
 30
0.0
 11
288.478821
 21
-27.677582
 31
0.0
  0
LINE
  5
62B
330
5EB
100
AcDbEntity
  8
0
  6
DASHDOT
 62
     7
 48
0.14625
370
    13
390
F
100
AcDbLine
 10
291.403809
 20
-24.752581
 30
0.0
 11
291.403809
 21
-30.602581
 31
0.0
  0
ENDBLK
  5
A64
330
5EB
100
AcDbEntity
  8
0
100
AcDbBlockEnd
  0
BLOCK
  5
A65
330
5EC
100
AcDbEntity
  8
0
100
AcDbBlockBegin
  2
BLOCK10
 70
     0
 10
0.0
 20
0.0
 30
0.0
  3
BLOCK10
  1

  0
LINE
  5
62E
330
5EC
100
AcDbEntity
  8
0
  6
DASHDOT
 62
     7
 48
0.146249
370
    13
390
F
100
AcDbLine
 10
294.328796
 20
27.677582
 30
0.0
 11
288.478821
 21
27.677582
 31
0.0
  0
LINE
  5
62F
330
5EC
100
AcDbEntity
  8
0
  6
DASHDOT
 62
     7
 48
0.14625
370
    13
390
F
100
AcDbLine
 10
291.403809
 20
30.602581
 30
0.0
 11
291.403809
 21
24.752581
 31
0.0
  0
ENDBLK
  5
A66
330
5EC
100
AcDbEntity
  8
0
100
AcDbBlockEnd
  0
BLOCK
  5
A67
330
5ED
100
AcDbEntity
  8
0
100
AcDbBlockBegin
  2
BLOCK11
 70
     0
 10
0.0
 20
0.0
 30
0.0
  3
BLOCK11
  1

  0
LINE
  5
632
330
5ED
100
AcDbEntity
  8
0
  6
DASHDOT
 62
     7
 48
0.1625
370
    13
390
F
100
AcDbLine
 10
239.401001
 20
0.0
 30
0.0
 11
232.901001
 21
0.0
 31
0.0
  0
LINE
  5
633
330
5ED
100
AcDbEntity
  8
0
  6
DASHDOT
 62
     7
 48
0.1625
370
    13
390
F
100
AcDbLine
 10
236.151001
 20
3.25
 30
0.0
 11
236.151001
 21
-3.25
 31
0.0
  0
ENDBLK
  5
A68
330
5ED
100
AcDbEntity
  8
0
100
AcDbBlockEnd
  0
BLOCK
  5
A69
330
5EE
100
AcDbEntity
  8
0
100
AcDbBlockBegin
  2
BLOCK12
 70
     0
 10
0.0
 20
0.0
 30
0.0
  3
BLOCK12
  1

  0
LINE
  5
636
330
5EE
100
AcDbEntity
  8
0
  6
DASHDOT
 62
     7
 48
0.13
370
    13
390
F
100
AcDbLine
 10
338.013
 20
51.029343
 30
0.0
 11
332.812988
 21
51.029343
 31
0.0
  0
LINE
  5
637
330
5EE
100
AcDbEntity
  8
0
  6
DASHDOT
 62
     7
 48
0.13
370
    13
390
F
100
AcDbLine
 10
335.412994
 20
53.629345
 30
0.0
 11
335.412994
 21
48.429344
 31
0.0
  0
ENDBLK
  5
A6A
330
5EE
100
AcDbEntity
  8
0
100
AcDbBlockEnd
  0
BLOCK
  5
A6B
330
5EF
100
AcDbEntity
  8
0
100
AcDbBlockBegin
  2
BLOCK13
 70
     0
 10
0.0
 20
0.0
 30
0.0
  3
BLOCK13
  1

  0
TEXT
  5
63A
330
5EF
100
AcDbEntity
  8
0
 62
     7
370
    13
390
F
100
AcDbText
 10
111.904762
 20
42.119831
 30
0.0
 40
3.5
  1
138
 50
90.0
 41
1.715848713081461
 72
     5
 11
111.904762
 21
52.627903
 31
0.0
100
AcDbText
  0
LINE
  5
63B
330
5EF
100
AcDbEntity
  8
0
 62
     7
370
    13
390
F
100
AcDbLine
 10
278.650726
 20
-21.408373
 30
0.0
 11
111.904762
 21
-21.408373
 31
0.0
  0
LINE
  5
63C
330
5EF
100
AcDbEntity
  8
0
 62
     7
370
    13
390
F
100
AcDbLine
 10
212.735992
 20
116.156105
 30
0.0
 11
111.904762
 21
116.156105
 31
0.0
  0
LWPOLYLINE
  5
63D
330
5EF
100
AcDbEntity
  8
0
 62
     7
370
    13
390
F
100
AcDbPolyline
 90
        3
 70
     0
 43
0.0
 10
113.387123
 20
-19.476521
 10
113.904762
 20
-21.408373
 10
114.422401
 20
-19.476521
  0
LWPOLYLINE
  5
642
330
5EF
100
AcDbEntity
  8
0
 62
     7
370
    13
390
F
100
AcDbPolyline
 90
        3
 70
     0
 43
0.0
 10
114.422401
 20
114.224251
 10
113.904762
 20
116.156105
 10
113.387123
 20
114.224251
  0
LINE
  5
647
330
5EF
100
AcDbEntity
  8
0
 62
     7
370
    13
390
F
100
AcDbLine
 10
113.904762
 20
-21.408373
 30
0.0
 11
113.904762
 21
116.156105
 31
0.0
  0
ENDBLK
  5
A6C
330
5EF
100
AcDbEntity
  8
0
100
AcDbBlockEnd
  0
BLOCK
  5
A6D
330
5F0
100
AcDbEntity
  8
0
100
AcDbBlockBegin
  2
BLOCK14
 70
     0
 10
0.0
 20
0.0
 30
0.0
  3
BLOCK14
  1

  0
LINE
  5
64A
330
5F0
100
AcDbEntity
  8
0
  6
DASHDOT
 62
     7
 48
0.325
370
    13
390
F
100
AcDbLine
 10
361.953827
 20
79.124229
 30
0.0
 11
348.953827
 21
79.124229
 31
0.0
  0
LINE
  5
64B
330
5F0
100
AcDbEntity
  8
0
  6
DASHDOT
 62
     7
 48
0.325
370
    13
390
F
100
AcDbLine
 10
355.453827
 20
85.624229
 30
0.0
 11
355.453827
 21
72.624229
 31
0.0
  0
ENDBLK
  5
A6E
330
5F0
100
AcDbEntity
  8
0
100
AcDbBlockEnd
  0
BLOCK
  5
A6F
330
7FE
100
AcDbEntity
  8
0
100
AcDbBlockBegin
  2
*D14
 70
     1
 10
0.0
 20
0.0
 30
0.0
  3
*D14
  1

  0
POINT
  5
7F5
330
7FE
100
AcDbEntity
  8
DEFPOINTS
  6
ByBlock
 62
     0
380
     1
100
AcDbPoint
 10
682.8619166450172
 20
485.8846474857474
 30
0.0
  0
POINT
  5
7F6
330
7FE
100
AcDbEntity
  8
DEFPOINTS
  6
ByBlock
 62
     0
380
     1
100
AcDbPoint
 10
962.8561124780879
 20
487.5708222547342
 30
0.0
  0
LINE
  5
7F7
330
7FE
100
AcDbEntity
  8
0
  6
ByBlock
 62
     0
370
    -2
380
     1
100
AcDbLine
 10
682.8619166450172
 20
486.5096474857474
 30
0.0
 11
682.8619166450172
 21
678.6026979439591
 31
0.0
  0
LINE
  5
7F8
330
7FE
100
AcDbEntity
  8
0
  6
ByBlock
 62
     0
370
    -2
380
     1
100
AcDbLine
 10
962.8561124780879
 20
488.1958222547342
 30
0.0
 11
962.8561124780879
 21
678.6026979439591
 31
0.0
  0
LINE
  5
7F9
330
7FE
100
AcDbEntity
  8
0
  6
ByBlock
 62
     0
370
    -2
380
     1
100
AcDbLine
 10
685.3619166450172
 20
677.3526979439591
 30
0.0
 11
960.3561124780879
 21
677.3526979439591
 31
0.0
  0
SOLID
  5
7FA
330
7FE
100
AcDbEntity
  8
0
  6
ByBlock
 62
     0
380
     1
100
AcDbTrace
 10
682.8619166450172
 20
677.3526979439591
 30
0.0
 11
685.3619166450172
 21
676.9360312772925
 31
0.0
 12
685.3619166450172
 22
677.7693646106258
 32
0.0
 13
685.3619166450172
 23
677.7693646106258
 33
0.0
  0
SOLID
  5
7FB
330
7FE
100
AcDbEntity
  8
0
  6
ByBlock
 62
     0
380
     1
100
AcDbTrace
 10
962.8561124780879
 20
677.3526979439591
 30
0.0
 11
960.3561124780879
 21
676.9360312772925
 31
0.0
 12
960.3561124780879
 22
677.7693646106258
 32
0.0
 13
960.3561124780879
 23
677.7693646106258
 33
0.0
  0
MTEXT
  5
7FC
330
7FE
100
AcDbEntity
  8
0
  6
ByBlock
 62
     0
370
    -2
380
     1
100
AcDbMText
 10
822.8590145615526
 20
679.3539063415084
 30
0.0
 40
2.5
 41
0.0
 71
     5
 72
     1
  1
\A1;279,99
 73
     1
 44
1.0
  0
ENDBLK
  5
A70
330
7FE
100
AcDbEntity
  8
0
100
AcDbBlockEnd
  0
BLOCK
  5
A71
330
809
100
AcDbEntity
  8
0
100
AcDbBlockBegin
  2
*D15
 70
     1
 10
0.0
 20
0.0
 30
0.0
  3
*D15
  1

  0
POINT
  5
800
330
809
100
AcDbEntity
  8
DEFPOINTS
  6
ByBlock
 62
     0
380
     1
100
AcDbPoint
 10
682.8619166450172
 20
485.8846474857474
 30
0.0
  0
POINT
  5
801
330
809
100
AcDbEntity
  8
DEFPOINTS
  6
ByBlock
 62
     0
380
     1
100
AcDbPoint
 10
962.8561124780879
 20
487.5708222547342
 30
0.0
  0
LINE
  5
802
330
809
100
AcDbEntity
  8
0
  6
ByBlock
 62
     0
370
    -2
380
     1
100
AcDbLine
 10
682.8619166450172
 20
486.5096474857474
 30
0.0
 11
682.8619166450172
 21
678.6026979439591
 31
0.0
  0
LINE
  5
803
330
809
100
AcDbEntity
  8
0
  6
ByBlock
 62
     0
370
    -2
380
     1
100
AcDbLine
 10
962.8561124780879
 20
488.1958222547342
 30
0.0
 11
962.8561124780879
 21
678.6026979439591
 31
0.0
  0
LINE
  5
804
330
809
100
AcDbEntity
  8
0
  6
ByBlock
 62
     0
370
    -2
380
     1
100
AcDbLine
 10
685.3619166450172
 20
677.3526979439591
 30
0.0
 11
960.3561124780879
 21
677.3526979439591
 31
0.0
  0
SOLID
  5
805
330
809
100
AcDbEntity
  8
0
  6
ByBlock
 62
     0
380
     1
100
AcDbTrace
 10
682.8619166450172
 20
677.3526979439591
 30
0.0
 11
685.3619166450172
 21
676.9360312772925
 31
0.0
 12
685.3619166450172
 22
677.7693646106258
 32
0.0
 13
685.3619166450172
 23
677.7693646106258
 33
0.0
  0
SOLID
  5
806
330
809
100
AcDbEntity
  8
0
  6
ByBlock
 62
     0
380
     1
100
AcDbTrace
 10
962.8561124780879
 20
677.3526979439591
 30
0.0
 11
960.3561124780879
 21
676.9360312772925
 31
0.0
 12
960.3561124780879
 22
677.7693646106258
 32
0.0
 13
960.3561124780879
 23
677.7693646106258
 33
0.0
  0
MTEXT
  5
807
330
809
100
AcDbEntity
  8
0
  6
ByBlock
 62
     0
370
    -2
380
     1
100
AcDbMText
 10
822.8590145615526
 20
679.3539063415084
 30
0.0
 40
2.5
 41
0.0
 71
     5
 72
     1
  1
\A1;279,99
 73
     1
 44
1.0
  0
ENDBLK
  5
A72
330
809
100
AcDbEntity
  8
0
100
AcDbBlockEnd
  0
BLOCK
  5
A73
330
814
100
AcDbEntity
  8
0
100
AcDbBlockBegin
  2
*D16
 70
     1
 10
0.0
 20
0.0
 30
0.0
  3
*D16
  1

  0
POINT
  5
80B
330
814
100
AcDbEntity
  8
DEFPOINTS
  6
ByBlock
 62
     0
380
     1
100
AcDbPoint
 10
682.8619166450172
 20
485.8846474857474
 30
0.0
  0
POINT
  5
80C
330
814
100
AcDbEntity
  8
DEFPOINTS
  6
ByBlock
 62
     0
380
     1
100
AcDbPoint
 10
962.8561124780879
 20
487.5708222547342
 30
0.0
  0
LINE
  5
80D
330
814
100
AcDbEntity
  8
0
  6
ByBlock
 62
     0
370
    -2
380
     1
100
AcDbLine
 10
682.8619166450172
 20
486.5096474857474
 30
0.0
 11
682.8619166450172
 21
739.4587958451657
 31
0.0
  0
LINE
  5
80E
330
814
100
AcDbEntity
  8
0
  6
ByBlock
 62
     0
370
    -2
380
     1
100
AcDbLine
 10
962.8561124780879
 20
488.1958222547342
 30
0.0
 11
962.8561124780879
 21
739.4587958451657
 31
0.0
  0
LINE
  5
80F
330
814
100
AcDbEntity
  8
0
  6
ByBlock
 62
     0
370
    -2
380
     1
100
AcDbLine
 10
685.3619166450172
 20
738.2087958451657
 30
0.0
 11
960.3561124780879
 21
738.2087958451657
 31
0.0
  0
SOLID
  5
810
330
814
100
AcDbEntity
  8
0
  6
ByBlock
 62
     0
380
     1
100
AcDbTrace
 10
682.8619166450172
 20
738.2087958451657
 30
0.0
 11
685.3619166450172
 21
737.7921291784991
 31
0.0
 12
685.3619166450172
 22
738.6254625118323
 32
0.0
 13
685.3619166450172
 23
738.6254625118323
 33
0.0
  0
SOLID
  5
811
330
814
100
AcDbEntity
  8
0
  6
ByBlock
 62
     0
380
     1
100
AcDbTrace
 10
962.8561124780879
 20
738.2087958451657
 30
0.0
 11
960.3561124780879
 21
737.7921291784991
 31
0.0
 12
960.3561124780879
 22
738.6254625118323
 32
0.0
 13
960.3561124780879
 23
738.6254625118323
 33
0.0
  0
MTEXT
  5
812
330
814
100
AcDbEntity
  8
0
  6
ByBlock
 62
     0
370
    -2
380
     1
100
AcDbMText
 10
822.8590145615526
 20
740.210004242715
 30
0.0
 40
2.5
 41
0.0
 71
     5
 72
     1
  1
\A1;279,99
 73
     1
 44
1.0
  0
ENDBLK
  5
A74
330
814
100
AcDbEntity
  8
0
100
AcDbBlockEnd
  0
BLOCK
  5
A75
330
81F
100
AcDbEntity
  8
0
100
AcDbBlockBegin
  2
*D17
 70
     1
 10
0.0
 20
0.0
 30
0.0
  3
*D17
  1

  0
POINT
  5
816
330
81F
100
AcDbEntity
  8
DEFPOINTS
  6
ByBlock
 62
     0
380
     1
100
AcDbPoint
 10
682.8619166450172
 20
485.8846474857474
 30
0.0
  0
POINT
  5
817
330
81F
100
AcDbEntity
  8
DEFPOINTS
  6
ByBlock
 62
     0
380
     1
100
AcDbPoint
 10
962.8561124780879
 20
487.5708222547342
 30
0.0
  0
LINE
  5
818
330
81F
100
AcDbEntity
  8
0
  6
ByBlock
 62
     0
370
    -2
380
     1
100
AcDbLine
 10
682.8619166450172
 20
486.5096474857474
 30
0.0
 11
682.8619166450172
 21
674.1642375634842
 31
0.0
  0
LINE
  5
819
330
81F
100
AcDbEntity
  8
0
  6
ByBlock
 62
     0
370
    -2
380
     1
100
AcDbLine
 10
962.8561124780879
 20
488.1958222547342
 30
0.0
 11
962.8561124780879
 21
674.1642375634842
 31
0.0
  0
LINE
  5
81A
330
81F
100
AcDbEntity
  8
0
  6
ByBlock
 62
     0
370
    -2
380
     1
100
AcDbLine
 10
685.3619166450172
 20
672.9142375634842
 30
0.0
 11
960.3561124780879
 21
672.9142375634842
 31
0.0
  0
SOLID
  5
81B
330
81F
100
AcDbEntity
  8
0
  6
ByBlock
 62
     0
380
     1
100
AcDbTrace
 10
682.8619166450172
 20
672.9142375634842
 30
0.0
 11
685.3619166450172
 21
672.4975708968176
 31
0.0
 12
685.3619166450172
 22
673.3309042301508
 32
0.0
 13
685.3619166450172
 23
673.3309042301508
 33
0.0
  0
SOLID
  5
81C
330
81F
100
AcDbEntity
  8
0
  6
ByBlock
 62
     0
380
     1
100
AcDbTrace
 10
962.8561124780879
 20
672.9142375634842
 30
0.0
 11
960.3561124780879
 21
672.4975708968176
 31
0.0
 12
960.3561124780879
 22
673.3309042301508
 32
0.0
 13
960.3561124780879
 23
673.3309042301508
 33
0.0
  0
MTEXT
  5
81D
330
81F
100
AcDbEntity
  8
0
  6
ByBlock
 62
     0
370
    -2
380
     1
100
AcDbMText
 10
838.245475722796
 20
674.9154459610335
 30
0.0
 40
2.5
 41
0.0
 71
     5
 72
     1
  1
\A1;279,99
 73
     1
 44
1.0
  0
ENDBLK
  5
A76
330
81F
100
AcDbEntity
  8
0
100
AcDbBlockEnd
  0
BLOCK
  5
A77
330
82A
100
AcDbEntity
  8
0
100
AcDbBlockBegin
  2
*D18
 70
     1
 10
0.0
 20
0.0
 30
0.0
  3
*D18
  1

  0
POINT
  5
821
330
82A
100
AcDbEntity
  8
DEFPOINTS
  6
ByBlock
 62
     0
380
     1
100
AcDbPoint
 10
682.8619166450172
 20
485.8846474857474
 30
0.0
  0
POINT
  5
822
330
82A
100
AcDbEntity
  8
DEFPOINTS
  6
ByBlock
 62
     0
380
     1
100
AcDbPoint
 10
962.8561124780879
 20
487.5708222547342
 30
0.0
  0
LINE
  5
823
330
82A
100
AcDbEntity
  8
0
  6
ByBlock
 62
     0
370
    -2
380
     1
100
AcDbLine
 10
682.8619166450172
 20
486.5096474857474
 30
0.0
 11
682.8619166450172
 21
674.1642375634842
 31
0.0
  0
LINE
  5
824
330
82A
100
AcDbEntity
  8
0
  6
ByBlock
 62
     0
370
    -2
380
     1
100
AcDbLine
 10
962.8561124780879
 20
488.1958222547342
 30
0.0
 11
962.8561124780879
 21
674.1642375634842
 31
0.0
  0
LINE
  5
825
330
82A
100
AcDbEntity
  8
0
  6
ByBlock
 62
     0
370
    -2
380
     1
100
AcDbLine
 10
685.3619166450172
 20
672.9142375634842
 30
0.0
 11
960.3561124780879
 21
672.9142375634842
 31
0.0
  0
SOLID
  5
826
330
82A
100
AcDbEntity
  8
0
  6
ByBlock
 62
     0
380
     1
100
AcDbTrace
 10
682.8619166450172
 20
672.9142375634842
 30
0.0
 11
685.3619166450172
 21
672.4975708968176
 31
0.0
 12
685.3619166450172
 22
673.3309042301508
 32
0.0
 13
685.3619166450172
 23
673.3309042301508
 33
0.0
  0
SOLID
  5
827
330
82A
100
AcDbEntity
  8
0
  6
ByBlock
 62
     0
380
     1
100
AcDbTrace
 10
962.8561124780879
 20
672.9142375634842
 30
0.0
 11
960.3561124780879
 21
672.4975708968176
 31
0.0
 12
960.3561124780879
 22
673.3309042301508
 32
0.0
 13
960.3561124780879
 23
673.3309042301508
 33
0.0
  0
MTEXT
  5
828
330
82A
100
AcDbEntity
  8
0
  6
ByBlock
 62
     0
370
    -2
380
     1
100
AcDbMText
 10
838.245475722796
 20
674.9154459610335
 30
0.0
 40
2.5
 41
0.0
 71
     5
 72
     1
  1
\A1;279,99
 73
     1
 44
1.0
  0
ENDBLK
  5
A78
330
82A
100
AcDbEntity
  8
0
100
AcDbBlockEnd
  0
BLOCK
  5
A79
330
835
100
AcDbEntity
  8
0
100
AcDbBlockBegin
  2
*D19
 70
     1
 10
0.0
 20
0.0
 30
0.0
  3
*D19
  1

  0
POINT
  5
82C
330
835
100
AcDbEntity
  8
DEFPOINTS
  6
ByBlock
 62
     7
380
     1
100
AcDbPoint
 10
682.8619166450172
 20
485.8846474857474
 30
0.0
  0
POINT
  5
82D
330
835
100
AcDbEntity
  8
DEFPOINTS
  6
ByBlock
 62
     7
380
     1
100
AcDbPoint
 10
962.8561124780879
 20
487.5708222547342
 30
0.0
  0
LINE
  5
82E
330
835
100
AcDbEntity
  8
0
  6
ByBlock
 62
     7
370
    -2
380
     1
100
AcDbLine
 10
682.8619166450172
 20
486.5096474857474
 30
0.0
 11
682.8619166450172
 21
674.1642375634842
 31
0.0
  0
LINE
  5
82F
330
835
100
AcDbEntity
  8
0
  6
ByBlock
 62
     7
370
    -2
380
     1
100
AcDbLine
 10
962.8561124780879
 20
488.1958222547342
 30
0.0
 11
962.8561124780879
 21
674.1642375634842
 31
0.0
  0
LINE
  5
830
330
835
100
AcDbEntity
  8
0
  6
ByBlock
 62
     7
370
    -2
380
     1
100
AcDbLine
 10
692.8619166450172
 20
672.9142375634842
 30
0.0
 11
952.8561124780879
 21
672.9142375634842
 31
0.0
  0
SOLID
  5
831
330
835
100
AcDbEntity
  8
0
  6
ByBlock
 62
     7
380
     1
100
AcDbTrace
 10
682.8619166450172
 20
672.9142375634842
 30
0.0
 11
692.8619166450172
 21
671.2475708968176
 31
0.0
 12
692.8619166450172
 22
674.5809042301508
 32
0.0
 13
692.8619166450172
 23
674.5809042301508
 33
0.0
  0
SOLID
  5
832
330
835
100
AcDbEntity
  8
0
  6
ByBlock
 62
     7
380
     1
100
AcDbTrace
 10
962.8561124780879
 20
672.9142375634842
 30
0.0
 11
952.8561124780879
 21
671.2475708968176
 31
0.0
 12
952.8561124780879
 22
674.5809042301508
 32
0.0
 13
952.8561124780879
 23
674.5809042301508
 33
0.0
  0
MTEXT
  5
833
330
835
100
AcDbEntity
  8
0
  6
ByBlock
 62
     0
370
    -2
380
     1
100
AcDbMText
 10
838.245475722796
 20
684.2197493745078
 30
0.0
 40
14.0
 41
0.0
 71
     5
 72
     1
  1
\A1;280
 73
     1
 44
1.0
  0
ENDBLK
  5
A7A
330
835
100
AcDbEntity
  8
0
100
AcDbBlockEnd
  0
BLOCK
  5
A7B
330
840
100
AcDbEntity
  8
0
100
AcDbBlockBegin
  2
*D20
 70
     1
 10
0.0
 20
0.0
 30
0.0
  3
*D20
  1

  0
POINT
  5
837
330
840
100
AcDbEntity
  8
DEFPOINTS
  6
ByBlock
 62
     7
380
     1
100
AcDbPoint
 10
682.8619166450172
 20
485.8846474857474
 30
0.0
  0
POINT
  5
838
330
840
100
AcDbEntity
  8
DEFPOINTS
  6
ByBlock
 62
     7
380
     1
100
AcDbPoint
 10
962.8561124780879
 20
487.5708222547342
 30
0.0
  0
LINE
  5
839
330
840
100
AcDbEntity
  8
0
  6
ByBlock
 62
     7
370
    -2
380
     1
100
AcDbLine
 10
682.8619166450172
 20
486.5096474857474
 30
0.0
 11
682.8619166450172
 21
674.1642375634842
 31
0.0
  0
LINE
  5
83A
330
840
100
AcDbEntity
  8
0
  6
ByBlock
 62
     7
370
    -2
380
     1
100
AcDbLine
 10
962.8561124780879
 20
488.1958222547342
 30
0.0
 11
962.8561124780879
 21
674.1642375634842
 31
0.0
  0
LINE
  5
83B
330
840
100
AcDbEntity
  8
0
  6
ByBlock
 62
     7
370
    -2
380
     1
100
AcDbLine
 10
692.8619166450172
 20
672.9142375634842
 30
0.0
 11
952.8561124780879
 21
672.9142375634842
 31
0.0
  0
SOLID
  5
83C
330
840
100
AcDbEntity
  8
0
  6
ByBlock
 62
     7
380
     1
100
AcDbTrace
 10
682.8619166450172
 20
672.9142375634842
 30
0.0
 11
692.8619166450172
 21
671.2475708968176
 31
0.0
 12
692.8619166450172
 22
674.5809042301508
 32
0.0
 13
692.8619166450172
 23
674.5809042301508
 33
0.0
  0
SOLID
  5
83D
330
840
100
AcDbEntity
  8
0
  6
ByBlock
 62
     7
380
     1
100
AcDbTrace
 10
962.8561124780879
 20
672.9142375634842
 30
0.0
 11
952.8561124780879
 21
671.2475708968176
 31
0.0
 12
952.8561124780879
 22
674.5809042301508
 32
0.0
 13
952.8561124780879
 23
674.5809042301508
 33
0.0
  0
MTEXT
  5
83E
330
840
100
AcDbEntity
  8
0
  6
ByBlock
 62
     0
370
    -2
380
     1
100
AcDbMText
 10
838.245475722796
 20
684.2197493745078
 30
0.0
 40
14.0
 41
0.0
 71
     5
 72
     1
  1
\A1;280
 73
     1
 44
1.0
  0
ENDBLK
  5
A7C
330
840
100
AcDbEntity
  8
0
100
AcDbBlockEnd
  0
BLOCK
  5
A7D
330
84B
100
AcDbEntity
  8
0
100
AcDbBlockBegin
  2
*D21
 70
     1
 10
0.0
 20
0.0
 30
0.0
  3
*D21
  1

  0
POINT
  5
842
330
84B
100
AcDbEntity
  8
DEFPOINTS
  6
ByBlock
 62
     7
380
     1
100
AcDbPoint
 10
682.8619166450172
 20
485.8846474857474
 30
0.0
  0
POINT
  5
843
330
84B
100
AcDbEntity
  8
DEFPOINTS
  6
ByBlock
 62
     7
380
     1
100
AcDbPoint
 10
962.8561124780879
 20
487.5708222547342
 30
0.0
  0
LINE
  5
844
330
84B
100
AcDbEntity
  8
0
  6
ByBlock
 62
     7
370
    -2
380
     1
100
AcDbLine
 10
682.8619166450172
 20
486.5096474857474
 30
0.0
 11
682.8619166450172
 21
674.1642375634842
 31
0.0
  0
LINE
  5
845
330
84B
100
AcDbEntity
  8
0
  6
ByBlock
 62
     7
370
    -2
380
     1
100
AcDbLine
 10
962.8561124780879
 20
488.1958222547342
 30
0.0
 11
962.8561124780879
 21
674.1642375634842
 31
0.0
  0
LINE
  5
846
330
84B
100
AcDbEntity
  8
0
  6
ByBlock
 62
     7
370
    -2
380
     1
100
AcDbLine
 10
692.8619166450172
 20
672.9142375634842
 30
0.0
 11
952.8561124780879
 21
672.9142375634842
 31
0.0
  0
SOLID
  5
847
330
84B
100
AcDbEntity
  8
0
  6
ByBlock
 62
     7
380
     1
100
AcDbTrace
 10
682.8619166450172
 20
672.9142375634842
 30
0.0
 11
692.8619166450172
 21
671.2475708968176
 31
0.0
 12
692.8619166450172
 22
674.5809042301508
 32
0.0
 13
692.8619166450172
 23
674.5809042301508
 33
0.0
  0
SOLID
  5
848
330
84B
100
AcDbEntity
  8
0
  6
ByBlock
 62
     7
380
     1
100
AcDbTrace
 10
962.8561124780879
 20
672.9142375634842
 30
0.0
 11
952.8561124780879
 21
671.2475708968176
 31
0.0
 12
952.8561124780879
 22
674.5809042301508
 32
0.0
 13
952.8561124780879
 23
674.5809042301508
 33
0.0
  0
MTEXT
  5
849
330
84B
100
AcDbEntity
  8
0
  6
ByBlock
 62
     0
370
    -2
380
     1
100
AcDbMText
 10
838.245475722796
 20
685.6210045897599
 30
0.0
 40
14.0
 41
0.0
 71
     5
 72
     1
  1
\A1;279,99
 73
     1
 44
1.0
  0
ENDBLK
  5
A7E
330
84B
100
AcDbEntity
  8
0
100
AcDbBlockEnd
  0
BLOCK
  5
A7F
330
856
100
AcDbEntity
  8
0
100
AcDbBlockBegin
  2
*D22
 70
     1
 10
0.0
 20
0.0
 30
0.0
  3
*D22
  1

  0
POINT
  5
84D
330
856
100
AcDbEntity
  8
DEFPOINTS
  6
ByBlock
 62
     7
380
     1
100
AcDbPoint
 10
682.8619166450172
 20
485.8846474857474
 30
0.0
  0
POINT
  5
84E
330
856
100
AcDbEntity
  8
DEFPOINTS
  6
ByBlock
 62
     7
380
     1
100
AcDbPoint
 10
962.8561124780879
 20
487.5708222547342
 30
0.0
  0
LINE
  5
84F
330
856
100
AcDbEntity
  8
0
  6
ByBlock
 62
     7
370
    -2
380
     1
100
AcDbLine
 10
682.8619166450172
 20
486.5096474857474
 30
0.0
 11
682.8619166450172
 21
674.1642375634842
 31
0.0
  0
LINE
  5
850
330
856
100
AcDbEntity
  8
0
  6
ByBlock
 62
     7
370
    -2
380
     1
100
AcDbLine
 10
962.8561124780879
 20
488.1958222547342
 30
0.0
 11
962.8561124780879
 21
674.1642375634842
 31
0.0
  0
LINE
  5
851
330
856
100
AcDbEntity
  8
0
  6
ByBlock
 62
     7
370
    -2
380
     1
100
AcDbLine
 10
692.8619166450172
 20
672.9142375634842
 30
0.0
 11
952.8561124780879
 21
672.9142375634842
 31
0.0
  0
SOLID
  5
852
330
856
100
AcDbEntity
  8
0
  6
ByBlock
 62
     7
380
     1
100
AcDbTrace
 10
682.8619166450172
 20
672.9142375634842
 30
0.0
 11
692.8619166450172
 21
671.2475708968176
 31
0.0
 12
692.8619166450172
 22
674.5809042301508
 32
0.0
 13
692.8619166450172
 23
674.5809042301508
 33
0.0
  0
SOLID
  5
853
330
856
100
AcDbEntity
  8
0
  6
ByBlock
 62
     7
380
     1
100
AcDbTrace
 10
962.8561124780879
 20
672.9142375634842
 30
0.0
 11
952.8561124780879
 21
671.2475708968176
 31
0.0
 12
952.8561124780879
 22
674.5809042301508
 32
0.0
 13
952.8561124780879
 23
674.5809042301508
 33
0.0
  0
MTEXT
  5
854
330
856
100
AcDbEntity
  8
0
  6
ByBlock
 62
     0
370
    -2
380
     1
100
AcDbMText
 10
838.245475722796
 20
684.2197493745078
 30
0.0
 40
14.0
 41
0.0
 71
     5
 72
     1
  1
\A1;280
 73
     1
 44
1.0
  0
ENDBLK
  5
A80
330
856
100
AcDbEntity
  8
0
100
AcDbBlockEnd
  0
BLOCK
  5
A81
330
861
100
AcDbEntity
  8
0
100
AcDbBlockBegin
  2
*D23
 70
     1
 10
0.0
 20
0.0
 30
0.0
  3
*D23
  1

  0
POINT
  5
858
330
861
100
AcDbEntity
  8
DEFPOINTS
  6
ByBlock
 62
     7
380
     1
100
AcDbPoint
 10
682.8619166450172
 20
485.8846474857474
 30
0.0
  0
POINT
  5
859
330
861
100
AcDbEntity
  8
DEFPOINTS
  6
ByBlock
 62
     7
380
     1
100
AcDbPoint
 10
962.8561124780879
 20
487.5708222547342
 30
0.0
  0
LINE
  5
85A
330
861
100
AcDbEntity
  8
0
  6
ByBlock
 62
     7
370
    -2
380
     1
100
AcDbLine
 10
682.8619166450172
 20
486.5096474857474
 30
0.0
 11
682.8619166450172
 21
674.1642375634842
 31
0.0
  0
LINE
  5
85B
330
861
100
AcDbEntity
  8
0
  6
ByBlock
 62
     7
370
    -2
380
     1
100
AcDbLine
 10
962.8561124780879
 20
488.1958222547342
 30
0.0
 11
962.8561124780879
 21
674.1642375634842
 31
0.0
  0
LINE
  5
85C
330
861
100
AcDbEntity
  8
0
  6
ByBlock
 62
     7
370
    -2
380
     1
100
AcDbLine
 10
692.8619166450172
 20
672.9142375634842
 30
0.0
 11
952.8561124780879
 21
672.9142375634842
 31
0.0
  0
SOLID
  5
85D
330
861
100
AcDbEntity
  8
0
  6
ByBlock
 62
     7
380
     1
100
AcDbTrace
 10
682.8619166450172
 20
672.9142375634842
 30
0.0
 11
692.8619166450172
 21
671.2475708968176
 31
0.0
 12
692.8619166450172
 22
674.5809042301508
 32
0.0
 13
692.8619166450172
 23
674.5809042301508
 33
0.0
  0
SOLID
  5
85E
330
861
100
AcDbEntity
  8
0
  6
ByBlock
 62
     7
380
     1
100
AcDbTrace
 10
962.8561124780879
 20
672.9142375634842
 30
0.0
 11
952.8561124780879
 21
671.2475708968176
 31
0.0
 12
952.8561124780879
 22
674.5809042301508
 32
0.0
 13
952.8561124780879
 23
674.5809042301508
 33
0.0
  0
MTEXT
  5
85F
330
861
100
AcDbEntity
  8
0
  6
ByBlock
 62
     0
370
    -2
380
     1
100
AcDbMText
 10
822.8590145615526
 20
684.2197493745078
 30
0.0
 40
14.0
 41
0.0
 71
     5
 72
     1
  1
\A1;280
 73
     1
 44
1.0
  0
ENDBLK
  5
A82
330
861
100
AcDbEntity
  8
0
100
AcDbBlockEnd
  0
BLOCK
  5
A83
330
86D
100
AcDbEntity
  8
0
100
AcDbBlockBegin
  2
*D24
 70
     1
 10
0.0
 20
0.0
 30
0.0
  3
*D24
  1

  0
POINT
  5
864
330
86D
100
AcDbEntity
  8
DEFPOINTS
  6
ByBlock
 62
     0
380
     1
100
AcDbPoint
 10
856.6371404780879
 20
642.2635562547341
 30
0.0
  0
POINT
  5
865
330
86D
100
AcDbEntity
  8
DEFPOINTS
  6
ByBlock
 62
     0
380
     1
100
AcDbPoint
 10
824.3733467727674
 20
417.4607302547342
 30
0.0
  0
LINE
  5
866
330
86D
100
AcDbEntity
  8
0
  6
ByBlock
 62
     0
370
    -2
380
     1
100
AcDbLine
 10
857.2621404780879
 20
642.2635562547341
 30
0.0
 11
987.9158490628557
 21
642.2635562547341
 31
0.0
  0
LINE
  5
867
330
86D
100
AcDbEntity
  8
0
  6
ByBlock
 62
     0
370
    -2
380
     1
100
AcDbLine
 10
824.9983467727674
 20
417.4607302547342
 30
0.0
 11
987.9158490628557
 21
417.4607302547342
 31
0.0
  0
LINE
  5
868
330
86D
100
AcDbEntity
  8
0
  6
ByBlock
 62
     0
370
    -2
380
     1
100
AcDbLine
 10
986.6658490628557
 20
639.7635562547341
 30
0.0
 11
986.6658490628557
 21
419.9607302547342
 31
0.0
  0
SOLID
  5
869
330
86D
100
AcDbEntity
  8
0
  6
ByBlock
 62
     0
380
     1
100
AcDbTrace
 10
986.6658490628557
 20
642.2635562547341
 30
0.0
 11
986.2491823961891
 21
639.7635562547341
 31
0.0
 12
987.0825157295224
 22
639.7635562547341
 32
0.0
 13
987.0825157295224
 23
639.7635562547341
 33
0.0
  0
SOLID
  5
86A
330
86D
100
AcDbEntity
  8
0
  6
ByBlock
 62
     0
380
     1
100
AcDbTrace
 10
986.6658490628557
 20
417.4607302547342
 30
0.0
 11
986.2491823961891
 21
419.9607302547342
 31
0.0
 12
987.0825157295224
 22
419.9607302547342
 32
0.0
 13
987.0825157295224
 23
419.9607302547342
 33
0.0
  0
MTEXT
  5
86B
330
86D
100
AcDbEntity
  8
0
  6
ByBlock
 62
     0
370
    -2
380
     1
100
AcDbMText
 10
984.6658490628557
 20
529.8621432547342
 30
0.0
 40
2.5
 41
0.0
 71
     5
 72
     1
  1
\A1;224,8
 11
6.123031769111886E-17
 21
1.0
 31
0.0
 73
     1
 44
1.0
  0
ENDBLK
  5
A84
330
86D
100
AcDbEntity
  8
0
100
AcDbBlockEnd
  0
BLOCK
  5
A85
330
878
100
AcDbEntity
  8
0
100
AcDbBlockBegin
  2
*D25
 70
     1
 10
0.0
 20
0.0
 30
0.0
  3
*D25
  1

  0
POINT
  5
86F
330
878
100
AcDbEntity
  8
DEFPOINTS
  6
ByBlock
 62
     7
380
     1
100
AcDbPoint
 10
856.6371404780879
 20
642.2635562547341
 30
0.0
  0
POINT
  5
870
330
878
100
AcDbEntity
  8
DEFPOINTS
  6
ByBlock
 62
     7
380
     1
100
AcDbPoint
 10
824.3733467727674
 20
417.4607302547342
 30
0.0
  0
LINE
  5
871
330
878
100
AcDbEntity
  8
0
  6
ByBlock
 62
     7
370
    -2
380
     1
100
AcDbLine
 10
857.2621404780879
 20
642.2635562547341
 30
0.0
 11
987.9158490628557
 21
642.2635562547341
 31
0.0
  0
LINE
  5
872
330
878
100
AcDbEntity
  8
0
  6
ByBlock
 62
     7
370
    -2
380
     1
100
AcDbLine
 10
824.9983467727674
 20
417.4607302547342
 30
0.0
 11
987.9158490628557
 21
417.4607302547342
 31
0.0
  0
LINE
  5
873
330
878
100
AcDbEntity
  8
0
  6
ByBlock
 62
     7
370
    -2
380
     1
100
AcDbLine
 10
986.6658490628557
 20
632.2635562547341
 30
0.0
 11
986.6658490628557
 21
427.4607302547342
 31
0.0
  0
SOLID
  5
874
330
878
100
AcDbEntity
  8
0
  6
ByBlock
 62
     7
380
     1
100
AcDbTrace
 10
986.6658490628557
 20
642.2635562547341
 30
0.0
 11
984.9991823961891
 21
632.2635562547341
 31
0.0
 12
988.3325157295224
 22
632.2635562547341
 32
0.0
 13
988.3325157295224
 23
632.2635562547341
 33
0.0
  0
SOLID
  5
875
330
878
100
AcDbEntity
  8
0
  6
ByBlock
 62
     7
380
     1
100
AcDbTrace
 10
986.6658490628557
 20
417.4607302547342
 30
0.0
 11
984.9991823961891
 21
427.4607302547342
 31
0.0
 12
988.3325157295224
 22
427.4607302547342
 32
0.0
 13
988.3325157295224
 23
427.4607302547342
 33
0.0
  0
MTEXT
  5
876
330
878
100
AcDbEntity
  8
0
  6
ByBlock
 62
     0
370
    -2
380
     1
100
AcDbMText
 10
975.3658490628558
 20
529.8621432547342
 30
0.0
 40
14.0
 41
0.0
 71
     5
 72
     1
  1
\A1;225
 11
6.123031769111886E-17
 21
1.0
 31
0.0
 73
     1
 44
1.0
  0
ENDBLK
  5
A86
330
878
100
AcDbEntity
  8
0
100
AcDbBlockEnd
  0
BLOCK
  5
A87
330
883
100
AcDbEntity
  8
0
100
AcDbBlockBegin
  2
*D26
 70
     1
 10
0.0
 20
0.0
 30
0.0
  3
*D26
  1

  0
POINT
  5
87A
330
883
100
AcDbEntity
  8
DEFPOINTS
  6
ByBlock
 62
     7
380
     1
100
AcDbPoint
 10
856.6371404780879
 20
642.2635562547341
 30
0.0
  0
POINT
  5
87B
330
883
100
AcDbEntity
  8
DEFPOINTS
  6
ByBlock
 62
     7
380
     1
100
AcDbPoint
 10
824.3733467727674
 20
417.4607302547342
 30
0.0
  0
LINE
  5
87C
330
883
100
AcDbEntity
  8
0
  6
ByBlock
 62
     7
370
    -2
380
     1
100
AcDbLine
 10
857.2621404780879
 20
642.2635562547341
 30
0.0
 11
987.9158490628557
 21
642.2635562547341
 31
0.0
  0
LINE
  5
87D
330
883
100
AcDbEntity
  8
0
  6
ByBlock
 62
     7
370
    -2
380
     1
100
AcDbLine
 10
824.9983467727674
 20
417.4607302547342
 30
0.0
 11
987.9158490628557
 21
417.4607302547342
 31
0.0
  0
LINE
  5
87E
330
883
100
AcDbEntity
  8
0
  6
ByBlock
 62
     7
370
    -2
380
     1
100
AcDbLine
 10
986.6658490628557
 20
632.2635562547341
 30
0.0
 11
986.6658490628557
 21
427.4607302547342
 31
0.0
  0
SOLID
  5
87F
330
883
100
AcDbEntity
  8
0
  6
ByBlock
 62
     7
380
     1
100
AcDbTrace
 10
986.6658490628557
 20
642.2635562547341
 30
0.0
 11
984.9991823961891
 21
632.2635562547341
 31
0.0
 12
988.3325157295224
 22
632.2635562547341
 32
0.0
 13
988.3325157295224
 23
632.2635562547341
 33
0.0
  0
SOLID
  5
880
330
883
100
AcDbEntity
  8
0
  6
ByBlock
 62
     7
380
     1
100
AcDbTrace
 10
986.6658490628557
 20
417.4607302547342
 30
0.0
 11
984.9991823961891
 21
427.4607302547342
 31
0.0
 12
988.3325157295224
 22
427.4607302547342
 32
0.0
 13
988.3325157295224
 23
427.4607302547342
 33
0.0
  0
MTEXT
  5
881
330
883
100
AcDbEntity
  8
0
  6
ByBlock
 62
     0
370
    -2
380
     1
100
AcDbMText
 10
975.3658490628558
 20
529.8621432547342
 30
0.0
 40
14.0
 41
0.0
 71
     5
 72
     1
  1
\A1;225
 11
6.123031769111886E-17
 21
1.0
 31
0.0
 73
     1
 44
1.0
  0
ENDBLK
  5
A88
330
883
100
AcDbEntity
  8
0
100
AcDbBlockEnd
  0
BLOCK
  5
A89
330
88E
100
AcDbEntity
  8
0
100
AcDbBlockBegin
  2
*D27
 70
     1
 10
0.0
 20
0.0
 30
0.0
  3
*D27
  1

  0
POINT
  5
885
330
88E
100
AcDbEntity
  8
DEFPOINTS
  6
ByBlock
 62
     7
380
     1
100
AcDbPoint
 10
856.6371404780879
 20
642.2635562547341
 30
0.0
  0
POINT
  5
886
330
88E
100
AcDbEntity
  8
DEFPOINTS
  6
ByBlock
 62
     7
380
     1
100
AcDbPoint
 10
824.3733467727674
 20
417.4607302547342
 30
0.0
  0
LINE
  5
887
330
88E
100
AcDbEntity
  8
0
  6
ByBlock
 62
     7
370
    -2
380
     1
100
AcDbLine
 10
857.2621404780879
 20
642.2635562547341
 30
0.0
 11
1035.122074568459
 21
642.2635562547341
 31
0.0
  0
LINE
  5
888
330
88E
100
AcDbEntity
  8
0
  6
ByBlock
 62
     7
370
    -2
380
     1
100
AcDbLine
 10
824.9983467727674
 20
417.4607302547342
 30
0.0
 11
1035.122074568459
 21
417.4607302547342
 31
0.0
  0
LINE
  5
889
330
88E
100
AcDbEntity
  8
0
  6
ByBlock
 62
     7
370
    -2
380
     1
100
AcDbLine
 10
1033.872074568459
 20
632.2635562547341
 30
0.0
 11
1033.872074568459
 21
427.4607302547342
 31
0.0
  0
SOLID
  5
88A
330
88E
100
AcDbEntity
  8
0
  6
ByBlock
 62
     7
380
     1
100
AcDbTrace
 10
1033.872074568459
 20
642.2635562547341
 30
0.0
 11
1032.205407901792
 21
632.2635562547341
 31
0.0
 12
1035.538741235126
 22
632.2635562547341
 32
0.0
 13
1035.538741235126
 23
632.2635562547341
 33
0.0
  0
SOLID
  5
88B
330
88E
100
AcDbEntity
  8
0
  6
ByBlock
 62
     7
380
     1
100
AcDbTrace
 10
1033.872074568459
 20
417.4607302547342
 30
0.0
 11
1032.205407901792
 21
427.4607302547342
 31
0.0
 12
1035.538741235126
 22
427.4607302547342
 32
0.0
 13
1035.538741235126
 23
427.4607302547342
 33
0.0
  0
MTEXT
  5
88C
330
88E
100
AcDbEntity
  8
0
  6
ByBlock
 62
     0
370
    -2
380
     1
100
AcDbMText
 10
1022.572074568459
 20
529.8621432547342
 30
0.0
 40
14.0
 41
0.0
 71
     5
 72
     1
  1
\A1;225
 11
6.123031769111886E-17
 21
1.0
 31
0.0
 73
     1
 44
1.0
  0
ENDBLK
  5
A8A
330
88E
100
AcDbEntity
  8
0
100
AcDbBlockEnd
  0
BLOCK
  5
A8B
330
899
100
AcDbEntity
  8
0
100
AcDbBlockBegin
  2
*D28
 70
     1
 10
0.0
 20
0.0
 30
0.0
  3
*D28
  1

  0
POINT
  5
890
330
899
100
AcDbEntity
  8
DEFPOINTS
  6
ByBlock
 62
     7
380
     1
100
AcDbPoint
 10
856.6371404780879
 20
642.2635562547341
 30
0.0
  0
POINT
  5
891
330
899
100
AcDbEntity
  8
DEFPOINTS
  6
ByBlock
 62
     7
380
     1
100
AcDbPoint
 10
824.3733467727674
 20
417.4607302547342
 30
0.0
  0
LINE
  5
892
330
899
100
AcDbEntity
  8
0
  6
ByBlock
 62
     7
370
    -2
380
     1
100
AcDbLine
 10
857.2621404780879
 20
642.2635562547341
 30
0.0
 11
992.8342217919009
 21
642.2635562547341
 31
0.0
  0
LINE
  5
893
330
899
100
AcDbEntity
  8
0
  6
ByBlock
 62
     7
370
    -2
380
     1
100
AcDbLine
 10
824.9983467727674
 20
417.4607302547342
 30
0.0
 11
992.8342217919009
 21
417.4607302547342
 31
0.0
  0
LINE
  5
894
330
899
100
AcDbEntity
  8
0
  6
ByBlock
 62
     7
370
    -2
380
     1
100
AcDbLine
 10
991.5842217919009
 20
632.2635562547341
 30
0.0
 11
991.5842217919009
 21
427.4607302547342
 31
0.0
  0
SOLID
  5
895
330
899
100
AcDbEntity
  8
0
  6
ByBlock
 62
     7
380
     1
100
AcDbTrace
 10
991.5842217919009
 20
642.2635562547341
 30
0.0
 11
989.9175551252342
 21
632.2635562547341
 31
0.0
 12
993.2508884585675
 22
632.2635562547341
 32
0.0
 13
993.2508884585675
 23
632.2635562547341
 33
0.0
  0
SOLID
  5
896
330
899
100
AcDbEntity
  8
0
  6
ByBlock
 62
     7
380
     1
100
AcDbTrace
 10
991.5842217919009
 20
417.4607302547342
 30
0.0
 11
989.9175551252342
 21
427.4607302547342
 31
0.0
 12
993.2508884585675
 22
427.4607302547342
 32
0.0
 13
993.2508884585675
 23
427.4607302547342
 33
0.0
  0
MTEXT
  5
897
330
899
100
AcDbEntity
  8
0
  6
ByBlock
 62
     0
370
    -2
380
     1
100
AcDbMText
 10
980.2842217919009
 20
529.8621432547342
 30
0.0
 40
14.0
 41
0.0
 71
     5
 72
     1
  1
\A1;225
 11
6.123031769111886E-17
 21
1.0
 31
0.0
 73
     1
 44
1.0
  0
ENDBLK
  5
A8C
330
899
100
AcDbEntity
  8
0
100
AcDbBlockEnd
  0
BLOCK
  5
A8D
330
8A4
100
AcDbEntity
  8
0
100
AcDbBlockBegin
  2
*D29
 70
     1
 10
0.0
 20
0.0
 30
0.0
  3
*D29
  1

  0
POINT
  5
89B
330
8A4
100
AcDbEntity
  8
DEFPOINTS
  6
ByBlock
 62
     7
380
     1
100
AcDbPoint
 10
856.6371404780879
 20
642.2635562547341
 30
0.0
  0
POINT
  5
89C
330
8A4
100
AcDbEntity
  8
DEFPOINTS
  6
ByBlock
 62
     7
380
     1
100
AcDbPoint
 10
824.3733467727674
 20
417.4607302547342
 30
0.0
  0
LINE
  5
89D
330
8A4
100
AcDbEntity
  8
0
  6
ByBlock
 62
     7
370
    -2
380
     1
100
AcDbLine
 10
857.2621404780879
 20
642.2635562547341
 30
0.0
 11
992.8342217919009
 21
642.2635562547341
 31
0.0
  0
LINE
  5
89E
330
8A4
100
AcDbEntity
  8
0
  6
ByBlock
 62
     7
370
    -2
380
     1
100
AcDbLine
 10
824.9983467727674
 20
417.4607302547342
 30
0.0
 11
992.8342217919009
 21
417.4607302547342
 31
0.0
  0
LINE
  5
89F
330
8A4
100
AcDbEntity
  8
0
  6
ByBlock
 62
     7
370
    -2
380
     1
100
AcDbLine
 10
991.5842217919009
 20
632.2635562547341
 30
0.0
 11
991.5842217919009
 21
427.4607302547342
 31
0.0
  0
SOLID
  5
8A0
330
8A4
100
AcDbEntity
  8
0
  6
ByBlock
 62
     7
380
     1
100
AcDbTrace
 10
991.5842217919009
 20
642.2635562547341
 30
0.0
 11
989.9175551252342
 21
632.2635562547341
 31
0.0
 12
993.2508884585675
 22
632.2635562547341
 32
0.0
 13
993.2508884585675
 23
632.2635562547341
 33
0.0
  0
SOLID
  5
8A1
330
8A4
100
AcDbEntity
  8
0
  6
ByBlock
 62
     7
380
     1
100
AcDbTrace
 10
991.5842217919009
 20
417.4607302547342
 30
0.0
 11
989.9175551252342
 21
427.4607302547342
 31
0.0
 12
993.2508884585675
 22
427.4607302547342
 32
0.0
 13
993.2508884585675
 23
427.4607302547342
 33
0.0
  0
MTEXT
  5
8A2
330
8A4
100
AcDbEntity
  8
0
  6
ByBlock
 62
     0
370
    -2
380
     1
100
AcDbMText
 10
980.2842217919009
 20
529.8621432547342
 30
0.0
 40
14.0
 41
0.0
 71
     5
 72
     1
  1
\A1;225
 11
6.123031769111886E-17
 21
1.0
 31
0.0
 73
     1
 44
1.0
  0
ENDBLK
  5
A8E
330
8A4
100
AcDbEntity
  8
0
100
AcDbBlockEnd
  0
BLOCK
  5
A8F
330
8B0
100
AcDbEntity
  8
0
100
AcDbBlockBegin
  2
*D30
 70
     1
 10
0.0
 20
0.0
 30
0.0
  3
*D30
  1

  0
POINT
  5
8A7
330
8B0
100
AcDbEntity
  8
DEFPOINTS
  6
ByBlock
 62
     0
380
     1
100
AcDbPoint
 10
1035.417598329388
 20
567.5016082547342
 30
0.0
  0
POINT
  5
8A8
330
8B0
100
AcDbEntity
  8
DEFPOINTS
  6
ByBlock
 62
     0
380
     1
100
AcDbPoint
 10
1172.969417289843
 20
497.5519831055303
 30
0.0
  0
LINE
  5
8A9
330
8B0
100
AcDbEntity
  8
0
  6
ByBlock
 62
     0
370
    -2
380
     1
100
AcDbLine
 10
1035.417598329388
 20
568.1266082547342
 30
0.0
 11
1035.417598329388
 21
663.3038674908669
 31
0.0
  0
LINE
  5
8AA
330
8B0
100
AcDbEntity
  8
0
  6
ByBlock
 62
     0
370
    -2
380
     1
100
AcDbLine
 10
1172.969417289843
 20
498.1769831055303
 30
0.0
 11
1172.969417289843
 21
663.3038674908669
 31
0.0
  0
LINE
  5
8AB
330
8B0
100
AcDbEntity
  8
0
  6
ByBlock
 62
     0
370
    -2
380
     1
100
AcDbLine
 10
1037.917598329388
 20
662.0538674908669
 30
0.0
 11
1170.469417289843
 21
662.0538674908669
 31
0.0
  0
SOLID
  5
8AC
330
8B0
100
AcDbEntity
  8
0
  6
ByBlock
 62
     0
380
     1
100
AcDbTrace
 10
1035.417598329388
 20
662.0538674908669
 30
0.0
 11
1037.917598329388
 21
661.6372008242002
 31
0.0
 12
1037.917598329388
 22
662.4705341575335
 32
0.0
 13
1037.917598329388
 23
662.4705341575335
 33
0.0
  0
SOLID
  5
8AD
330
8B0
100
AcDbEntity
  8
0
  6
ByBlock
 62
     0
380
     1
100
AcDbTrace
 10
1172.969417289843
 20
662.0538674908669
 30
0.0
 11
1170.469417289843
 21
661.6372008242002
 31
0.0
 12
1170.469417289843
 22
662.4705341575335
 32
0.0
 13
1170.469417289843
 23
662.4705341575335
 33
0.0
  0
MTEXT
  5
8AE
330
8B0
100
AcDbEntity
  8
0
  6
ByBlock
 62
     0
370
    -2
380
     1
100
AcDbMText
 10
1104.193507809615
 20
664.0538674908669
 30
0.0
 40
2.5
 41
0.0
 71
     5
 72
     1
  1
\A1;137,55
 73
     1
 44
1.0
  0
ENDBLK
  5
A90
330
8B0
100
AcDbEntity
  8
0
100
AcDbBlockEnd
  0
BLOCK
  5
A91
330
8BC
100
AcDbEntity
  8
0
100
AcDbBlockBegin
  2
*D31
 70
     1
 10
0.0
 20
0.0
 30
0.0
  3
*D31
  1

  0
POINT
  5
8B3
330
8BC
100
AcDbEntity
  8
DEFPOINTS
  6
ByBlock
 62
     0
380
     1
100
AcDbPoint
 10
1035.417598329388
 20
567.5016082547342
 30
0.0
  0
POINT
  5
8B4
330
8BC
100
AcDbEntity
  8
DEFPOINTS
  6
ByBlock
 62
     0
380
     1
100
AcDbPoint
 10
1172.969417289843
 20
497.5519831055303
 30
0.0
  0
LINE
  5
8B5
330
8BC
100
AcDbEntity
  8
0
  6
ByBlock
 62
     0
370
    -2
380
     1
100
AcDbLine
 10
1035.417598329388
 20
568.1266082547342
 30
0.0
 11
1035.417598329388
 21
674.1642375634842
 31
0.0
  0
LINE
  5
8B6
330
8BC
100
AcDbEntity
  8
0
  6
ByBlock
 62
     0
370
    -2
380
     1
100
AcDbLine
 10
1172.969417289843
 20
498.1769831055303
 30
0.0
 11
1172.969417289843
 21
674.1642375634842
 31
0.0
  0
LINE
  5
8B7
330
8BC
100
AcDbEntity
  8
0
  6
ByBlock
 62
     0
370
    -2
380
     1
100
AcDbLine
 10
1037.917598329388
 20
672.9142375634842
 30
0.0
 11
1170.469417289843
 21
672.9142375634842
 31
0.0
  0
SOLID
  5
8B8
330
8BC
100
AcDbEntity
  8
0
  6
ByBlock
 62
     0
380
     1
100
AcDbTrace
 10
1035.417598329388
 20
672.9142375634842
 30
0.0
 11
1037.917598329388
 21
672.4975708968176
 31
0.0
 12
1037.917598329388
 22
673.3309042301508
 32
0.0
 13
1037.917598329388
 23
673.3309042301508
 33
0.0
  0
SOLID
  5
8B9
330
8BC
100
AcDbEntity
  8
0
  6
ByBlock
 62
     0
380
     1
100
AcDbTrace
 10
1172.969417289843
 20
672.9142375634842
 30
0.0
 11
1170.469417289843
 21
672.4975708968176
 31
0.0
 12
1170.469417289843
 22
673.3309042301508
 32
0.0
 13
1170.469417289843
 23
673.3309042301508
 33
0.0
  0
MTEXT
  5
8BA
330
8BC
100
AcDbEntity
  8
0
  6
ByBlock
 62
     0
370
    -2
380
     1
100
AcDbMText
 10
1104.193507809615
 20
674.9142375634842
 30
0.0
 40
2.5
 41
0.0
 71
     5
 72
     1
  1
\A1;137,55
 73
     1
 44
1.0
  0
ENDBLK
  5
A92
330
8BC
100
AcDbEntity
  8
0
100
AcDbBlockEnd
  0
BLOCK
  5
A93
330
8C7
100
AcDbEntity
  8
0
100
AcDbBlockBegin
  2
*D32
 70
     1
 10
0.0
 20
0.0
 30
0.0
  3
*D32
  1

  0
POINT
  5
8BE
330
8C7
100
AcDbEntity
  8
DEFPOINTS
  6
ByBlock
 62
     0
380
     1
100
AcDbPoint
 10
1035.417598329388
 20
567.5016082547342
 30
0.0
  0
POINT
  5
8BF
330
8C7
100
AcDbEntity
  8
DEFPOINTS
  6
ByBlock
 62
     0
380
     1
100
AcDbPoint
 10
1172.969417289843
 20
497.5519831055303
 30
0.0
  0
LINE
  5
8C0
330
8C7
100
AcDbEntity
  8
0
  6
ByBlock
 62
     0
370
    -2
380
     1
100
AcDbLine
 10
1035.417598329388
 20
568.1266082547342
 30
0.0
 11
1035.417598329388
 21
674.1642375634842
 31
0.0
  0
LINE
  5
8C1
330
8C7
100
AcDbEntity
  8
0
  6
ByBlock
 62
     0
370
    -2
380
     1
100
AcDbLine
 10
1172.969417289843
 20
498.1769831055303
 30
0.0
 11
1172.969417289843
 21
674.1642375634842
 31
0.0
  0
LINE
  5
8C2
330
8C7
100
AcDbEntity
  8
0
  6
ByBlock
 62
     0
370
    -2
380
     1
100
AcDbLine
 10
1037.917598329388
 20
672.9142375634842
 30
0.0
 11
1170.469417289843
 21
672.9142375634842
 31
0.0
  0
SOLID
  5
8C3
330
8C7
100
AcDbEntity
  8
0
  6
ByBlock
 62
     0
380
     1
100
AcDbTrace
 10
1035.417598329388
 20
672.9142375634842
 30
0.0
 11
1037.917598329388
 21
672.4975708968176
 31
0.0
 12
1037.917598329388
 22
673.3309042301508
 32
0.0
 13
1037.917598329388
 23
673.3309042301508
 33
0.0
  0
SOLID
  5
8C4
330
8C7
100
AcDbEntity
  8
0
  6
ByBlock
 62
     0
380
     1
100
AcDbTrace
 10
1172.969417289843
 20
672.9142375634842
 30
0.0
 11
1170.469417289843
 21
672.4975708968176
 31
0.0
 12
1170.469417289843
 22
673.3309042301508
 32
0.0
 13
1170.469417289843
 23
673.3309042301508
 33
0.0
  0
MTEXT
  5
8C5
330
8C7
100
AcDbEntity
  8
0
  6
ByBlock
 62
     0
370
    -2
380
     1
100
AcDbMText
 10
1104.193507809615
 20
674.9142375634842
 30
0.0
 40
2.5
 41
0.0
 71
     5
 72
     1
  1
\A1;137,55
 73
     1
 44
1.0
  0
ENDBLK
  5
A94
330
8C7
100
AcDbEntity
  8
0
100
AcDbBlockEnd
  0
BLOCK
  5
A95
330
8D2
100
AcDbEntity
  8
0
100
AcDbBlockBegin
  2
*D33
 70
     1
 10
0.0
 20
0.0
 30
0.0
  3
*D33
  1

  0
POINT
  5
8C9
330
8D2
100
AcDbEntity
  8
DEFPOINTS
  6
ByBlock
 62
     7
380
     1
100
AcDbPoint
 10
1035.417598329388
 20
567.5016082547342
 30
0.0
  0
POINT
  5
8CA
330
8D2
100
AcDbEntity
  8
DEFPOINTS
  6
ByBlock
 62
     7
380
     1
100
AcDbPoint
 10
1172.969417289843
 20
497.5519831055303
 30
0.0
  0
LINE
  5
8CB
330
8D2
100
AcDbEntity
  8
0
  6
ByBlock
 62
     7
370
    -2
380
     1
100
AcDbLine
 10
1035.417598329388
 20
568.1266082547342
 30
0.0
 11
1035.417598329388
 21
674.1642375634842
 31
0.0
  0
LINE
  5
8CC
330
8D2
100
AcDbEntity
  8
0
  6
ByBlock
 62
     7
370
    -2
380
     1
100
AcDbLine
 10
1172.969417289843
 20
498.1769831055303
 30
0.0
 11
1172.969417289843
 21
674.1642375634842
 31
0.0
  0
LINE
  5
8CD
330
8D2
100
AcDbEntity
  8
0
  6
ByBlock
 62
     7
370
    -2
380
     1
100
AcDbLine
 10
1045.417598329388
 20
672.9142375634842
 30
0.0
 11
1162.969417289843
 21
672.9142375634842
 31
0.0
  0
SOLID
  5
8CE
330
8D2
100
AcDbEntity
  8
0
  6
ByBlock
 62
     7
380
     1
100
AcDbTrace
 10
1035.417598329388
 20
672.9142375634842
 30
0.0
 11
1045.417598329388
 21
671.2475708968176
 31
0.0
 12
1045.417598329388
 22
674.5809042301508
 32
0.0
 13
1045.417598329388
 23
674.5809042301508
 33
0.0
  0
SOLID
  5
8CF
330
8D2
100
AcDbEntity
  8
0
  6
ByBlock
 62
     7
380
     1
100
AcDbTrace
 10
1172.969417289843
 20
672.9142375634842
 30
0.0
 11
1162.969417289843
 21
671.2475708968176
 31
0.0
 12
1162.969417289843
 22
674.5809042301508
 32
0.0
 13
1162.969417289843
 23
674.5809042301508
 33
0.0
  0
MTEXT
  5
8D0
330
8D2
100
AcDbEntity
  8
0
  6
ByBlock
 62
     0
370
    -2
380
     1
100
AcDbMText
 10
1104.193507809615
 20
684.2142375634842
 30
0.0
 40
14.0
 41
0.0
 71
     5
 72
     1
  1
\A1;138
 73
     1
 44
1.0
  0
ENDBLK
  5
A96
330
8D2
100
AcDbEntity
  8
0
100
AcDbBlockEnd
  0
BLOCK
  5
A97
330
8DD
100
AcDbEntity
  8
0
100
AcDbBlockBegin
  2
*D34
 70
     1
 10
0.0
 20
0.0
 30
0.0
  3
*D34
  1

  0
POINT
  5
8D4
330
8DD
100
AcDbEntity
  8
DEFPOINTS
  6
ByBlock
 62
     7
380
     1
100
AcDbPoint
 10
1035.417598329388
 20
567.5016082547342
 30
0.0
  0
POINT
  5
8D5
330
8DD
100
AcDbEntity
  8
DEFPOINTS
  6
ByBlock
 62
     7
380
     1
100
AcDbPoint
 10
1172.969417289843
 20
497.5519831055303
 30
0.0
  0
LINE
  5
8D6
330
8DD
100
AcDbEntity
  8
0
  6
ByBlock
 62
     7
370
    -2
380
     1
100
AcDbLine
 10
1035.417598329388
 20
568.1266082547342
 30
0.0
 11
1035.417598329388
 21
674.1642375634842
 31
0.0
  0
LINE
  5
8D7
330
8DD
100
AcDbEntity
  8
0
  6
ByBlock
 62
     7
370
    -2
380
     1
100
AcDbLine
 10
1172.969417289843
 20
498.1769831055303
 30
0.0
 11
1172.969417289843
 21
674.1642375634842
 31
0.0
  0
LINE
  5
8D8
330
8DD
100
AcDbEntity
  8
0
  6
ByBlock
 62
     7
370
    -2
380
     1
100
AcDbLine
 10
1045.417598329388
 20
672.9142375634842
 30
0.0
 11
1162.969417289843
 21
672.9142375634842
 31
0.0
  0
SOLID
  5
8D9
330
8DD
100
AcDbEntity
  8
0
  6
ByBlock
 62
     7
380
     1
100
AcDbTrace
 10
1035.417598329388
 20
672.9142375634842
 30
0.0
 11
1045.417598329388
 21
671.2475708968176
 31
0.0
 12
1045.417598329388
 22
674.5809042301508
 32
0.0
 13
1045.417598329388
 23
674.5809042301508
 33
0.0
  0
SOLID
  5
8DA
330
8DD
100
AcDbEntity
  8
0
  6
ByBlock
 62
     7
380
     1
100
AcDbTrace
 10
1172.969417289843
 20
672.9142375634842
 30
0.0
 11
1162.969417289843
 21
671.2475708968176
 31
0.0
 12
1162.969417289843
 22
674.5809042301508
 32
0.0
 13
1162.969417289843
 23
674.5809042301508
 33
0.0
  0
MTEXT
  5
8DB
330
8DD
100
AcDbEntity
  8
0
  6
ByBlock
 62
     0
370
    -2
380
     1
100
AcDbMText
 10
1098.778130570485
 20
684.2142375634842
 30
0.0
 40
14.0
 41
0.0
 71
     5
 72
     1
  1
\A1;138
 73
     1
 44
1.0
  0
ENDBLK
  5
A98
330
8DD
100
AcDbEntity
  8
0
100
AcDbBlockEnd
  0
BLOCK
  5
A99
330
986
100
AcDbEntity
  8
0
100
AcDbBlockBegin
  2
*D35
 70
     1
 10
0.0
 20
0.0
 30
0.0
  3
*D35
  1

  0
POINT
  5
97D
330
986
100
AcDbEntity
  8
DEFPOINTS
  6
ByBlock
 62
     7
380
     1
100
AcDbPoint
 10
682.8619166450172
 20
485.8846474857474
 30
0.0
  0
POINT
  5
97E
330
986
100
AcDbEntity
  8
DEFPOINTS
  6
ByBlock
 62
     7
380
     1
100
AcDbPoint
 10
962.8561124780879
 20
487.5708222547342
 30
0.0
  0
LINE
  5
97F
330
986
100
AcDbEntity
  8
0
  6
ByBlock
 62
     7
370
    -2
380
     1
100
AcDbLine
 10
682.8619166450172
 20
486.5096474857474
 30
0.0
 11
682.8619166450172
 21
674.1642375634842
 31
0.0
  0
LINE
  5
980
330
986
100
AcDbEntity
  8
0
  6
ByBlock
 62
     7
370
    -2
380
     1
100
AcDbLine
 10
962.8561124780879
 20
488.1958222547342
 30
0.0
 11
962.8561124780879
 21
674.1642375634842
 31
0.0
  0
LINE
  5
981
330
986
100
AcDbEntity
  8
0
  6
ByBlock
 62
     7
370
    -2
380
     1
100
AcDbLine
 10
692.8619166450172
 20
672.9142375634842
 30
0.0
 11
952.8561124780879
 21
672.9142375634842
 31
0.0
  0
SOLID
  5
982
330
986
100
AcDbEntity
  8
0
  6
ByBlock
 62
     7
380
     1
100
AcDbTrace
 10
682.8619166450172
 20
672.9142375634842
 30
0.0
 11
692.8619166450172
 21
671.2475708968176
 31
0.0
 12
692.8619166450172
 22
674.5809042301508
 32
0.0
 13
692.8619166450172
 23
674.5809042301508
 33
0.0
  0
SOLID
  5
983
330
986
100
AcDbEntity
  8
0
  6
ByBlock
 62
     7
380
     1
100
AcDbTrace
 10
962.8561124780879
 20
672.9142375634842
 30
0.0
 11
952.8561124780879
 21
671.2475708968176
 31
0.0
 12
952.8561124780879
 22
674.5809042301508
 32
0.0
 13
952.8561124780879
 23
674.5809042301508
 33
0.0
  0
MTEXT
  5
984
330
986
100
AcDbEntity
  8
0
  6
ByBlock
 62
     0
370
    -2
380
     1
100
AcDbMText
 10
822.8590145615526
 20
699.1284107918307
 30
0.0
 40
36.0
 41
0.0
 71
     5
 72
     1
  1
\A1;280
 73
     1
 44
1.0
  0
ENDBLK
  5
A9A
330
986
100
AcDbEntity
  8
0
100
AcDbBlockEnd
  0
BLOCK
  5
A9B
330
991
100
AcDbEntity
  8
0
100
AcDbBlockBegin
  2
*D36
 70
     1
 10
0.0
 20
0.0
 30
0.0
  3
*D36
  1

  0
POINT
  5
988
330
991
100
AcDbEntity
  8
DEFPOINTS
  6
ByBlock
 62
     7
380
     1
100
AcDbPoint
 10
1035.417598329388
 20
567.5016082547342
 30
0.0
  0
POINT
  5
989
330
991
100
AcDbEntity
  8
DEFPOINTS
  6
ByBlock
 62
     7
380
     1
100
AcDbPoint
 10
1172.969417289843
 20
497.5519831055303
 30
0.0
  0
LINE
  5
98A
330
991
100
AcDbEntity
  8
0
  6
ByBlock
 62
     7
370
    -2
380
     1
100
AcDbLine
 10
1035.417598329388
 20
568.1266082547342
 30
0.0
 11
1035.417598329388
 21
674.1642375634842
 31
0.0
  0
LINE
  5
98B
330
991
100
AcDbEntity
  8
0
  6
ByBlock
 62
     7
370
    -2
380
     1
100
AcDbLine
 10
1172.969417289843
 20
498.1769831055303
 30
0.0
 11
1172.969417289843
 21
674.1642375634842
 31
0.0
  0
LINE
  5
98C
330
991
100
AcDbEntity
  8
0
  6
ByBlock
 62
     7
370
    -2
380
     1
100
AcDbLine
 10
1045.417598329388
 20
672.9142375634842
 30
0.0
 11
1162.969417289843
 21
672.9142375634842
 31
0.0
  0
SOLID
  5
98D
330
991
100
AcDbEntity
  8
0
  6
ByBlock
 62
     7
380
     1
100
AcDbTrace
 10
1035.417598329388
 20
672.9142375634842
 30
0.0
 11
1045.417598329388
 21
671.2475708968176
 31
0.0
 12
1045.417598329388
 22
674.5809042301508
 32
0.0
 13
1045.417598329388
 23
674.5809042301508
 33
0.0
  0
SOLID
  5
98E
330
991
100
AcDbEntity
  8
0
  6
ByBlock
 62
     7
380
     1
100
AcDbTrace
 10
1172.969417289843
 20
672.9142375634842
 30
0.0
 11
1162.969417289843
 21
671.2475708968176
 31
0.0
 12
1162.969417289843
 22
674.5809042301508
 32
0.0
 13
1162.969417289843
 23
674.5809042301508
 33
0.0
  0
MTEXT
  5
98F
330
991
100
AcDbEntity
  8
0
  6
ByBlock
 62
     0
370
    -2
380
     1
100
AcDbMText
 10
1098.778130570485
 20
684.2142375634842
 30
0.0
 40
14.0
 41
0.0
 71
     5
 72
     1
  1
\A1;138
 73
     1
 44
1.0
  0
ENDBLK
  5
A9C
330
991
100
AcDbEntity
  8
0
100
AcDbBlockEnd
  0
BLOCK
  5
A9D
330
99C
100
AcDbEntity
  8
0
100
AcDbBlockBegin
  2
*D37
 70
     1
 10
0.0
 20
0.0
 30
0.0
  3
*D37
  1

  0
POINT
  5
993
330
99C
100
AcDbEntity
  8
DEFPOINTS
  6
ByBlock
 62
     7
380
     1
100
AcDbPoint
 10
856.6371404780879
 20
642.2635562547341
 30
0.0
  0
POINT
  5
994
330
99C
100
AcDbEntity
  8
DEFPOINTS
  6
ByBlock
 62
     7
380
     1
100
AcDbPoint
 10
824.3733467727674
 20
417.4607302547342
 30
0.0
  0
LINE
  5
995
330
99C
100
AcDbEntity
  8
0
  6
ByBlock
 62
     7
370
    -2
380
     1
100
AcDbLine
 10
857.2621404780879
 20
642.2635562547341
 30
0.0
 11
992.8342217919009
 21
642.2635562547341
 31
0.0
  0
LINE
  5
996
330
99C
100
AcDbEntity
  8
0
  6
ByBlock
 62
     7
370
    -2
380
     1
100
AcDbLine
 10
824.9983467727674
 20
417.4607302547342
 30
0.0
 11
992.8342217919009
 21
417.4607302547342
 31
0.0
  0
LINE
  5
997
330
99C
100
AcDbEntity
  8
0
  6
ByBlock
 62
     7
370
    -2
380
     1
100
AcDbLine
 10
991.5842217919009
 20
632.2635562547341
 30
0.0
 11
991.5842217919009
 21
427.4607302547342
 31
0.0
  0
SOLID
  5
998
330
99C
100
AcDbEntity
  8
0
  6
ByBlock
 62
     7
380
     1
100
AcDbTrace
 10
991.5842217919009
 20
642.2635562547341
 30
0.0
 11
989.9175551252342
 21
632.2635562547341
 31
0.0
 12
993.2508884585675
 22
632.2635562547341
 32
0.0
 13
993.2508884585675
 23
632.2635562547341
 33
0.0
  0
SOLID
  5
999
330
99C
100
AcDbEntity
  8
0
  6
ByBlock
 62
     7
380
     1
100
AcDbTrace
 10
991.5842217919009
 20
417.4607302547342
 30
0.0
 11
989.9175551252342
 21
427.4607302547342
 31
0.0
 12
993.2508884585675
 22
427.4607302547342
 32
0.0
 13
993.2508884585675
 23
427.4607302547342
 33
0.0
  0
MTEXT
  5
99A
330
99C
100
AcDbEntity
  8
0
  6
ByBlock
 62
     0
370
    -2
380
     1
100
AcDbMText
 10
980.2842217919009
 20
529.8621432547342
 30
0.0
 40
14.0
 41
0.0
 71
     5
 72
     1
  1
\A1;225
 11
6.123031769111886E-17
 21
1.0
 31
0.0
 73
     1
 44
1.0
  0
ENDBLK
  5
A9E
330
99C
100
AcDbEntity
  8
0
100
AcDbBlockEnd
  0
BLOCK
  5
A9F
330
9A7
100
AcDbEntity
  8
0
100
AcDbBlockBegin
  2
*D38
 70
     1
 10
0.0
 20
0.0
 30
0.0
  3
*D38
  1

  0
POINT
  5
99E
330
9A7
100
AcDbEntity
  8
DEFPOINTS
  6
ByBlock
 62
     7
380
     1
100
AcDbPoint
 10
682.8619166450172
 20
485.8846474857474
 30
0.0
  0
POINT
  5
99F
330
9A7
100
AcDbEntity
  8
DEFPOINTS
  6
ByBlock
 62
     7
380
     1
100
AcDbPoint
 10
962.8561124780879
 20
487.5708222547342
 30
0.0
  0
LINE
  5
9A0
330
9A7
100
AcDbEntity
  8
0
  6
ByBlock
 62
     7
370
    -2
380
     1
100
AcDbLine
 10
682.8619166450172
 20
486.5096474857474
 30
0.0
 11
682.8619166450172
 21
674.1642375634842
 31
0.0
  0
LINE
  5
9A1
330
9A7
100
AcDbEntity
  8
0
  6
ByBlock
 62
     7
370
    -2
380
     1
100
AcDbLine
 10
962.8561124780879
 20
488.1958222547342
 30
0.0
 11
962.8561124780879
 21
674.1642375634842
 31
0.0
  0
LINE
  5
9A2
330
9A7
100
AcDbEntity
  8
0
  6
ByBlock
 62
     7
370
    -2
380
     1
100
AcDbLine
 10
692.8619166450172
 20
672.9142375634842
 30
0.0
 11
952.8561124780879
 21
672.9142375634842
 31
0.0
  0
SOLID
  5
9A3
330
9A7
100
AcDbEntity
  8
0
  6
ByBlock
 62
     7
380
     1
100
AcDbTrace
 10
682.8619166450172
 20
672.9142375634842
 30
0.0
 11
692.8619166450172
 21
671.2475708968176
 31
0.0
 12
692.8619166450172
 22
674.5809042301508
 32
0.0
 13
692.8619166450172
 23
674.5809042301508
 33
0.0
  0
SOLID
  5
9A4
330
9A7
100
AcDbEntity
  8
0
  6
ByBlock
 62
     7
380
     1
100
AcDbTrace
 10
962.8561124780879
 20
672.9142375634842
 30
0.0
 11
952.8561124780879
 21
671.2475708968176
 31
0.0
 12
952.8561124780879
 22
674.5809042301508
 32
0.0
 13
952.8561124780879
 23
674.5809042301508
 33
0.0
  0
MTEXT
  5
9A5
330
9A7
100
AcDbEntity
  8
0
  6
ByBlock
 62
     0
370
    -2
380
     1
100
AcDbMText
 10
822.8590145615526
 20
699.1284107918307
 30
0.0
 40
36.0
 41
0.0
 71
     5
 72
     1
  1
\A1;280
 73
     1
 44
1.0
  0
ENDBLK
  5
AA0
330
9A7
100
AcDbEntity
  8
0
100
AcDbBlockEnd
  0
BLOCK
  5
AA1
330
9B2
100
AcDbEntity
  8
0
100
AcDbBlockBegin
  2
*D39
 70
     1
 10
0.0
 20
0.0
 30
0.0
  3
*D39
  1

  0
POINT
  5
9A9
330
9B2
100
AcDbEntity
  8
DEFPOINTS
  6
ByBlock
 62
     7
380
     1
100
AcDbPoint
 10
1035.417598329388
 20
567.5016082547342
 30
0.0
  0
POINT
  5
9AA
330
9B2
100
AcDbEntity
  8
DEFPOINTS
  6
ByBlock
 62
     7
380
     1
100
AcDbPoint
 10
1172.969417289843
 20
497.5519831055303
 30
0.0
  0
LINE
  5
9AB
330
9B2
100
AcDbEntity
  8
0
  6
ByBlock
 62
     7
370
    -2
380
     1
100
AcDbLine
 10
1035.417598329388
 20
568.1266082547342
 30
0.0
 11
1035.417598329388
 21
674.1642375634842
 31
0.0
  0
LINE
  5
9AC
330
9B2
100
AcDbEntity
  8
0
  6
ByBlock
 62
     7
370
    -2
380
     1
100
AcDbLine
 10
1172.969417289843
 20
498.1769831055303
 30
0.0
 11
1172.969417289843
 21
674.1642375634842
 31
0.0
  0
LINE
  5
9AD
330
9B2
100
AcDbEntity
  8
0
  6
ByBlock
 62
     7
370
    -2
380
     1
100
AcDbLine
 10
1045.417598329388
 20
672.9142375634842
 30
0.0
 11
1162.969417289843
 21
672.9142375634842
 31
0.0
  0
SOLID
  5
9AE
330
9B2
100
AcDbEntity
  8
0
  6
ByBlock
 62
     7
380
     1
100
AcDbTrace
 10
1035.417598329388
 20
672.9142375634842
 30
0.0
 11
1045.417598329388
 21
671.2475708968176
 31
0.0
 12
1045.417598329388
 22
674.5809042301508
 32
0.0
 13
1045.417598329388
 23
674.5809042301508
 33
0.0
  0
SOLID
  5
9AF
330
9B2
100
AcDbEntity
  8
0
  6
ByBlock
 62
     7
380
     1
100
AcDbTrace
 10
1172.969417289843
 20
672.9142375634842
 30
0.0
 11
1162.969417289843
 21
671.2475708968176
 31
0.0
 12
1162.969417289843
 22
674.5809042301508
 32
0.0
 13
1162.969417289843
 23
674.5809042301508
 33
0.0
  0
MTEXT
  5
9B0
330
9B2
100
AcDbEntity
  8
0
  6
ByBlock
 62
     0
370
    -2
380
     1
100
AcDbMText
 10
1098.778130570485
 20
684.2142375634842
 30
0.0
 40
14.0
 41
0.0
 71
     5
 72
     1
  1
\A1;138
 73
     1
 44
1.0
  0
ENDBLK
  5
AA2
330
9B2
100
AcDbEntity
  8
0
100
AcDbBlockEnd
  0
BLOCK
  5
AA3
330
9BD
100
AcDbEntity
  8
0
100
AcDbBlockBegin
  2
*D40
 70
     1
 10
0.0
 20
0.0
 30
0.0
  3
*D40
  1

  0
POINT
  5
9B4
330
9BD
100
AcDbEntity
  8
DEFPOINTS
  6
ByBlock
 62
     7
380
     1
100
AcDbPoint
 10
856.6371404780879
 20
642.2635562547341
 30
0.0
  0
POINT
  5
9B5
330
9BD
100
AcDbEntity
  8
DEFPOINTS
  6
ByBlock
 62
     7
380
     1
100
AcDbPoint
 10
824.3733467727674
 20
417.4607302547342
 30
0.0
  0
LINE
  5
9B6
330
9BD
100
AcDbEntity
  8
0
  6
ByBlock
 62
     7
370
    -2
380
     1
100
AcDbLine
 10
857.2621404780879
 20
642.2635562547341
 30
0.0
 11
992.8342217919009
 21
642.2635562547341
 31
0.0
  0
LINE
  5
9B7
330
9BD
100
AcDbEntity
  8
0
  6
ByBlock
 62
     7
370
    -2
380
     1
100
AcDbLine
 10
824.9983467727674
 20
417.4607302547342
 30
0.0
 11
992.8342217919009
 21
417.4607302547342
 31
0.0
  0
LINE
  5
9B8
330
9BD
100
AcDbEntity
  8
0
  6
ByBlock
 62
     7
370
    -2
380
     1
100
AcDbLine
 10
991.5842217919009
 20
632.2635562547341
 30
0.0
 11
991.5842217919009
 21
427.4607302547342
 31
0.0
  0
SOLID
  5
9B9
330
9BD
100
AcDbEntity
  8
0
  6
ByBlock
 62
     7
380
     1
100
AcDbTrace
 10
991.5842217919009
 20
642.2635562547341
 30
0.0
 11
989.9175551252342
 21
632.2635562547341
 31
0.0
 12
993.2508884585675
 22
632.2635562547341
 32
0.0
 13
993.2508884585675
 23
632.2635562547341
 33
0.0
  0
SOLID
  5
9BA
330
9BD
100
AcDbEntity
  8
0
  6
ByBlock
 62
     7
380
     1
100
AcDbTrace
 10
991.5842217919009
 20
417.4607302547342
 30
0.0
 11
989.9175551252342
 21
427.4607302547342
 31
0.0
 12
993.2508884585675
 22
427.4607302547342
 32
0.0
 13
993.2508884585675
 23
427.4607302547342
 33
0.0
  0
MTEXT
  5
9BB
330
9BD
100
AcDbEntity
  8
0
  6
ByBlock
 62
     0
370
    -2
380
     1
100
AcDbMText
 10
980.2842217919009
 20
529.8621432547342
 30
0.0
 40
14.0
 41
0.0
 71
     5
 72
     1
  1
\A1;225
 11
6.123031769111886E-17
 21
1.0
 31
0.0
 73
     1
 44
1.0
  0
ENDBLK
  5
AA4
330
9BD
100
AcDbEntity
  8
0
100
AcDbBlockEnd
  0
BLOCK
  5
AA5
330
9C8
100
AcDbEntity
  8
0
100
AcDbBlockBegin
  2
*D41
 70
     1
 10
0.0
 20
0.0
 30
0.0
  3
*D41
  1

  0
POINT
  5
9BF
330
9C8
100
AcDbEntity
  8
DEFPOINTS
  6
ByBlock
 62
     7
380
     1
100
AcDbPoint
 10
682.8619166450172
 20
485.8846474857474
 30
0.0
  0
POINT
  5
9C0
330
9C8
100
AcDbEntity
  8
DEFPOINTS
  6
ByBlock
 62
     7
380
     1
100
AcDbPoint
 10
962.8561124780879
 20
487.5708222547342
 30
0.0
  0
LINE
  5
9C1
330
9C8
100
AcDbEntity
  8
0
  6
ByBlock
 62
     7
370
    -2
380
     1
100
AcDbLine
 10
682.8619166450172
 20
486.5096474857474
 30
0.0
 11
682.8619166450172
 21
674.1642375634842
 31
0.0
  0
LINE
  5
9C2
330
9C8
100
AcDbEntity
  8
0
  6
ByBlock
 62
     7
370
    -2
380
     1
100
AcDbLine
 10
962.8561124780879
 20
488.1958222547342
 30
0.0
 11
962.8561124780879
 21
674.1642375634842
 31
0.0
  0
LINE
  5
9C3
330
9C8
100
AcDbEntity
  8
0
  6
ByBlock
 62
     7
370
    -2
380
     1
100
AcDbLine
 10
692.8619166450172
 20
672.9142375634842
 30
0.0
 11
952.8561124780879
 21
672.9142375634842
 31
0.0
  0
SOLID
  5
9C4
330
9C8
100
AcDbEntity
  8
0
  6
ByBlock
 62
     7
380
     1
100
AcDbTrace
 10
682.8619166450172
 20
672.9142375634842
 30
0.0
 11
692.8619166450172
 21
671.2475708968176
 31
0.0
 12
692.8619166450172
 22
674.5809042301508
 32
0.0
 13
692.8619166450172
 23
674.5809042301508
 33
0.0
  0
SOLID
  5
9C5
330
9C8
100
AcDbEntity
  8
0
  6
ByBlock
 62
     7
380
     1
100
AcDbTrace
 10
962.8561124780879
 20
672.9142375634842
 30
0.0
 11
952.8561124780879
 21
671.2475708968176
 31
0.0
 12
952.8561124780879
 22
674.5809042301508
 32
0.0
 13
952.8561124780879
 23
674.5809042301508
 33
0.0
  0
MTEXT
  5
9C6
330
9C8
100
AcDbEntity
  8
0
  6
ByBlock
 62
     0
370
    -2
380
     1
100
AcDbMText
 10
822.8590145615526
 20
699.1284107918307
 30
0.0
 40
36.0
 41
0.0
 71
     5
 72
     1
  1
\A1;280
 73
     1
 44
1.0
  0
ENDBLK
  5
AA6
330
9C8
100
AcDbEntity
  8
0
100
AcDbBlockEnd
  0
BLOCK
  5
AA7
330
9D3
100
AcDbEntity
  8
0
100
AcDbBlockBegin
  2
*D42
 70
     1
 10
0.0
 20
0.0
 30
0.0
  3
*D42
  1

  0
POINT
  5
9CA
330
9D3
100
AcDbEntity
  8
DEFPOINTS
  6
ByBlock
 62
     7
380
     1
100
AcDbPoint
 10
682.8619166450172
 20
485.8846474857474
 30
0.0
  0
POINT
  5
9CB
330
9D3
100
AcDbEntity
  8
DEFPOINTS
  6
ByBlock
 62
     7
380
     1
100
AcDbPoint
 10
962.8561124780879
 20
487.5708222547342
 30
0.0
  0
LINE
  5
9CC
330
9D3
100
AcDbEntity
  8
0
  6
ByBlock
 62
     7
370
    -2
380
     1
100
AcDbLine
 10
682.8619166450172
 20
486.5096474857474
 30
0.0
 11
682.8619166450172
 21
674.1642375634842
 31
0.0
  0
LINE
  5
9CD
330
9D3
100
AcDbEntity
  8
0
  6
ByBlock
 62
     7
370
    -2
380
     1
100
AcDbLine
 10
962.8561124780879
 20
488.1958222547342
 30
0.0
 11
962.8561124780879
 21
674.1642375634842
 31
0.0
  0
LINE
  5
9CE
330
9D3
100
AcDbEntity
  8
0
  6
ByBlock
 62
     7
370
    -2
380
     1
100
AcDbLine
 10
692.8619166450172
 20
672.9142375634842
 30
0.0
 11
952.8561124780879
 21
672.9142375634842
 31
0.0
  0
SOLID
  5
9CF
330
9D3
100
AcDbEntity
  8
0
  6
ByBlock
 62
     7
380
     1
100
AcDbTrace
 10
682.8619166450172
 20
672.9142375634842
 30
0.0
 11
692.8619166450172
 21
671.2475708968176
 31
0.0
 12
692.8619166450172
 22
674.5809042301508
 32
0.0
 13
692.8619166450172
 23
674.5809042301508
 33
0.0
  0
SOLID
  5
9D0
330
9D3
100
AcDbEntity
  8
0
  6
ByBlock
 62
     7
380
     1
100
AcDbTrace
 10
962.8561124780879
 20
672.9142375634842
 30
0.0
 11
952.8561124780879
 21
671.2475708968176
 31
0.0
 12
952.8561124780879
 22
674.5809042301508
 32
0.0
 13
952.8561124780879
 23
674.5809042301508
 33
0.0
  0
MTEXT
  5
9D1
330
9D3
100
AcDbEntity
  8
0
  6
ByBlock
 62
     0
370
    -2
380
     1
100
AcDbMText
 10
822.8590145615526
 20
699.1284107918307
 30
0.0
 40
36.0
 41
0.0
 71
     5
 72
     1
  1
\A1;280
 73
     1
 44
1.0
  0
ENDBLK
  5
AA8
330
9D3
100
AcDbEntity
  8
0
100
AcDbBlockEnd
  0
BLOCK
  5
AA9
330
9DE
100
AcDbEntity
  8
0
100
AcDbBlockBegin
  2
*D43
 70
     1
 10
0.0
 20
0.0
 30
0.0
  3
*D43
  1

  0
POINT
  5
9D5
330
9DE
100
AcDbEntity
  8
DEFPOINTS
  6
ByBlock
 62
     7
380
     1
100
AcDbPoint
 10
856.6371404780879
 20
642.2635562547341
 30
0.0
  0
POINT
  5
9D6
330
9DE
100
AcDbEntity
  8
DEFPOINTS
  6
ByBlock
 62
     7
380
     1
100
AcDbPoint
 10
824.3733467727674
 20
417.4607302547342
 30
0.0
  0
LINE
  5
9D7
330
9DE
100
AcDbEntity
  8
0
  6
ByBlock
 62
     7
370
    -2
380
     1
100
AcDbLine
 10
857.2621404780879
 20
642.2635562547341
 30
0.0
 11
992.8342217919009
 21
642.2635562547341
 31
0.0
  0
LINE
  5
9D8
330
9DE
100
AcDbEntity
  8
0
  6
ByBlock
 62
     7
370
    -2
380
     1
100
AcDbLine
 10
824.9983467727674
 20
417.4607302547342
 30
0.0
 11
992.8342217919009
 21
417.4607302547342
 31
0.0
  0
LINE
  5
9D9
330
9DE
100
AcDbEntity
  8
0
  6
ByBlock
 62
     7
370
    -2
380
     1
100
AcDbLine
 10
991.5842217919009
 20
632.2635562547341
 30
0.0
 11
991.5842217919009
 21
427.4607302547342
 31
0.0
  0
SOLID
  5
9DA
330
9DE
100
AcDbEntity
  8
0
  6
ByBlock
 62
     7
380
     1
100
AcDbTrace
 10
991.5842217919009
 20
642.2635562547341
 30
0.0
 11
989.9175551252342
 21
632.2635562547341
 31
0.0
 12
993.2508884585675
 22
632.2635562547341
 32
0.0
 13
993.2508884585675
 23
632.2635562547341
 33
0.0
  0
SOLID
  5
9DB
330
9DE
100
AcDbEntity
  8
0
  6
ByBlock
 62
     7
380
     1
100
AcDbTrace
 10
991.5842217919009
 20
417.4607302547342
 30
0.0
 11
989.9175551252342
 21
427.4607302547342
 31
0.0
 12
993.2508884585675
 22
427.4607302547342
 32
0.0
 13
993.2508884585675
 23
427.4607302547342
 33
0.0
  0
MTEXT
  5
9DC
330
9DE
100
AcDbEntity
  8
0
  6
ByBlock
 62
     0
370
    -2
380
     1
100
AcDbMText
 10
965.3842217919008
 20
529.8621432547342
 30
0.0
 40
36.0
 41
0.0
 71
     5
 72
     1
  1
\A1;225
 11
6.123031769111886E-17
 21
1.0
 31
0.0
 73
     1
 44
1.0
  0
ENDBLK
  5
AAA
330
9DE
100
AcDbEntity
  8
0
100
AcDbBlockEnd
  0
BLOCK
  5
AAB
330
A2B
100
AcDbEntity
  8
0
100
AcDbBlockBegin
  2
*D44
 70
     1
 10
0.0
 20
0.0
 30
0.0
  3
*D44
  1

  0
POINT
  5
A22
330
A2B
100
AcDbEntity
  8
DEFPOINTS
  6
ByBlock
 62
     7
380
     1
100
AcDbPoint
 10
856.6371404780879
 20
642.2635562547341
 30
0.0
  0
POINT
  5
A23
330
A2B
100
AcDbEntity
  8
DEFPOINTS
  6
ByBlock
 62
     7
380
     1
100
AcDbPoint
 10
824.3733467727674
 20
417.4607302547342
 30
0.0
  0
LINE
  5
A24
330
A2B
100
AcDbEntity
  8
0
  6
ByBlock
 62
     7
370
    -2
380
     1
100
AcDbLine
 10
857.2621404780879
 20
642.2635562547341
 30
0.0
 11
1015.948771017053
 21
642.2635562547341
 31
0.0
  0
LINE
  5
A25
330
A2B
100
AcDbEntity
  8
0
  6
ByBlock
 62
     7
370
    -2
380
     1
100
AcDbLine
 10
824.9983467727674
 20
417.4607302547342
 30
0.0
 11
1015.948771017053
 21
417.4607302547342
 31
0.0
  0
LINE
  5
A26
330
A2B
100
AcDbEntity
  8
0
  6
ByBlock
 62
     7
370
    -2
380
     1
100
AcDbLine
 10
1014.698771017053
 20
632.2635562547341
 30
0.0
 11
1014.698771017053
 21
427.4607302547342
 31
0.0
  0
SOLID
  5
A27
330
A2B
100
AcDbEntity
  8
0
  6
ByBlock
 62
     7
380
     1
100
AcDbTrace
 10
1014.698771017053
 20
642.2635562547341
 30
0.0
 11
1013.032104350386
 21
632.2635562547341
 31
0.0
 12
1016.36543768372
 22
632.2635562547341
 32
0.0
 13
1016.36543768372
 23
632.2635562547341
 33
0.0
  0
SOLID
  5
A28
330
A2B
100
AcDbEntity
  8
0
  6
ByBlock
 62
     7
380
     1
100
AcDbTrace
 10
1014.698771017053
 20
417.4607302547342
 30
0.0
 11
1013.032104350386
 21
427.4607302547342
 31
0.0
 12
1016.36543768372
 22
427.4607302547342
 32
0.0
 13
1016.36543768372
 23
427.4607302547342
 33
0.0
  0
MTEXT
  5
A29
330
A2B
100
AcDbEntity
  8
0
  6
ByBlock
 62
     0
370
    -2
380
     1
100
AcDbMText
 10
988.4987710170528
 20
529.8621432547342
 30
0.0
 40
36.0
 41
0.0
 71
     5
 72
     1
  1
\A1;225
 11
6.123031769111886E-17
 21
1.0
 31
0.0
 73
     1
 44
1.0
  0
ENDBLK
  5
AAC
330
A2B
100
AcDbEntity
  8
0
100
AcDbBlockEnd
  0
BLOCK
  5
AAD
330
A36
100
AcDbEntity
  8
0
100
AcDbBlockBegin
  2
*D45
 70
     1
 10
0.0
 20
0.0
 30
0.0
  3
*D45
  1

  0
POINT
  5
A2D
330
A36
100
AcDbEntity
  8
DEFPOINTS
  6
ByBlock
 62
     7
380
     1
100
AcDbPoint
 10
1035.417598329388
 20
567.5016082547342
 30
0.0
  0
POINT
  5
A2E
330
A36
100
AcDbEntity
  8
DEFPOINTS
  6
ByBlock
 62
     7
380
     1
100
AcDbPoint
 10
1172.969417289843
 20
497.5519831055303
 30
0.0
  0
LINE
  5
A2F
330
A36
100
AcDbEntity
  8
0
  6
ByBlock
 62
     7
370
    -2
380
     1
100
AcDbLine
 10
1035.417598329388
 20
568.1266082547342
 30
0.0
 11
1035.417598329388
 21
674.1642375634842
 31
0.0
  0
LINE
  5
A30
330
A36
100
AcDbEntity
  8
0
  6
ByBlock
 62
     7
370
    -2
380
     1
100
AcDbLine
 10
1172.969417289843
 20
498.1769831055303
 30
0.0
 11
1172.969417289843
 21
674.1642375634842
 31
0.0
  0
LINE
  5
A31
330
A36
100
AcDbEntity
  8
0
  6
ByBlock
 62
     7
370
    -2
380
     1
100
AcDbLine
 10
1045.417598329388
 20
672.9142375634842
 30
0.0
 11
1162.969417289843
 21
672.9142375634842
 31
0.0
  0
SOLID
  5
A32
330
A36
100
AcDbEntity
  8
0
  6
ByBlock
 62
     7
380
     1
100
AcDbTrace
 10
1035.417598329388
 20
672.9142375634842
 30
0.0
 11
1045.417598329388
 21
671.2475708968176
 31
0.0
 12
1045.417598329388
 22
674.5809042301508
 32
0.0
 13
1045.417598329388
 23
674.5809042301508
 33
0.0
  0
SOLID
  5
A33
330
A36
100
AcDbEntity
  8
0
  6
ByBlock
 62
     7
380
     1
100
AcDbTrace
 10
1172.969417289843
 20
672.9142375634842
 30
0.0
 11
1162.969417289843
 21
671.2475708968176
 31
0.0
 12
1162.969417289843
 22
674.5809042301508
 32
0.0
 13
1162.969417289843
 23
674.5809042301508
 33
0.0
  0
MTEXT
  5
A34
330
A36
100
AcDbEntity
  8
0
  6
ByBlock
 62
     0
370
    -2
380
     1
100
AcDbMText
 10
1098.778130570485
 20
684.2142375634842
 30
0.0
 40
14.0
 41
0.0
 71
     5
 72
     1
  1
\A1;138
 73
     1
 44
1.0
  0
ENDBLK
  5
AAE
330
A36
100
AcDbEntity
  8
0
100
AcDbBlockEnd
  0
BLOCK
  5
AAF
330
A41
100
AcDbEntity
  8
0
100
AcDbBlockBegin
  2
*D46
 70
     1
 10
0.0
 20
0.0
 30
0.0
  3
*D46
  1

  0
POINT
  5
A38
330
A41
100
AcDbEntity
  8
DEFPOINTS
  6
ByBlock
 62
     7
380
     1
100
AcDbPoint
 10
1078.056516024668
 20
567.5016082547342
 30
0.0
  0
POINT
  5
A39
330
A41
100
AcDbEntity
  8
DEFPOINTS
  6
ByBlock
 62
     7
380
     1
100
AcDbPoint
 10
1215.608334985123
 20
497.5519831055303
 30
0.0
  0
LINE
  5
A3A
330
A41
100
AcDbEntity
  8
0
  6
ByBlock
 62
     7
370
    -2
380
     1
100
AcDbLine
 10
1078.056516024668
 20
568.1266082547342
 30
0.0
 11
1078.056516024668
 21
674.1642375634842
 31
0.0
  0
LINE
  5
A3B
330
A41
100
AcDbEntity
  8
0
  6
ByBlock
 62
     7
370
    -2
380
     1
100
AcDbLine
 10
1215.608334985123
 20
498.1769831055303
 30
0.0
 11
1215.608334985123
 21
674.1642375634842
 31
0.0
  0
LINE
  5
A3C
330
A41
100
AcDbEntity
  8
0
  6
ByBlock
 62
     7
370
    -2
380
     1
100
AcDbLine
 10
1088.056516024668
 20
672.9142375634842
 30
0.0
 11
1205.608334985123
 21
672.9142375634842
 31
0.0
  0
SOLID
  5
A3D
330
A41
100
AcDbEntity
  8
0
  6
ByBlock
 62
     7
380
     1
100
AcDbTrace
 10
1078.056516024668
 20
672.9142375634842
 30
0.0
 11
1088.056516024668
 21
671.2475708968176
 31
0.0
 12
1088.056516024668
 22
674.5809042301508
 32
0.0
 13
1088.056516024668
 23
674.5809042301508
 33
0.0
  0
SOLID
  5
A3E
330
A41
100
AcDbEntity
  8
0
  6
ByBlock
 62
     7
380
     1
100
AcDbTrace
 10
1215.608334985123
 20
672.9142375634842
 30
0.0
 11
1205.608334985123
 21
671.2475708968176
 31
0.0
 12
1205.608334985123
 22
674.5809042301508
 32
0.0
 13
1205.608334985123
 23
674.5809042301508
 33
0.0
  0
MTEXT
  5
A3F
330
A41
100
AcDbEntity
  8
0
  6
ByBlock
 62
     0
370
    -2
380
     1
100
AcDbMText
 10
1141.417048265765
 20
684.2142375634842
 30
0.0
 40
14.0
 41
0.0
 71
     5
 72
     1
  1
\A1;138
 73
     1
 44
1.0
  0
ENDBLK
  5
AB0
330
A41
100
AcDbEntity
  8
0
100
AcDbBlockEnd
  0
BLOCK
  5
AB1
330
A4C
100
AcDbEntity
  8
0
100
AcDbBlockBegin
  2
*D47
 70
     1
 10
0.0
 20
0.0
 30
0.0
  3
*D47
  1

  0
POINT
  5
A43
330
A4C
100
AcDbEntity
  8
DEFPOINTS
  6
ByBlock
 62
     7
380
     1
100
AcDbPoint
 10
1078.056516024668
 20
567.5016082547342
 30
0.0
  0
POINT
  5
A44
330
A4C
100
AcDbEntity
  8
DEFPOINTS
  6
ByBlock
 62
     7
380
     1
100
AcDbPoint
 10
1215.608334985123
 20
497.5519831055303
 30
0.0
  0
LINE
  5
A45
330
A4C
100
AcDbEntity
  8
0
  6
ByBlock
 62
     7
370
    -2
380
     1
100
AcDbLine
 10
1078.056516024668
 20
568.1266082547342
 30
0.0
 11
1078.056516024668
 21
674.1642375634842
 31
0.0
  0
LINE
  5
A46
330
A4C
100
AcDbEntity
  8
0
  6
ByBlock
 62
     7
370
    -2
380
     1
100
AcDbLine
 10
1215.608334985123
 20
498.1769831055303
 30
0.0
 11
1215.608334985123
 21
674.1642375634842
 31
0.0
  0
LINE
  5
A47
330
A4C
100
AcDbEntity
  8
0
  6
ByBlock
 62
     7
370
    -2
380
     1
100
AcDbLine
 10
1088.056516024668
 20
672.9142375634842
 30
0.0
 11
1205.608334985123
 21
672.9142375634842
 31
0.0
  0
SOLID
  5
A48
330
A4C
100
AcDbEntity
  8
0
  6
ByBlock
 62
     7
380
     1
100
AcDbTrace
 10
1078.056516024668
 20
672.9142375634842
 30
0.0
 11
1088.056516024668
 21
671.2475708968176
 31
0.0
 12
1088.056516024668
 22
674.5809042301508
 32
0.0
 13
1088.056516024668
 23
674.5809042301508
 33
0.0
  0
SOLID
  5
A49
330
A4C
100
AcDbEntity
  8
0
  6
ByBlock
 62
     7
380
     1
100
AcDbTrace
 10
1215.608334985123
 20
672.9142375634842
 30
0.0
 11
1205.608334985123
 21
671.2475708968176
 31
0.0
 12
1205.608334985123
 22
674.5809042301508
 32
0.0
 13
1205.608334985123
 23
674.5809042301508
 33
0.0
  0
MTEXT
  5
A4A
330
A4C
100
AcDbEntity
  8
0
  6
ByBlock
 62
     0
370
    -2
380
     1
100
AcDbMText
 10
1141.417048265765
 20
699.1142375634843
 30
0.0
 40
36.0
 41
0.0
 71
     5
 72
     1
  1
\A1;138
 73
     1
 44
1.0
  0
ENDBLK
  5
AB2
330
A4C
100
AcDbEntity
  8
0
100
AcDbBlockEnd
  0
ENDSEC
  0
SECTION
  2
ENTITIES
  0
LINE
  5
3C
330
1F
100
AcDbEntity
  8
0
370
    60
390
F
100
AcDbLine
 10
818.0258504780879
 20
417.4607302547342
 30
0.0
 11
784.0455154780879
 21
417.4607302547342
 31
0.0
  0
LINE
  5
3D
330
1F
100
AcDbEntity
  8
0
 48
0.000475
370
    60
390
F
100
AcDbLine
 10
784.0455154780879
 20
417.4607302547342
 30
0.0
 11
784.0265224780879
 21
417.4607302547342
 31
0.0
  0
LINE
  5
3E
330
1F
100
AcDbEntity
  8
0
370
    60
390
F
100
AcDbLine
 10
852.0252404780879
 20
417.4607302547342
 30
0.0
 11
818.0259104780879
 21
417.4607302547342
 31
0.0
  0
LINE
  5
3F
330
1F
100
AcDbEntity
  8
0
370
    60
390
F
100
AcDbLine
 10
818.0258804780879
 20
494.4607302547342
 30
0.0
 11
844.5258794780879
 21
494.4607302547342
 31
0.0
  0
LINE
  5
40
330
1F
100
AcDbEntity
  8
0
370
    60
390
F
100
AcDbLine
 10
791.5258794780879
 20
494.4607302547342
 30
0.0
 11
818.0258804780879
 21
494.4607302547342
 31
0.0
  0
LINE
  5
41
330
1F
100
AcDbEntity
  8
0
370
    60
390
F
100
AcDbLine
 10
791.5258794780879
 20
449.4607302547342
 30
0.0
 11
818.0258804780879
 21
449.4607302547342
 31
0.0
  0
LINE
  5
42
330
1F
100
AcDbEntity
  8
0
370
    60
390
F
100
AcDbLine
 10
818.0258804780879
 20
449.4607302547342
 30
0.0
 11
844.5258794780879
 21
449.4607302547342
 31
0.0
  0
LINE
  5
43
330
1F
100
AcDbEntity
  8
0
370
    60
390
F
100
AcDbLine
 10
783.0258814780879
 20
431.4607302547342
 30
0.0
 11
818.0258804780879
 21
431.4607302547342
 31
0.0
  0
LINE
  5
44
330
1F
100
AcDbEntity
  8
0
370
    60
390
F
100
AcDbLine
 10
818.0258804780879
 20
431.4607302547342
 30
0.0
 11
853.0258814780879
 21
431.4607302547342
 31
0.0
  0
LINE
  5
45
330
1F
100
AcDbEntity
  8
0
370
    60
390
F
100
AcDbLine
 10
783.025889478088
 20
418.4607302547342
 30
0.0
 11
818.0258804780879
 21
418.4607302547342
 31
0.0
  0
LINE
  5
46
330
1F
100
AcDbEntity
  8
0
370
    60
390
F
100
AcDbLine
 10
818.0258804780879
 20
418.4607302547342
 30
0.0
 11
853.0258814780879
 21
418.4607302547342
 31
0.0
  0
LINE
  5
47
330
1F
100
AcDbEntity
  8
0
370
    60
390
F
100
AcDbLine
 10
791.5258794780879
 20
494.4607302547342
 30
0.0
 11
791.5258794780879
 21
449.4607302547342
 31
0.0
  0
LINE
  5
48
330
1F
100
AcDbEntity
  8
0
370
    60
390
F
100
AcDbLine
 10
844.5258794780879
 20
494.4607302547342
 30
0.0
 11
844.5258794780879
 21
449.4607302547342
 31
0.0
  0
LINE
  5
49
330
1F
100
AcDbEntity
  8
0
 48
0.497651
370
    60
390
F
100
AcDbLine
 10
791.5258794780879
 20
449.4607302547342
 30
0.0
 11
783.0258814780879
 21
431.4607302547342
 31
0.0
  0
LINE
  5
4A
330
1F
100
AcDbEntity
  8
0
 48
0.497651
370
    60
390
F
100
AcDbLine
 10
844.5258794780879
 20
449.4607302547342
 30
0.0
 11
853.0258814780879
 21
431.4607302547342
 31
0.0
  0
LINE
  5
4B
330
1F
100
AcDbEntity
  8
0
 48
0.325
370
    60
390
F
100
AcDbLine
 10
783.0258814780879
 20
431.4607302547342
 30
0.0
 11
783.0258814780879
 21
418.4607302547342
 31
0.0
  0
LINE
  5
4C
330
1F
100
AcDbEntity
  8
0
 48
0.325
370
    60
390
F
100
AcDbLine
 10
853.0258814780879
 20
431.4607302547342
 30
0.0
 11
853.0258814780879
 21
418.4607302547342
 31
0.0
  0
ARC
  5
4D
330
1F
100
AcDbEntity
  8
0
370
    60
390
F
100
AcDbCircle
 10
852.0199644780879
 20
418.4605922547342
 30
0.0
 40
0.999895
100
AcDbArc
 50
270.000951
 51
0.007784000000027
  0
ARC
  5
4E
330
1F
100
AcDbEntity
  8
0
370
    60
390
F
100
AcDbCircle
 10
784.0317944780879
 20
418.4605922547342
 30
0.0
 40
0.999895
100
AcDbArc
 50
179.992223
 51
269.999062
  0
LINE
  5
56
330
1F
100
AcDbEntity
  8
0
 48
0.152182
370
    60
390
F
100
AcDbLine
 10
809.819747478088
 20
556.3067992547342
 30
0.0
 11
803.732473478088
 21
556.3067992547342
 31
0.0
  0
LINE
  5
797
330
1F
100
AcDbEntity
  8
0
 48
0.152182
370
    60
390
F
100
AcDbLine
 10
821.069748478088
 20
556.3067992547342
 30
0.0
 11
814.982472478088
 21
556.3067992547342
 31
0.0
  0
LINE
  5
5C
330
1F
100
AcDbEntity
  8
0
 48
0.152182
370
    60
390
F
100
AcDbLine
 10
832.319747478088
 20
556.3067992547342
 30
0.0
 11
826.232473478088
 21
556.3067992547342
 31
0.0
  0
LINE
  5
799
330
1F
100
AcDbEntity
  8
0
 48
0.0875
370
    60
390
F
100
AcDbLine
 10
844.1203484780879
 20
545.4085142547342
 30
0.0
 11
844.1203484780879
 21
548.9085142547342
 31
0.0
  0
ARC
  5
5F
330
1F
100
AcDbEntity
  8
0
370
    60
390
F
100
AcDbCircle
 10
841.8703484780879
 20
548.9085142547342
 30
0.0
 40
2.25
100
AcDbArc
 50
359.999997
 51
180.000003
  0
LINE
  5
60
330
1F
100
AcDbEntity
  8
0
 48
0.0875
370
    60
390
F
100
AcDbLine
 10
839.6203484780879
 20
548.9085142547342
 30
0.0
 11
839.6203484780879
 21
545.4085142547342
 31
0.0
  0
ARC
  5
61
330
1F
100
AcDbEntity
  8
0
370
    60
390
F
100
AcDbCircle
 10
841.8703484780879
 20
545.4085142547342
 30
0.0
 40
2.25
100
AcDbArc
 50
180.000003
 51
359.999997
  0
LINE
  5
62
330
1F
100
AcDbEntity
  8
0
 48
0.0875
370
    60
390
F
100
AcDbLine
 10
791.9318724780879
 20
545.4085142547342
 30
0.0
 11
791.9318724780879
 21
548.9085142547342
 31
0.0
  0
ARC
  5
63
330
1F
100
AcDbEntity
  8
0
370
    60
390
F
100
AcDbCircle
 10
794.1818724780879
 20
545.4085142547342
 30
0.0
 40
2.25
100
AcDbArc
 50
180.000003
 51
359.999997
  0
LINE
  5
64
330
1F
100
AcDbEntity
  8
0
 48
0.0875
370
    60
390
F
100
AcDbLine
 10
796.4318724780879
 20
548.9085142547342
 30
0.0
 11
796.4318724780879
 21
545.4085142547342
 31
0.0
  0
ARC
  5
65
330
1F
100
AcDbEntity
  8
0
370
    60
390
F
100
AcDbCircle
 10
794.1818724780879
 20
548.9085142547342
 30
0.0
 40
2.25
100
AcDbArc
 50
359.999997
 51
180.000003
  0
LINE
  5
66
330
1F
100
AcDbEntity
  8
0
 48
0.157418
370
    60
390
F
100
AcDbLine
 10
814.877742478088
 20
559.9551452547341
 30
0.0
 11
821.174478478088
 21
559.9551452547341
 31
0.0
  0
LINE
  5
79A
330
1F
100
AcDbEntity
  8
0
 48
0.157418
370
    60
390
F
100
AcDbLine
 10
803.627742478088
 20
559.9551452547341
 30
0.0
 11
809.924478478088
 21
559.9551452547341
 31
0.0
  0
LINE
  5
79C
330
1F
100
AcDbEntity
  8
0
 48
0.157418
370
    60
390
F
100
AcDbLine
 10
826.127742478088
 20
559.9551452547341
 30
0.0
 11
832.424478478088
 21
559.9551452547341
 31
0.0
  0
ARC
  5
7A
330
1F
100
AcDbEntity
  8
0
370
    60
390
F
100
AcDbCircle
 10
883.0181524780879
 20
550.7703312547342
 30
0.0
 40
4.998862
100
AcDbArc
 50
179.996014
 51
268.793753
  0
LINE
  5
7B
330
1F
100
AcDbEntity
  8
0
370
    60
390
F
100
AcDbLine
 10
884.2049814780879
 20
457.9547942547342
 30
0.0
 11
861.0233024780879
 21
457.9547942547342
 31
0.0
  0
ARC
  5
7C
330
1F
100
AcDbEntity
  8
0
370
    60
390
F
100
AcDbCircle
 10
861.0229174780878
 20
463.5535642547342
 30
0.0
 40
5.598735
100
AcDbArc
 50
179.996075
 51
270.003943
  0
LINE
  5
7D
330
1F
100
AcDbEntity
  8
0
370
    60
390
F
100
AcDbLine
 10
855.4241544780879
 20
463.5539462547342
 30
0.0
 11
855.4241544780879
 21
498.0616672547342
 31
0.0
  0
LINE
  5
7E
330
1F
100
AcDbEntity
  8
0
370
    60
390
F
100
AcDbLine
 10
780.6280654780879
 20
498.0616672547342
 30
0.0
 11
780.6280654780879
 21
463.5539462547342
 31
0.0
  0
ARC
  5
7F
330
1F
100
AcDbEntity
  8
0
370
    60
390
F
100
AcDbCircle
 10
775.0293034780879
 20
463.5535642547342
 30
0.0
 40
5.598735
100
AcDbArc
 50
269.996071
 51
0.003932000000012
  0
LINE
  5
80
330
1F
100
AcDbEntity
  8
0
370
    60
390
F
100
AcDbLine
 10
754.2605504780879
 20
457.9547942547342
 30
0.0
 11
775.0289174780879
 21
457.9547942547342
 31
0.0
  0
LINE
  5
81
330
1F
100
AcDbEntity
  8
0
 48
0.177541
370
    60
390
F
100
AcDbLine
 10
803.627742478088
 20
557.9028682547341
 30
0.0
 11
796.526110478088
 21
557.9028682547341
 31
0.0
  0
SPLINE
  5
84
330
1F
100
AcDbEntity
  8
0
370
    60
390
F
100
AcDbSpline
210
0.0
220
0.0
230
1.0
 70
     8
 71
     5
 72
    21
 73
    15
 74
     0
 42
0.0
 43
0.0
 40
0.0
 40
0.0
 40
0.0
 40
0.0
 40
0.0
 40
0.0
 40
0.3308528087709499
 40
0.3308528087709499
 40
0.3308528087709499
 40
0.6620588812024042
 40
0.6620588812024042
 40
0.6620588812024042
 40
0.9932860612870738
 40
0.9932860612870738
 40
0.9932860612870738
 40
1.098405040821563
 40
1.098405040821563
 40
1.098405040821563
 40
1.098405040821563
 40
1.098405040821563
 40
1.098405040821563
 10
803.627742250905
 20
557.9028711943854
 30
0.0
 10
803.627742250905
 20
557.8560815414542
 30
0.0
 10
803.6278377856005
 20
557.809292275653
 30
0.0
 10
803.6280288742959
 20
557.7633546734899
 30
0.0
 10
803.6285953408154
 20
557.674850203534
 30
0.0
 10
803.6295031833466
 20
557.5962332612169
 30
0.0
 10
803.63003607288
 20
557.5601407299373
 30
0.0
 10
803.6312394189322
 20
557.4957770240544
 30
0.0
 10
803.6326696836286
 20
557.4490827354921
 30
0.0
 10
803.6334295812178
 20
557.4306590500901
 30
0.0
 10
803.6344708757292
 20
557.4133291769871
 30
0.0
 10
803.635539626387
 20
557.4053854942267
 30
0.0
 10
803.6357988174759
 20
557.404018412151
 30
0.0
 10
803.6360580577565
 20
557.4032067559762
 30
0.0
 10
803.6363174669254
 20
557.4029473468072
 30
0.0
  0
LINE
  5
85
330
1F
100
AcDbEntity
  8
0
 48
0.051307
370
    60
390
F
100
AcDbLine
 10
821.174478478088
 20
557.9028682547341
 30
0.0
 11
821.174478478088
 21
559.9551452547341
 31
0.0
  0
LINE
  5
86
330
1F
100
AcDbEntity
  8
0
 48
0.123832
370
    60
390
F
100
AcDbLine
 10
826.127742478088
 20
557.9028682547341
 30
0.0
 11
821.174478478088
 21
557.9028682547341
 31
0.0
  0
LINE
  5
87
330
1F
100
AcDbEntity
  8
0
 48
0.051307
370
    60
390
F
100
AcDbLine
 10
826.127742478088
 20
557.9028682547341
 30
0.0
 11
826.127742478088
 21
559.9551452547341
 31
0.0
  0
LINE
  5
88
330
1F
100
AcDbEntity
  8
0
 48
0.051307
370
    60
390
F
100
AcDbLine
 10
832.424478478088
 20
557.9028682547341
 30
0.0
 11
832.424478478088
 21
559.9551452547341
 31
0.0
  0
LINE
  5
89
330
1F
100
AcDbEntity
  8
0
 48
0.177541
370
    60
390
F
100
AcDbLine
 10
839.526110478088
 20
557.9028682547341
 30
0.0
 11
832.424478478088
 21
557.9028682547341
 31
0.0
  0
ARC
  5
8A
330
1F
100
AcDbEntity
  8
0
370
    60
390
F
100
AcDbCircle
 10
839.5261104780878
 20
547.3067992547342
 30
0.0
 40
10.596079
100
AcDbArc
 50
359.999997
 51
90.000002
  0
LINE
  5
8B
330
1F
100
AcDbEntity
  8
0
 48
0.359152
370
    60
390
F
100
AcDbLine
 10
850.1221914780879
 20
532.9407252547342
 30
0.0
 11
850.1221914780879
 21
547.3067992547342
 31
0.0
  0
ARC
  5
8C
330
1F
100
AcDbEntity
  8
0
370
    60
390
F
100
AcDbCircle
 10
852.6216374780879
 20
532.9405582547341
 30
0.0
 40
2.499436
100
AcDbArc
 50
179.996034
 51
247.3033
  0
ARC
  5
8D
330
1F
100
AcDbEntity
  8
0
370
    60
390
F
100
AcDbCircle
 10
848.0322214780879
 20
521.9668332547342
 30
0.0
 40
9.395324
100
AcDbArc
 50
32.52798799999998
 51
67.304685
  0
ARC
  5
91
330
1F
100
AcDbEntity
  8
0
370
    60
390
F
100
AcDbCircle
 10
787.9299425669857
 20
522.1144469888909
 30
0.0
 40
9.224443125037554
100
AcDbArc
 50
112.532975953665
 51
163.8640177227306
  0
ARC
  5
79F
330
1F
100
AcDbEntity
  8
0
370
    60
390
F
100
AcDbCircle
 10
783.4305824780879
 20
532.9405582547341
 30
0.0
 40
2.499438
100
AcDbArc
 50
292.6967
 51
0.003932000000012
  0
LINE
  5
7A0
330
1F
100
AcDbEntity
  8
0
 48
0.359152
370
    60
390
F
100
AcDbLine
 10
785.9300294780879
 20
547.3067992547342
 30
0.0
 11
785.9300294780879
 21
532.9407252547342
 31
0.0
  0
ARC
  5
94
330
1F
100
AcDbEntity
  8
0
370
    60
390
F
100
AcDbCircle
 10
796.5261104780878
 20
547.3067992547342
 30
0.0
 40
10.596079
100
AcDbArc
 50
90.00000999999999
 51
180.000003
  0
LINE
  5
95
330
1F
100
AcDbEntity
  8
0
 48
0.051307
370
    60
390
F
100
AcDbLine
 10
803.627742478088
 20
557.9028682547341
 30
0.0
 11
803.627742478088
 21
559.9551452547341
 31
0.0
  0
LINE
  5
96
330
1F
100
AcDbEntity
  8
0
 48
0.051307
370
    60
390
F
100
AcDbLine
 10
809.924478478088
 20
557.9028682547341
 30
0.0
 11
809.924478478088
 21
559.9551452547341
 31
0.0
  0
LINE
  5
7A1
330
1F
100
AcDbEntity
  8
0
 48
0.123832
370
    60
390
F
100
AcDbLine
 10
814.877742478088
 20
557.9028682547341
 30
0.0
 11
809.924478478088
 21
557.9028682547341
 31
0.0
  0
LINE
  5
7A2
330
1F
100
AcDbEntity
  8
0
 48
0.051307
370
    60
390
F
100
AcDbLine
 10
814.877742478088
 20
557.9028682547341
 30
0.0
 11
814.877742478088
 21
559.9551452547341
 31
0.0
  0
ARC
  5
7A3
330
1F
100
AcDbEntity
  8
0
370
    60
390
F
100
AcDbCircle
 10
790.3485284780879
 20
573.2135372547341
 30
0.0
 40
2.25
100
AcDbArc
 50
90.0
 51
270.000009
  0
LINE
  5
7A4
330
1F
100
AcDbEntity
  8
0
370
    60
390
F
100
AcDbLine
 10
845.7036924780879
 20
575.4635372547341
 30
0.0
 11
790.3485284780879
 21
575.4635372547341
 31
0.0
  0
ARC
  5
7A5
330
1F
100
AcDbEntity
  8
0
370
    60
390
F
100
AcDbCircle
 10
845.7036924780879
 20
573.2135372547341
 30
0.0
 40
2.25
100
AcDbArc
 50
270.000009
 51
90.0
  0
LINE
  5
7A6
330
1F
100
AcDbEntity
  8
0
370
    60
390
F
100
AcDbLine
 10
845.7036924780879
 20
570.9635372547341
 30
0.0
 11
790.3485284780879
 21
570.9635372547341
 31
0.0
  0
SPLINE
  5
7A7
330
1F
100
AcDbEntity
  8
0
370
    60
390
F
100
AcDbSpline
210
0.0
220
0.0
230
1.0
 70
     8
 71
     5
 72
    21
 73
    15
 74
     0
 42
0.0
 43
0.0
 40
0.0
 40
0.0
 40
0.0
 40
0.0
 40
0.0
 40
0.0
 40
0.3308528087785009
 40
0.3308528087785009
 40
0.3308528087785009
 40
0.6620588812208388
 40
0.6620588812208388
 40
0.6620588812208388
 40
0.9932860613029164
 40
0.9932860613029164
 40
0.9932860613029164
 40
1.098405040837403
 40
1.098405040837403
 40
1.098405040837403
 40
1.098405040837403
 40
1.098405040837403
 40
1.098405040837403
 10
814.877742250905
 20
557.9028711943854
 30
0.0
 10
814.877742250905
 20
557.856081541453
 30
0.0
 10
814.8778377856005
 20
557.8092922756508
 30
0.0
 10
814.8780288742959
 20
557.7633546734919
 30
0.0
 10
814.8785953408154
 20
557.6748502035334
 30
0.0
 10
814.8795031833467
 20
557.5962332612143
 30
0.0
 10
814.8800360728799
 20
557.5601407299393
 30
0.0
 10
814.8812394189322
 20
557.4957770240554
 30
0.0
 10
814.8826696836286
 20
557.4490827354924
 30
0.0
 10
814.8834295812178
 20
557.4306590500898
 30
0.0
 10
814.8844708757292
 20
557.4133291769871
 30
0.0
 10
814.885539626387
 20
557.4053854942267
 30
0.0
 10
814.8857988174759
 20
557.404018412151
 30
0.0
 10
814.8860580577565
 20
557.4032067559762
 30
0.0
 10
814.8863174669254
 20
557.4029473468072
 30
0.0
  0
SPLINE
  5
7A8
330
1F
100
AcDbEntity
  8
0
370
    60
390
F
100
AcDbSpline
210
0.0
220
0.0
230
1.0
 70
     8
 71
     5
 72
    21
 73
    15
 74
     0
 42
0.0
 43
0.0
 40
0.0
 40
0.0
 40
0.0
 40
0.0
 40
0.0
 40
0.0
 40
0.3308977937052229
 40
0.3308977937052229
 40
0.3308977937052229
 40
0.6621180802766553
 40
0.6621180802766553
 40
0.6621180802766553
 40
0.9933173796126427
 40
0.9933173796126427
 40
0.9933173796126427
 40
1.098405005267872
 40
1.098405005267872
 40
1.098405005267872
 40
1.098405005267872
 40
1.098405005267872
 40
1.098405005267872
 10
809.9159031386645
 20
557.4029473468072
 30
0.0
 10
809.9167197173838
 20
557.4037639255265
 30
0.0
 10
809.9175346226039
 20
557.4100526649158
 30
0.0
 10
809.9183330080073
 20
557.4217998374868
 30
0.0
 10
809.9198677001821
 20
557.4557909261572
 30
0.0
 10
809.9212239559575
 20
557.5091664507647
 30
0.0
 10
809.921844574721
 20
557.5403212049008
 30
0.0
 10
809.9229468713393
 20
557.6103732075674
 30
0.0
 10
809.9237368780776
 20
557.6931206506313
 30
0.0
 10
809.9240451583984
 20
557.7369713735919
 30
0.0
 10
809.9243294185761
 20
557.7969206216056
 30
0.0
 10
809.9244493867718
 20
557.8582794851079
 30
0.0
 10
809.9244687165137
 20
557.8731479643546
 30
0.0
 10
809.9244783546848
 20
557.8880095598423
 30
0.0
 10
809.9244783546848
 20
557.9028711943862
 30
0.0
  0
SPLINE
  5
7AA
330
1F
100
AcDbEntity
  8
0
370
    60
390
F
100
AcDbSpline
210
0.0
220
0.0
230
1.0
 70
     8
 71
     5
 72
    21
 73
    15
 74
     0
 42
0.0
 43
0.0
 40
0.0
 40
0.0
 40
0.0
 40
0.0
 40
0.0
 40
0.0
 40
0.3308528087856211
 40
0.3308528087856211
 40
0.3308528087856211
 40
0.6620588812628595
 40
0.6620588812628595
 40
0.6620588812628595
 40
0.993286061341929
 40
0.993286061341929
 40
0.993286061341929
 40
1.098405040876409
 40
1.098405040876409
 40
1.098405040876409
 40
1.098405040876409
 40
1.098405040876409
 40
1.098405040876409
 10
826.127742250905
 20
557.9028711943854
 30
0.0
 10
826.127742250905
 20
557.856081541452
 30
0.0
 10
826.1278377856005
 20
557.8092922756487
 30
0.0
 10
826.1280288742959
 20
557.7633546734937
 30
0.0
 10
826.1285953408154
 20
557.6748502035297
 30
0.0
 10
826.1295031833467
 20
557.596233261206
 30
0.0
 10
826.1300360728798
 20
557.5601407299462
 30
0.0
 10
826.1312394189321
 20
557.4957770240582
 30
0.0
 10
826.1326696836286
 20
557.4490827354929
 30
0.0
 10
826.1334295812178
 20
557.4306590500896
 30
0.0
 10
826.1344708757292
 20
557.413329176987
 30
0.0
 10
826.135539626387
 20
557.4053854942267
 30
0.0
 10
826.1357988174759
 20
557.404018412151
 30
0.0
 10
826.1360580577565
 20
557.4032067559762
 30
0.0
 10
826.1363174669254
 20
557.4029473468072
 30
0.0
  0
SPLINE
  5
7AB
330
1F
100
AcDbEntity
  8
0
370
    60
390
F
100
AcDbSpline
210
0.0
220
0.0
230
1.0
 70
     8
 71
     5
 72
    21
 73
    15
 74
     0
 42
0.0
 43
0.0
 40
0.0
 40
0.0
 40
0.0
 40
0.0
 40
0.0
 40
0.0
 40
0.3308977937052283
 40
0.3308977937052283
 40
0.3308977937052283
 40
0.6621180802809812
 40
0.6621180802809812
 40
0.6621180802809812
 40
0.9933173795815451
 40
0.9933173795815451
 40
0.9933173795815451
 40
1.098405005236774
 40
1.098405005236774
 40
1.098405005236774
 40
1.098405005236774
 40
1.098405005236774
 40
1.098405005236774
 10
821.1659031386645
 20
557.4029473468072
 30
0.0
 10
821.1667197173838
 20
557.4037639255265
 30
0.0
 10
821.1675346226039
 20
557.4100526649158
 30
0.0
 10
821.1683330080073
 20
557.4217998374868
 30
0.0
 10
821.1698677001821
 20
557.4557909261574
 30
0.0
 10
821.1712239559577
 20
557.5091664507654
 30
0.0
 10
821.171844574721
 20
557.5403212049
 30
0.0
 10
821.1729468713393
 20
557.6103732075632
 30
0.0
 10
821.1737368780775
 20
557.6931206506224
 30
0.0
 10
821.1740451583985
 20
557.7369713736017
 30
0.0
 10
821.1743294185761
 20
557.7969206216106
 30
0.0
 10
821.1744493867718
 20
557.858279485108
 30
0.0
 10
821.1744687165137
 20
557.8731479643546
 30
0.0
 10
821.1744783546848
 20
557.8880095598423
 30
0.0
 10
821.1744783546848
 20
557.9028711943862
 30
0.0
  0
SPLINE
  5
7AE
330
1F
100
AcDbEntity
  8
0
370
    60
390
F
100
AcDbSpline
210
0.0
220
0.0
230
1.0
 70
     8
 71
     5
 72
    21
 73
    15
 74
     0
 42
0.0
 43
0.0
 40
0.0
 40
0.0
 40
0.0
 40
0.0
 40
0.0
 40
0.0
 40
0.3308977936468076
 40
0.3308977936468076
 40
0.3308977936468076
 40
0.6621180801709985
 40
0.6621180801709985
 40
0.6621180801709985
 40
0.9933173794580901
 40
0.9933173794580901
 40
0.9933173794580901
 40
1.098405005113239
 40
1.098405005113239
 40
1.098405005113239
 40
1.098405005113239
 40
1.098405005113239
 40
1.098405005113239
 10
832.4159031386645
 20
557.4029473468072
 30
0.0
 10
832.4167197173836
 20
557.4037639255264
 30
0.0
 10
832.4175346226035
 20
557.4100526649137
 30
0.0
 10
832.4183330080075
 20
557.4217998374927
 30
0.0
 10
832.4198677001821
 20
557.4557909261594
 30
0.0
 10
832.4212239559574
 20
557.5091664507569
 30
0.0
 10
832.4218445747211
 20
557.5403212049105
 30
0.0
 10
832.4229468713393
 20
557.6103732075677
 30
0.0
 10
832.4237368780775
 20
557.6931206506185
 30
0.0
 10
832.4240451583985
 20
557.7369713736047
 30
0.0
 10
832.4243294185761
 20
557.7969206216118
 30
0.0
 10
832.4244493867718
 20
557.8582794851072
 30
0.0
 10
832.4244687165137
 20
557.8731479643538
 30
0.0
 10
832.4244783546848
 20
557.8880095598415
 30
0.0
 10
832.4244783546848
 20
557.9028711943854
 30
0.0
  0
ARC
  5
7AF
330
1F
100
AcDbEntity
  8
0
370
    60
390
F
100
AcDbCircle
 10
761.1816504780879
 20
499.7135372547341
 30
0.0
 40
2.250004
100
AcDbArc
 50
270.000022
 51
89.99987299999997
  0
LINE
  5
7B0
330
1F
100
AcDbEntity
  8
0
370
    60
390
F
100
AcDbLine
 10
761.1816504780879
 20
497.4635372547341
 30
0.0
 11
727.8457434780879
 21
497.4635372547341
 31
0.0
  0
ARC
  5
7B1
330
1F
100
AcDbEntity
  8
0
370
    60
390
F
100
AcDbCircle
 10
727.8457434780879
 20
499.7135372547341
 30
0.0
 40
2.250004
100
AcDbArc
 50
169.98838
 51
269.999855
  0
ARC
  5
7B2
330
1F
100
AcDbEntity
  8
0
370
    60
390
F
100
AcDbCircle
 10
722.9428584780879
 20
469.7135372547341
 30
0.0
 40
2.25
100
AcDbArc
 50
90.000001
 51
269.999964
  0
LINE
  5
7B3
330
1F
100
AcDbEntity
  8
0
370
    60
390
F
100
AcDbLine
 10
761.3344794780879
 20
471.9635372547341
 30
0.0
 11
722.9428584780879
 21
471.9635372547341
 31
0.0
  0
ARC
  5
7B4
330
1F
100
AcDbEntity
  8
0
370
    60
390
F
100
AcDbCircle
 10
761.3344794780879
 20
469.7135372547341
 30
0.0
 40
2.250001
100
AcDbArc
 50
270.000022
 51
89.999983
  0
LINE
  5
7B5
330
1F
100
AcDbEntity
  8
0
370
    60
390
F
100
AcDbLine
 10
761.3344794780879
 20
467.4635372547341
 30
0.0
 11
722.9428584780879
 21
467.4635372547341
 31
0.0
  0
ARC
  5
7B6
330
1F
100
AcDbEntity
  8
0
370
    60
390
F
100
AcDbCircle
 10
724.7705254780878
 20
478.7135372547341
 30
0.0
 40
2.249999
100
AcDbArc
 50
90.000012
 51
269.999978
  0
LINE
  5
7B7
330
1F
100
AcDbEntity
  8
0
370
    60
390
F
100
AcDbLine
 10
761.2431134780879
 20
480.9635372547341
 30
0.0
 11
724.7705254780878
 21
480.9635372547341
 31
0.0
  0
ARC
  5
7B8
330
1F
100
AcDbEntity
  8
0
370
    60
390
F
100
AcDbCircle
 10
761.2431134780879
 20
478.7135372547341
 30
0.0
 40
2.249999
100
AcDbArc
 50
269.999991
 51
90.00001299999998
  0
LINE
  5
7B9
330
1F
100
AcDbEntity
  8
0
370
    60
390
F
100
AcDbLine
 10
761.2431134780879
 20
476.4635372547341
 30
0.0
 11
724.7705254780878
 21
476.4635372547341
 31
0.0
  0
ARC
  5
7BA
330
1F
100
AcDbEntity
  8
0
370
    60
390
F
100
AcDbCircle
 10
726.3620094780879
 20
488.7135372547341
 30
0.0
 40
2.250005
100
AcDbArc
 50
90.00008999999999
 51
269.999882
  0
LINE
  5
7BB
330
1F
100
AcDbEntity
  8
0
370
    60
390
F
100
AcDbLine
 10
761.1920264780879
 20
490.9635372547341
 30
0.0
 11
726.3620094780879
 21
490.9635372547341
 31
0.0
  0
ARC
  5
7BC
330
1F
100
AcDbEntity
  8
0
370
    60
390
F
100
AcDbCircle
 10
761.1920264780879
 20
488.7135372547341
 30
0.0
 40
2.249999
100
AcDbArc
 50
269.999991
 51
90.000024
  0
LINE
  5
BB
330
1F
100
AcDbEntity
  8
0
370
    60
390
F
100
AcDbLine
 10
761.1920264780879
 20
486.4635372547341
 30
0.0
 11
726.3620094780879
 21
486.4635372547341
 31
0.0
  0
LINE
  5
BC
330
1F
100
AcDbEntity
  8
0
 48
0.13389
370
    60
390
F
100
AcDbLine
 10
856.6371404780879
 20
633.6166442547341
 30
0.0
 11
856.6371404780879
 21
638.9722352547341
 31
0.0
  0
LINE
  5
BD
330
1F
100
AcDbEntity
  8
0
 48
0.0375
370
    60
390
F
100
AcDbLine
 10
856.6371404780879
 20
633.6166442547341
 30
0.0
 11
858.1371404780879
 21
633.6166442547341
 31
0.0
  0
LINE
  5
BE
330
1F
100
AcDbEntity
  8
0
 48
0.161845
370
    60
390
F
100
AcDbLine
 10
858.1371404780879
 20
633.6166442547341
 30
0.0
 11
858.1371334780879
 21
631.2635562547341
 31
0.0
  0
ARC
  5
C6
330
1F
100
AcDbEntity
  8
0
370
    60
390
F
100
AcDbCircle
 10
903.3587974780879
 20
499.7135372547341
 30
0.0
 40
2.250002
100
AcDbArc
 50
270.000022
 51
89.99962799999999
  0
LINE
  5
C7
330
1F
100
AcDbEntity
  8
0
370
    60
390
F
100
AcDbLine
 10
903.3587974780879
 20
501.9635372547341
 30
0.0
 11
874.8705694780879
 21
501.9635372547341
 31
0.0
  0
ARC
  5
C8
330
1F
100
AcDbEntity
  8
0
370
    60
390
F
100
AcDbCircle
 10
874.8705694780879
 20
499.7135372547341
 30
0.0
 40
2.249999
100
AcDbArc
 50
90.00000999999999
 51
269.999841
  0
ARC
  5
CA
330
1F
100
AcDbEntity
  8
0
370
    60
390
F
100
AcDbCircle
 10
-24783.89967052191
 20
486.5373142547357
 30
0.0
 40
25646.523438
100
AcDbArc
 50
0.0246129999999809
 51
0.1350439999999734
  0
SPLINE
  5
CB
330
1F
100
AcDbEntity
  8
0
370
    60
390
F
100
AcDbSpline
210
0.0
220
0.0
230
1.0
 70
     8
 71
     5
 72
    48
 73
    42
 74
     0
 42
0.0
 43
0.0
 40
0.0
 40
0.0
 40
0.0
 40
0.0
 40
0.0
 40
0.0
 40
19.56820658365961
 40
19.56820658365961
 40
19.56820658365961
 40
26.08831413669174
 40
26.08831413669174
 40
26.08831413669174
 40
32.60843681861444
 40
32.60843681861444
 40
32.60843681861444
 40
45.64032666171657
 40
45.64032666171657
 40
45.64032666171657
 40
49.99354145142939
 40
49.99354145142939
 40
49.99354145142939
 40
54.10883560972194
 40
54.10883560972194
 40
54.10883560972194
 40
57.50429937828635
 40
57.50429937828635
 40
57.50429937828635
 40
60.17890874788016
 40
60.17890874788016
 40
60.17890874788016
 40
62.20935799831347
 40
62.20935799831347
 40
62.20935799831347
 40
63.19136028552341
 40
63.19136028552341
 40
63.19136028552341
 40
64.30035206474494
 40
64.30035206474494
 40
64.30035206474494
 40
65.14947421021544
 40
65.14947421021544
 40
65.14947421021544
 40
65.58704370479784
 40
65.58704370479784
 40
65.58704370479784
 40
65.58704370479784
 40
65.58704370479784
 40
65.58704370479784
 10
862.5526861777101
 20
546.9825428921949
 30
0.0
 10
862.5473423957161
 20
549.2442313335328
 30
0.0
 10
862.523987543036
 20
551.5052021123116
 30
0.0
 10
862.4791999083694
 20
553.7639083112157
 30
0.0
 10
862.3853910904552
 20
556.7754557488877
 30
0.0
 10
862.2344174052624
 20
559.7840009916185
 30
0.0
 10
862.1928683107128
 20
560.5357150032685
 30
0.0
 10
862.1015786211125
 20
562.0385644764727
 30
0.0
 10
861.9925259945619
 20
563.540170293905
 30
0.0
 10
861.9332069737853
 20
564.2906781165099
 30
0.0
 10
861.7397936183567
 20
566.5398606173777
 30
0.0
 10
861.4958192338154
 20
568.7793729365567
 30
0.0
 10
861.3067046198805
 20
570.266728915621
 30
0.0
 10
861.0108683312096
 20
572.2548086503441
 30
0.0
 10
860.634976823628
 20
574.2334235156002
 30
0.0
 10
860.5353185620946
 20
574.7281536195703
 30
0.0
 10
860.3295600209086
 20
575.6888228127625
 30
0.0
 10
860.0972570721682
 20
576.6451227270884
 30
0.0
 10
859.9778593687411
 20
577.1065369107528
 30
0.0
 10
859.7445227092403
 20
577.9492608456168
 30
0.0
 10
859.4794469903826
 20
578.7846175568096
 30
0.0
 10
859.3526902219124
 20
579.159122428713
 30
0.0
 10
859.1094671466258
 20
579.8286850874086
 30
0.0
 10
858.8317666782993
 20
580.4892203744312
 30
0.0
 10
858.7013698552628
 20
580.7786192642584
 30
0.0
 10
858.4566343853069
 20
581.2815412470983
 30
0.0
 10
858.1751627715125
 20
581.7717241345835
 30
0.0
 10
858.0452205555741
 20
581.9808459974579
 30
0.0
 10
857.8392934594946
 20
582.2837205781781
 30
0.0
 10
857.6048345053829
 20
582.5729080661544
 30
0.0
 10
857.5248932761203
 20
582.6655894390136
 30
0.0
 10
857.347128232149
 20
582.8576640565686
 30
0.0
 10
857.1498333741813
 20
583.0361315565372
 30
0.0
 10
857.0380843873627
 20
583.1266251768012
 30
0.0
 10
856.8285160668016
 20
583.2741797395821
 30
0.0
 10
856.5932148741686
 20
583.3921165266828
 30
0.0
 10
856.4861471980599
 20
583.4363151998142
 30
0.0
 10
856.316041695457
 20
583.4895277317917
 30
0.0
 10
856.1381418164464
 20
583.5178418913617
 30
0.0
 10
856.0767158539916
 20
583.5243864755097
 30
0.0
 10
856.0152099394592
 20
583.5276417177143
 30
0.0
 10
855.9536913804633
 20
583.5276414850517
 30
0.0
  0
LINE
  5
CC
330
1F
100
AcDbEntity
  8
0
370
    60
390
F
100
AcDbLine
 10
855.9536924780879
 20
583.5276552547341
 30
0.0
 11
780.0985284780879
 21
583.5276552547341
 31
0.0
  0
SPLINE
  5
CD
330
1F
100
AcDbEntity
  8
0
370
    60
390
F
100
AcDbSpline
210
0.0
220
0.0
230
1.0
 70
     8
 71
     5
 72
    48
 73
    42
 74
     0
 42
0.0
 43
0.0
 40
0.0
 40
0.0
 40
0.0
 40
0.0
 40
0.0
 40
0.0
 40
0.854896594233014
 40
0.854896594233014
 40
0.854896594233014
 40
1.759038989069011
 40
1.759038989069011
 40
1.759038989069011
 40
2.851773314963112
 40
2.851773314963112
 40
2.851773314963112
 40
4.288798583831797
 40
4.288798583831797
 40
4.288798583831797
 40
6.207209781842961
 40
6.207209781842961
 40
6.207209781842961
 40
8.740621899140425
 40
8.740621899140425
 40
8.740621899140425
 40
12.03705472856682
 40
12.03705472856682
 40
12.03705472856682
 40
16.23670335734032
 40
16.23670335734032
 40
16.23670335734032
 40
21.48002438895566
 40
21.48002438895566
 40
21.48002438895566
 40
27.90179454968647
 40
27.90179454968647
 40
27.90179454968647
 40
40.93759582166247
 40
40.93759582166247
 40
40.93759582166247
 40
60.49388056597124
 40
60.49388056597124
 40
60.49388056597124
 40
65.55702570968519
 40
65.55702570968519
 40
65.55702570968519
 40
65.55702570968519
 40
65.55702570968519
 40
65.55702570968519
 10
780.0985292158924
 20
583.527641369055
 30
0.0
 10
779.9783264258762
 20
583.5276411352525
 30
0.0
 10
779.8580874049628
 20
583.5152122325225
 30
0.0
 10
779.740394104954
 20
583.4902774449962
 30
0.0
 10
779.5076179505318
 20
583.4180086269605
 30
0.0
 10
779.2961910654786
 20
583.3110829043081
 30
0.0
 10
779.1924633144682
 20
583.2486351916648
 30
0.0
 10
778.977226151507
 20
583.1004798766869
 30
0.0
 10
778.7852786721161
 20
582.9321243276511
 30
0.0
 10
778.6859208015954
 20
582.8354991502155
 30
0.0
 10
778.4686173205681
 20
582.605068283759
 30
0.0
 10
778.275478832693
 20
582.3608019045175
 30
0.0
 10
778.1714799603382
 20
582.2181896795457
 30
0.0
 10
777.942246390762
 20
581.8807998373711
 30
0.0
 10
777.7383207465065
 20
581.5322249318644
 30
0.0
 10
777.6281867165002
 20
581.3301459126159
 30
0.0
 10
777.3865870516291
 20
580.857657034049
 30
0.0
 10
777.1718705807441
 20
580.3764067457149
 30
0.0
 10
777.0566111864028
 20
580.1001727683207
 30
0.0
 10
776.8055895982963
 20
579.4612849956205
 30
0.0
 10
776.583097858635
 20
578.8155785044466
 30
0.0
 10
776.4647050854658
 20
578.4486024853335
 30
0.0
 10
776.2103391182619
 20
577.611132112046
 30
0.0
 10
775.9857936247569
 20
576.7678258370263
 30
0.0
 10
775.8678666466469
 20
576.2940214267657
 30
0.0
 10
775.6182818228094
 20
575.2261541092481
 30
0.0
 10
775.3998811950952
 20
574.1533011823966
 30
0.0
 10
775.2867944581054
 20
573.5563746456966
 30
0.0
 10
775.0515418421526
 20
572.2266666860262
 30
0.0
 10
774.8487906529679
 20
570.8928979348065
 30
0.0
 10
774.745672602778
 20
570.1575314023482
 30
0.0
 10
774.4564352583101
 20
567.9275465998405
 30
0.0
 10
774.2307840021052
 20
565.6918218185197
 30
0.0
 10
774.1021103033721
 20
564.1914532036112
 30
0.0
 10
773.8291712417904
 20
560.4384686547301
 30
0.0
 10
773.6616364009634
 20
556.6785887731202
 30
0.0
 10
773.5907095863423
 20
554.4243721153616
 30
0.0
 10
773.5325316254132
 20
551.5809831798188
 30
0.0
 10
773.5073548488625
 20
548.7371727049104
 30
0.0
 10
773.5035044724314
 20
548.1523068931748
 30
0.0
 10
773.5009181556787
 20
547.5674255024381
 30
0.0
 10
773.4995364574784
 20
546.9825179769355
 30
0.0
  0
ARC
  5
CE
330
1F
100
AcDbEntity
  8
0
370
    60
390
F
100
AcDbCircle
 10
26419.95189147809
 20
486.5373142547326
 30
0.0
 40
25646.523438
100
AcDbArc
 50
179.864963
 51
179.975393
  0
LINE
  5
CF
330
1F
100
AcDbEntity
  8
0
370
    60
390
F
100
AcDbLine
 10
761.1816504780879
 20
501.9635372547341
 30
0.0
 11
727.8457434780879
 21
501.9635372547341
 31
0.0
  0
ARC
  5
D0
330
1F
100
AcDbEntity
  8
0
370
    60
390
F
100
AcDbCircle
 10
727.8457434780879
 20
499.7135372547341
 30
0.0
 40
2.250004
100
AcDbArc
 50
90.000075
 51
169.988222
  0
LINE
  5
D6
330
1F
100
AcDbEntity
  8
0
 48
0.161845
370
    60
390
F
100
AcDbLine
 10
726.6371404780879
 20
633.6166442547341
 30
0.0
 11
726.6371404780879
 21
631.2635562547341
 31
0.0
  0
LINE
  5
D7
330
1F
100
AcDbEntity
  8
0
 48
0.0375
370
    60
390
F
100
AcDbLine
 10
726.6371404780879
 20
633.6166442547341
 30
0.0
 11
728.1371404780879
 21
633.6166442547341
 31
0.0
  0
LINE
  5
D8
330
1F
100
AcDbEntity
  8
0
 48
0.13389
370
    60
390
F
100
AcDbLine
 10
728.1371404780879
 20
633.6166442547341
 30
0.0
 11
728.1371404780879
 21
638.9722352547341
 31
0.0
  0
LINE
  5
D9
330
1F
100
AcDbEntity
  8
0
 48
0.0375
370
    60
390
F
100
AcDbLine
 10
729.6371404780879
 20
638.9722352547341
 30
0.0
 11
728.1371404780879
 21
638.9722352547341
 31
0.0
  0
LINE
  5
DA
330
1F
100
AcDbEntity
  8
0
 48
0.295734
370
    60
390
F
100
AcDbLine
 10
729.6371404780879
 20
638.9722352547341
 30
0.0
 11
729.6371404780879
 21
627.1428592547342
 31
0.0
  0
LINE
  5
DB
330
1F
100
AcDbEntity
  8
0
370
    60
390
F
100
AcDbLine
 10
729.6371404780879
 20
627.1428592547342
 30
0.0
 11
855.1371404780879
 21
627.1428592547342
 31
0.0
  0
LINE
  5
DC
330
1F
100
AcDbEntity
  8
0
 48
0.295734
370
    60
390
F
100
AcDbLine
 10
855.1371404780879
 20
638.9722352547341
 30
0.0
 11
855.1371404780879
 21
627.1428592547342
 31
0.0
  0
LINE
  5
DD
330
1F
100
AcDbEntity
  8
0
 48
0.0375
370
    60
390
F
100
AcDbLine
 10
855.1371404780879
 20
638.9722352547341
 30
0.0
 11
856.6371404780879
 21
638.9722352547341
 31
0.0
  0
LINE
  5
DE
330
1F
100
AcDbEntity
  8
0
370
    60
390
F
100
AcDbLine
 10
766.8144024780879
 20
619.3928592547342
 30
0.0
 11
725.6197684780878
 21
619.3928592547342
 31
0.0
  0
ARC
  5
DF
330
1F
100
AcDbEntity
  8
0
370
    60
390
F
100
AcDbCircle
 10
725.6197684780878
 20
617.1428592547342
 30
0.0
 40
2.249999
100
AcDbArc
 50
90.00000999999999
 51
269.999759
  0
LINE
  5
E0
330
1F
100
AcDbEntity
  8
0
370
    60
390
F
100
AcDbLine
 10
766.8144024780879
 20
614.8928592547342
 30
0.0
 11
725.6197684780878
 21
614.8928592547342
 31
0.0
  0
ARC
  5
E1
330
1F
100
AcDbEntity
  8
0
370
    60
390
F
100
AcDbCircle
 10
766.8143984780879
 20
617.1428592547342
 30
0.0
 40
2.250001
100
AcDbArc
 50
270.000077
 51
89.99995499999999
  0
LINE
  5
E2
330
1F
100
AcDbEntity
  8
0
370
    60
390
F
100
AcDbLine
 10
874.8455374780879
 20
522.4635372547341
 30
0.0
 11
899.7549544780879
 21
522.4635372547341
 31
0.0
  0
ARC
  5
E3
330
1F
100
AcDbEntity
  8
0
370
    60
390
F
100
AcDbCircle
 10
899.7549544780879
 20
524.7135372547341
 30
0.0
 40
2.249999
100
AcDbArc
 50
270.000009
 51
89.999791
  0
LINE
  5
E4
330
1F
100
AcDbEntity
  8
0
370
    60
390
F
100
AcDbLine
 10
899.7549544780879
 20
526.9635372547341
 30
0.0
 11
874.8455374780879
 21
526.9635372547341
 31
0.0
  0
ARC
  5
E5
330
1F
100
AcDbEntity
  8
0
370
    60
390
F
100
AcDbCircle
 10
874.8455374780879
 20
524.7135372547341
 30
0.0
 40
2.249999
100
AcDbArc
 50
90.00000999999999
 51
270.000036
  0
LINE
  5
E6
330
1F
100
AcDbEntity
  8
0
370
    60
390
F
100
AcDbLine
 10
901.5283454780879
 20
509.4635372547341
 30
0.0
 11
874.8615934780879
 21
509.4635372547341
 31
0.0
  0
ARC
  5
E7
330
1F
100
AcDbEntity
  8
0
370
    60
390
F
100
AcDbCircle
 10
901.5283454780879
 20
511.7135372547341
 30
0.0
 40
2.249999
100
AcDbArc
 50
270.000022
 51
89.999819
  0
LINE
  5
E8
330
1F
100
AcDbEntity
  8
0
370
    60
390
F
100
AcDbLine
 10
901.5283454780879
 20
513.9635372547341
 30
0.0
 11
874.8615934780879
 21
513.9635372547341
 31
0.0
  0
ARC
  5
E9
330
1F
100
AcDbEntity
  8
0
370
    60
390
F
100
AcDbCircle
 10
874.8615934780879
 20
511.7135372547341
 30
0.0
 40
2.249999
100
AcDbArc
 50
90.00000999999999
 51
270.000036
  0
ARC
  5
EA
330
1F
100
AcDbEntity
  8
0
370
    60
390
F
100
AcDbCircle
 10
729.9406764780879
 20
511.7135372547341
 30
0.0
 40
2.250001
100
AcDbArc
 50
90.000077
 51
269.999827
  0
LINE
  5
EB
330
1F
100
AcDbEntity
  8
0
370
    60
390
F
100
AcDbLine
 10
761.1906264780879
 20
509.4635372547341
 30
0.0
 11
729.9406764780879
 21
509.4635372547341
 31
0.0
  0
ARC
  5
EC
330
1F
100
AcDbEntity
  8
0
370
    60
390
F
100
AcDbCircle
 10
761.1906264780879
 20
511.7135372547341
 30
0.0
 40
2.249999
100
AcDbArc
 50
269.999991
 51
90.00001999999999
  0
LINE
  5
ED
330
1F
100
AcDbEntity
  8
0
370
    60
390
F
100
AcDbLine
 10
761.1906264780879
 20
513.9635372547341
 30
0.0
 11
729.9406764780879
 21
513.9635372547341
 31
0.0
  0
ARC
  5
EE
330
1F
100
AcDbEntity
  8
0
370
    60
390
F
100
AcDbCircle
 10
761.2066824780879
 20
524.7135372547341
 30
0.0
 40
2.249999
100
AcDbArc
 50
269.999991
 51
90.00001999999999
  0
LINE
  5
EF
330
1F
100
AcDbEntity
  8
0
370
    60
390
F
100
AcDbLine
 10
761.2066824780879
 20
526.9635372547341
 30
0.0
 11
731.7652074780879
 21
526.9635372547341
 31
0.0
  0
ARC
  5
F0
330
1F
100
AcDbEntity
  8
0
370
    60
390
F
100
AcDbCircle
 10
731.7652074780879
 20
524.7135372547341
 30
0.0
 40
2.250005
100
AcDbArc
 50
90.00009299999999
 51
269.999868
  0
LINE
  5
F1
330
1F
100
AcDbEntity
  8
0
370
    60
390
F
100
AcDbLine
 10
731.7652074780879
 20
522.4635372547341
 30
0.0
 11
761.2066824780879
 21
522.4635372547341
 31
0.0
  0
ARC
  5
F2
330
1F
100
AcDbEntity
  8
0
370
    60
390
F
100
AcDbCircle
 10
728.5885564780879
 20
594.2135372547341
 30
0.0
 40
2.250006
100
AcDbArc
 50
90.00000999999999
 51
269.999773
  0
LINE
  5
F3
330
1F
100
AcDbEntity
  8
0
370
    60
390
F
100
AcDbLine
 10
764.8144024780879
 20
591.9635372547341
 30
0.0
 11
728.5885494780879
 21
591.9635372547341
 31
0.0
  0
ARC
  5
F4
330
1F
100
AcDbEntity
  8
0
370
    60
390
F
100
AcDbCircle
 10
764.8144024780879
 20
594.2135372547341
 30
0.0
 40
2.249999
100
AcDbArc
 50
270.000036
 51
89.999983
  0
LINE
  5
F5
330
1F
100
AcDbEntity
  8
0
370
    60
390
F
100
AcDbLine
 10
764.8144024780879
 20
596.4635372547341
 30
0.0
 11
728.5885494780879
 21
596.4635372547341
 31
0.0
  0
LINE
  5
F6
330
1F
100
AcDbEntity
  8
0
370
    60
390
F
100
AcDbLine
 10
845.7036924780879
 20
596.4635372547341
 30
0.0
 11
790.3485284780879
 21
596.4635372547341
 31
0.0
  0
ARC
  5
F7
330
1F
100
AcDbEntity
  8
0
370
    60
390
F
100
AcDbCircle
 10
790.3485284780879
 20
594.2135372547341
 30
0.0
 40
2.249999
100
AcDbArc
 50
90.00000999999999
 51
270.000036
  0
LINE
  5
F8
330
1F
100
AcDbEntity
  8
0
370
    60
390
F
100
AcDbLine
 10
845.7036924780879
 20
591.9635372547341
 30
0.0
 11
790.3485284780879
 21
591.9635372547341
 31
0.0
  0
ARC
  5
F9
330
1F
100
AcDbEntity
  8
0
370
    60
390
F
100
AcDbCircle
 10
845.7036924780879
 20
594.2135372547341
 30
0.0
 40
2.249999
100
AcDbArc
 50
269.999991
 51
90.00002099999999
  0
ARC
  5
FA
330
1F
100
AcDbEntity
  8
0
370
    60
390
F
100
AcDbCircle
 10
731.124498478088
 20
573.2135372547341
 30
0.0
 40
2.250006
100
AcDbArc
 50
90.00000999999999
 51
269.999759
  0
LINE
  5
FB
330
1F
100
AcDbEntity
  8
0
370
    60
390
F
100
AcDbLine
 10
762.8144024780879
 20
570.9635372547341
 30
0.0
 11
731.1244914780879
 21
570.9635372547341
 31
0.0
  0
ARC
  5
FC
330
1F
100
AcDbEntity
  8
0
370
    60
390
F
100
AcDbCircle
 10
762.8143984780879
 20
573.2135372547341
 30
0.0
 40
2.250004
100
AcDbArc
 50
270.000091
 51
89.99990100000002
  0
LINE
  5
FD
330
1F
100
AcDbEntity
  8
0
370
    60
390
F
100
AcDbLine
 10
762.8144024780879
 20
575.4635372547341
 30
0.0
 11
731.1244914780879
 21
575.4635372547341
 31
0.0
  0
ARC
  5
FE
330
1F
100
AcDbEntity
  8
0
370
    60
390
F
100
AcDbCircle
 10
732.7015784780879
 20
555.2135372547341
 30
0.0
 40
2.249999
100
AcDbArc
 50
90.00000999999999
 51
270.000036
  0
LINE
  5
FF
330
1F
100
AcDbEntity
  8
0
370
    60
390
F
100
AcDbLine
 10
761.3735184780879
 20
552.9635372547341
 30
0.0
 11
732.7015784780879
 21
552.9635372547341
 31
0.0
  0
ARC
  5
100
330
1F
100
AcDbEntity
  8
0
370
    60
390
F
100
AcDbCircle
 10
761.3735184780879
 20
555.2135372547341
 30
0.0
 40
2.249999
100
AcDbArc
 50
269.999991
 51
90.000019
  0
LINE
  5
101
330
1F
100
AcDbEntity
  8
0
370
    60
390
F
100
AcDbLine
 10
761.3735184780879
 20
557.4635372547341
 30
0.0
 11
732.7015784780879
 21
557.4635372547341
 31
0.0
  0
ARC
  5
102
330
1F
100
AcDbEntity
  8
0
370
    60
390
F
100
AcDbCircle
 10
732.8622614780879
 20
539.2135372547341
 30
0.0
 40
2.249999
100
AcDbArc
 50
90.00000999999999
 51
270.000036
  0
LINE
  5
103
330
1F
100
AcDbEntity
  8
0
370
    60
390
F
100
AcDbLine
 10
761.2323674780879
 20
536.9635372547341
 30
0.0
 11
732.8622614780879
 21
536.9635372547341
 31
0.0
  0
ARC
  5
104
330
1F
100
AcDbEntity
  8
0
370
    60
390
F
100
AcDbCircle
 10
761.2323674780879
 20
539.2135372547341
 30
0.0
 40
2.249999
100
AcDbArc
 50
269.999991
 51
90.00001999999999
  0
LINE
  5
105
330
1F
100
AcDbEntity
  8
0
370
    60
390
F
100
AcDbLine
 10
761.2323674780879
 20
541.4635372547341
 30
0.0
 11
732.8622614780879
 21
541.4635372547341
 31
0.0
  0
ARC
  5
106
330
1F
100
AcDbEntity
  8
0
370
    60
390
F
100
AcDbCircle
 10
845.7036924780879
 20
617.1428592547342
 30
0.0
 40
2.249999
100
AcDbArc
 50
269.999991
 51
90.00002299999998
  0
LINE
  5
107
330
1F
100
AcDbEntity
  8
0
370
    60
390
F
100
AcDbLine
 10
845.7036924780879
 20
619.3928592547342
 30
0.0
 11
790.3485284780879
 21
619.3928592547342
 31
0.0
  0
ARC
  5
108
330
1F
100
AcDbEntity
  8
0
370
    60
390
F
100
AcDbCircle
 10
790.3485284780879
 20
617.1428592547342
 30
0.0
 40
2.249999
100
AcDbArc
 50
90.00000999999999
 51
270.000022
  0
LINE
  5
109
330
1F
100
AcDbEntity
  8
0
370
    60
390
F
100
AcDbLine
 10
845.7036924780879
 20
614.8928592547342
 30
0.0
 11
790.3485284780879
 21
614.8928592547342
 31
0.0
  0
LINE
  5
116
330
1F
100
AcDbEntity
  8
0
 48
0.002637
370
    60
390
F
100
AcDbLine
 10
883.0184044780879
 20
545.7713382547341
 30
0.0
 11
882.9129124780878
 21
545.7725582547341
 31
0.0
  0
SPLINE
  5
117
330
1F
100
AcDbEntity
  8
0
370
    60
390
F
100
AcDbSpline
210
0.0
220
0.0
230
1.0
 70
     8
 71
     5
 72
    21
 73
    15
 74
     0
 42
0.0
 43
0.0
 40
0.0
 40
0.0
 40
0.0
 40
0.0
 40
0.0
 40
0.0
 40
0.6617955039506037
 40
0.6617955039506037
 40
0.6617955039506037
 40
1.324235992900557
 40
1.324235992900557
 40
1.324235992900557
 40
1.986634507743023
 40
1.986634507743023
 40
1.986634507743023
 40
2.047432106019249
 40
2.047432106019249
 40
2.047432106019249
 40
2.047432106019249
 40
2.047432106019249
 40
2.047432106019249
 10
883.9127631299141
 20
545.7542833733401
 30
0.0
 10
883.9111299726815
 20
545.7559165305727
 30
0.0
 10
883.898552490095
 20
545.7575463475587
 30
0.0
 10
883.8750579595439
 20
545.7591431183869
 30
0.0
 10
883.8070761494221
 20
545.7622124903711
 30
0.0
 10
883.7003247547776
 20
545.7649250135673
 30
0.0
 10
883.6380150796404
 20
545.766166249652
 30
0.0
 10
883.4979117229935
 20
545.7683708347323
 30
0.0
 10
883.3324162269691
 20
545.7699508558845
 30
0.0
 10
883.2447146696518
 20
545.7705674139205
 30
0.0
 10
883.1453422658102
 20
545.7710386069693
 30
0.0
 10
883.0440328113006
 20
545.7712840894764
 30
0.0
 10
883.0355018958078
 20
545.7713031297912
 30
0.0
 10
883.0269580344261
 20
545.7713205702614
 30
0.0
 10
883.0184029307812
 20
545.771336407763
 30
0.0
  0
LINE
  5
118
330
1F
100
AcDbEntity
  8
0
 48
0.036559
370
    60
390
F
100
AcDbLine
 10
886.6797584780879
 20
456.9672152547342
 30
0.0
 11
886.6797584780879
 21
458.4295712547342
 31
0.0
  0
LINE
  5
119
330
1F
100
AcDbEntity
  8
0
 48
0.008517
370
    60
390
F
100
AcDbLine
 10
886.9206414780879
 20
458.6704622547342
 30
0.0
 11
886.6797584780879
 21
458.4295712547342
 31
0.0
  0
LINE
  5
11A
330
1F
100
AcDbEntity
  8
0
 48
0.00576
370
    60
390
F
100
AcDbLine
 10
884.2049814780879
 20
457.9547942547342
 30
0.0
 11
884.4353894780879
 21
457.9547942547342
 31
0.0
  0
LINE
  5
11B
330
1F
100
AcDbEntity
  8
0
 48
0.016786
370
    60
390
F
100
AcDbLine
 10
884.2049814780879
 20
457.9547942547342
 30
0.0
 11
884.6797584780879
 21
458.4295712547342
 31
0.0
  0
LINE
  5
11C
330
1F
100
AcDbEntity
  8
0
 48
0.05
370
    60
390
F
100
AcDbLine
 10
884.6797584780879
 20
458.4295712547342
 30
0.0
 11
886.6797584780879
 21
458.4295712547342
 31
0.0
  0
LINE
  5
11D
330
1F
100
AcDbEntity
  8
0
370
    60
390
F
100
AcDbLine
 10
908.9206414780879
 20
458.6704622547342
 30
0.0
 11
886.9206414780879
 21
458.6704622547342
 31
0.0
  0
LINE
  5
11E
330
1F
100
AcDbEntity
  8
0
 48
0.008517
370
    60
390
F
100
AcDbLine
 10
908.9206414780879
 20
458.6704622547342
 30
0.0
 11
909.1615244780879
 21
458.4295712547342
 31
0.0
  0
LINE
  5
11F
330
1F
100
AcDbEntity
  8
0
 48
0.05
370
    60
390
F
100
AcDbLine
 10
909.1615244780879
 20
458.4295712547342
 30
0.0
 11
911.1615244780879
 21
458.4295712547342
 31
0.0
  0
LINE
  5
120
330
1F
100
AcDbEntity
  8
0
 48
0.016786
370
    60
390
F
100
AcDbLine
 10
911.636301478088
 20
457.9547942547342
 30
0.0
 11
911.1615244780879
 21
458.4295712547342
 31
0.0
  0
LINE
  5
121
330
1F
100
AcDbEntity
  8
0
370
    60
390
F
100
AcDbLine
 10
935.2290064780879
 20
457.9547942547342
 30
0.0
 11
911.636301478088
 21
457.9547942547342
 31
0.0
  0
LINE
  5
128
330
1F
100
AcDbEntity
  8
0
 48
0.043437
370
    60
390
F
100
AcDbLine
 10
855.4241544780879
 20
463.5539462547342
 30
0.0
 11
856.6527274780879
 21
464.7825222547341
 31
0.0
  0
LINE
  5
129
330
1F
100
AcDbEntity
  8
0
 48
0.043437
370
    60
390
F
100
AcDbLine
 10
780.6280654780879
 20
463.5539462547342
 30
0.0
 11
779.399492478088
 21
464.7825222547341
 31
0.0
  0
LINE
  5
132
330
1F
100
AcDbEntity
  8
0
370
    60
390
F
100
AcDbLine
 10
706.0634033084557
 20
457.9547962563266
 30
0.0
 11
726.8292334780879
 21
457.9547942547342
 31
0.0
  0
LINE
  5
133
330
1F
100
AcDbEntity
  8
0
 48
0.016786
370
    60
390
F
100
AcDbLine
 10
726.8292334780879
 20
457.9547942547342
 30
0.0
 11
727.3040114780879
 21
458.4295712547342
 31
0.0
  0
LINE
  5
134
330
1F
100
AcDbEntity
  8
0
 48
0.05
370
    60
390
F
100
AcDbLine
 10
727.3040114780879
 20
458.4295712547342
 30
0.0
 11
729.3040114780879
 21
458.4295712547342
 31
0.0
  0
LINE
  5
135
330
1F
100
AcDbEntity
  8
0
 48
0.008517
370
    60
390
F
100
AcDbLine
 10
729.5448934780879
 20
458.6704622547342
 30
0.0
 11
729.3040114780879
 21
458.4295712547342
 31
0.0
  0
LINE
  5
136
330
1F
100
AcDbEntity
  8
0
370
    60
390
F
100
AcDbLine
 10
729.5448934780879
 20
458.6704622547342
 30
0.0
 11
751.5448934780879
 21
458.6704622547342
 31
0.0
  0
LINE
  5
137
330
1F
100
AcDbEntity
  8
0
 48
0.008516
370
    60
390
F
100
AcDbLine
 10
751.7857694780879
 20
458.4295712547342
 30
0.0
 11
751.5448934780879
 21
458.6704622547342
 31
0.0
  0
LINE
  5
138
330
1F
100
AcDbEntity
  8
0
 48
0.05
370
    60
390
F
100
AcDbLine
 10
751.7857694780879
 20
458.4295712547342
 30
0.0
 11
753.7857694780879
 21
458.4295712547342
 31
0.0
  0
LINE
  5
139
330
1F
100
AcDbEntity
  8
0
 48
0.016786
370
    60
390
F
100
AcDbLine
 10
754.2605504780879
 20
457.9547942547342
 30
0.0
 11
753.7857694780879
 21
458.4295712547342
 31
0.0
  0
LINE
  5
13A
330
1F
100
AcDbEntity
  8
0
 48
0.00576
370
    60
390
F
100
AcDbLine
 10
754.2605504780879
 20
457.9547942547342
 30
0.0
 11
754.0301424780879
 21
457.9547942547342
 31
0.0
  0
LINE
  5
13B
330
1F
100
AcDbEntity
  8
0
 48
0.036559
370
    60
390
F
100
AcDbLine
 10
751.7857694780879
 20
456.9672152547342
 30
0.0
 11
751.7857694780879
 21
458.4295712547342
 31
0.0
  0
CIRCLE
  5
13D
330
1F
100
AcDbEntity
  8
0
370
    60
390
F
100
AcDbCircle
 10
840.5261104780878
 20
530.2067322547341
 30
0.0
 40
2.1
  0
CIRCLE
  5
13F
330
1F
100
AcDbEntity
  8
0
370
    60
390
F
100
AcDbCircle
 10
795.5261104780878
 20
530.2067322547341
 30
0.0
 40
2.1
  0
SPLINE
  5
149
330
1F
100
AcDbEntity
  8
0
370
    60
390
F
100
AcDbSpline
210
0.0
220
0.0
230
1.0
 70
     8
 71
     5
 72
    42
 73
    36
 74
     0
 42
0.0
 43
0.0
 40
0.0
 40
0.0
 40
0.0
 40
0.0
 40
0.0
 40
0.0
 40
0.4827792984212961
 40
0.4827792984212961
 40
0.4827792984212961
 40
1.180736487989834
 40
1.180736487989834
 40
1.180736487989834
 40
2.16765105970579
 40
2.16765105970579
 40
2.16765105970579
 40
3.653710446634078
 40
3.653710446634078
 40
3.653710446634078
 40
5.83570748661244
 40
5.83570748661244
 40
5.83570748661244
 40
9.117092010774057
 40
9.117092010774057
 40
9.117092010774057
 40
14.04007458853428
 40
14.04007458853428
 40
14.04007458853428
 40
27.02456172379129
 40
27.02456172379129
 40
27.02456172379129
 40
39.98195294254609
 40
39.98195294254609
 40
39.98195294254609
 40
59.48393866630351
 40
59.48393866630351
 40
59.48393866630351
 40
64.43884985980112
 40
64.43884985980112
 40
64.43884985980112
 40
64.43884985980112
 40
64.43884985980112
 40
64.43884985980112
 10
780.0985292158919
 20
582.3089810062751
 30
0.0
 10
780.0842265254619
 20
582.3089808244491
 30
0.0
 10
780.0699173232986
 20
582.3014116138667
 30
0.0
 10
780.055995714332
 20
582.2862555914302
 30
0.0
 10
780.0234017009313
 20
582.2346024916849
 30
0.0
 10
779.994662208161
 20
582.1548901570519
 30
0.0
 10
779.9790610072898
 20
582.1017118606949
 30
0.0
 10
779.9441068542508
 20
581.9640156278267
 30
0.0
 10
779.914472003596
 20
581.8084321494739
 30
0.0
 10
779.8984461723796
 20
581.7140210404689
 30
0.0
 10
779.8610206195941
 20
581.4713802880242
 30
0.0
 10
779.8292181275083
 20
581.2173269974287
 30
0.0
 10
779.8124164569329
 20
581.0705964240067
 30
0.0
 10
779.7713858611513
 20
580.6832322506662
 30
0.0
 10
779.7362094469767
 20
580.2868083430398
 30
0.0
 10
779.7158877422038
 20
580.0381711099626
 30
0.0
 10
779.6704772507433
 20
579.4400492155056
 30
0.0
 10
779.6315646869764
 20
578.8346961645864
 30
0.0
 10
779.6092384021593
 20
578.4580043192126
 30
0.0
 10
779.5588250020456
 20
577.5423125871523
 30
0.0
 10
779.5160734359804
 20
576.6203569048517
 30
0.0
 10
779.4917962723853
 20
576.0490934096462
 30
0.0
 10
779.4125546465217
 20
574.0280578750369
 30
0.0
 10
779.3531848988165
 20
571.9948697622069
 30
0.0
 10
779.3172590351273
 20
570.5554605737831
 30
0.0
 10
779.2543040903453
 20
567.6008926336068
 30
0.0
 10
779.2086884246725
 20
564.6404832302248
 30
0.0
 10
779.1893078403622
 20
563.160304195692
 30
0.0
 10
779.1481234380695
 20
559.4509329495781
 30
0.0
 10
779.122898599112
 20
555.736791794178
 30
0.0
 10
779.1123095734688
 20
553.5270478439178
 30
0.0
 10
779.1035912237948
 20
550.7260221563848
 30
0.0
 10
779.0998361863647
 20
547.9247009217411
 30
0.0
 10
779.099269334914
 20
547.3571486753283
 30
0.0
 10
779.0988872929939
 20
546.7895802258341
 30
0.0
 10
779.0986815207361
 20
546.2219874722746
 30
0.0
  0
LINE
  5
14B
330
1F
100
AcDbEntity
  8
0
 48
0.030467
370
    60
390
F
100
AcDbLine
 10
855.9536924780879
 20
582.3089662547342
 30
0.0
 11
855.9536924780879
 21
583.5276552547341
 31
0.0
  0
LINE
  5
14C
330
1F
100
AcDbEntity
  8
0
 48
0.030467
370
    60
390
F
100
AcDbLine
 10
780.0985284780879
 20
582.3089662547342
 30
0.0
 11
780.0985284780879
 21
583.5276552547341
 31
0.0
  0
SPLINE
  5
14D
330
1F
100
AcDbEntity
  8
0
370
    60
390
F
100
AcDbSpline
210
0.0
220
0.0
230
1.0
 70
     8
 71
     5
 72
    45
 73
    39
 74
     0
 42
0.0
 43
0.0
 40
0.0
 40
0.0
 40
0.0
 40
0.0
 40
0.0
 40
0.0
 40
19.55297945227539
 40
19.55297945227539
 40
19.55297945227539
 40
26.04355096501841
 40
26.04355096501841
 40
26.04355096501841
 40
32.34014202435674
 40
32.34014202435674
 40
32.34014202435674
 40
45.29097531221743
 40
45.29097531221743
 40
45.29097531221743
 40
51.71056189218259
 40
51.71056189218259
 40
51.71056189218259
 40
54.93513066194641
 40
54.93513066194641
 40
54.93513066194641
 40
58.20014106179633
 40
58.20014106179633
 40
58.20014106179633
 40
61.00331677865099
 40
61.00331677865099
 40
61.00331677865099
 40
62.32910965704662
 40
62.32910965704662
 40
62.32910965704662
 40
63.48124271429324
 40
63.48124271429324
 40
63.48124271429324
 40
64.21134672590141
 40
64.21134672590141
 40
64.21134672590141
 40
64.23812162036275
 40
64.23812162036275
 40
64.23812162036275
 40
64.23812162036275
 40
64.23812162036275
 40
64.23812162036275
 10
856.9535390848343
 20
546.2220088008428
 30
0.0
 10
856.9527266631874
 20
548.4629516305665
 30
0.0
 10
856.9491666705726
 20
550.7031888930795
 30
0.0
 10
856.9424784118338
 20
552.9024855318377
 30
0.0
 10
856.9282550452298
 20
555.8839569990844
 30
0.0
 10
856.9053153822392
 20
558.8632679505241
 30
0.0
 10
856.8990193679824
 20
559.6056181699789
 30
0.0
 10
856.8853904199996
 20
561.0677596061176
 30
0.0
 10
856.8691444901518
 20
562.5290703316449
 30
0.0
 10
856.8590909112997
 20
563.3577540514959
 30
0.0
 10
856.8300099837177
 20
565.5557589732184
 30
0.0
 10
856.7933937164719
 20
567.7458257095849
 30
0.0
 10
856.7647516908557
 20
569.2143524305457
 30
0.0
 10
856.7144557364869
 20
571.4182354639623
 30
0.0
 10
856.6486483577986
 20
573.6159613014307
 30
0.0
 10
856.623927884104
 20
574.3710022275735
 30
0.0
 10
856.5846528400622
 20
575.461622396183
 30
0.0
 10
856.5385881292085
 20
576.5479093695047
 30
0.0
 10
856.5223550065186
 20
576.910074500367
 30
0.0
 10
856.4877615083235
 20
577.6373725893308
 30
0.0
 10
856.4484719304838
 20
578.3616449970888
 30
0.0
 10
856.4286523582806
 20
578.7027038959635
 30
0.0
 10
856.3863984892556
 20
579.3760461937824
 30
0.0
 10
856.336590268384
 20
580.0414609787911
 30
0.0
 10
856.3098747294104
 20
580.3659883854665
 30
0.0
 10
856.2692312023147
 20
580.8111924063144
 30
0.0
 10
856.2198142145932
 20
581.2419383885211
 30
0.0
 10
856.2020093686334
 20
581.3848312173056
 30
0.0
 10
856.1676703051634
 20
581.6355230215903
 30
0.0
 10
856.1267405150143
 20
581.8702385565167
 30
0.0
 10
856.1062770098875
 20
581.9727700067261
 30
0.0
 10
856.0682588978494
 20
582.133167535978
 30
0.0
 10
856.0209751528952
 20
582.2497563350631
 30
0.0
 10
856.0007285448597
 20
582.286409307779
 30
0.0
 10
855.9784820482201
 20
582.3069388994386
 30
0.0
 10
855.9560705338375
 20
582.3089113613495
 30
0.0
 10
855.9552775191146
 20
582.3089578876956
 30
0.0
 10
855.9544844678477
 20
582.308981140602
 30
0.0
 10
855.9536913896779
 20
582.3089811210193
 30
0.0
  0
SPLINE
  5
14F
330
1F
100
AcDbEntity
  8
0
370
    60
390
F
100
AcDbSpline
210
0.0
220
0.0
230
1.0
 70
     8
 71
     5
 72
    18
 73
    12
 74
     0
 42
0.0
 43
0.0
 40
0.0
 40
0.0
 40
0.0
 40
0.0
 40
0.0
 40
0.0
 40
0.9038664872818793
 40
0.9038664872818793
 40
0.9038664872818793
 40
6.336048168056005
 40
6.336048168056005
 40
6.336048168056005
 40
9.0634972351967
 40
9.0634972351967
 40
9.0634972351967
 40
9.0634972351967
 40
9.0634972351967
 40
9.0634972351967
 10
857.0009721680761
 20
521.9915802708935
 30
0.0
 10
856.9530607816412
 20
522.0937101005796
 30
0.0
 10
856.9516437796069
 20
522.1959042489226
 30
0.0
 10
856.9492935834454
 20
522.2979063180358
 30
0.0
 10
856.9262148148725
 20
523.0141355037284
 30
0.0
 10
856.8569639428462
 20
523.7292796715172
 30
0.0
 10
856.7633607991054
 20
524.340518273368
 30
0.0
 10
856.5693130619286
 20
525.2518197492433
 30
0.0
 10
856.2909161448501
 20
526.1441403591814
 30
0.0
 10
856.1881071310395
 20
526.4401216218928
 30
0.0
 10
856.0755456366497
 20
526.7322085327208
 30
0.0
 10
855.9536913896779
 20
527.0188098135845
 30
0.0
  0
ARC
  5
15F
330
1F
100
AcDbEntity
  8
0
370
    60
390
F
100
AcDbCircle
 10
712.7721274780879
 20
611.3453122547342
 30
0.0
 40
19.578896
100
AcDbArc
 50
100.358906
 51
102.379444
  0
SPLINE
  5
16B
330
1F
100
AcDbEntity
  8
0
370
    60
390
F
100
AcDbSpline
210
0.0
220
0.0
230
1.0
 70
     8
 71
     5
 72
    18
 73
    12
 74
     0
 42
0.0
 43
0.0
 40
133.3226286533618
 40
133.3226286533618
 40
133.3226286533618
 40
133.3226286533618
 40
133.3226286533618
 40
133.3226286533618
 40
145.7993352183066
 40
145.7993352183066
 40
145.7993352183066
 40
174.9181306111455
 40
174.9181306111455
 40
174.9181306111455
 40
196.7347215257385
 40
196.7347215257385
 40
196.7347215257385
 40
196.7347215257385
 40
196.7347215257385
 40
196.7347215257385
 10
779.0297800245032
 20
497.4111127158935
 30
0.0
 10
779.0290655950706
 20
495.7846317143165
 30
0.0
 10
779.0300296118012
 20
494.1557220278402
 30
0.0
 10
779.0326754358504
 20
492.531950553473
 30
0.0
 10
779.0470625415289
 20
487.160988289978
 30
0.0
 10
779.0796966948606
 20
482.0143493776768
 30
0.0
 10
779.1111295026637
 20
478.616077062158
 30
0.0
 10
779.1797140915377
 20
473.1829909986
 30
0.0
 10
779.2685154625117
 20
468.8581777433027
 30
0.0
 10
779.3097682582418
 20
467.2385047544018
 30
0.0
 10
779.3536449463606
 20
465.8747637206448
 30
0.0
 10
779.3994929392164
 20
464.7825174597892
 30
0.0
  0
SPLINE
  5
16C
330
1F
100
AcDbEntity
  8
0
370
    60
390
F
100
AcDbSpline
210
0.0
220
0.0
230
1.0
 70
     8
 71
     5
 72
    21
 73
    15
 74
     0
 42
0.0
 43
0.0
 40
0.0
 40
0.0
 40
0.0
 40
0.0
 40
0.0
 40
0.0
 40
4.0334006347422
 40
4.0334006347422
 40
4.0334006347422
 40
7.179483728742952
 40
7.179483728742952
 40
7.179483728742952
 40
8.05616349980056
 40
8.05616349980056
 40
8.05616349980056
 40
8.175275605026407
 40
8.175275605026407
 40
8.175275605026407
 40
8.175275605026407
 40
8.175275605026407
 40
8.175275605026407
 10
773.43063293207
 20
497.5519903288433
 30
0.0
 10
774.1089128804305
 20
497.5516925891748
 30
0.0
 10
774.7871918008101
 20
497.5488114500085
 30
0.0
 10
775.4447225075319
 20
497.5434669097318
 30
0.0
 10
776.6228887589004
 20
497.5288260394103
 30
0.0
 10
777.701798068129
 20
497.5025987961027
 30
0.0
 10
778.1582286899566
 20
497.4882090598707
 30
0.0
 10
778.6642488162053
 20
497.4649735034998
 30
0.0
 10
778.9342622401431
 20
497.4359230363655
 30
0.0
 10
778.979858647943
 20
497.4293402492657
 30
0.0
 10
779.0139173754802
 20
497.421662398025
 30
0.0
 10
779.026931159247
 20
497.4139027622109
 30
0.0
 10
779.0281855609787
 20
497.4129731917471
 30
0.0
 10
779.0291351403438
 20
497.4120435165482
 30
0.0
 10
779.0297800249454
 20
497.4111135187479
 30
0.0
  0
LINE
  5
16E
330
1F
100
AcDbEntity
  8
0
 48
0.0375
370
    60
390
F
100
AcDbLine
 10
858.1371404780879
 20
640.8558412547341
 30
0.0
 11
856.6371404780879
 21
640.8558412547341
 31
0.0
  0
LINE
  5
16F
330
1F
100
AcDbEntity
  8
0
 48
0.04709
370
    60
390
F
100
AcDbLine
 10
856.6371404780879
 20
638.9722352547341
 30
0.0
 11
856.6371404780879
 21
640.8558412547341
 31
0.0
  0
LINE
  5
170
330
1F
100
AcDbEntity
  8
0
 48
0.082283
370
    60
390
F
100
AcDbLine
 10
855.1371404780879
 20
642.2635562547341
 30
0.0
 11
855.1371404780879
 21
638.9722352547341
 31
0.0
  0
LINE
  5
171
330
1F
100
AcDbEntity
  8
0
 48
0.075
370
    60
390
F
100
AcDbLine
 10
855.1371404780879
 20
642.2635562547341
 30
0.0
 11
858.1371404780879
 21
642.2635562547341
 31
0.0
  0
LINE
  5
172
330
1F
100
AcDbEntity
  8
0
 48
0.035193
370
    60
390
F
100
AcDbLine
 10
858.1371404780879
 20
642.2635562547341
 30
0.0
 11
858.1371404780879
 21
640.8558412547341
 31
0.0
  0
LINE
  5
173
330
1F
100
AcDbEntity
  8
0
370
    60
390
F
100
AcDbLine
 10
729.6371404780879
 20
630.5658322547341
 30
0.0
 11
855.1371404780879
 21
630.5658322547341
 31
0.0
  0
LINE
  5
174
330
1F
100
AcDbEntity
  8
0
 48
0.082283
370
    60
390
F
100
AcDbLine
 10
729.6371404780879
 20
642.2635562547341
 30
0.0
 11
729.6371404780879
 21
638.9722352547341
 31
0.0
  0
LINE
  5
175
330
1F
100
AcDbEntity
  8
0
 48
0.075
370
    60
390
F
100
AcDbLine
 10
729.6371404780879
 20
642.2635562547341
 30
0.0
 11
726.6371404780879
 21
642.2635562547341
 31
0.0
  0
LINE
  5
176
330
1F
100
AcDbEntity
  8
0
 48
0.035193
370
    60
390
F
100
AcDbLine
 10
726.6371404780879
 20
642.2635562547341
 30
0.0
 11
726.6371404780879
 21
640.8558412547341
 31
0.0
  0
LINE
  5
177
330
1F
100
AcDbEntity
  8
0
 48
0.0375
370
    60
390
F
100
AcDbLine
 10
726.6371404780879
 20
640.8558412547341
 30
0.0
 11
728.1371404780879
 21
640.8558412547341
 31
0.0
  0
LINE
  5
178
330
1F
100
AcDbEntity
  8
0
 48
0.04709
370
    60
390
F
100
AcDbLine
 10
728.1371404780879
 20
638.9722352547341
 30
0.0
 11
728.1371404780879
 21
640.8558412547341
 31
0.0
  0
LINE
  5
17A
330
1F
100
AcDbEntity
  8
0
 48
0.003768
370
    60
390
F
100
AcDbLine
 10
726.6371404780879
 20
633.7673702547341
 30
0.0
 11
726.6371404780879
 21
633.6166442547341
 31
0.0
  0
LINE
  5
17B
330
1F
100
AcDbEntity
  8
0
 48
0.023451
370
    60
390
F
100
AcDbLine
 10
726.6371404780879
 20
634.7054202547341
 30
0.0
 11
726.6371404780879
 21
633.7673702547341
 31
0.0
  0
LINE
  5
17C
330
1F
100
AcDbEntity
  8
0
 48
0.001444
370
    60
390
F
100
AcDbLine
 10
726.6371404780879
 20
634.7631892547341
 30
0.0
 11
726.6371404780879
 21
634.7054202547341
 31
0.0
  0
LINE
  5
17D
330
1F
100
AcDbEntity
  8
0
 48
0.006242
370
    60
390
F
100
AcDbLine
 10
726.6371404780879
 20
639.7631892547341
 30
0.0
 11
726.6371404780879
 21
639.5135252547341
 31
0.0
  0
LINE
  5
17E
330
1F
100
AcDbEntity
  8
0
 48
0.006242
370
    60
390
F
100
AcDbLine
 10
726.6371404780879
 20
635.0136172547341
 30
0.0
 11
726.6371404780879
 21
634.7639522547341
 31
0.0
  0
LINE
  5
17F
330
1F
100
AcDbEntity
  8
0
 48
0.001443
370
    60
390
F
100
AcDbLine
 10
726.6371404780879
 20
639.7639522547341
 30
0.0
 11
726.6371404780879
 21
639.8216922547341
 31
0.0
  0
LINE
  5
180
330
1F
100
AcDbEntity
  8
0
 48
0.023451
370
    60
390
F
100
AcDbLine
 10
726.6371404780879
 20
640.7597412547341
 30
0.0
 11
726.6371404780879
 21
639.8216922547341
 31
0.0
  0
LINE
  5
181
330
1F
100
AcDbEntity
  8
0
 48
0.002402
370
    60
390
F
100
AcDbLine
 10
726.6371404780879
 20
640.7597412547341
 30
0.0
 11
726.6371404780879
 21
640.8558412547341
 31
0.0
  0
ARC
  5
188
330
1F
100
AcDbEntity
  8
0
370
    60
390
F
100
AcDbCircle
 10
25786.49876647809
 20
486.5344602547327
 30
0.0
 40
25007.470703
100
AcDbArc
 50
179.863248
 51
179.975079
  0
ARC
  5
18A
330
1F
100
AcDbEntity
  8
0
370
    60
390
F
100
AcDbCircle
 10
-24150.15162452191
 20
486.5342012547357
 30
0.0
 40
25007.177734
100
AcDbArc
 50
0.024914000000026
 51
0.1367650000000355
  0
LINE
  5
190
330
1F
100
AcDbEntity
  8
0
370
    60
390
F
100
AcDbLine
 10
903.3587974780879
 20
497.4635372547341
 30
0.0
 11
874.8705694780879
 21
497.4635372547341
 31
0.0
  0
ARC
  5
191
330
1F
100
AcDbEntity
  8
0
370
    60
390
F
100
AcDbCircle
 10
874.8601934780879
 20
488.7135372547341
 30
0.0
 40
2.249999
100
AcDbArc
 50
90.00000999999999
 51
270.000036
  0
LINE
  5
192
330
1F
100
AcDbEntity
  8
0
370
    60
390
F
100
AcDbLine
 10
905.3161264780879
 20
490.9635372547341
 30
0.0
 11
874.8601934780879
 21
490.9635372547341
 31
0.0
  0
ARC
  5
193
330
1F
100
AcDbEntity
  8
0
370
    60
390
F
100
AcDbCircle
 10
905.3161264780879
 20
488.7135372547341
 30
0.0
 40
2.250004
100
AcDbArc
 50
270.000036
 51
89.999819
  0
LINE
  5
194
330
1F
100
AcDbEntity
  8
0
370
    60
390
F
100
AcDbLine
 10
905.3161264780879
 20
486.4635372547341
 30
0.0
 11
874.8601934780879
 21
486.4635372547341
 31
0.0
  0
ARC
  5
195
330
1F
100
AcDbEntity
  8
0
370
    60
390
F
100
AcDbCircle
 10
874.8091034780879
 20
478.7135372547341
 30
0.0
 40
2.25
100
AcDbArc
 50
90.00000999999999
 51
269.999991
  0
LINE
  5
196
330
1F
100
AcDbEntity
  8
0
370
    60
390
F
100
AcDbLine
 10
908.1709544780879
 20
480.9635372547341
 30
0.0
 11
874.8091034780879
 21
480.9635372547341
 31
0.0
  0
ARC
  5
197
330
1F
100
AcDbEntity
  8
0
370
    60
390
F
100
AcDbCircle
 10
908.1709544780879
 20
478.7135372547341
 30
0.0
 40
2.250003
100
AcDbArc
 50
270.000036
 51
89.99987299999997
  0
LINE
  5
198
330
1F
100
AcDbEntity
  8
0
370
    60
390
F
100
AcDbLine
 10
908.1709544780879
 20
476.4635372547341
 30
0.0
 11
874.8091034780879
 21
476.4635372547341
 31
0.0
  0
ARC
  5
199
330
1F
100
AcDbEntity
  8
0
370
    60
390
F
100
AcDbCircle
 10
911.8957014780879
 20
469.7135372547341
 30
0.0
 40
2.25
100
AcDbArc
 50
270.00005
 51
89.99984599999999
  0
LINE
  5
19A
330
1F
100
AcDbEntity
  8
0
370
    60
390
F
100
AcDbLine
 10
911.8957084780878
 20
467.4635372547341
 30
0.0
 11
874.7177374780879
 21
467.4635372547341
 31
0.0
  0
ARC
  5
19B
330
1F
100
AcDbEntity
  8
0
370
    60
390
F
100
AcDbCircle
 10
874.7177414780879
 20
469.7135372547341
 30
0.0
 40
2.25
100
AcDbArc
 50
90.00000299999999
 51
269.999978
  0
LINE
  5
19C
330
1F
100
AcDbEntity
  8
0
370
    60
390
F
100
AcDbLine
 10
911.8957084780878
 20
471.9635372547341
 30
0.0
 11
874.7177374780879
 21
471.9635372547341
 31
0.0
  0
LINE
  5
1A8
330
1F
100
AcDbEntity
  8
0
 48
0.003768
370
    60
390
F
100
AcDbLine
 10
858.1371404780879
 20
633.7673702547341
 30
0.0
 11
858.1371404780879
 21
633.6166442547341
 31
0.0
  0
LINE
  5
1A9
330
1F
100
AcDbEntity
  8
0
 48
0.023451
370
    60
390
F
100
AcDbLine
 10
858.1371404780879
 20
634.7054202547341
 30
0.0
 11
858.1371404780879
 21
633.7673702547341
 31
0.0
  0
LINE
  5
1AA
330
1F
100
AcDbEntity
  8
0
 48
0.001444
370
    60
390
F
100
AcDbLine
 10
858.1371404780879
 20
634.7631892547341
 30
0.0
 11
858.1371404780879
 21
634.7054202547341
 31
0.0
  0
LINE
  5
1AB
330
1F
100
AcDbEntity
  8
0
 48
0.006242
370
    60
390
F
100
AcDbLine
 10
858.1371404780879
 20
639.7631892547341
 30
0.0
 11
858.1371404780879
 21
639.5135252547341
 31
0.0
  0
LINE
  5
1AC
330
1F
100
AcDbEntity
  8
0
 48
0.006242
370
    60
390
F
100
AcDbLine
 10
858.1371404780879
 20
635.0136172547341
 30
0.0
 11
858.1371404780879
 21
634.7639522547341
 31
0.0
  0
LINE
  5
1AD
330
1F
100
AcDbEntity
  8
0
 48
0.001443
370
    60
390
F
100
AcDbLine
 10
858.1371404780879
 20
639.7639522547341
 30
0.0
 11
858.1371404780879
 21
639.8216922547341
 31
0.0
  0
LINE
  5
1AE
330
1F
100
AcDbEntity
  8
0
 48
0.023451
370
    60
390
F
100
AcDbLine
 10
858.1371404780879
 20
640.7597412547341
 30
0.0
 11
858.1371404780879
 21
639.8216922547341
 31
0.0
  0
LINE
  5
1AF
330
1F
100
AcDbEntity
  8
0
 48
0.002402
370
    60
390
F
100
AcDbLine
 10
858.1371404780879
 20
640.7597412547341
 30
0.0
 11
858.1371404780879
 21
640.8558412547341
 31
0.0
  0
LINE
  5
1B3
330
1F
100
AcDbEntity
  8
0
370
    60
390
F
100
AcDbLine
 10
883.9130654780879
 20
545.7539732547341
 30
0.0
 11
917.9130654780879
 21
545.7539732547341
 31
0.0
  0
LINE
  5
1B7
330
1F
100
AcDbEntity
  8
0
 48
0.060977
370
    60
390
F
100
AcDbLine
 10
918.9132184780879
 20
545.7714292547341
 30
0.0
 11
921.3523124780879
 21
545.7714292547341
 31
0.0
  0
SPLINE
  5
1B8
330
1F
100
AcDbEntity
  8
0
370
    60
390
F
100
AcDbSpline
210
0.0
220
0.0
230
1.0
 70
     8
 71
     5
 72
    21
 73
    15
 74
     0
 42
0.0
 43
0.0
 40
0.0
 40
0.0
 40
0.0
 40
0.0
 40
0.0
 40
0.0
 40
0.6617955039468574
 40
0.6617955039468574
 40
0.6617955039468574
 40
1.324235992876796
 40
1.324235992876796
 40
1.324235992876796
 40
1.986634507724453
 40
1.986634507724453
 40
1.986634507724453
 40
2.196809759026424
 40
2.196809759026424
 40
2.196809759026424
 40
2.196809759026424
 40
2.196809759026424
 40
2.196809759026424
 10
917.9133723956892
 20
545.7542833733401
 30
0.0
 10
917.9150055529218
 20
545.7559165305727
 30
0.0
 10
917.9275830355082
 20
545.7575463475587
 30
0.0
 10
917.9510775660597
 20
545.7591431183869
 30
0.0
 10
918.0190593761805
 20
545.7622124903711
 30
0.0
 10
918.1258107708223
 20
545.7649250135673
 30
0.0
 10
918.188120445967
 20
545.7661662496521
 30
0.0
 10
918.3282238026127
 20
545.7683708347323
 30
0.0
 10
918.4937192986354
 20
545.7699508558845
 30
0.0
 10
918.58142085595
 20
545.7705674139204
 30
0.0
 10
918.7013188353479
 20
545.7711359328682
 30
0.0
 10
918.824036710917
 20
545.7713758696558
 30
0.0
 10
918.8537735917284
 20
545.7714145290385
 30
0.0
 10
918.8834968217589
 20
545.7714338053806
 30
0.0
 10
918.9132200908455
 20
545.7714338053806
 30
0.0
  0
ARC
  5
1BC
330
1F
100
AcDbEntity
  8
0
370
    60
390
F
100
AcDbCircle
 10
921.3521214780878
 20
540.7718262547342
 30
0.0
 40
4.999644
100
AcDbArc
 50
10.32348000000002
 51
89.997906
  0
LINE
  5
1BD
330
1F
100
AcDbEntity
  8
0
370
    60
390
F
100
AcDbLine
 10
926.2708684780879
 20
541.6677922547342
 30
0.0
 11
937.9411794780879
 21
477.6257082547341
 31
0.0
  0
ARC
  5
1BE
330
1F
100
AcDbEntity
  8
0
370
    60
390
F
100
AcDbCircle
 10
935.229014478088
 20
463.5539462547342
 30
0.0
 40
5.599165
100
AcDbArc
 50
269.999937
 51
359.978359
  0
LINE
  5
1BF
330
1F
100
AcDbEntity
  8
0
 48
0.024689
370
    60
390
F
100
AcDbLine
 10
911.4058934780879
 20
456.9672152547342
 30
0.0
 11
911.4058934780879
 21
457.9547942547342
 31
0.0
  0
ARC
  5
1C0
330
1F
100
AcDbEntity
  8
0
370
    60
390
F
100
AcDbCircle
 10
908.6615164780878
 20
456.9672302547341
 30
0.0
 40
2.744376
100
AcDbArc
 50
270.000104
 51
359.999861
  0
LINE
  5
1C1
330
1F
100
AcDbEntity
  8
0
 48
0.006818
370
    60
390
F
100
AcDbLine
 10
908.6615244780879
 20
454.2228452547342
 30
0.0
 11
908.3888194780878
 21
454.2228452547342
 31
0.0
  0
LINE
  5
1C2
330
1F
100
AcDbEntity
  8
0
 48
0.006817
370
    60
390
F
100
AcDbLine
 10
887.4524404780879
 20
454.2228452547342
 30
0.0
 11
887.1797584780879
 21
454.2228452547342
 31
0.0
  0
ARC
  5
1C3
330
1F
100
AcDbEntity
  8
0
370
    60
390
F
100
AcDbCircle
 10
887.1797664780879
 20
456.9672302547341
 30
0.0
 40
2.744376
100
AcDbArc
 50
180.000098
 51
269.999855
  0
LINE
  5
1C4
330
1F
100
AcDbEntity
  8
0
 48
0.024689
370
    60
390
F
100
AcDbLine
 10
884.4353894780879
 20
456.9672152547342
 30
0.0
 11
884.4353894780879
 21
457.9547942547342
 31
0.0
  0
ARC
  5
1C5
330
1F
100
AcDbEntity
  8
0
370
    60
390
F
100
AcDbCircle
 10
887.1797584780879
 20
456.9672152547342
 30
0.0
 40
0.5
100
AcDbArc
 50
180.000003
 51
270.000009
  0
LINE
  5
1CC
330
1F
100
AcDbEntity
  8
0
 48
0.006817
370
    60
390
F
100
AcDbLine
 10
887.4524564780879
 20
456.4672152547342
 30
0.0
 11
887.1797584780879
 21
456.4672152547342
 31
0.0
  0
LINE
  5
1CD
330
1F
100
AcDbEntity
  8
0
 48
0.006817
370
    60
390
F
100
AcDbLine
 10
908.6615244780879
 20
456.4672152547342
 30
0.0
 11
908.3888264780879
 21
456.4672152547342
 31
0.0
  0
ARC
  5
1CE
330
1F
100
AcDbEntity
  8
0
370
    60
390
F
100
AcDbCircle
 10
908.6615244780879
 20
456.9672152547342
 30
0.0
 40
0.5
100
AcDbArc
 50
270.000009
 51
359.999997
  0
LINE
  5
1CF
330
1F
100
AcDbEntity
  8
0
 48
0.036559
370
    60
390
F
100
AcDbLine
 10
909.1615244780879
 20
458.4295712547342
 30
0.0
 11
909.1615244780879
 21
456.9672152547342
 31
0.0
  0
LINE
  5
1D2
330
1F
100
AcDbEntity
  8
0
 48
0.00576
370
    60
390
F
100
AcDbLine
 10
911.636301478088
 20
457.9547942547342
 30
0.0
 11
911.4058934780879
 21
457.9547942547342
 31
0.0
  0
ARC
  5
1D3
330
1F
100
AcDbEntity
  8
0
370
    60
390
F
100
AcDbCircle
 10
934.3402654780879
 20
463.2307042547342
 30
0.0
 40
6.513251
100
AcDbArc
 50
7.09151000000002
 51
12.15513900000003
  0
ARC
  5
1D7
330
1F
100
AcDbEntity
  8
0
370
    60
390
F
100
AcDbCircle
 10
936.3098784780879
 20
463.5684422547342
 30
0.0
 40
4.518227
100
AcDbArc
 50
359.789327
 51
5.924721999999969
  0
SPLINE
  5
1DF
330
1F
100
AcDbEntity
  8
0
370
    60
390
F
100
AcDbSpline
210
0.0
220
0.0
230
1.0
 70
     8
 71
     5
 72
    18
 73
    12
 74
     0
 42
0.0
 43
0.0
 40
133.3225641120747
 40
133.3225641120747
 40
133.3225641120747
 40
133.3225641120747
 40
133.3225641120747
 40
133.3225641120747
 40
144.3926722245099
 40
144.3926722245099
 40
144.3926722245099
 40
173.5076490598737
 40
173.5076490598737
 40
173.5076490598737
 40
196.7346076324115
 40
196.7346076324115
 40
196.7346076324115
 40
196.7346076324115
 40
196.7346076324115
 40
196.7346076324115
 10
857.0224405810989
 20
497.4111127065511
 30
0.0
 10
857.023074472471
 20
495.9679857775554
 30
0.0
 10
857.0223870123247
 20
494.5229457280921
 30
0.0
 10
857.020375848036
 20
493.0812795819663
 30
0.0
 10
857.0082965436719
 20
487.8794631378132
 30
0.0
 10
856.9790952186045
 20
482.8609265685626
 30
0.0
 10
856.9492608587718
 20
479.4162505228358
 30
0.0
 10
856.881410454087
 20
473.7272705573712
 30
0.0
 10
856.7916727727232
 20
469.1755164027267
 30
0.0
 10
856.7481175702666
 20
467.4159779637418
 30
0.0
 10
856.7015398590056
 20
465.9453804484885
 30
0.0
 10
856.6527276662471
 20
464.7825174596434
 30
0.0
  0
ARC
  5
1E0
330
1F
100
AcDbEntity
  8
0
370
    60
390
F
100
AcDbCircle
 10
853.2360334780878
 20
337.1456322547342
 30
0.0
 40
167.956223
100
AcDbArc
 50
89.07096800000001
 51
90.07860899999999
  0
SPLINE
  5
1E1
330
1F
100
AcDbEntity
  8
0
370
    60
390
F
100
AcDbSpline
210
0.0
220
0.0
230
1.0
 70
     8
 71
     5
 72
    24
 73
    18
 74
     0
 42
0.0
 43
0.0
 40
0.0
 40
0.0
 40
0.0
 40
0.0
 40
0.0
 40
0.0
 40
2.415656271387275
 40
2.415656271387275
 40
2.415656271387275
 40
3.826503801459852
 40
3.826503801459852
 40
3.826503801459852
 40
4.05284242518836
 40
4.05284242518836
 40
4.05284242518836
 40
4.287115063874005
 40
4.287115063874005
 40
4.287115063874005
 40
4.72508307247242
 40
4.72508307247242
 40
4.72508307247242
 40
4.72508307247242
 40
4.72508307247242
 40
4.72508307247242
 10
855.9592785416587
 20
505.0793241996669
 30
0.0
 10
856.1671995492703
 20
505.0753500568107
 30
0.0
 10
856.3577939412933
 20
505.1229218859688
 30
0.0
 10
856.5193713221933
 20
505.2042827658519
 30
0.0
 10
856.7292352998928
 20
505.3665271645793
 30
0.0
 10
856.8690788255971
 20
505.5655029032489
 30
0.0
 10
856.911385343446
 20
505.6427540784959
 30
0.0
 10
856.9495060438791
 20
505.7350451730402
 30
0.0
 10
856.9751793421976
 20
505.8294700692473
 30
0.0
 10
856.9791061484465
 20
505.8450991441313
 30
0.0
 10
856.9850738125166
 20
505.8709897237098
 30
0.0
 10
856.9895671612427
 20
505.8939265630476
 30
0.0
 10
856.9914989816981
 20
505.9046823815354
 30
0.0
 10
856.9963643755036
 20
505.9338198922686
 30
0.0
 10
856.9999017773823
 20
505.9616516792026
 30
0.0
 10
857.002241707174
 20
505.9818182593705
 30
0.0
 10
857.0040598738465
 20
506.0075757796832
 30
0.0
 10
857.0049903809564
 20
506.033307750682
 30
0.0
  0
ELLIPSE
  5
1E3
330
1F
100
AcDbEntity
  8
0
370
    60
390
F
100
AcDbEllipse
 10
853.0055654780879
 20
502.8116952547342
 30
0.0
 11
4.015249284809443
 21
-0.004456800511206893
 31
0.0
210
0.0
220
0.0
230
1.0
 40
0.052408
 41
4.712397480031248
 42
6.265797763926805
  0
LINE
  5
1E4
330
1F
100
AcDbEntity
  8
0
 48
0.0625
370
    60
390
F
100
AcDbLine
 10
853.0055984780879
 20
505.1020572547342
 30
0.0
 11
853.0055984780879
 21
502.6020572547342
 31
0.0
  0
ELLIPSE
  5
1E5
330
1F
100
AcDbEntity
  8
0
370
    60
390
F
100
AcDbEllipse
 10
783.0466544780879
 20
502.8116952547342
 30
0.0
 11
4.000034531831441
 21
1.447993857355077E-6
 31
0.0
210
0.0
220
0.0
230
1.0
 40
0.052408
 41
3.159048100560043
 42
4.712380480739117
  0
SPLINE
  5
1E7
330
1F
100
AcDbEntity
  8
0
370
    60
390
F
100
AcDbSpline
210
0.0
220
0.0
230
1.0
 70
     8
 71
     5
 72
    24
 73
    18
 74
     0
 42
0.0
 43
0.0
 40
0.0
 40
0.0
 40
0.0
 40
0.0
 40
0.0
 40
0.0
 40
2.415656710158267
 40
2.415656710158267
 40
2.415656710158267
 40
3.826504496040157
 40
3.826504496040157
 40
3.826504496040157
 40
4.052843522776921
 40
4.052843522776921
 40
4.052843522776921
 40
4.28711620769052
 40
4.28711620769052
 40
4.28711620769052
 40
4.725084231901911
 40
4.725084231901911
 40
4.725084231901911
 40
4.725084231901911
 40
4.725084231901911
 40
4.725084231901911
 10
780.0929420639117
 20
505.0793241996669
 30
0.0
 10
779.885021018534
 20
505.0753500560889
 30
0.0
 10
779.6944265950393
 20
505.1229219032498
 30
0.0
 10
779.5328491947477
 20
505.2042828103677
 30
0.0
 10
779.3229852036808
 20
505.366527257525
 30
0.0
 10
779.1831416893787
 20
505.565503048105
 30
0.0
 10
779.1408351789685
 20
505.6427542426172
 30
0.0
 10
779.1027144825464
 20
505.7350453793403
 30
0.0
 10
779.0770411981861
 20
505.8294703174325
 30
0.0
 10
779.073114415386
 20
505.8450993147393
 30
0.0
 10
779.067146754966
 20
505.8709899029034
 30
0.0
 10
779.0626534142193
 20
505.8939267256236
 30
0.0
 10
779.0607215994652
 20
505.9046825227327
 30
0.0
 10
779.0558562208558
 20
505.9338199659654
 30
0.0
 10
779.0523188272955
 20
505.9616516963708
 30
0.0
 10
779.0499788985259
 20
505.9818182575405
 30
0.0
 10
779.0481607317571
 20
506.0075757787658
 30
0.0
 10
779.0356973341464
 20
506.0743375596776
 30
0.0
  0
ARC
  5
1E8
330
1F
100
AcDbEntity
  8
0
370
    60
390
F
100
AcDbCircle
 10
782.816187478088
 20
337.1456322547342
 30
0.0
 40
167.956223
100
AcDbArc
 50
89.92140799999996
 51
90.92903799999999
  0
LINE
  5
1E9
330
1F
100
AcDbEntity
  8
0
 48
0.0625
370
    60
390
F
100
AcDbLine
 10
783.0466214780879
 20
505.1020572547342
 30
0.0
 11
783.0466214780879
 21
502.6020572547342
 31
0.0
  0
LINE
  5
1F8
330
1F
100
AcDbEntity
  8
0
 48
0.024689
370
    60
390
F
100
AcDbLine
 10
727.0596414780879
 20
456.9672152547342
 30
0.0
 11
727.0596414780879
 21
457.9547942547342
 31
0.0
  0
LINE
  5
1F9
330
1F
100
AcDbEntity
  8
0
 48
0.00576
370
    60
390
F
100
AcDbLine
 10
726.8292334780879
 20
457.9547942547342
 30
0.0
 11
727.0596414780879
 21
457.9547942547342
 31
0.0
  0
ARC
  5
1FC
330
1F
100
AcDbEntity
  8
0
370
    60
390
F
100
AcDbCircle
 10
751.2857694780879
 20
456.9672152547342
 30
0.0
 40
0.5
100
AcDbArc
 50
270.000009
 51
359.999997
  0
LINE
  5
1FD
330
1F
100
AcDbEntity
  8
0
 48
0.006817
370
    60
390
F
100
AcDbLine
 10
729.8040114780879
 20
456.4672152547342
 30
0.0
 11
730.0767004780879
 21
456.4672152547342
 31
0.0
  0
LINE
  5
1FE
330
1F
100
AcDbEntity
  8
0
 48
0.006817
370
    60
390
F
100
AcDbLine
 10
751.0130794780879
 20
456.4672152547342
 30
0.0
 11
751.2857694780879
 21
456.4672152547342
 31
0.0
  0
ARC
  5
1FF
330
1F
100
AcDbEntity
  8
0
370
    60
390
F
100
AcDbCircle
 10
729.8040114780879
 20
456.9672152547342
 30
0.0
 40
0.5
100
AcDbArc
 50
180.000003
 51
270.000009
  0
LINE
  5
200
330
1F
100
AcDbEntity
  8
0
 48
0.036559
370
    60
390
F
100
AcDbLine
 10
729.3040114780879
 20
458.4295712547342
 30
0.0
 11
729.3040114780879
 21
456.9672152547342
 31
0.0
  0
LINE
  5
207
330
1F
100
AcDbEntity
  8
0
 48
0.024689
370
    60
390
F
100
AcDbLine
 10
754.0301424780879
 20
456.9672152547342
 30
0.0
 11
754.0301424780879
 21
457.9547942547342
 31
0.0
  0
ARC
  5
208
330
1F
100
AcDbEntity
  8
0
370
    60
390
F
100
AcDbCircle
 10
729.8040184780879
 20
456.9672302547341
 30
0.0
 40
2.744376
100
AcDbArc
 50
180.000098
 51
269.999855
  0
LINE
  5
209
330
1F
100
AcDbEntity
  8
0
 48
0.006817
370
    60
390
F
100
AcDbLine
 10
751.2857694780879
 20
454.2228452547342
 30
0.0
 11
751.0130714780879
 21
454.2228452547342
 31
0.0
  0
LINE
  5
20A
330
1F
100
AcDbEntity
  8
0
 48
0.006817
370
    60
390
F
100
AcDbLine
 10
730.0766934780879
 20
454.2228452547342
 30
0.0
 11
729.8040114780879
 21
454.2228452547342
 31
0.0
  0
ARC
  5
20B
330
1F
100
AcDbEntity
  8
0
370
    60
390
F
100
AcDbCircle
 10
751.2857694780879
 20
456.9672302547341
 30
0.0
 40
2.744376
100
AcDbArc
 50
270.000104
 51
359.999861
  0
LINE
  5
20D
330
1F
100
AcDbEntity
  8
0
370
    60
390
F
100
AcDbLine
 10
853.0055984780879
 20
502.6020572547342
 30
0.0
 11
783.0466214780879
 21
502.6020572547342
 31
0.0
  0
LINE
  5
20E
330
1F
100
AcDbEntity
  8
0
370
    60
390
F
100
AcDbLine
 10
853.0055984780879
 20
505.1020572547342
 30
0.0
 11
783.0466214780879
 21
505.1020572547342
 31
0.0
  0
LINE
  5
225
330
1F
100
AcDbEntity
  8
0
 48
0.0375
370
    60
390
F
100
AcDbLine
 10
726.6371404780879
 20
634.7639522547341
 30
0.0
 11
728.1371404780879
 21
634.7639522547341
 31
0.0
  0
LINE
  5
226
330
1F
100
AcDbEntity
  8
0
 48
0.0375
370
    60
390
F
100
AcDbLine
 10
726.6371404780879
 20
639.7631892547341
 30
0.0
 11
728.1371404780879
 21
639.7631892547341
 31
0.0
  0
LINE
  5
237
330
1F
100
AcDbEntity
  8
0
 48
0.0375
370
    60
390
F
100
AcDbLine
 10
858.1371404780879
 20
634.7639522547341
 30
0.0
 11
856.6371404780879
 21
634.7639522547341
 31
0.0
  0
LINE
  5
238
330
1F
100
AcDbEntity
  8
0
 48
0.0375
370
    60
390
F
100
AcDbLine
 10
858.1371404780879
 20
639.7631892547341
 30
0.0
 11
856.6371404780879
 21
639.7631892547341
 31
0.0
  0
LINE
  5
239
330
1F
100
AcDbEntity
  8
0
 48
0.006242
370
    60
390
F
100
AcDbLine
 10
856.6371404780879
 20
639.5135252547341
 30
0.0
 11
856.6371404780879
 21
639.7631892547341
 31
0.0
  0
LINE
  5
23A
330
1F
100
AcDbEntity
  8
0
 48
0.006242
370
    60
390
F
100
AcDbLine
 10
856.6371404780879
 20
634.7639522547341
 30
0.0
 11
856.6371404780879
 21
635.0136172547341
 31
0.0
  0
LINE
  5
241
330
1F
100
AcDbEntity
  8
0
 48
0.296
370
    60
390
F
100
AcDbLine
 10
940.707491478088
 20
464.6021332547342
 30
0.0
 11
938.2150674780879
 21
476.1768092547342
 31
0.0
  0
ARC
  5
243
330
1F
100
AcDbEntity
  8
0
370
    60
390
F
100
AcDbCircle
 10
1015.151964478088
 20
491.4035862547342
 30
0.0
 40
78.429855
100
AcDbArc
 50
190.117657
 51
191.194881
  0
LINE
  5
249
330
1F
100
AcDbEntity
  8
0
 48
0.016318
370
    60
390
F
100
AcDbLine
 10
688.7315394780879
 20
517.8393612547342
 30
0.0
 11
688.8492304780879
 21
518.4813752547342
 31
0.0
  0
LINE
  5
260
330
1F
100
AcDbEntity
  8
0
 48
0.004362
370
    60
390
F
100
AcDbLine
 10
692.1077294780879
 20
555.6685852547341
 30
0.0
 11
692.1087824780878
 21
555.4941162547342
 31
0.0
  0
ARC
  5
261
330
1F
100
AcDbEntity
  8
0
370
    60
390
F
100
AcDbCircle
 10
493.0367304780879
 20
554.3756772547342
 30
0.0
 40
199.075195
100
AcDbArc
 50
349.612489
 51
0.3218909999999878
  0
LINE
  5
269
330
1F
100
AcDbEntity
  8
0
 48
0.097132
370
    60
390
F
100
AcDbLine
 10
855.4241544780879
 20
498.0616672547342
 30
0.0
 11
855.4241544780879
 21
501.9469662547341
 31
0.0
  0
ELLIPSE
  5
26A
330
1F
100
AcDbEntity
  8
0
370
    60
390
F
100
AcDbEllipse
 10
851.4240974780879
 20
501.9469612547342
 30
0.0
 11
4.000057543554406
 21
2.517019576455080E-6
 31
0.0
210
0.0
220
0.0
230
1.0
 40
0.052408
 41
0.0000036475873918
 42
1.570782000382574
  0
LINE
  5
26B
330
1F
100
AcDbEntity
  8
0
370
    60
390
F
100
AcDbLine
 10
851.4241544780879
 20
502.1565922547342
 30
0.0
 11
784.6280654780879
 21
502.1565922547342
 31
0.0
  0
ELLIPSE
  5
26C
330
1F
100
AcDbEntity
  8
0
370
    60
390
F
100
AcDbEllipse
 10
784.6281224780879
 20
501.9469612547342
 30
0.0
 11
4.000057542877626
 21
-2.517023937244926E-6
 31
0.0
210
0.0
220
0.0
230
1.0
 40
0.052408
 41
1.570810653229088
 42
3.141589005997579
  0
LINE
  5
26D
330
1F
100
AcDbEntity
  8
0
 48
0.097132
370
    60
390
F
100
AcDbLine
 10
780.6280654780879
 20
498.0616672547342
 30
0.0
 11
780.6280654780879
 21
501.9469662547341
 31
0.0
  0
LINE
  5
275
330
1F
100
AcDbEntity
  8
0
 48
0.020087
370
    60
390
F
100
AcDbLine
 10
832.319747478088
 20
556.3067992547342
 30
0.0
 11
832.319747478088
 21
557.1102662547341
 31
0.0
  0
LINE
  5
276
330
1F
100
AcDbEntity
  8
0
 48
0.003279
370
    60
390
F
100
AcDbLine
 10
832.3231774780879
 20
557.3102172547342
 30
0.0
 11
832.4159024780879
 21
557.4029602547341
 31
0.0
  0
ARC
  5
277
330
1F
100
AcDbEntity
  8
0
370
    60
390
F
100
AcDbCircle
 10
835.7404104780879
 20
557.1666322547342
 30
0.0
 40
3.420688
100
AcDbArc
 50
177.593665
 51
180.944051
  0
ARC
  5
278
330
1F
100
AcDbEntity
  8
0
370
    60
390
F
100
AcDbCircle
 10
800.3118104780879
 20
557.1666322547342
 30
0.0
 40
3.420688
100
AcDbArc
 50
359.055956
 51
2.406355000000004
  0
LINE
  5
279
330
1F
100
AcDbEntity
  8
0
 48
0.003279
370
    60
390
F
100
AcDbLine
 10
803.7290424780879
 20
557.3102172547342
 30
0.0
 11
803.6363174780879
 21
557.4029602547341
 31
0.0
  0
LINE
  5
27A
330
1F
100
AcDbEntity
  8
0
 48
0.020087
370
    60
390
F
100
AcDbLine
 10
803.732473478088
 20
556.3067992547342
 30
0.0
 11
803.732473478088
 21
557.1102662547341
 31
0.0
  0
ARC
  5
29A
330
1F
100
AcDbEntity
  8
0
370
    60
390
F
100
AcDbCircle
 10
839.5261104780878
 20
547.3067992547342
 30
0.0
 40
9.80346
100
AcDbArc
 50
359.999997
 51
90.000001
  0
LINE
  5
29C
330
1F
100
AcDbEntity
  8
0
 48
0.36147
370
    60
390
F
100
AcDbLine
 10
849.3295714780879
 20
547.3067992547342
 30
0.0
 11
849.3295714780879
 21
532.8480132547342
 31
0.0
  0
ARC
  5
29E
330
1F
100
AcDbEntity
  8
0
370
    60
390
F
100
AcDbCircle
 10
852.5288644780879
 20
532.8477842547342
 30
0.0
 40
3.199278
100
AcDbArc
 50
179.996027
 51
247.303314
  0
ARC
  5
2A0
330
1F
100
AcDbEntity
  8
0
370
    60
390
F
100
AcDbCircle
 10
847.9390344780879
 20
521.8736632547342
 30
0.0
 40
8.696044
100
AcDbArc
 50
359.996063
 51
67.30331899999999
  0
LINE
  5
2A2
330
1F
100
AcDbEntity
  8
0
 48
0.391747
370
    60
390
F
100
AcDbLine
 10
856.6351194780879
 20
521.8730682547341
 30
0.0
 11
856.6351194780879
 21
506.2032072547342
 31
0.0
  0
ARC
  5
2A4
330
1F
100
AcDbEntity
  8
0
370
    60
390
F
100
AcDbCircle
 10
855.8352954780879
 20
506.2031612547342
 30
0.0
 40
0.799819
100
AcDbArc
 50
269.996057
 51
0.003932000000012
  0
LINE
  5
2A6
330
1F
100
AcDbEntity
  8
0
370
    60
390
F
100
AcDbLine
 10
780.2169784780879
 20
505.4033262547342
 30
0.0
 11
855.8352414780879
 21
505.4033262547342
 31
0.0
  0
ARC
  5
2A8
330
1F
100
AcDbEntity
  8
0
370
    60
390
F
100
AcDbCircle
 10
780.2169254780879
 20
506.2031612547342
 30
0.0
 40
0.799819
100
AcDbArc
 50
179.996061
 51
270.003943
  0
LINE
  5
2AA
330
1F
100
AcDbEntity
  8
0
 48
0.391747
370
    60
390
F
100
AcDbLine
 10
779.417101478088
 20
521.8730682547341
 30
0.0
 11
779.417101478088
 21
506.2032072547342
 31
0.0
  0
ARC
  5
2AC
330
1F
100
AcDbEntity
  8
0
370
    60
390
F
100
AcDbCircle
 10
788.1131864780879
 20
521.8736632547342
 30
0.0
 40
8.696044
100
AcDbArc
 50
112.696695
 51
180.00393
  0
ARC
  5
2AE
330
1F
100
AcDbEntity
  8
0
370
    60
390
F
100
AcDbCircle
 10
783.5233564780879
 20
532.8477842547342
 30
0.0
 40
3.199278
100
AcDbArc
 50
292.6967
 51
0.0039589999999915
  0
LINE
  5
2B0
330
1F
100
AcDbEntity
  8
0
 48
0.36147
370
    60
390
F
100
AcDbLine
 10
786.7226494780879
 20
547.3067992547342
 30
0.0
 11
786.7226494780879
 21
532.8480132547342
 31
0.0
  0
ARC
  5
2B2
330
1F
100
AcDbEntity
  8
0
370
    60
390
F
100
AcDbCircle
 10
796.5261104780878
 20
547.3067992547342
 30
0.0
 40
9.80346
100
AcDbArc
 50
90.000001
 51
180.000003
  0
LINE
  5
2B3
330
1F
100
AcDbEntity
  8
0
 48
0.180159
370
    60
390
F
100
AcDbLine
 10
803.732473478088
 20
557.1102662547341
 30
0.0
 11
796.526110478088
 21
557.1102662547341
 31
0.0
  0
LINE
  5
2B4
330
1F
100
AcDbEntity
  8
0
 48
0.180159
370
    60
390
F
100
AcDbLine
 10
839.526110478088
 20
557.1102662547341
 30
0.0
 11
832.319747478088
 21
557.1102662547341
 31
0.0
  0
LINE
  5
2B5
330
1F
100
AcDbEntity
  8
0
 48
0.020087
370
    60
390
F
100
AcDbLine
 10
821.069748478088
 20
556.3067992547342
 30
0.0
 11
821.069748478088
 21
557.1102662547341
 31
0.0
  0
LINE
  5
2B6
330
1F
100
AcDbEntity
  8
0
 48
0.003279
370
    60
390
F
100
AcDbLine
 10
821.0731774780879
 20
557.3102172547342
 30
0.0
 11
821.1659034780879
 21
557.4029602547341
 31
0.0
  0
ARC
  5
2B7
330
1F
100
AcDbEntity
  8
0
370
    60
390
F
100
AcDbCircle
 10
824.4904094780879
 20
557.1666322547342
 30
0.0
 40
3.420688
100
AcDbArc
 50
177.593665
 51
180.944051
  0
ARC
  5
2B8
330
1F
100
AcDbEntity
  8
0
370
    60
390
F
100
AcDbCircle
 10
822.8118114780879
 20
557.1666322547342
 30
0.0
 40
3.420688
100
AcDbArc
 50
359.055956
 51
2.406355000000004
  0
LINE
  5
2B9
330
1F
100
AcDbEntity
  8
0
 48
0.003279
370
    60
390
F
100
AcDbLine
 10
826.2290424780879
 20
557.3102172547342
 30
0.0
 11
826.1363174780879
 21
557.4029602547341
 31
0.0
  0
LINE
  5
2BA
330
1F
100
AcDbEntity
  8
0
 48
0.020087
370
    60
390
F
100
AcDbLine
 10
826.232473478088
 20
556.3067992547342
 30
0.0
 11
826.232473478088
 21
557.1102662547341
 31
0.0
  0
LINE
  5
2BC
330
1F
100
AcDbEntity
  8
0
 48
0.129068
370
    60
390
F
100
AcDbLine
 10
821.069748478088
 20
557.1102662547341
 30
0.0
 11
826.232473478088
 21
557.1102662547341
 31
0.0
  0
LINE
  5
2BD
330
1F
100
AcDbEntity
  8
0
 48
0.020087
370
    60
390
F
100
AcDbLine
 10
809.819747478088
 20
556.3067992547342
 30
0.0
 11
809.819747478088
 21
557.1102662547341
 31
0.0
  0
LINE
  5
2BE
330
1F
100
AcDbEntity
  8
0
 48
0.003279
370
    60
390
F
100
AcDbLine
 10
809.8231774780879
 20
557.3102172547342
 30
0.0
 11
809.9159024780879
 21
557.4029602547341
 31
0.0
  0
ARC
  5
2BF
330
1F
100
AcDbEntity
  8
0
370
    60
390
F
100
AcDbCircle
 10
813.2404094780879
 20
557.1666322547342
 30
0.0
 40
3.420688
100
AcDbArc
 50
177.593665
 51
180.944051
  0
ARC
  5
2C0
330
1F
100
AcDbEntity
  8
0
370
    60
390
F
100
AcDbCircle
 10
811.5618114780879
 20
557.1666322547342
 30
0.0
 40
3.420688
100
AcDbArc
 50
359.055956
 51
2.406355000000004
  0
LINE
  5
2C1
330
1F
100
AcDbEntity
  8
0
 48
0.003279
370
    60
390
F
100
AcDbLine
 10
814.9790424780879
 20
557.3102172547342
 30
0.0
 11
814.8863174780879
 21
557.4029602547341
 31
0.0
  0
LINE
  5
2C2
330
1F
100
AcDbEntity
  8
0
 48
0.020087
370
    60
390
F
100
AcDbLine
 10
814.982472478088
 20
556.3067992547342
 30
0.0
 11
814.982472478088
 21
557.1102662547341
 31
0.0
  0
LINE
  5
2C4
330
1F
100
AcDbEntity
  8
0
 48
0.129068
370
    60
390
F
100
AcDbLine
 10
809.819747478088
 20
557.1102662547341
 30
0.0
 11
814.982472478088
 21
557.1102662547341
 31
0.0
  0
ARC
  5
2C5
330
1F
100
AcDbEntity
  8
0
370
    60
390
F
100
AcDbCircle
 10
825.5261104780878
 20
524.3587712547342
 30
0.0
 40
5.0
100
AcDbArc
 50
359.999997
 51
90.00000999999999
  0
LINE
  5
2C6
330
1F
100
AcDbEntity
  8
0
 48
0.375
370
    60
390
F
100
AcDbLine
 10
825.5261104780878
 20
529.3587712547342
 30
0.0
 11
810.5261104780878
 21
529.3587712547342
 31
0.0
  0
ARC
  5
2C7
330
1F
100
AcDbEntity
  8
0
370
    60
390
F
100
AcDbCircle
 10
810.5261104780878
 20
524.3587712547342
 30
0.0
 40
5.0
100
AcDbArc
 50
90.0
 51
180.000003
  0
LINE
  5
2C8
330
1F
100
AcDbEntity
  8
0
 48
0.25
370
    60
390
F
100
AcDbLine
 10
830.5261104780878
 20
524.3587712547342
 30
0.0
 11
830.5261104780878
 21
514.3587712547342
 31
0.0
  0
ARC
  5
2C9
330
1F
100
AcDbEntity
  8
0
370
    60
390
F
100
AcDbCircle
 10
825.5261104780878
 20
514.3587712547342
 30
0.0
 40
5.0
100
AcDbArc
 50
270.000009
 51
359.999997
  0
LINE
  5
2CA
330
1F
100
AcDbEntity
  8
0
 48
0.25
370
    60
390
F
100
AcDbLine
 10
805.5261104780878
 20
524.3587712547342
 30
0.0
 11
805.5261104780878
 21
514.3587712547342
 31
0.0
  0
LINE
  5
2CB
330
1F
100
AcDbEntity
  8
0
 48
0.375
370
    60
390
F
100
AcDbLine
 10
825.5261104780878
 20
509.3587712547342
 30
0.0
 11
810.5261104780878
 21
509.3587712547342
 31
0.0
  0
ARC
  5
2CC
330
1F
100
AcDbEntity
  8
0
370
    60
390
F
100
AcDbCircle
 10
810.5261104780878
 20
514.3587712547342
 30
0.0
 40
5.0
100
AcDbArc
 50
180.000003
 51
270.000009
  0
LINE
  5
2CF
330
1F
100
AcDbEntity
  8
0
370
    60
390
F
100
AcDbLine
 10
830.5260494780879
 20
522.4607302547341
 30
0.0
 11
805.5260494780879
 21
522.4607302547341
 31
0.0
  0
ARC
  5
2D0
330
1F
100
AcDbEntity
  8
0
370
    60
390
F
100
AcDbCircle
 10
819.6844224780879
 20
510.4607302547342
 30
0.0
 40
0.5
100
AcDbArc
 50
123.55731
 51
236.442685
  0
ARC
  5
2D1
330
1F
100
AcDbEntity
  8
0
370
    60
390
F
100
AcDbCircle
 10
818.0261104780878
 20
512.9607302547341
 30
0.0
 40
2.5
100
AcDbArc
 50
303.557329
 51
56.44269000000005
  0
ARC
  5
2D2
330
1F
100
AcDbEntity
  8
0
370
    60
390
F
100
AcDbCircle
 10
819.6844224780879
 20
515.4607302547341
 30
0.0
 40
0.5
100
AcDbArc
 50
123.55731
 51
236.442685
  0
ARC
  5
2D3
330
1F
100
AcDbEntity
  8
0
370
    60
390
F
100
AcDbCircle
 10
818.0261104780878
 20
517.9607302547341
 30
0.0
 40
2.5
100
AcDbArc
 50
303.557329
 51
236.442685
  0
ARC
  5
2D4
330
1F
100
AcDbEntity
  8
0
370
    60
390
F
100
AcDbCircle
 10
816.3677974780879
 20
515.4607302547341
 30
0.0
 40
0.5
100
AcDbArc
 50
303.557329
 51
56.44269000000005
  0
ARC
  5
2D5
330
1F
100
AcDbEntity
  8
0
370
    60
390
F
100
AcDbCircle
 10
818.0261104780878
 20
512.9607302547341
 30
0.0
 40
2.5
100
AcDbArc
 50
123.55731
 51
236.442685
  0
ARC
  5
2D6
330
1F
100
AcDbEntity
  8
0
370
    60
390
F
100
AcDbCircle
 10
816.3677974780879
 20
510.4607302547342
 30
0.0
 40
0.5
100
AcDbArc
 50
303.557329
 51
56.44269000000005
  0
ARC
  5
2D7
330
1F
100
AcDbEntity
  8
0
370
    60
390
F
100
AcDbCircle
 10
818.0261104780878
 20
507.9607302547342
 30
0.0
 40
2.5
100
AcDbArc
 50
123.55731
 51
145.996551
  0
ARC
  5
2D8
330
1F
100
AcDbEntity
  8
0
370
    60
390
F
100
AcDbCircle
 10
818.0261104780878
 20
502.9607302547342
 30
0.0
 40
2.5
100
AcDbArc
 50
198.761473
 51
341.238533
  0
ARC
  5
2D9
330
1F
100
AcDbEntity
  8
0
370
    60
390
F
100
AcDbCircle
 10
818.0261104780878
 20
507.9607302547342
 30
0.0
 40
2.5
100
AcDbArc
 50
34.00346900000001
 51
56.44269000000005
  0
LINE
  5
2DB
330
1F
100
AcDbEntity
  8
0
370
    60
390
F
100
AcDbLine
 10
805.6261104780879
 20
494.4607302547342
 30
0.0
 11
830.4261094780879
 21
494.4607302547342
 31
0.0
  0
LINE
  5
2DD
330
1F
100
AcDbEntity
  8
0
370
    60
390
F
100
AcDbLine
 10
805.6261104780879
 20
495.9607302547342
 30
0.0
 11
830.4261094780879
 21
495.9607302547342
 31
0.0
  0
LINE
  5
2DE
330
1F
100
AcDbEntity
  8
0
 48
0.0375
370
    60
390
F
100
AcDbLine
 10
785.6261084780879
 20
494.4607302547342
 30
0.0
 11
785.6261084780879
 21
495.9607302547342
 31
0.0
  0
LINE
  5
2DF
330
1F
100
AcDbEntity
  8
0
370
    60
390
F
100
AcDbLine
 10
805.6261104780879
 20
494.4607302547342
 30
0.0
 11
785.6261084780879
 21
494.4607302547342
 31
0.0
  0
LINE
  5
2E0
330
1F
100
AcDbEntity
  8
0
370
    60
390
F
100
AcDbLine
 10
805.6261104780879
 20
495.9607302547342
 30
0.0
 11
785.6261084780879
 21
495.9607302547342
 31
0.0
  0
LINE
  5
2E1
330
1F
100
AcDbEntity
  8
0
370
    60
390
F
100
AcDbLine
 10
850.4261114780879
 20
494.4607302547342
 30
0.0
 11
830.4261094780879
 21
494.4607302547342
 31
0.0
  0
LINE
  5
2E2
330
1F
100
AcDbEntity
  8
0
370
    60
390
F
100
AcDbLine
 10
850.4261114780879
 20
495.9607302547342
 30
0.0
 11
830.4261094780879
 21
495.9607302547342
 31
0.0
  0
LINE
  5
2E3
330
1F
100
AcDbEntity
  8
0
 48
0.025
370
    60
390
F
100
AcDbLine
 10
791.1261104780879
 20
495.9607302547342
 30
0.0
 11
791.1261104780879
 21
496.9607302547342
 31
0.0
  0
LINE
  5
2E4
330
1F
100
AcDbEntity
  8
0
370
    60
390
F
100
AcDbLine
 10
844.9261094780879
 20
496.9607302547342
 30
0.0
 11
791.1261104780879
 21
496.9607302547342
 31
0.0
  0
LINE
  5
2E5
330
1F
100
AcDbEntity
  8
0
 48
0.025
370
    60
390
F
100
AcDbLine
 10
844.9261094780879
 20
495.9607302547342
 30
0.0
 11
844.9261094780879
 21
496.9607302547342
 31
0.0
  0
LINE
  5
2E6
330
1F
100
AcDbEntity
  8
0
 48
0.0375
370
    60
390
F
100
AcDbLine
 10
791.1261104780879
 20
496.9607302547342
 30
0.0
 11
791.1261104780879
 21
498.4607302547342
 31
0.0
  0
LINE
  5
2E7
330
1F
100
AcDbEntity
  8
0
 48
0.0375
370
    60
390
F
100
AcDbLine
 10
844.9261094780879
 20
496.9607302547342
 30
0.0
 11
844.9261094780879
 21
498.4607302547342
 31
0.0
  0
LINE
  5
2E9
330
1F
100
AcDbEntity
  8
0
 48
0.1125
370
    60
390
F
100
AcDbLine
 10
786.6261104780879
 20
498.4607302547342
 30
0.0
 11
791.1261104780879
 21
498.4607302547342
 31
0.0
  0
LINE
  5
2EC
330
1F
100
AcDbEntity
  8
0
 48
0.1125
370
    60
390
F
100
AcDbLine
 10
849.4261094780879
 20
498.4607302547342
 30
0.0
 11
844.9261094780879
 21
498.4607302547342
 31
0.0
  0
LINE
  5
2EE
330
1F
100
AcDbEntity
  8
0
 48
0.0375
370
    60
390
F
100
AcDbLine
 10
850.4261114780879
 20
494.4607302547342
 30
0.0
 11
850.4261114780879
 21
495.9607302547342
 31
0.0
  0
ARC
  5
2EF
330
1F
100
AcDbEntity
  8
0
370
    60
390
F
100
AcDbCircle
 10
916.5490594780879
 20
568.4989992547341
 30
0.0
 40
2.499972
100
AcDbArc
 50
89.99970899999998
 51
177.174524
  0
ARC
  5
2F3
330
1F
100
AcDbEntity
  8
0
370
    60
390
F
100
AcDbCircle
 10
902.886652478088
 20
569.1732852547342
 30
0.0
 40
11.179064
100
AcDbArc
 50
270.000022
 51
357.174485
  0
LINE
  5
2F4
330
1F
100
AcDbEntity
  8
0
370
    60
390
F
100
AcDbLine
 10
902.886652478088
 20
557.9942382547341
 30
0.0
 11
878.0237348652444
 21
557.9943214072227
 31
0.0
  0
LINE
  5
2FA
330
1F
100
AcDbEntity
  8
0
 48
0.034884
370
    60
390
F
100
AcDbLine
 10
917.5490674780879
 20
570.9989682547341
 30
0.0
 11
918.944430478088
 21
570.9989682547341
 31
0.0
  0
LINE
  5
2FB
330
1F
100
AcDbEntity
  8
0
 48
0.025
370
    60
390
F
100
AcDbLine
 10
916.5490674780879
 20
570.9989682547341
 30
0.0
 11
917.5490674780879
 21
570.9989682547341
 31
0.0
  0
LINE
  5
304
330
1F
100
AcDbEntity
  8
0
370
    60
390
F
100
AcDbLine
 10
878.5190144780879
 20
570.3412232547341
 30
0.0
 11
878.5190144780879
 21
600.8412232547341
 31
0.0
  0
LINE
  5
305
330
1F
100
AcDbEntity
  8
0
 48
0.0625
370
    60
390
F
100
AcDbLine
 10
878.492834478088
 20
603.3412232547341
 30
0.0
 11
878.492834478088
 21
600.8412232547341
 31
0.0
  0
LINE
  5
306
330
1F
100
AcDbEntity
  8
0
 48
0.05
370
    60
390
F
100
AcDbLine
 10
878.492834478088
 20
603.3412232547341
 30
0.0
 11
878.492834478088
 21
605.3412232547341
 31
0.0
  0
LINE
  5
307
330
1F
100
AcDbEntity
  8
0
 48
0.025988
370
    60
390
F
100
AcDbLine
 10
878.0279904780879
 20
606.2710022547341
 30
0.0
 11
878.492834478088
 21
605.3412232547341
 31
0.0
  0
LINE
  5
308
330
1F
100
AcDbEntity
  8
0
 48
0.023244
370
    60
390
F
100
AcDbLine
 10
878.0279904780879
 20
605.3412232547341
 30
0.0
 11
878.0279904780879
 21
606.2710022547341
 31
0.0
  0
LINE
  5
309
330
1F
100
AcDbEntity
  8
0
 48
0.05
370
    60
390
F
100
AcDbLine
 10
878.0279904780879
 20
603.3412232547341
 30
0.0
 11
878.0279904780879
 21
605.3412232547341
 31
0.0
  0
LINE
  5
30A
330
1F
100
AcDbEntity
  8
0
 48
0.0625
370
    60
390
F
100
AcDbLine
 10
878.0279904780879
 20
603.3412232547341
 30
0.0
 11
878.0279904780879
 21
600.8412232547341
 31
0.0
  0
LINE
  5
30B
330
1F
100
AcDbEntity
  8
0
370
    60
390
F
100
AcDbLine
 10
878.0279904780879
 20
570.3412232547341
 30
0.0
 11
878.0279904780879
 21
600.8412232547341
 31
0.0
  0
LINE
  5
30C
330
1F
100
AcDbEntity
  8
0
 48
0.0625
370
    60
390
F
100
AcDbLine
 10
878.0279904780879
 20
567.8412232547341
 30
0.0
 11
878.0279904780879
 21
570.3412232547341
 31
0.0
  0
LINE
  5
30D
330
1F
100
AcDbEntity
  8
0
 48
0.05
370
    60
390
F
100
AcDbLine
 10
878.0279904780879
 20
567.8412232547341
 30
0.0
 11
878.0279904780879
 21
565.8412232547341
 31
0.0
  0
LINE
  5
30E
330
1F
100
AcDbEntity
  8
0
 48
0.016685
370
    60
390
F
100
AcDbLine
 10
878.0279904780879
 20
565.1738032547341
 30
0.0
 11
878.0279904780879
 21
565.8412232547341
 31
0.0
  0
LINE
  5
30F
330
1F
100
AcDbEntity
  8
0
 48
0.006558
370
    60
390
F
100
AcDbLine
 10
878.0279904780879
 20
564.9114742547341
 30
0.0
 11
878.0279904780879
 21
565.1738032547341
 31
0.0
  0
LINE
  5
310
330
1F
100
AcDbEntity
  8
0
 48
0.360903
370
    60
390
F
100
AcDbLine
 10
878.0192904780879
 20
550.7703312547342
 30
0.0
 11
878.0279904780879
 21
564.9114742547341
 31
0.0
  0
LINE
  5
316
330
1F
100
AcDbEntity
  8
0
370
    60
390
F
100
AcDbLine
 10
919.2201104780879
 20
570.9466312547341
 30
0.0
 11
923.9392034780878
 21
545.0500852547342
 31
0.0
  0
LINE
  5
317
330
1F
100
AcDbEntity
  8
0
 48
0.007015
370
    60
390
F
100
AcDbLine
 10
918.944430478088
 20
570.9989682547341
 30
0.0
 11
919.2201104780879
 21
570.9466312547341
 31
0.0
  0
LINE
  5
31F
330
1F
100
AcDbEntity
  8
0
370
    60
390
F
100
AcDbLine
 10
945.900530478088
 20
570.9466312547341
 30
0.0
 11
921.7612784780879
 21
570.9466312547341
 31
0.0
  0
LINE
  5
320
330
1F
100
AcDbEntity
  8
0
 48
0.063529
370
    60
390
F
100
AcDbLine
 10
921.7612784780879
 20
570.9466312547341
 30
0.0
 11
919.2201104780879
 21
570.9466312547341
 31
0.0
  0
LINE
  5
321
330
1F
100
AcDbEntity
  8
0
 48
0.15443
370
    60
390
F
100
AcDbLine
 10
884.6700154780879
 20
567.8412232547341
 30
0.0
 11
878.0279904780879
 21
567.8412232547341
 31
0.0
  0
LINE
  5
322
330
1F
100
AcDbEntity
  8
0
 48
0.03125
370
    60
390
F
100
AcDbLine
 10
885.9200154780879
 20
567.8412232547341
 30
0.0
 11
884.6700154780879
 21
567.8412232547341
 31
0.0
  0
LINE
  5
323
330
1F
100
AcDbEntity
  8
0
 48
0.457143
370
    60
390
F
100
AcDbLine
 10
878.0279904780879
 20
606.2710022547341
 30
0.0
 11
878.0279904780879
 21
624.5567382547341
 31
0.0
  0
LINE
  5
325
330
1F
100
AcDbEntity
  8
0
 48
0.15443
370
    60
390
F
100
AcDbLine
 10
884.6700154780879
 20
570.3412232547341
 30
0.0
 11
878.492834478088
 21
570.3412232547341
 31
0.0
  0
LINE
  5
326
330
1F
100
AcDbEntity
  8
0
 48
0.03125
370
    60
390
F
100
AcDbLine
 10
885.9200154780879
 20
570.3412232547341
 30
0.0
 11
884.6700154780879
 21
570.3412232547341
 31
0.0
  0
LINE
  5
327
330
1F
100
AcDbEntity
  8
0
370
    60
390
F
100
AcDbLine
 10
882.9200154780879
 20
570.3412232547341
 30
0.0
 11
882.9200154780879
 21
600.8412232547341
 31
0.0
  0
LINE
  5
328
330
1F
100
AcDbEntity
  8
0
 48
0.15443
370
    60
390
F
100
AcDbLine
 10
884.6700154780879
 20
600.8412232547341
 30
0.0
 11
878.492834478088
 21
600.8412232547341
 31
0.0
  0
LINE
  5
329
330
1F
100
AcDbEntity
  8
0
 48
0.03125
370
    60
390
F
100
AcDbLine
 10
885.9200154780879
 20
600.8412232547341
 30
0.0
 11
884.6700154780879
 21
600.8412232547341
 31
0.0
  0
LINE
  5
32A
330
1F
100
AcDbEntity
  8
0
 48
0.15443
370
    60
390
F
100
AcDbLine
 10
884.6700154780879
 20
603.3412232547341
 30
0.0
 11
878.492834478088
 21
603.3412232547341
 31
0.0
  0
ARC
  5
32C
330
1F
100
AcDbEntity
  8
0
370
    60
390
F
100
AcDbCircle
 10
871.6179144780879
 20
624.5567382547341
 30
0.0
 40
6.410073
100
AcDbArc
 50
359.999997
 51
55.12367100000001
  0
ARC
  5
348
330
1F
100
AcDbEntity
  8
0
370
    60
390
F
100
AcDbCircle
 10
945.900522478088
 20
562.6257082547341
 30
0.0
 40
8.320923
100
AcDbArc
 50
6.521926999999999
 51
89.99995499999999
  0
LINE
  5
349
330
1F
100
AcDbEntity
  8
0
370
    60
390
F
100
AcDbLine
 10
962.8561124780879
 20
487.5708222547342
 30
0.0
 11
954.1676054780879
 21
563.5708072547342
 31
0.0
  0
ARC
  5
34A
330
1F
100
AcDbEntity
  8
0
370
    60
390
F
100
AcDbCircle
 10
954.5890374780879
 20
486.6257082547341
 30
0.0
 40
8.320918
100
AcDbArc
 50
270.000022
 51
6.52187199999996
  0
LINE
  5
34B
330
1F
100
AcDbEntity
  8
0
 48
0.398644
370
    60
390
F
100
AcDbLine
 10
954.5890374780879
 20
478.3047852547342
 30
0.0
 11
938.6432904780879
 21
478.3047092547342
 31
0.0
  0
LINE
  5
34C
330
1F
100
AcDbEntity
  8
0
 48
0.017255
370
    60
390
F
100
AcDbLine
 10
938.7670234780879
 20
477.6257082547341
 30
0.0
 11
938.6432904780879
 21
478.3047092547342
 31
0.0
  0
LINE
  5
34E
330
1F
100
AcDbEntity
  8
0
 48
0.000058
370
    60
390
F
100
AcDbLine
 10
930.3123804780879
 20
524.0215512547342
 30
0.0
 11
930.3127924780879
 21
524.0192622547341
 31
0.0
  0
LINE
  5
34F
330
1F
100
AcDbEntity
  8
0
370
    60
390
F
100
AcDbLine
 10
938.0381264780879
 20
481.6257082547341
 30
0.0
 11
930.3127924780879
 21
524.0192622547341
 31
0.0
  0
LINE
  5
350
330
1F
100
AcDbEntity
  8
0
 48
0.413773
370
    60
390
F
100
AcDbLine
 10
954.5890374780879
 20
481.6257082547341
 30
0.0
 11
938.0381264780879
 21
481.6257082547341
 31
0.0
  0
ARC
  5
351
330
1F
100
AcDbEntity
  8
0
370
    60
390
F
100
AcDbCircle
 10
954.5890374780879
 20
486.6257082547341
 30
0.0
 40
5.0
100
AcDbArc
 50
270.000009
 51
6.521905999999992
  0
LINE
  5
352
330
1F
100
AcDbEntity
  8
0
370
    60
390
F
100
AcDbLine
 10
959.5566734780879
 20
487.1936252547342
 30
0.0
 11
950.8681814780879
 21
563.1936092547342
 31
0.0
  0
ARC
  5
353
330
1F
100
AcDbEntity
  8
0
370
    60
390
F
100
AcDbCircle
 10
945.900530478088
 20
562.6257082547341
 30
0.0
 40
5.0
100
AcDbArc
 50
6.521905999999992
 51
90.00000999999999
  0
LINE
  5
354
330
1F
100
AcDbEntity
  8
0
370
    60
390
F
100
AcDbLine
 10
922.3664494780879
 20
567.6257082547341
 30
0.0
 11
945.900530478088
 21
567.6257082547341
 31
0.0
  0
LINE
  5
355
330
1F
100
AcDbEntity
  8
0
370
    60
390
F
100
AcDbLine
 10
930.3123804780879
 20
524.0215512547342
 30
0.0
 11
922.3664494780879
 21
567.6257082547341
 31
0.0
  0
LINE
  5
35B
330
1F
100
AcDbEntity
  8
0
 48
0.20749
370
    60
390
F
100
AcDbLine
 10
938.9299114780879
 20
476.6597812547342
 30
0.0
 11
939.8863554780879
 21
468.4154572547342
 31
0.0
  0
ARC
  5
35C
330
1F
100
AcDbEntity
  8
0
370
    60
390
F
100
AcDbCircle
 10
916.7924834780879
 20
473.3598542547342
 30
0.0
 40
22.382776
100
AcDbArc
 50
8.478392999999999
 51
10.64569400000001
  0
LINE
  5
35D
330
1F
100
AcDbEntity
  8
0
 48
0.003326
370
    60
390
F
100
AcDbLine
 10
938.7907284780879
 20
477.4948792547342
 30
0.0
 11
938.7670234780879
 21
477.6257842547342
 31
0.0
  0
LINE
  5
35E
330
1F
100
AcDbEntity
  8
0
 48
0.0625
370
    60
390
F
100
AcDbLine
 10
885.9200154780879
 20
567.8412232547341
 30
0.0
 11
885.9200154780879
 21
570.3412232547341
 31
0.0
  0
LINE
  5
35F
330
1F
100
AcDbEntity
  8
0
 48
0.0625
370
    60
390
F
100
AcDbLine
 10
885.9200154780879
 20
603.3412232547341
 30
0.0
 11
885.9200154780879
 21
600.8412232547341
 31
0.0
  0
LINE
  5
360
330
1F
100
AcDbEntity
  8
0
370
    60
390
F
100
AcDbLine
 10
885.9200154780879
 20
570.3412232547341
 30
0.0
 11
885.9200154780879
 21
600.8412232547341
 31
0.0
  0
LINE
  5
361
330
1F
100
AcDbEntity
  8
0
 48
0.03125
370
    60
390
F
100
AcDbLine
 10
885.9200154780879
 20
603.3412232547341
 30
0.0
 11
884.6700154780879
 21
603.3412232547341
 31
0.0
  0
SPLINE
  5
362
330
1F
100
AcDbEntity
  8
0
370
    60
390
F
100
AcDbSpline
210
0.0
220
0.0
230
1.0
 70
     8
 71
     5
 72
    18
 73
    12
 74
     0
 42
0.0
 43
0.0
 40
0.0
 40
0.0
 40
0.0
 40
0.0
 40
0.0
 40
0.0
 40
2.438716827081897
 40
2.438716827081897
 40
2.438716827081897
 40
6.247504243708577
 40
6.247504243708577
 40
6.247504243708577
 40
7.553357868226525
 40
7.553357868226525
 40
7.553357868226525
 40
7.553357868226525
 40
7.553357868226525
 40
7.553357868226525
 10
875.2832424164649
 20
629.8154998369024
 30
0.0
 10
875.035488407914
 20
629.9881833914234
 30
0.0
 10
874.7777565735037
 20
630.1465510207289
 30
0.0
 10
874.5111351151755
 20
630.2897042653244
 30
0.0
 10
873.8193066521561
 20
630.6111325795448
 30
0.0
 10
873.129167253542
 20
630.81904189539
 30
0.0
 10
872.7267949881461
 20
630.9025530267767
 30
0.0
 10
872.2409811432575
 20
630.9686465886138
 30
0.0
 10
871.8609478931144
 20
630.996760166018
 30
0.0
 10
871.771232575274
 20
631.0019967153453
 30
0.0
 10
871.6901370334618
 20
631.0058034578161
 30
0.0
 10
870.5198940128876
 20
631.1856820106257
 30
0.0
  0
LINE
  5
374
330
1F
100
AcDbEntity
  8
0
 48
0.044109
370
    60
390
F
100
AcDbLine
 10
692.0855734780879
 20
551.8911502547342
 30
0.0
 11
691.6575644780879
 21
553.6027892547341
 31
0.0
  0
LINE
  5
376
330
1F
100
AcDbEntity
  8
0
 48
0.006801
370
    60
390
F
100
AcDbLine
 10
682.9263634780879
 20
486.2304142547342
 30
0.0
 11
682.8766044780879
 21
485.9629582547342
 31
0.0
  0
LINE
  5
377
330
1F
100
AcDbEntity
  8
0
370
    60
390
F
100
AcDbLine
 10
688.8386714780879
 20
518.4832362547342
 30
0.0
 11
682.9263634780879
 21
486.2304142547342
 31
0.0
  0
ARC
  5
378
330
1F
100
AcDbEntity
  8
0
370
    60
390
F
100
AcDbCircle
 10
706.0636774780879
 20
481.5567532547342
 30
0.0
 40
23.601957
100
AcDbArc
 50
169.433877
 51
269.999991
  0
LINE
  5
379
330
1F
100
AcDbEntity
  8
0
 48
0.001992
370
    60
390
F
100
AcDbLine
 10
682.8766044780879
 20
485.9629582547342
 30
0.0
 11
682.8619104780879
 21
485.8846492547342
 31
0.0
  0
LINE
  5
37A
330
1F
100
AcDbEntity
  8
0
370
    60
390
F
100
AcDbLine
 10
727.0596334780879
 20
457.9547942547342
 30
0.0
 11
706.0636774780879
 21
457.9547942547342
 31
0.0
  0
LINE
  5
37D
330
1F
100
AcDbEntity
  8
0
370
    60
390
F
100
AcDbLine
 10
775.026110478088
 20
457.9547942547342
 30
0.0
 11
754.0301344780879
 21
457.9547942547342
 31
0.0
  0
LINE
  5
37E
330
1F
100
AcDbEntity
  8
0
370
    60
390
F
100
AcDbLine
 10
884.4353814780878
 20
457.9547942547342
 30
0.0
 11
861.0261104780878
 21
457.9547942547342
 31
0.0
  0
LINE
  5
381
330
1F
100
AcDbEntity
  8
0
370
    60
390
F
100
AcDbLine
 10
934.8151724780879
 20
457.9547942547342
 30
0.0
 11
911.4058864780878
 21
457.9547942547342
 31
0.0
  0
ARC
  5
382
330
1F
100
AcDbEntity
  8
0
370
    60
390
F
100
AcDbCircle
 10
829.5261104780878
 20
524.7559262547342
 30
0.0
 40
1.094784
100
AcDbArc
 50
270.000022
 51
335.974595
  0
LINE
  5
383
330
1F
100
AcDbEntity
  8
0
370
    60
390
F
100
AcDbLine
 10
806.5261104780878
 20
523.6611392547342
 30
0.0
 11
829.5261104780878
 21
523.6611392547342
 31
0.0
  0
ARC
  5
384
330
1F
100
AcDbEntity
  8
0
370
    60
390
F
100
AcDbCircle
 10
806.5261104780878
 20
524.7559262547342
 30
0.0
 40
1.094784
100
AcDbArc
 50
204.009306
 51
269.999991
  0
ELLIPSE
  5
386
330
1F
100
AcDbEntity
  8
0
370
    60
390
F
100
AcDbEllipse
 10
865.5489534780879
 20
631.1762862547341
 30
0.0
 11
5.0
 21
9.199384841154440E-14
 31
0.0
210
0.0
220
0.0
230
1.0
 40
0.017455
 41
0.0872664626006135
 42
1.570796326794157
  0
LINE
  5
387
330
1F
100
AcDbEntity
  8
0
 48
0.185295
370
    60
390
F
100
AcDbLine
 10
865.5489524780879
 20
631.2635562547341
 30
0.0
 11
858.1371334780879
 21
631.2635562547341
 31
0.0
  0
LINE
  5
388
330
1F
100
AcDbEntity
  8
0
 48
0.000709
370
    60
390
F
100
AcDbLine
 10
855.108778478088
 20
631.2635562547341
 30
0.0
 11
855.1371404780879
 21
631.2635562547341
 31
0.0
  0
LINE
  5
389
330
1F
100
AcDbEntity
  8
0
 48
0.000709
370
    60
390
F
100
AcDbLine
 10
729.6371404780879
 20
631.2635562547341
 30
0.0
 11
729.6654994780879
 21
631.2635562547341
 31
0.0
  0
LINE
  5
38A
330
1F
100
AcDbEntity
  8
0
 48
0.185295
370
    60
390
F
100
AcDbLine
 10
726.6371334780879
 20
631.2635562547341
 30
0.0
 11
719.225321478088
 21
631.2635562547341
 31
0.0
  0
ELLIPSE
  5
38B
330
1F
100
AcDbEntity
  8
0
370
    60
390
F
100
AcDbEllipse
 10
719.2253244780879
 20
631.1762862547341
 30
0.0
 11
5.0
 21
9.649384841154441E-14
 31
0.0
210
0.0
220
0.0
230
1.0
 40
0.017455
 41
1.570796326776328
 42
3.054326190990239
  0
LINE
  5
38C
330
1F
100
AcDbEntity
  8
0
 48
0.017556
370
    60
390
F
100
AcDbLine
 10
713.5556814780879
 20
631.0464842547341
 30
0.0
 11
714.2443494780879
 21
631.1839052547341
 31
0.0
  0
ARC
  5
38D
330
1F
100
AcDbEntity
  8
0
370
    60
390
F
100
AcDbCircle
 10
713.0905554780879
 20
635.1384642547341
 30
0.0
 40
4.119051
100
AcDbArc
 50
270.915227
 51
276.484822
  0
LINE
  5
38E
330
1F
100
AcDbEntity
  8
0
 48
0.034047
370
    60
390
F
100
AcDbLine
 10
691.1551084780879
 20
607.1830202547341
 30
0.0
 11
691.7545954780879
 21
608.4058592547341
 31
0.0
  0
LINE
  5
39F
330
1F
100
AcDbEntity
  8
0
 48
0.083326
370
    60
390
F
100
AcDbLine
 10
908.3888264780879
 20
456.4672152547342
 30
0.0
 11
908.3888264780879
 21
453.4210872547342
 31
0.0
  0
LINE
  5
3A2
330
1F
100
AcDbEntity
  8
0
 48
0.061552
370
    60
390
F
100
AcDbLine
 10
908.1706414780879
 20
458.6704622547342
 30
0.0
 11
908.1706414780879
 21
456.2083652547342
 31
0.0
  0
LINE
  5
3A3
330
1F
100
AcDbEntity
  8
0
 48
0.061552
370
    60
390
F
100
AcDbLine
 10
887.6706414780879
 20
458.6704622547342
 30
0.0
 11
887.6706414780879
 21
456.2083652547342
 31
0.0
  0
LINE
  5
3A6
330
1F
100
AcDbEntity
  8
0
 48
0.083326
370
    60
390
F
100
AcDbLine
 10
887.4524564780879
 20
456.4672152547342
 30
0.0
 11
887.4524564780879
 21
453.4210872547342
 31
0.0
  0
LINE
  5
3AB
330
1F
100
AcDbEntity
  8
0
 48
0.145654
370
    60
390
F
100
AcDbLine
 10
791.1261084780879
 20
498.4607302547342
 30
0.0
 11
785.2999294780878
 21
498.4607302547342
 31
0.0
  0
LINE
  5
3AC
330
1F
100
AcDbEntity
  8
0
 48
0.48
370
    60
390
F
100
AcDbLine
 10
785.2999294780878
 20
479.2607332547342
 30
0.0
 11
785.2999294780878
 21
498.4607302547342
 31
0.0
  0
LINE
  5
3AD
330
1F
100
AcDbEntity
  8
0
 48
0.155648
370
    60
390
F
100
AcDbLine
 10
791.5258544780879
 20
479.2607332547342
 30
0.0
 11
785.2999294780878
 21
479.2607332547342
 31
0.0
  0
LINE
  5
3B0
330
1F
100
AcDbEntity
  8
0
 48
0.100903
370
    60
390
F
100
AcDbLine
 10
785.2999294780878
 20
444.8235232547342
 30
0.0
 11
789.336046478088
 21
444.8235232547342
 31
0.0
  0
LINE
  5
3B1
330
1F
100
AcDbEntity
  8
0
 48
0.100916
370
    60
390
F
100
AcDbLine
 10
846.7156604780879
 20
444.8235232547342
 30
0.0
 11
850.7522914780878
 21
444.8235232547342
 31
0.0
  0
LINE
  5
3B3
330
1F
100
AcDbEntity
  8
0
 48
0.13323
370
    60
390
F
100
AcDbLine
 10
850.8272101173068
 20
447.559821601489
 30
0.0
 11
845.4230884780878
 21
447.5607362547342
 31
0.0
  0
LINE
  5
3B4
330
1F
100
AcDbEntity
  8
0
 48
0.155661
370
    60
390
F
100
AcDbLine
 10
850.7522914780878
 20
479.2607332547342
 30
0.0
 11
844.5258544780879
 21
479.2607332547342
 31
0.0
  0
LINE
  5
3B5
330
1F
100
AcDbEntity
  8
0
 48
0.48
370
    60
390
F
100
AcDbLine
 10
850.7522914780878
 20
479.2607332547342
 30
0.0
 11
850.7522914780878
 21
498.4607302547342
 31
0.0
  0
LINE
  5
3B6
330
1F
100
AcDbEntity
  8
0
 48
0.145655
370
    60
390
F
100
AcDbLine
 10
850.7522914780878
 20
498.4607302547342
 30
0.0
 11
844.9261094780879
 21
498.4607302547342
 31
0.0
  0
ARC
  5
3B7
330
1F
100
AcDbEntity
  8
0
370
    60
390
F
100
AcDbCircle
 10
818.0261104780878
 20
507.9607302547342
 30
0.0
 40
2.5
100
AcDbArc
 50
34.00349699999997
 51
145.99652
  0
LINE
  5
3BE
330
1F
100
AcDbEntity
  8
0
 48
0.083326
370
    60
390
F
100
AcDbLine
 10
751.0130794780879
 20
456.4672152547342
 30
0.0
 11
751.0130794780879
 21
453.4210872547342
 31
0.0
  0
LINE
  5
3C1
330
1F
100
AcDbEntity
  8
0
 48
0.061552
370
    60
390
F
100
AcDbLine
 10
750.7948934780879
 20
458.6704622547342
 30
0.0
 11
750.7948934780879
 21
456.2083652547342
 31
0.0
  0
LINE
  5
3C2
330
1F
100
AcDbEntity
  8
0
 48
0.061552
370
    60
390
F
100
AcDbLine
 10
730.2948934780879
 20
458.6704622547342
 30
0.0
 11
730.2948934780879
 21
456.2083652547342
 31
0.0
  0
LINE
  5
3C5
330
1F
100
AcDbEntity
  8
0
 48
0.083326
370
    60
390
F
100
AcDbLine
 10
730.0767004780879
 20
456.4672152547342
 30
0.0
 11
730.0767004780879
 21
453.4210872547342
 31
0.0
  0
LINE
  5
3CB
330
1F
100
AcDbEntity
  8
0
 48
0.095743
370
    60
390
F
100
AcDbLine
 10
691.7766824780879
 20
604.9969242547342
 30
0.0
 11
691.7518104780879
 21
608.8265442547341
 31
0.0
  0
LINE
  5
3CC
330
1F
100
AcDbEntity
  8
0
 48
0.232981
370
    60
390
F
100
AcDbLine
 10
691.8371984780879
 20
595.6778932547342
 30
0.0
 11
691.7766824780879
 21
604.9969242547342
 31
0.0
  0
LINE
  5
3CD
330
1F
100
AcDbEntity
  8
0
 48
0.294878
370
    60
390
F
100
AcDbLine
 10
691.9137984780879
 20
583.8830322547342
 30
0.0
 11
691.8371984780879
 21
595.6778932547342
 31
0.0
  0
LINE
  5
3CE
330
1F
100
AcDbEntity
  8
0
370
    60
390
F
100
AcDbLine
 10
692.0816294780878
 20
558.0408992547342
 30
0.0
 11
691.9137984780879
 21
583.8830322547342
 31
0.0
  0
LINE
  5
3CF
330
1F
100
AcDbEntity
  8
0
 48
0.059312
370
    60
390
F
100
AcDbLine
 10
692.0970404780879
 20
555.6684632547341
 30
0.0
 11
692.0816294780878
 21
558.0408992547342
 31
0.0
  0
LINE
  5
3D0
330
1F
100
AcDbEntity
  8
0
 48
0.002383
370
    60
390
F
100
AcDbLine
 10
692.0976354780879
 20
555.5731262547341
 30
0.0
 11
692.0970404780879
 21
555.6684632547341
 31
0.0
  0
LINE
  5
3D3
330
1F
100
AcDbEntity
  8
0
 48
0.000297
370
    60
390
F
100
AcDbLine
 10
691.7708074780879
 20
610.5811222547342
 30
0.0
 11
691.782641478088
 21
610.5801152547341
 31
0.0
  0
ARC
  5
3D4
330
1F
100
AcDbEntity
  8
0
370
    60
390
F
100
AcDbCircle
 10
711.6506374780879
 20
609.6286072547341
 30
0.0
 40
19.902636
100
AcDbArc
 50
177.256828
 51
180.206834
  0
LINE
  5
3D5
330
1F
100
AcDbEntity
  8
0
 48
0.018255
370
    60
390
F
100
AcDbLine
 10
691.7518104780879
 20
608.8265442547341
 30
0.0
 11
691.7481334780879
 21
609.5567382547341
 31
0.0
  0
LINE
  5
3D9
330
1F
100
AcDbEntity
  8
0
 48
0.086539
370
    60
390
F
100
AcDbLine
 10
691.6327234780879
 20
557.0642452547341
 30
0.0
 11
691.6576484780879
 21
553.6027892547341
 31
0.0
  0
LINE
  5
3DA
330
1F
100
AcDbEntity
  8
0
 48
0.042224
370
    60
390
F
100
AcDbLine
 10
691.5303984780879
 20
568.7531492547341
 30
0.0
 11
691.5463054780879
 21
567.0642452547341
 31
0.0
  0
LINE
  5
3DB
330
1F
100
AcDbEntity
  8
0
 48
0.072409
370
    60
390
F
100
AcDbLine
 10
691.1848624780879
 20
604.0642452547341
 30
0.0
 11
691.1572514780879
 21
606.9604552547341
 31
0.0
  0
LINE
  5
3DC
330
1F
100
AcDbEntity
  8
0
 48
0.093754
370
    60
390
F
100
AcDbLine
 10
691.2386194780879
 20
600.3142452547341
 30
0.0
 11
691.202402478088
 21
604.0642452547341
 31
0.0
  0
LINE
  5
3DD
330
1F
100
AcDbEntity
  8
0
 48
0.00207
370
    60
390
F
100
AcDbLine
 10
691.2977474780879
 20
600.2562922547341
 30
0.0
 11
691.2386194780879
 21
600.3142452547341
 31
0.0
  0
LINE
  5
3DE
330
1F
100
AcDbEntity
  8
0
 48
0.0596
370
    60
390
F
100
AcDbLine
 10
691.3215354780879
 20
597.8724122547342
 30
0.0
 11
691.2977474780879
 21
600.2562922547341
 31
0.0
  0
LINE
  5
3DF
330
1F
100
AcDbEntity
  8
0
 48
0.002064
370
    60
390
F
100
AcDbLine
 10
691.3215354780879
 20
597.8724122547342
 30
0.0
 11
691.262964478088
 21
597.8142452547341
 31
0.0
  0
LINE
  5
3E0
330
1F
100
AcDbEntity
  8
0
 48
0.093755
370
    60
390
F
100
AcDbLine
 10
691.2997764780879
 20
594.0642452547341
 30
0.0
 11
691.262964478088
 21
597.8142452547341
 31
0.0
  0
LINE
  5
3E1
330
1F
100
AcDbEntity
  8
0
 48
0.042225
370
    60
390
F
100
AcDbLine
 10
691.298174478088
 20
592.3753422547342
 30
0.0
 11
691.2816414780879
 21
594.0642452547341
 31
0.0
  0
LINE
  5
3E2
330
1F
100
AcDbEntity
  8
0
 48
0.003443
370
    60
390
F
100
AcDbLine
 10
691.298174478088
 20
592.3753422547342
 30
0.0
 11
691.2346674780879
 21
592.2531492547341
 31
0.0
  0
LINE
  5
3E3
330
1F
100
AcDbEntity
  8
0
 48
0.042224
370
    60
390
F
100
AcDbLine
 10
691.2346674780879
 20
592.2531492547341
 30
0.0
 11
691.2505744780879
 21
590.5642452547341
 31
0.0
  0
LINE
  5
3E4
330
1F
100
AcDbEntity
  8
0
 48
0.075003
370
    60
390
F
100
AcDbLine
 10
691.2884314780879
 20
587.5642452547341
 30
0.0
 11
691.2599894780878
 21
590.5642452547341
 31
0.0
  0
LINE
  5
3E5
330
1F
100
AcDbEntity
  8
0
 48
0.050002
370
    60
390
F
100
AcDbLine
 10
691.3364814780879
 20
585.5642452547341
 30
0.0
 11
691.3171034780879
 21
587.5642452547341
 31
0.0
  0
LINE
  5
3E6
330
1F
100
AcDbEntity
  8
0
 48
0.250011
370
    60
390
F
100
AcDbLine
 10
691.402147478088
 20
575.5642452547341
 30
0.0
 11
691.3073984780879
 21
585.5642452547341
 31
0.0
  0
LINE
  5
3E7
330
1F
100
AcDbEntity
  8
0
 48
0.050002
370
    60
390
F
100
AcDbLine
 10
691.4526014780879
 20
573.5642452547341
 30
0.0
 11
691.4333594780879
 21
575.5642452547341
 31
0.0
  0
LINE
  5
3E8
330
1F
100
AcDbEntity
  8
0
 48
0.075003
370
    60
390
F
100
AcDbLine
 10
691.4493964780879
 20
570.5642452547341
 30
0.0
 11
691.421061478088
 21
573.5642452547341
 31
0.0
  0
LINE
  5
3E9
330
1F
100
AcDbEntity
  8
0
 48
0.042224
370
    60
390
F
100
AcDbLine
 10
691.4389674780879
 20
570.5642452547341
 30
0.0
 11
691.4548824780879
 21
568.8753422547342
 31
0.0
  0
LINE
  5
3EA
330
1F
100
AcDbEntity
  8
0
 48
0.003594
370
    60
390
F
100
AcDbLine
 10
691.5303984780879
 20
568.7531492547341
 30
0.0
 11
691.4546834780879
 21
568.8753422547342
 31
0.0
  0
LINE
  5
3EB
330
1F
100
AcDbEntity
  8
0
 48
0.093754
370
    60
390
F
100
AcDbLine
 10
691.5676214780879
 20
567.0642452547341
 30
0.0
 11
691.6016414780879
 21
563.3142452547341
 31
0.0
  0
LINE
  5
3EC
330
1F
100
AcDbEntity
  8
0
 48
0.002413
370
    60
390
F
100
AcDbLine
 10
691.6016414780879
 20
563.3142452547341
 30
0.0
 11
691.6762264780879
 21
563.2529972547342
 31
0.0
  0
LINE
  5
3ED
330
1F
100
AcDbEntity
  8
0
 48
0.059435
370
    60
390
F
100
AcDbLine
 10
691.6762264780879
 20
563.2529972547342
 30
0.0
 11
691.6953074780879
 21
560.8756772547341
 31
0.0
  0
LINE
  5
3EE
330
1F
100
AcDbEntity
  8
0
 48
0.002375
370
    60
390
F
100
AcDbLine
 10
691.6228664780879
 20
560.8142452547341
 30
0.0
 11
691.6953074780879
 21
560.8756772547341
 31
0.0
  0
LINE
  5
3EF
330
1F
100
AcDbEntity
  8
0
 48
0.093753
370
    60
390
F
100
AcDbLine
 10
691.6228664780879
 20
560.8142452547341
 30
0.0
 11
691.6519194780878
 21
557.0642452547341
 31
0.0
  0
LINE
  5
3F0
330
1F
100
AcDbEntity
  8
0
 48
0.005564
370
    60
390
F
100
AcDbLine
 10
691.1572294780879
 20
606.9604552547341
 30
0.0
 11
691.1551154780879
 21
607.1830202547341
 31
0.0
  0
LINE
  5
3F1
330
1F
100
AcDbEntity
  8
0
 48
0.226043
370
    60
390
F
100
AcDbLine
 10
777.8138754780879
 20
449.6557222547342
 30
0.0
 11
777.8138754780879
 21
458.6974242547342
 31
0.0
  0
LINE
  5
3F4
330
1F
100
AcDbEntity
  8
0
 48
0.226042
370
    60
390
F
100
AcDbLine
 10
858.2383444780879
 20
449.6557222547342
 30
0.0
 11
858.2383444780879
 21
458.6974092547342
 31
0.0
  0
ARC
  5
3F5
330
1F
100
AcDbEntity
  8
0
370
    60
390
F
100
AcDbCircle
 10
853.2394514780879
 20
449.6553712547342
 30
0.0
 40
4.998871
100
AcDbArc
 50
269.996071
 51
0.003932000000012
  0
LINE
  5
3F6
330
1F
100
AcDbEntity
  8
0
 48
0.161114
370
    60
390
F
100
AcDbLine
 10
853.2391074780879
 20
444.6564692547342
 30
0.0
 11
846.7945374780879
 21
444.6564692547342
 31
0.0
  0
LINE
  5
3F7
330
1F
100
AcDbEntity
  8
0
 48
0.161101
370
    60
390
F
100
AcDbLine
 10
789.257157478088
 20
444.6564692547342
 30
0.0
 11
782.8131124780879
 21
444.6564692547342
 31
0.0
  0
ARC
  5
3F8
330
1F
100
AcDbEntity
  8
0
370
    60
390
F
100
AcDbCircle
 10
782.812769478088
 20
449.6553712547342
 30
0.0
 40
4.998871
100
AcDbArc
 50
179.996075
 51
270.003943
  0
SPLINE
  5
3FB
330
1F
100
AcDbEntity
  8
0
370
    60
390
F
100
AcDbSpline
210
0.0
220
0.0
230
1.0
 70
     8
 71
     5
 72
    15
 73
     9
 74
     0
 42
0.0
 43
0.0
 40
0.0
 40
0.0
 40
0.0
 40
0.0
 40
0.0
 40
0.0
 40
5.864149637744526
 40
5.864149637744526
 40
5.864149637744526
 40
9.341842738004926
 40
9.341842738004926
 40
9.341842738004926
 40
9.341842738004926
 40
9.341842738004926
 40
9.341842738004926
 10
708.5747056872729
 20
630.4708543242822
 30
0.0
 10
709.2506598376729
 20
630.6189357204952
 30
0.0
 10
709.9321688686673
 20
630.7416556057418
 30
0.0
 10
710.6045800490467
 20
630.8355045757786
 30
0.0
 10
711.6138962024942
 20
630.9391665504485
 30
0.0
 10
712.447740807448
 20
630.9895346758958
 30
0.0
 10
712.7271667579175
 20
631.0023624945107
 30
0.0
 10
712.9659663258216
 20
631.0115487681743
 30
0.0
 10
713.1563615914708
 20
631.0191540001766
 30
0.0
  0
ARC
  5
3FC
330
1F
100
AcDbEntity
  8
0
370
    60
390
F
100
AcDbCircle
 10
713.1563664780879
 20
609.5567382547341
 30
0.0
 40
21.410074
100
AcDbArc
 50
102.356605
 51
177.257613
  0
LINE
  5
401
330
1F
100
AcDbEntity
  8
0
 48
0.061791
370
    60
390
F
100
AcDbLine
 10
732.1371404780879
 20
637.2635562547341
 30
0.0
 11
729.6654994780879
 21
637.2635562547341
 31
0.0
  0
LINE
  5
402
330
1F
100
AcDbEntity
  8
0
 48
0.15
370
    60
390
F
100
AcDbLine
 10
732.1371404780879
 20
637.2635562547341
 30
0.0
 11
732.1371404780879
 21
631.2635562547341
 31
0.0
  0
LINE
  5
403
330
1F
100
AcDbEntity
  8
0
370
    60
390
F
100
AcDbLine
 10
852.6371404780879
 20
631.2635562547341
 30
0.0
 11
732.1371404780879
 21
631.2635562547341
 31
0.0
  0
LINE
  5
404
330
1F
100
AcDbEntity
  8
0
 48
0.15
370
    60
390
F
100
AcDbLine
 10
852.6371404780879
 20
637.2635562547341
 30
0.0
 11
852.6371404780879
 21
631.2635562547341
 31
0.0
  0
LINE
  5
405
330
1F
100
AcDbEntity
  8
0
 48
0.061791
370
    60
390
F
100
AcDbLine
 10
852.6371404780879
 20
637.2635562547341
 30
0.0
 11
855.108778478088
 21
637.2635562547341
 31
0.0
  0
LINE
  5
406
330
1F
100
AcDbEntity
  8
0
 48
0.15
370
    60
390
F
100
AcDbLine
 10
855.108778478088
 20
631.2635562547341
 30
0.0
 11
855.108778478088
 21
637.2635562547341
 31
0.0
  0
LINE
  5
408
330
1F
100
AcDbEntity
  8
0
 48
0.000027
370
    60
390
F
100
AcDbLine
 10
729.6376364780879
 20
640.5130672547341
 30
0.0
 11
729.6371404780879
 21
640.5140442547341
 31
0.0
  0
LINE
  5
40B
330
1F
100
AcDbEntity
  8
0
 48
0.061027
370
    60
390
F
100
AcDbLine
 10
732.1371404780879
 20
640.6318722547342
 30
0.0
 11
729.6960474780878
 21
640.6318722547342
 31
0.0
  0
LINE
  5
40C
330
1F
100
AcDbEntity
  8
0
 48
0.007996
370
    60
390
F
100
AcDbLine
 10
732.4569654780879
 20
640.6318722547342
 30
0.0
 11
732.1371404780879
 21
640.6318722547342
 31
0.0
  0
LINE
  5
40D
330
1F
100
AcDbEntity
  8
0
 48
0.007996
370
    60
390
F
100
AcDbLine
 10
791.3871384780879
 20
640.6318722547342
 30
0.0
 11
791.067312478088
 21
640.6318722547342
 31
0.0
  0
LINE
  5
40E
330
1F
100
AcDbEntity
  8
0
 48
0.05
370
    60
390
F
100
AcDbLine
 10
793.3871384780879
 20
640.6318722547342
 30
0.0
 11
791.3871384780879
 21
640.6318722547342
 31
0.0
  0
LINE
  5
40F
330
1F
100
AcDbEntity
  8
0
 48
0.007996
370
    60
390
F
100
AcDbLine
 10
793.7069654780879
 20
640.6318722547342
 30
0.0
 11
793.3871384780879
 21
640.6318722547342
 31
0.0
  0
LINE
  5
410
330
1F
100
AcDbEntity
  8
0
 48
0.007996
370
    60
390
F
100
AcDbLine
 10
852.6371404780879
 20
640.6318722547342
 30
0.0
 11
852.317312478088
 21
640.6318722547342
 31
0.0
  0
LINE
  5
411
330
1F
100
AcDbEntity
  8
0
 48
0.061027
370
    60
390
F
100
AcDbLine
 10
852.6371404780879
 20
640.6318722547342
 30
0.0
 11
855.0782344780879
 21
640.6318722547342
 31
0.0
  0
LINE
  5
412
330
1F
100
AcDbEntity
  8
0
 48
0.003293
370
    60
390
F
100
AcDbLine
 10
855.1371404780879
 20
640.5140442547341
 30
0.0
 11
855.0782344780879
 21
640.6318722547342
 31
0.0
  0
SPLINE
  5
413
330
1F
100
AcDbEntity
  8
0
370
    60
390
F
100
AcDbSpline
210
0.0
220
0.0
230
1.0
 70
     8
 71
     5
 72
    18
 73
    12
 74
     0
 42
0.0
 43
0.0
 40
0.0
 40
0.0
 40
0.0
 40
0.0
 40
0.0
 40
0.0
 40
0.0595542751693303
 40
0.0595542751693303
 40
0.0595542751693303
 40
3.439354107830208
 40
3.439354107830208
 40
3.439354107830208
 40
7.963926519170342
 40
7.963926519170342
 40
7.963926519170342
 40
7.963926519170342
 40
7.963926519170342
 40
7.963926519170342
 10
855.1371392330943
 20
640.5130666264655
 30
0.0
 10
855.1370657542484
 20
640.5129196575808
 30
0.0
 10
855.1369874656052
 20
640.512745423186
 30
0.0
 10
855.1364239041902
 20
640.5125441511303
 30
0.0
 10
855.1321817469338
 20
640.4993349855673
 30
0.0
 10
855.1279716370241
 20
640.3952519442188
 30
0.0
 10
855.1241677140924
 20
640.2068816674291
 30
0.0
 10
855.1164414189238
 20
639.6295106301766
 30
0.0
 10
855.1115287387448
 20
638.815357009033
 30
0.0
 10
855.1096930886961
 20
638.3084662361255
 30
0.0
 10
855.108776912773
 20
637.7860142371384
 30
0.0
 10
855.108776912773
 20
637.2635616172073
 30
0.0
  0
LINE
  5
414
330
1F
100
AcDbEntity
  8
0
 48
0.097591
370
    60
390
F
100
AcDbLine
 10
687.3563414780879
 20
590.5642452547341
 30
0.0
 11
691.2599894780878
 21
590.5642452547341
 31
0.0
  0
LINE
  5
415
330
1F
100
AcDbEntity
  8
0
 48
0.102326
370
    60
390
F
100
AcDbLine
 10
687.3563414780879
 20
570.5642452547341
 30
0.0
 11
691.4493964780879
 21
570.5642452547341
 31
0.0
  0
LINE
  5
416
330
1F
100
AcDbEntity
  8
0
 48
0.0625
370
    60
390
F
100
AcDbLine
 10
905.6706414780879
 20
456.2083652547342
 30
0.0
 11
908.1706414780879
 21
456.2083652547342
 31
0.0
  0
LINE
  5
417
330
1F
100
AcDbEntity
  8
0
 48
0.375
370
    60
390
F
100
AcDbLine
 10
890.6706414780879
 20
456.2083652547342
 30
0.0
 11
905.6706414780879
 21
456.2083652547342
 31
0.0
  0
LINE
  5
418
330
1F
100
AcDbEntity
  8
0
 48
0.075
370
    60
390
F
100
AcDbLine
 10
890.6706414780879
 20
456.2083652547342
 30
0.0
 11
887.6706414780879
 21
456.2083652547342
 31
0.0
  0
LINE
  5
419
330
1F
100
AcDbEntity
  8
0
 48
0.069716
370
    60
390
F
100
AcDbLine
 10
905.6706414780879
 20
456.2083652547342
 30
0.0
 11
905.5833764780879
 21
453.4210872547342
 31
0.0
  0
LINE
  5
41A
330
1F
100
AcDbEntity
  8
0
 48
0.370637
370
    60
390
F
100
AcDbLine
 10
890.7579064780879
 20
453.4210872547342
 30
0.0
 11
905.5833764780879
 21
453.4210872547342
 31
0.0
  0
LINE
  5
41B
330
1F
100
AcDbEntity
  8
0
 48
0.069716
370
    60
390
F
100
AcDbLine
 10
890.6706414780879
 20
456.2083652547342
 30
0.0
 11
890.7579064780879
 21
453.4210872547342
 31
0.0
  0
LINE
  5
41D
330
1F
100
AcDbEntity
  8
0
 48
0.031604
370
    60
390
F
100
AcDbLine
 10
785.2999294780878
 20
477.9965572547342
 30
0.0
 11
785.2999294780878
 21
479.2607332547342
 31
0.0
  0
LINE
  5
41E
330
1F
100
AcDbEntity
  8
0
 48
0.031604
370
    60
390
F
100
AcDbLine
 10
785.2999294780878
 20
498.4607302547342
 30
0.0
 11
785.2999294780878
 21
499.7248902547342
 31
0.0
  0
ELLIPSE
  5
421
330
1F
100
AcDbEntity
  8
0
370
    60
390
F
100
AcDbEllipse
 10
785.291200478088
 20
448.8328552547342
 30
0.0
 11
2.449212707644755E-16
 21
4.0
 31
0.0
210
0.0
220
0.0
230
1.0
 40
0.017455
 41
1.570796326794897
 42
3.124139361069467
  0
LINE
  5
422
330
1F
100
AcDbEntity
  8
0
 48
0.000352
370
    60
390
F
100
AcDbLine
 10
785.2999294780878
 20
444.8235232547342
 30
0.0
 11
785.289980478088
 21
444.8334712547341
 31
0.0
  0
LINE
  5
425
330
1F
100
AcDbEntity
  8
0
 48
0.005697
370
    60
390
F
100
AcDbLine
 10
785.2213804780879
 20
448.8328612547342
 30
0.0
 11
785.2213804780879
 21
449.0607362547342
 31
0.0
  0
LINE
  5
426
330
1F
100
AcDbEntity
  8
0
 48
0.062012
370
    60
390
F
100
AcDbLine
 10
785.289980478088
 20
444.8334712547341
 30
0.0
 11
782.8094924780879
 21
444.8334712547341
 31
0.0
  0
LINE
  5
427
330
1F
100
AcDbEntity
  8
0
 48
0.000352
370
    60
390
F
100
AcDbLine
 10
850.7522914780878
 20
444.8235232547342
 30
0.0
 11
850.7622404780878
 21
444.8334712547341
 31
0.0
  0
LINE
  5
428
330
1F
100
AcDbEntity
  8
0
 48
0.062012
370
    60
390
F
100
AcDbLine
 10
853.2427274780879
 20
444.8334712547341
 30
0.0
 11
850.7622404780878
 21
444.8334712547341
 31
0.0
  0
LINE
  5
42F
330
1F
100
AcDbEntity
  8
0
 48
0.005697
370
    60
390
F
100
AcDbLine
 10
850.8308394780879
 20
448.8328612547342
 30
0.0
 11
850.8308394780879
 21
449.0607362547342
 31
0.0
  0
ELLIPSE
  5
432
330
1F
100
AcDbEntity
  8
0
370
    60
390
F
100
AcDbEllipse
 10
850.7610204780879
 20
448.8328552547342
 30
0.0
 11
-7.449212707644755E-16
 21
-4.0
 31
0.0
210
0.0
220
0.0
230
1.0
 40
0.017455
 41
0.0174532925199191
 42
1.570796326794897
  0
LINE
  5
433
330
1F
100
AcDbEntity
  8
0
 48
0.031604
370
    60
390
F
100
AcDbLine
 10
850.7522914780878
 20
498.4607302547342
 30
0.0
 11
850.7522914780878
 21
499.7248902547342
 31
0.0
  0
LINE
  5
434
330
1F
100
AcDbEntity
  8
0
 48
0.031604
370
    60
390
F
100
AcDbLine
 10
850.7522914780878
 20
477.9965572547342
 30
0.0
 11
850.7522914780878
 21
479.2607332547342
 31
0.0
  0
LINE
  5
439
330
1F
100
AcDbEntity
  8
0
 48
0.0625
370
    60
390
F
100
AcDbLine
 10
732.7948934780879
 20
456.2083652547342
 30
0.0
 11
730.2948934780879
 21
456.2083652547342
 31
0.0
  0
LINE
  5
43A
330
1F
100
AcDbEntity
  8
0
 48
0.3875
370
    60
390
F
100
AcDbLine
 10
748.2948934780879
 20
456.2083652547342
 30
0.0
 11
732.7948934780879
 21
456.2083652547342
 31
0.0
  0
LINE
  5
43B
330
1F
100
AcDbEntity
  8
0
 48
0.0625
370
    60
390
F
100
AcDbLine
 10
750.7948934780879
 20
456.2083652547342
 30
0.0
 11
748.2948934780879
 21
456.2083652547342
 31
0.0
  0
LINE
  5
43C
330
1F
100
AcDbEntity
  8
0
 48
0.069716
370
    60
390
F
100
AcDbLine
 10
748.2948934780879
 20
456.2083652547342
 30
0.0
 11
748.207621478088
 21
453.4210872547342
 31
0.0
  0
LINE
  5
43D
330
1F
100
AcDbEntity
  8
0
 48
0.383137
370
    60
390
F
100
AcDbLine
 10
748.207621478088
 20
453.4210872547342
 30
0.0
 11
732.882158478088
 21
453.4210872547342
 31
0.0
  0
LINE
  5
43E
330
1F
100
AcDbEntity
  8
0
 48
0.069716
370
    60
390
F
100
AcDbLine
 10
732.7948934780879
 20
456.2083652547342
 30
0.0
 11
732.882158478088
 21
453.4210872547342
 31
0.0
  0
LINE
  5
440
330
1F
100
AcDbEntity
  8
0
 48
0.074889
370
    60
390
F
100
AcDbLine
 10
691.6519194780878
 20
557.0642452547341
 30
0.0
 11
688.6563594780879
 21
557.0642452547341
 31
0.0
  0
ARC
  5
441
330
1F
100
AcDbEntity
  8
0
370
    60
390
F
100
AcDbCircle
 10
688.6563594780879
 20
561.0642452547341
 30
0.0
 40
4.0
100
AcDbArc
 50
183.583325
 51
270.000009
  0
LINE
  5
442
330
1F
100
AcDbEntity
  8
0
 48
0.05
370
    60
390
F
100
AcDbLine
 10
684.6563594780879
 20
563.0642452547341
 30
0.0
 11
684.6563594780879
 21
561.0642452547341
 31
0.0
  0
ARC
  5
443
330
1F
100
AcDbEntity
  8
0
370
    60
390
F
100
AcDbCircle
 10
688.6563594780879
 20
563.0642452547341
 30
0.0
 40
4.0
100
AcDbArc
 50
90.0
 51
176.41668
  0
LINE
  5
444
330
1F
100
AcDbEntity
  8
0
 48
0.072782
370
    60
390
F
100
AcDbLine
 10
691.5676214780879
 20
567.0642452547341
 30
0.0
 11
688.6563594780879
 21
567.0642452547341
 31
0.0
  0
LINE
  5
445
330
1F
100
AcDbEntity
  8
0
 48
0.063651
370
    60
390
F
100
AcDbLine
 10
691.202402478088
 20
604.0642452547341
 30
0.0
 11
688.6563594780879
 21
604.0642452547341
 31
0.0
  0
ARC
  5
446
330
1F
100
AcDbEntity
  8
0
370
    60
390
F
100
AcDbCircle
 10
688.6563594780879
 20
600.0642452547341
 30
0.0
 40
4.0
100
AcDbArc
 50
90.0
 51
176.41668
  0
LINE
  5
449
330
1F
100
AcDbEntity
  8
0
 48
0.000196
370
    60
390
F
100
AcDbLine
 10
684.6641874780879
 20
600.3142452547341
 30
0.0
 11
684.6563594780879
 21
600.3142452547341
 31
0.0
  0
LINE
  5
44A
330
1F
100
AcDbEntity
  8
0
 48
0.00625
370
    60
390
F
100
AcDbLine
 10
684.6563594780879
 20
600.0642452547341
 30
0.0
 11
684.6563594780879
 21
600.3142452547341
 31
0.0
  0
LINE
  5
44B
330
1F
100
AcDbEntity
  8
0
 48
0.05
370
    60
390
F
100
AcDbLine
 10
684.6563594780879
 20
598.0642452547341
 30
0.0
 11
684.6563594780879
 21
600.0642452547341
 31
0.0
  0
LINE
  5
44C
330
1F
100
AcDbEntity
  8
0
 48
0.00625
370
    60
390
F
100
AcDbLine
 10
684.6563594780879
 20
597.8142452547341
 30
0.0
 11
684.6563594780879
 21
598.0642452547341
 31
0.0
  0
LINE
  5
44F
330
1F
100
AcDbEntity
  8
0
 48
0.000196
370
    60
390
F
100
AcDbLine
 10
684.6641874780879
 20
597.8142452547341
 30
0.0
 11
684.6563594780879
 21
597.8142452547341
 31
0.0
  0
ARC
  5
450
330
1F
100
AcDbEntity
  8
0
370
    60
390
F
100
AcDbCircle
 10
688.6563594780879
 20
598.0642452547341
 30
0.0
 40
4.0
100
AcDbArc
 50
183.583325
 51
270.000009
  0
LINE
  5
451
330
1F
100
AcDbEntity
  8
0
 48
0.066085
370
    60
390
F
100
AcDbLine
 10
691.2997764780879
 20
594.0642452547341
 30
0.0
 11
688.6563594780879
 21
594.0642452547341
 31
0.0
  0
ARC
  5
452
330
1F
100
AcDbEntity
  8
0
370
    60
390
F
100
AcDbCircle
 10
687.3563414780879
 20
587.5642452547341
 30
0.0
 40
3.0
100
AcDbArc
 50
90.00000999999999
 51
180.000003
  0
LINE
  5
453
330
1F
100
AcDbEntity
  8
0
 48
0.35
370
    60
390
F
100
AcDbLine
 10
684.3563414780879
 20
573.5642452547341
 30
0.0
 11
684.3563414780879
 21
587.5642452547341
 31
0.0
  0
ARC
  5
454
330
1F
100
AcDbEntity
  8
0
370
    60
390
F
100
AcDbCircle
 10
687.3563414780879
 20
573.5642452547341
 30
0.0
 40
3.0
100
AcDbArc
 50
180.000003
 51
270.000009
  0
LINE
  5
455
330
1F
100
AcDbEntity
  8
0
 48
0.0625
370
    60
390
F
100
AcDbLine
 10
688.856356478088
 20
587.5642452547341
 30
0.0
 11
686.356356478088
 21
587.5642452547341
 31
0.0
  0
LINE
  5
456
330
1F
100
AcDbEntity
  8
0
 48
0.061519
370
    60
390
F
100
AcDbLine
 10
691.3171034780879
 20
587.5642452547341
 30
0.0
 11
688.856356478088
 21
587.5642452547341
 31
0.0
  0
LINE
  5
457
330
1F
100
AcDbEntity
  8
0
 48
0.062003
370
    60
390
F
100
AcDbLine
 10
691.3364814780879
 20
585.5642452547341
 30
0.0
 11
688.856356478088
 21
585.5642452547341
 31
0.0
  0
LINE
  5
459
330
1F
100
AcDbEntity
  8
0
 48
0.0625
370
    60
390
F
100
AcDbLine
 10
688.856356478088
 20
585.5642452547341
 30
0.0
 11
686.356356478088
 21
585.5642452547341
 31
0.0
  0
LINE
  5
45A
330
1F
100
AcDbEntity
  8
0
 48
0.0625
370
    60
390
F
100
AcDbLine
 10
688.856356478088
 20
575.5642452547341
 30
0.0
 11
686.356356478088
 21
575.5642452547341
 31
0.0
  0
LINE
  5
45B
330
1F
100
AcDbEntity
  8
0
 48
0.064425
370
    60
390
F
100
AcDbLine
 10
691.4333594780879
 20
575.5642452547341
 30
0.0
 11
688.856356478088
 21
575.5642452547341
 31
0.0
  0
LINE
  5
45D
330
1F
100
AcDbEntity
  8
0
 48
0.064906
370
    60
390
F
100
AcDbLine
 10
691.4526014780879
 20
573.5642452547341
 30
0.0
 11
688.856356478088
 21
573.5642452547341
 31
0.0
  0
LINE
  5
45E
330
1F
100
AcDbEntity
  8
0
 48
0.0625
370
    60
390
F
100
AcDbLine
 10
688.856356478088
 20
573.5642452547341
 30
0.0
 11
686.356356478088
 21
573.5642452547341
 31
0.0
  0
LINE
  5
461
330
1F
100
AcDbEntity
  8
0
 48
0.000196
370
    60
390
F
100
AcDbLine
 10
684.6641874780879
 20
563.3142452547341
 30
0.0
 11
684.6563594780879
 21
563.3142452547341
 31
0.0
  0
LINE
  5
463
330
1F
100
AcDbEntity
  8
0
 48
0.00625
370
    60
390
F
100
AcDbLine
 10
684.6563594780879
 20
561.0642452547341
 30
0.0
 11
684.6563594780879
 21
560.8142452547341
 31
0.0
  0
LINE
  5
464
330
1F
100
AcDbEntity
  8
0
 48
0.00625
370
    60
390
F
100
AcDbLine
 10
684.6563594780879
 20
563.3142452547341
 30
0.0
 11
684.6563594780879
 21
563.0642452547341
 31
0.0
  0
LINE
  5
466
330
1F
100
AcDbEntity
  8
0
 48
0.000196
370
    60
390
F
100
AcDbLine
 10
684.6641874780879
 20
560.8142452547341
 30
0.0
 11
684.6563594780879
 21
560.8142452547341
 31
0.0
  0
LINE
  5
46D
330
1F
100
AcDbEntity
  8
0
 48
0.077309
370
    60
390
F
100
AcDbLine
 10
732.1371404780879
 20
640.3559022547341
 30
0.0
 11
732.1371404780879
 21
637.2635562547341
 31
0.0
  0
LINE
  5
46E
330
1F
100
AcDbEntity
  8
0
370
    60
390
F
100
AcDbLine
 10
852.6371404780879
 20
640.3559022547341
 30
0.0
 11
732.1371404780879
 21
640.3559022547341
 31
0.0
  0
LINE
  5
46F
330
1F
100
AcDbEntity
  8
0
 48
0.077309
370
    60
390
F
100
AcDbLine
 10
852.6371404780879
 20
640.3559022547341
 30
0.0
 11
852.6371404780879
 21
637.2635562547341
 31
0.0
  0
LINE
  5
471
330
1F
100
AcDbEntity
  8
0
 48
0.05
370
    60
390
F
100
AcDbLine
 10
728.1371334780879
 20
639.5135562547341
 30
0.0
 11
726.1371404780879
 21
639.5135562547341
 31
0.0
  0
LINE
  5
473
330
1F
100
AcDbEntity
  8
0
 48
0.05
370
    60
390
F
100
AcDbLine
 10
728.1371334780879
 20
635.0135562547341
 30
0.0
 11
726.1371404780879
 21
635.0135562547341
 31
0.0
  0
LINE
  5
474
330
1F
100
AcDbEntity
  8
0
370
    60
390
F
100
AcDbLine
 10
852.317312478088
 20
640.6318722547342
 30
0.0
 11
793.7069654780879
 21
640.6318722547342
 31
0.0
  0
LINE
  5
475
330
1F
100
AcDbEntity
  8
0
370
    60
390
F
100
AcDbLine
 10
791.067312478088
 20
640.6318722547342
 30
0.0
 11
732.4569654780879
 21
640.6318722547342
 31
0.0
  0
LINE
  5
476
330
1F
100
AcDbEntity
  8
0
 48
0.0625
370
    60
390
F
100
AcDbLine
 10
856.6371294780879
 20
635.0135562547341
 30
0.0
 11
859.1371404780879
 21
635.0135562547341
 31
0.0
  0
LINE
  5
477
330
1F
100
AcDbEntity
  8
0
 48
0.0625
370
    60
390
F
100
AcDbLine
 10
856.6371334780879
 20
639.5135562547341
 30
0.0
 11
859.1371404780879
 21
639.5135562547341
 31
0.0
  0
LINE
  5
47E
330
1F
100
AcDbEntity
  8
0
 48
0.003276
370
    60
390
F
100
AcDbLine
 10
790.526110478088
 20
499.8297032547342
 30
0.0
 11
790.526110478088
 21
499.9607302547342
 31
0.0
  0
LINE
  5
47F
330
1F
100
AcDbEntity
  8
0
 48
0.12628
370
    60
390
F
100
AcDbLine
 10
785.4749054780879
 20
499.8297032547342
 30
0.0
 11
790.526110478088
 21
499.8297032547342
 31
0.0
  0
LINE
  5
480
330
1F
100
AcDbEntity
  8
0
 48
0.005099
370
    60
390
F
100
AcDbLine
 10
785.2999294780878
 20
499.7248902547342
 30
0.0
 11
785.4749054780879
 21
499.8297032547342
 31
0.0
  0
ELLIPSE
  5
481
330
1F
100
AcDbEntity
  8
0
370
    60
390
F
100
AcDbEllipse
 10
782.8082744780879
 20
448.8328552547342
 30
0.0
 11
-7.449212707644755E-16
 21
-4.0
 31
0.0
210
0.0
220
0.0
230
1.0
 40
0.017455
 41
0.0174532925203268
 42
1.570796326794897
  0
LINE
  5
482
330
1F
100
AcDbEntity
  8
0
 48
0.058582
370
    60
390
F
100
AcDbLine
 10
785.2213804780879
 20
448.8328612547342
 30
0.0
 11
782.8780964780879
 21
448.8328612547342
 31
0.0
  0
LINE
  5
483
330
1F
100
AcDbEntity
  8
0
370
    60
390
F
100
AcDbLine
 10
782.8780964780879
 20
448.8328612547342
 30
0.0
 11
782.8780964780879
 21
502.1355502547342
 31
0.0
  0
ELLIPSE
  5
486
330
1F
100
AcDbEntity
  8
0
370
    60
390
F
100
AcDbEllipse
 10
853.2439464780879
 20
448.8328552547342
 30
0.0
 11
2.449212707644755E-16
 21
4.0
 31
0.0
210
0.0
220
0.0
230
1.0
 40
0.017455
 41
1.570796326794897
 42
3.124139361069466
  0
LINE
  5
487
330
1F
100
AcDbEntity
  8
0
370
    60
390
F
100
AcDbLine
 10
853.1741244780878
 20
448.8328612547342
 30
0.0
 11
853.1741244780878
 21
502.1355502547342
 31
0.0
  0
LINE
  5
488
330
1F
100
AcDbEntity
  8
0
 48
0.058582
370
    60
390
F
100
AcDbLine
 10
853.1741244780878
 20
448.8328612547342
 30
0.0
 11
850.8308394780879
 21
448.8328612547342
 31
0.0
  0
LINE
  5
489
330
1F
100
AcDbEntity
  8
0
 48
0.054898
370
    60
390
F
100
AcDbLine
 10
845.5261104780878
 20
499.9607302547342
 30
0.0
 11
845.5261104780878
 21
502.1566532547342
 31
0.0
  0
LINE
  5
48C
330
1F
100
AcDbEntity
  8
0
370
    60
390
F
100
AcDbLine
 10
845.5261104780878
 20
449.0607362547342
 30
0.0
 11
845.5261104780878
 21
477.7607332547342
 31
0.0
  0
LINE
  5
48D
330
1F
100
AcDbEntity
  8
0
 48
0.132618
370
    60
390
F
100
AcDbLine
 10
845.5261104780878
 20
449.0607362547342
 30
0.0
 11
850.8308394780879
 21
449.0607362547342
 31
0.0
  0
LINE
  5
48E
330
1F
100
AcDbEntity
  8
0
 48
0.005099
370
    60
390
F
100
AcDbLine
 10
850.7522914780878
 20
499.7248902547342
 30
0.0
 11
850.5773154780879
 21
499.8297032547342
 31
0.0
  0
LINE
  5
48F
330
1F
100
AcDbEntity
  8
0
 48
0.12628
370
    60
390
F
100
AcDbLine
 10
845.5261104780878
 20
499.8297032547342
 30
0.0
 11
850.5773154780879
 21
499.8297032547342
 31
0.0
  0
LINE
  5
490
330
1F
100
AcDbEntity
  8
0
 48
0.003276
370
    60
390
F
100
AcDbLine
 10
845.5261104780878
 20
499.8297032547342
 30
0.0
 11
845.5261104780878
 21
499.9607302547342
 31
0.0
  0
LINE
  5
497
330
1F
100
AcDbEntity
  8
0
 48
0.05
370
    60
390
F
100
AcDbLine
 10
686.356356478088
 20
573.5642452547341
 30
0.0
 11
686.356356478088
 21
575.5642452547341
 31
0.0
  0
LINE
  5
498
330
1F
100
AcDbEntity
  8
0
 48
0.05
370
    60
390
F
100
AcDbLine
 10
686.356356478088
 20
587.5642452547341
 30
0.0
 11
686.356356478088
 21
585.5642452547341
 31
0.0
  0
LINE
  5
499
330
1F
100
AcDbEntity
  8
0
 48
0.017678
370
    60
390
F
100
AcDbLine
 10
726.1371404780879
 20
635.0135562547341
 30
0.0
 11
725.6371404780879
 21
635.5135562547341
 31
0.0
  0
LINE
  5
49A
330
1F
100
AcDbEntity
  8
0
 48
0.017678
370
    60
390
F
100
AcDbLine
 10
726.1371404780879
 20
639.5135562547341
 30
0.0
 11
725.6371404780879
 21
639.0135562547341
 31
0.0
  0
LINE
  5
49B
330
1F
100
AcDbEntity
  8
0
 48
0.0875
370
    60
390
F
100
AcDbLine
 10
725.6371404780879
 20
639.0135562547341
 30
0.0
 11
725.6371404780879
 21
635.5135562547341
 31
0.0
  0
LINE
  5
49C
330
1F
100
AcDbEntity
  8
0
 48
0.0375
370
    60
390
F
100
AcDbLine
 10
859.1371404780879
 20
635.0135562547341
 30
0.0
 11
860.6371404780879
 21
635.0135562547341
 31
0.0
  0
LINE
  5
49D
330
1F
100
AcDbEntity
  8
0
 48
0.0375
370
    60
390
F
100
AcDbLine
 10
859.1371404780879
 20
639.5135562547341
 30
0.0
 11
860.6371404780879
 21
639.5135562547341
 31
0.0
  0
LINE
  5
49F
330
1F
100
AcDbEntity
  8
0
 48
0.054898
370
    60
390
F
100
AcDbLine
 10
790.526110478088
 20
499.9607302547342
 30
0.0
 11
790.526110478088
 21
502.1566532547342
 31
0.0
  0
LINE
  5
4A0
330
1F
100
AcDbEntity
  8
0
 48
0.12628
370
    60
390
F
100
AcDbLine
 10
785.4749054780879
 20
477.8917452547342
 30
0.0
 11
790.526110478088
 21
477.8917452547342
 31
0.0
  0
LINE
  5
4A2
330
1F
100
AcDbEntity
  8
0
 48
0.003275
370
    60
390
F
100
AcDbLine
 10
845.5261104780878
 20
477.8917452547342
 30
0.0
 11
845.5261104780878
 21
477.7607332547342
 31
0.0
  0
LINE
  5
4A5
330
1F
100
AcDbEntity
  8
0
 48
0.12628
370
    60
390
F
100
AcDbLine
 10
845.5261104780878
 20
477.8917452547342
 30
0.0
 11
850.5773154780879
 21
477.8917452547342
 31
0.0
  0
LINE
  5
4A6
330
1F
100
AcDbEntity
  8
0
 48
0.017678
370
    60
390
F
100
AcDbLine
 10
860.6371404780879
 20
635.0135562547341
 30
0.0
 11
861.1371404780879
 21
635.5135562547341
 31
0.0
  0
LINE
  5
4A7
330
1F
100
AcDbEntity
  8
0
 48
0.017678
370
    60
390
F
100
AcDbLine
 10
860.6371404780879
 20
639.5135562547341
 30
0.0
 11
861.1371404780879
 21
639.0135562547341
 31
0.0
  0
LINE
  5
4A8
330
1F
100
AcDbEntity
  8
0
 48
0.0875
370
    60
390
F
100
AcDbLine
 10
861.1371404780879
 20
635.5135562547341
 30
0.0
 11
861.1371404780879
 21
639.0135562547341
 31
0.0
  0
LINE
  5
4AA
330
1F
100
AcDbEntity
  8
0
 48
0.005099
370
    60
390
F
100
AcDbLine
 10
785.2999294780878
 20
477.9965572547342
 30
0.0
 11
785.4749054780879
 21
477.8917452547342
 31
0.0
  0
LINE
  5
4AB
330
1F
100
AcDbEntity
  8
0
 48
0.005099
370
    60
390
F
100
AcDbLine
 10
850.7522914780878
 20
477.9965572547342
 30
0.0
 11
850.5773154780879
 21
477.8917452547342
 31
0.0
  0
LINE
  5
4AD
330
1F
100
AcDbEntity
  8
0
 48
0.132618
370
    60
390
F
100
AcDbLine
 10
790.526110478088
 20
449.0607362547342
 30
0.0
 11
785.2213804780879
 21
449.0607362547342
 31
0.0
  0
LINE
  5
4AE
330
1F
100
AcDbEntity
  8
0
370
    60
390
F
100
AcDbLine
 10
790.526110478088
 20
449.0607362547342
 30
0.0
 11
790.526110478088
 21
477.7607332547342
 31
0.0
  0
LINE
  5
4B1
330
1F
100
AcDbEntity
  8
0
 48
0.003275
370
    60
390
F
100
AcDbLine
 10
790.526110478088
 20
477.8917452547342
 30
0.0
 11
790.526110478088
 21
477.7607332547342
 31
0.0
  0
ARC
  5
4B3
330
1F
100
AcDbEntity
  8
0
370
    60
390
F
100
AcDbCircle
 10
775.026114478088
 20
463.5567382547342
 30
0.0
 40
5.601937
100
AcDbArc
 50
269.999978
 51
299.212796
  0
LINE
  5
4B4
330
1F
100
AcDbEntity
  8
0
 48
0.001472
370
    60
390
F
100
AcDbLine
 10
855.0782344780879
 20
640.6318722547342
 30
0.0
 11
855.1371294780879
 21
640.6318722547342
 31
0.0
  0
LINE
  5
4B5
330
1F
100
AcDbEntity
  8
0
 48
0.00327
370
    60
390
F
100
AcDbLine
 10
855.0782344780879
 20
640.6318722547342
 30
0.0
 11
855.1367364780879
 21
640.5148682547341
 31
0.0
  0
LINE
  5
4B6
330
1F
100
AcDbEntity
  8
0
 48
0.000709
370
    60
390
F
100
AcDbLine
 10
855.108778478088
 20
637.2635562547341
 30
0.0
 11
855.1371334780879
 21
637.2635562547341
 31
0.0
  0
SPLINE
  5
4B7
330
1F
100
AcDbEntity
  8
0
370
    60
390
F
100
AcDbSpline
210
0.0
220
0.0
230
1.0
 70
     8
 71
     5
 72
    21
 73
    15
 74
     0
 42
0.0
 43
0.0
 40
0.0
 40
0.0
 40
0.0
 40
0.0
 40
0.0
 40
0.0
 40
2.174891882898801
 40
2.174891882898801
 40
2.174891882898801
 40
4.352082539657023
 40
4.352082539657023
 40
4.352082539657023
 40
6.78145709948859
 40
6.78145709948859
 40
6.78145709948859
 40
7.13959196023324
 40
7.13959196023324
 40
7.13959196023324
 40
7.13959196023324
 40
7.13959196023324
 40
7.13959196023324
 10
855.108776912773
 20
637.263561617197
 30
0.0
 10
855.108776912773
 20
637.5711377769461
 30
0.0
 10
855.1090944468862
 20
637.8787135408395
 30
0.0
 10
855.1097295918214
 20
638.1805628337182
 30
0.0
 10
855.1116118469563
 20
638.7615888980994
 30
0.0
 10
855.1146258237586
 20
639.2762114069099
 30
0.0
 10
855.1163940578766
 20
639.5119236345374
 30
0.0
 10
855.120614824173
 20
639.9551216655824
 30
0.0
 10
855.1256677172111
 20
640.2658407688253
 30
0.0
 10
855.1285074965567
 20
640.3881875844583
 30
0.0
 10
855.1318887151981
 20
640.4775708562654
 30
0.0
 10
855.1353195840975
 20
640.5074592124788
 30
0.0
 10
855.1357612535337
 20
640.5103159420781
 30
0.0
 10
855.1362031703775
 20
640.5121856721408
 30
0.0
 10
855.1366451400745
 20
640.513068308458
 30
0.0
  0
LINE
  5
4B8
330
1F
100
AcDbEntity
  8
0
 48
0.15
370
    60
390
F
100
AcDbLine
 10
855.108778478088
 20
637.2635562547341
 30
0.0
 11
855.108778478088
 21
631.2635562547341
 31
0.0
  0
LINE
  5
4B9
330
1F
100
AcDbEntity
  8
0
 48
0.000709
370
    60
390
F
100
AcDbLine
 10
855.108778478088
 20
631.2635562547341
 30
0.0
 11
855.1371404780879
 21
631.2635562547341
 31
0.0
  0
LINE
  5
4BA
330
1F
100
AcDbEntity
  8
0
 48
0.001473
370
    60
390
F
100
AcDbLine
 10
729.6371254780879
 20
640.6318722547342
 30
0.0
 11
729.6960474780878
 21
640.6318722547342
 31
0.0
  0
LINE
  5
4BD
330
1F
100
AcDbEntity
  8
0
 48
0.000709
370
    60
390
F
100
AcDbLine
 10
729.6371334780879
 20
637.2635562547341
 30
0.0
 11
729.6654994780879
 21
637.2635562547341
 31
0.0
  0
LINE
  5
4BF
330
1F
100
AcDbEntity
  8
0
 48
0.000709
370
    60
390
F
100
AcDbLine
 10
729.6371334780879
 20
631.2635562547341
 30
0.0
 11
729.6654994780879
 21
631.2635562547341
 31
0.0
  0
LINE
  5
4C0
330
1F
100
AcDbEntity
  8
0
 48
0.025
370
    60
390
F
100
AcDbLine
 10
751.0130794780879
 20
452.4210872547342
 30
0.0
 11
751.0130794780879
 21
453.4210872547342
 31
0.0
  0
LINE
  5
4C1
330
1F
100
AcDbEntity
  8
0
 48
0.025
370
    60
390
F
100
AcDbLine
 10
730.0767004780879
 20
452.4210872547342
 30
0.0
 11
730.0767004780879
 21
453.4210872547342
 31
0.0
  0
LINE
  5
4C3
330
1F
100
AcDbEntity
  8
0
 48
0.383137
370
    60
390
F
100
AcDbLine
 10
748.207621478088
 20
453.4210872547342
 30
0.0
 11
732.882158478088
 21
453.4210872547342
 31
0.0
  0
LINE
  5
4C6
330
1F
100
AcDbEntity
  8
0
 48
0.094782
370
    60
390
F
100
AcDbLine
 10
730.2948934780879
 20
456.2083652547342
 30
0.0
 11
730.1203404780879
 21
452.4210872547342
 31
0.0
  0
LINE
  5
4C7
330
1F
100
AcDbEntity
  8
0
 48
0.001091
370
    60
390
F
100
AcDbLine
 10
730.1203404780879
 20
452.4210872547342
 30
0.0
 11
730.0767004780879
 21
452.4210872547342
 31
0.0
  0
LINE
  5
4C8
330
1F
100
AcDbEntity
  8
0
 48
0.001091
370
    60
390
F
100
AcDbLine
 10
750.9694464780879
 20
452.4210872547342
 30
0.0
 11
751.0130794780879
 21
452.4210872547342
 31
0.0
  0
LINE
  5
4C9
330
1F
100
AcDbEntity
  8
0
 48
0.069046
370
    60
390
F
100
AcDbLine
 10
750.9694464780879
 20
452.4210872547342
 30
0.0
 11
748.207621478088
 21
452.4210872547342
 31
0.0
  0
LINE
  5
4CA
330
1F
100
AcDbEntity
  8
0
 48
0.383137
370
    60
390
F
100
AcDbLine
 10
748.207621478088
 20
452.4210872547342
 30
0.0
 11
732.882158478088
 21
452.4210872547342
 31
0.0
  0
LINE
  5
4CB
330
1F
100
AcDbEntity
  8
0
 48
0.069045
370
    60
390
F
100
AcDbLine
 10
732.882158478088
 20
452.4210872547342
 30
0.0
 11
730.1203404780879
 21
452.4210872547342
 31
0.0
  0
LINE
  5
4CC
330
1F
100
AcDbEntity
  8
0
 48
0.0625
370
    60
390
F
100
AcDbLine
 10
732.7948934780879
 20
456.2083652547342
 30
0.0
 11
730.2948934780879
 21
456.2083652547342
 31
0.0
  0
LINE
  5
4CE
330
1F
100
AcDbEntity
  8
0
 48
0.025
370
    60
390
F
100
AcDbLine
 10
748.207621478088
 20
453.4210872547342
 30
0.0
 11
748.207621478088
 21
452.4210872547342
 31
0.0
  0
LINE
  5
4CF
330
1F
100
AcDbEntity
  8
0
 48
0.025
370
    60
390
F
100
AcDbLine
 10
732.882158478088
 20
453.4210872547342
 30
0.0
 11
732.882158478088
 21
452.4210872547342
 31
0.0
  0
LINE
  5
4D1
330
1F
100
AcDbEntity
  8
0
 48
0.0625
370
    60
390
F
100
AcDbLine
 10
750.7948934780879
 20
456.2083652547342
 30
0.0
 11
748.2948934780879
 21
456.2083652547342
 31
0.0
  0
LINE
  5
4D3
330
1F
100
AcDbEntity
  8
0
 48
0.069716
370
    60
390
F
100
AcDbLine
 10
748.2948934780879
 20
456.2083652547342
 30
0.0
 11
748.207621478088
 21
453.4210872547342
 31
0.0
  0
LINE
  5
4D5
330
1F
100
AcDbEntity
  8
0
 48
0.094782
370
    60
390
F
100
AcDbLine
 10
750.7948934780879
 20
456.2083652547342
 30
0.0
 11
750.9694464780879
 21
452.4210872547342
 31
0.0
  0
LINE
  5
4D6
330
1F
100
AcDbEntity
  8
0
 48
0.370637
370
    60
390
F
100
AcDbLine
 10
905.5833764780879
 20
453.4210872547342
 30
0.0
 11
890.7579064780879
 21
453.4210872547342
 31
0.0
  0
LINE
  5
4D9
330
1F
100
AcDbEntity
  8
0
 48
0.075
370
    60
390
F
100
AcDbLine
 10
890.6706414780879
 20
456.2083652547342
 30
0.0
 11
887.6706414780879
 21
456.2083652547342
 31
0.0
  0
LINE
  5
4DA
330
1F
100
AcDbEntity
  8
0
 48
0.069716
370
    60
390
F
100
AcDbLine
 10
890.6706414780879
 20
456.2083652547342
 30
0.0
 11
890.7579064780879
 21
453.4210872547342
 31
0.0
  0
LINE
  5
4DC
330
1F
100
AcDbEntity
  8
0
 48
0.025
370
    60
390
F
100
AcDbLine
 10
905.5833764780879
 20
453.4210872547342
 30
0.0
 11
905.5833764780879
 21
452.4210872547342
 31
0.0
  0
LINE
  5
4DD
330
1F
100
AcDbEntity
  8
0
 48
0.025
370
    60
390
F
100
AcDbLine
 10
890.7579064780879
 20
453.4210872547342
 30
0.0
 11
890.7579064780879
 21
452.4210872547342
 31
0.0
  0
LINE
  5
4DE
330
1F
100
AcDbEntity
  8
0
 48
0.370637
370
    60
390
F
100
AcDbLine
 10
905.5833764780879
 20
452.4210872547342
 30
0.0
 11
890.7579064780879
 21
452.4210872547342
 31
0.0
  0
LINE
  5
4DF
330
1F
100
AcDbEntity
  8
0
 48
0.025
370
    60
390
F
100
AcDbLine
 10
887.4524564780879
 20
452.4210872547342
 30
0.0
 11
887.4524564780879
 21
453.4210872547342
 31
0.0
  0
LINE
  5
4E0
330
1F
100
AcDbEntity
  8
0
 48
0.025
370
    60
390
F
100
AcDbLine
 10
908.3888264780879
 20
452.4210872547342
 30
0.0
 11
908.3888264780879
 21
453.4210872547342
 31
0.0
  0
LINE
  5
4E1
330
1F
100
AcDbEntity
  8
0
 48
0.001091
370
    60
390
F
100
AcDbLine
 10
887.4960884780879
 20
452.4210872547342
 30
0.0
 11
887.4524564780879
 21
452.4210872547342
 31
0.0
  0
LINE
  5
4E2
330
1F
100
AcDbEntity
  8
0
 48
0.094782
370
    60
390
F
100
AcDbLine
 10
887.6706414780879
 20
456.2083652547342
 30
0.0
 11
887.4960884780879
 21
452.4210872547342
 31
0.0
  0
LINE
  5
4E3
330
1F
100
AcDbEntity
  8
0
 48
0.081545
370
    60
390
F
100
AcDbLine
 10
890.7579064780879
 20
452.4210872547342
 30
0.0
 11
887.4960884780879
 21
452.4210872547342
 31
0.0
  0
LINE
  5
4E5
330
1F
100
AcDbEntity
  8
0
 48
0.001091
370
    60
390
F
100
AcDbLine
 10
908.3451944780879
 20
452.4210872547342
 30
0.0
 11
908.3888264780879
 21
452.4210872547342
 31
0.0
  0
LINE
  5
4E6
330
1F
100
AcDbEntity
  8
0
 48
0.069045
370
    60
390
F
100
AcDbLine
 10
908.3451944780879
 20
452.4210872547342
 30
0.0
 11
905.5833764780879
 21
452.4210872547342
 31
0.0
  0
LINE
  5
4E7
330
1F
100
AcDbEntity
  8
0
 48
0.069716
370
    60
390
F
100
AcDbLine
 10
905.6706414780879
 20
456.2083652547342
 30
0.0
 11
905.5833764780879
 21
453.4210872547342
 31
0.0
  0
LINE
  5
4E9
330
1F
100
AcDbEntity
  8
0
 48
0.0625
370
    60
390
F
100
AcDbLine
 10
905.6706414780879
 20
456.2083652547342
 30
0.0
 11
908.1706414780879
 21
456.2083652547342
 31
0.0
  0
LINE
  5
4EA
330
1F
100
AcDbEntity
  8
0
 48
0.094782
370
    60
390
F
100
AcDbLine
 10
908.1706414780879
 20
456.2083652547342
 30
0.0
 11
908.3451944780879
 21
452.4210872547342
 31
0.0
  0
ELLIPSE
  5
559
330
1F
100
AcDbEntity
  8
0
 62
     7
370
    13
390
F
100
AcDbEllipse
 10
456.139644
 20
515.967885
 30
0.0
 11
-4.999238475781958
 21
-0.08726203218644479
 31
0.0
210
0.0
220
0.0
230
1.0
 40
0.005689
 41
3.141592653589793
 42
4.532017918742428
  0
POINT
  5
689
330
1F
100
AcDbEntity
  8
0
370
    60
390
F
100
AcDbPoint
 10
1215.620994024668
 20
496.5457212547342
 30
0.0
  0
LINE
  5
68A
330
1F
100
AcDbEntity
  8
0
370
    60
390
F
100
AcDbLine
 10
1113.611911024668
 20
417.4607302547342
 30
0.0
 11
1146.475825024668
 21
417.4607302547342
 31
0.0
  0
LINE
  5
68B
330
1F
100
AcDbEntity
  8
0
370
    60
390
F
100
AcDbLine
 10
1146.475825024668
 20
417.4607302547342
 30
0.0
 11
1181.611915024668
 21
417.4607302547342
 31
0.0
  0
LINE
  5
68C
330
1F
100
AcDbEntity
  8
0
 48
0.236599
370
    60
390
F
100
AcDbLine
 10
1174.111915024668
 20
458.9246882547342
 30
0.0
 11
1174.111915024668
 21
449.4607302547342
 31
0.0
  0
LINE
  5
68D
330
1F
100
AcDbEntity
  8
0
 48
0.209546
370
    60
390
F
100
AcDbLine
 10
1121.111911024668
 20
457.8425502547342
 30
0.0
 11
1121.111911024668
 21
449.4607302547342
 31
0.0
  0
LINE
  5
68E
330
1F
100
AcDbEntity
  8
0
370
    60
390
F
100
AcDbLine
 10
1174.111915024668
 20
449.4607302547342
 30
0.0
 11
1121.111911024668
 21
449.4607302547342
 31
0.0
  0
LINE
  5
68F
330
1F
100
AcDbEntity
  8
0
 48
0.497651
370
    60
390
F
100
AcDbLine
 10
1174.111915024668
 20
449.4607302547342
 30
0.0
 11
1182.611915024668
 21
431.4607302547342
 31
0.0
  0
LINE
  5
690
330
1F
100
AcDbEntity
  8
0
 48
0.497651
370
    60
390
F
100
AcDbLine
 10
1121.111911024668
 20
449.4607302547342
 30
0.0
 11
1112.611911024668
 21
431.4607302547342
 31
0.0
  0
LINE
  5
691
330
1F
100
AcDbEntity
  8
0
370
    60
390
F
100
AcDbLine
 10
1182.611915024668
 20
431.4607302547342
 30
0.0
 11
1112.611911024668
 21
431.4607302547342
 31
0.0
  0
LINE
  5
692
330
1F
100
AcDbEntity
  8
0
 48
0.325
370
    60
390
F
100
AcDbLine
 10
1182.611915024668
 20
431.4607302547342
 30
0.0
 11
1182.611915024668
 21
418.4607302547342
 31
0.0
  0
LINE
  5
693
330
1F
100
AcDbEntity
  8
0
 48
0.325
370
    60
390
F
100
AcDbLine
 10
1112.611911024668
 20
431.4607302547342
 30
0.0
 11
1112.611911024668
 21
418.4607302547342
 31
0.0
  0
ARC
  5
695
330
1F
100
AcDbEntity
  8
0
370
    60
390
F
100
AcDbCircle
 10
1113.611888024668
 20
418.4606992547342
 30
0.0
 40
0.9999919999999956
100
AcDbArc
 50
179.998636000009
 51
270.0013470000091
  0
ARC
  5
696
330
1F
100
AcDbEntity
  8
0
370
    60
390
F
100
AcDbCircle
 10
1181.611938024668
 20
418.4606992547342
 30
0.0
 40
0.999992000000062
100
AcDbArc
 50
269.9986390000014
 51
0.0013430000014681
  0
LINE
  5
699
330
1F
100
AcDbEntity
  8
0
 48
0.131307
370
    60
390
F
100
AcDbLine
 10
1165.339118024668
 20
624.5578062547343
 30
0.0
 11
1165.339118024668
 21
629.8100952547343
 31
0.0
  0
LINE
  5
69A
330
1F
100
AcDbEntity
  8
0
370
    60
390
F
100
AcDbLine
 10
1165.339118024668
 20
624.5578062547343
 30
0.0
 11
1165.339118024668
 21
550.7706662547342
 31
0.0
  0
LINE
  5
69B
330
1F
100
AcDbEntity
  8
0
 48
0.124953
370
    60
390
F
100
AcDbLine
 10
1165.339118024668
 20
545.7725582547342
 30
0.0
 11
1165.339118024668
 21
550.7706662547342
 31
0.0
  0
ARC
  5
69C
330
1F
100
AcDbEntity
  8
0
370
    60
390
F
100
AcDbCircle
 10
769.0332480246684
 20
486.3141232547342
 30
0.0
 40
446.7164609999998
100
AcDbArc
 50
19.25329700000004
 51
19.98254200000004
  0
ARC
  5
69D
330
1F
100
AcDbEntity
  8
0
370
    60
390
F
100
AcDbCircle
 10
769.0332480246684
 20
486.3141232547342
 30
0.0
 40
446.7164609999998
100
AcDbArc
 50
18.37608900000004
 51
19.25329700000004
  0
LINE
  5
69E
330
1F
100
AcDbEntity
  8
0
 48
0.037756
370
    60
390
F
100
AcDbLine
 10
1193.444266024668
 20
625.7088382547342
 30
0.0
 11
1192.970588024668
 21
627.1428592547343
 31
0.0
  0
ARC
  5
69F
330
1F
100
AcDbEntity
  8
0
370
    60
390
F
100
AcDbCircle
 10
769.0332480246684
 20
486.3141232547342
 30
0.0
 40
446.7164609999998
100
AcDbArc
 50
6.219909000000021
 51
18.18239100000001
  0
ARC
  5
6A0
330
1F
100
AcDbEntity
  8
0
370
    60
390
F
100
AcDbCircle
 10
769.0332480246684
 20
486.3141232547342
 30
0.0
 40
446.7164609999998
100
AcDbArc
 50
1.44151600000001
 51
6.219909000000024
  0
ARC
  5
6A1
330
1F
100
AcDbEntity
  8
0
370
    60
390
F
100
AcDbCircle
 10
1149.183921024668
 20
-675.7228637452657
 30
0.0
 40
1306.772583
100
AcDbArc
 50
88.99997400000002
 51
89.15155700000001
  0
SPLINE
  5
6A2
330
1F
100
AcDbEntity
  8
0
370
    60
390
F
100
AcDbSpline
210
0.0
220
0.0
230
1.0
 70
     8
 71
     5
 72
    18
 73
    12
 74
     0
 42
0.0
 43
0.0
 40
0.0
 40
0.0
 40
0.0
 40
0.0
 40
0.0
 40
0.0
 40
3.278735745653921
 40
3.278735745653921
 40
3.278735745653921
 40
6.71074442981199
 40
6.71074442981199
 40
6.71074442981199
 40
8.584504310925245
 40
8.584504310925245
 40
8.584504310925245
 40
8.584504310925245
 40
8.584504310925245
 40
8.584504310925245
 10
1165.339115698048
 20
629.8100925983719
 30
0.0
 10
1165.339115698048
 20
630.0563609867999
 30
0.0
 10
1165.383413054587
 20
630.2765128342743
 30
0.0
 10
1165.485630636928
 20
630.4586386865093
 30
0.0
 10
1165.835031483696
 20
630.7400564774952
 30
0.0
 10
1166.405086630447
 20
630.8615263174739
 30
0.0
 10
1166.743820660807
 20
630.8918351674488
 30
0.0
 10
1167.297884805666
 20
630.9137839872502
 30
0.0
 10
1167.890685556933
 20
630.9137660609578
 30
0.0
 10
1168.103457358627
 20
630.9121812259204
 30
0.0
 10
1168.318280913116
 20
630.9096803312328
 30
0.0
 10
1168.534070598354
 20
630.9064848020873
 30
0.0
  0
LINE
  5
6A3
330
1F
100
AcDbEntity
  8
0
 48
0.408111
370
    60
390
F
100
AcDbLine
 10
1171.990844024668
 20
630.8507142547343
 30
0.0
 11
1188.312812024668
 21
630.5658322547342
 31
0.0
  0
LINE
  5
6AA
330
1F
100
AcDbEntity
  8
0
 48
0.000143
370
    60
390
F
100
AcDbLine
 10
1165.344695024668
 20
545.7713382547342
 30
0.0
 11
1165.339118024668
 21
545.7725582547342
 31
0.0
  0
LINE
  5
6AB
330
1F
100
AcDbEntity
  8
0
370
    60
390
F
100
AcDbLine
 10
1188.526679024668
 20
459.1763822547342
 30
0.0
 11
1118.542115024668
 21
457.9547942547342
 31
0.0
  0
LINE
  5
6AC
330
1F
100
AcDbEntity
  8
0
 48
0.012855
370
    60
390
F
100
AcDbLine
 10
1189.040816024668
 20
459.1853542547342
 30
0.0
 11
1188.526679024668
 21
459.1763822547342
 31
0.0
  0
LINE
  5
6AD
330
1F
100
AcDbEntity
  8
0
 48
0.027337
370
    60
390
F
100
AcDbLine
 10
1182.339118024668
 20
630.6700802547342
 30
0.0
 11
1182.339118024668
 21
631.7635562547342
 31
0.0
  0
ARC
  5
6AE
330
1F
100
AcDbEntity
  8
0
370
    60
390
F
100
AcDbCircle
 10
1184.156966024668
 20
637.2635562547342
 30
0.0
 40
5.00000000000002
100
AcDbArc
 50
19.98254199999966
 51
45.92709399999966
  0
ARC
  5
6AF
330
1F
100
AcDbEntity
  8
0
370
    60
390
F
100
AcDbCircle
 10
1184.156966024668
 20
637.2635562547342
 30
0.0
 40
4.999999999999963
100
AcDbArc
 50
45.92709399999899
 51
89.999989999999
  0
ARC
  5
6B0
330
1F
100
AcDbEntity
  8
0
370
    60
390
F
100
AcDbCircle
 10
1175.620994024668
 20
496.5457212547342
 30
0.0
 40
40.00000000000013
100
AcDbArc
 50
292.391281
 51
1.441516000000052
  0
ARC
  5
6B8
330
1F
100
AcDbEntity
  8
0
370
    60
390
F
100
AcDbCircle
 10
1188.225554024668
 20
625.5665652547342
 30
0.0
 40
4.999999999999955
100
AcDbArc
 50
18.37608899999888
 51
88.99999999999886
  0
LINE
  5
6B9
330
1F
100
AcDbEntity
  8
0
 48
0.139196
370
    60
390
F
100
AcDbLine
 10
1184.156966024668
 20
642.2635562547342
 30
0.0
 11
1178.589118024668
 21
642.2635562547342
 31
0.0
  0
ARC
  5
6BA
330
1F
100
AcDbEntity
  8
0
370
    60
390
F
100
AcDbCircle
 10
1178.589118024668
 20
637.2635562547342
 30
0.0
 40
4.999999999999948
100
AcDbArc
 50
90.0000000000026
 51
269.9999910000026
  0
LINE
  5
6BB
330
1F
100
AcDbEntity
  8
0
 48
0.08125
370
    60
390
F
100
AcDbLine
 10
1181.839118024668
 20
632.2635562547342
 30
0.0
 11
1178.589118024668
 21
632.2635562547342
 31
0.0
  0
ARC
  5
6BC
330
1F
100
AcDbEntity
  8
0
370
    60
390
F
100
AcDbCircle
 10
1181.839118024668
 20
631.7635562547342
 30
0.0
 40
0.5
100
AcDbArc
 50
359.9999970000023
 51
90.00000000000233
  0
LINE
  5
6BD
330
1F
100
AcDbEntity
  8
0
 48
0.215904
370
    60
390
F
100
AcDbLine
 10
1182.130034024668
 20
633.7673702547343
 30
0.0
 11
1190.764876024668
 21
633.6166442547342
 31
0.0
  0
ARC
  5
6BE
330
1F
100
AcDbEntity
  8
0
370
    60
390
F
100
AcDbCircle
 10
1181.889113024668
 20
634.2055112547342
 30
0.0
 40
0.5000000000000029
100
AcDbArc
 50
298.8052660000121
 51
89.00000000001207
  0
LINE
  5
6BF
330
1F
100
AcDbEntity
  8
0
 48
0.082731
370
    60
390
F
100
AcDbLine
 10
1178.589110024668
 20
634.7631892547342
 30
0.0
 11
1181.897841024668
 21
634.7054202547342
 31
0.0
  0
ARC
  5
6C0
330
1F
100
AcDbEntity
  8
0
370
    60
390
F
100
AcDbCircle
 10
1178.589118024668
 20
637.2635562547342
 30
0.0
 40
2.500000000000031
100
AcDbArc
 50
90.0000000000052
 51
269.9999910000052
  0
LINE
  5
6C1
330
1F
100
AcDbEntity
  8
0
 48
0.082731
370
    60
390
F
100
AcDbLine
 10
1178.589110024668
 20
639.7639522547342
 30
0.0
 11
1181.897841024668
 21
639.8216922547342
 31
0.0
  0
ARC
  5
6C2
330
1F
100
AcDbEntity
  8
0
370
    60
390
F
100
AcDbCircle
 10
1181.889113024668
 20
640.3216312547343
 30
0.0
 40
0.4999999999998667
100
AcDbArc
 50
271.0000030000267
 51
61.19473900002667
  0
LINE
  5
6C3
330
1F
100
AcDbEntity
  8
0
 48
0.137641
370
    60
390
F
100
AcDbLine
 10
1182.130034024668
 20
640.7597412547342
 30
0.0
 11
1187.634833024668
 21
640.8558412547342
 31
0.0
  0
LINE
  5
6C4
330
1F
100
AcDbEntity
  8
0
 48
0.001091
370
    60
390
F
100
AcDbLine
 10
1178.632750024668
 20
639.7631892547342
 30
0.0
 11
1178.589126024668
 21
639.7639522547342
 31
0.0
  0
ARC
  5
6C5
330
1F
100
AcDbEntity
  8
0
370
    60
390
F
100
AcDbCircle
 10
1178.589118024668
 20
637.2635562547342
 30
0.0
 40
2.500000000000034
100
AcDbArc
 50
271.0000030000004
 51
89.00000000000041
  0
LINE
  5
6C6
330
1F
100
AcDbEntity
  8
0
 48
0.001091
370
    60
390
F
100
AcDbLine
 10
1178.589126024668
 20
634.7631892547342
 30
0.0
 11
1178.632750024668
 21
634.7639522547342
 31
0.0
  0
LINE
  5
6CB
330
1F
100
AcDbEntity
  8
0
 48
0.102591
370
    60
390
F
100
AcDbLine
 10
1165.339118024668
 20
545.7714292547342
 30
0.0
 11
1165.339118024668
 21
541.6677922547342
 31
0.0
  0
LINE
  5
6CC
330
1F
100
AcDbEntity
  8
0
370
    60
390
F
100
AcDbLine
 10
1165.339118024668
 20
541.6677922547342
 30
0.0
 11
1165.339118024668
 21
477.6257082547341
 31
0.0
  0
LINE
  5
6CE
330
1F
100
AcDbEntity
  8
0
 48
0.139926
370
    60
390
F
100
AcDbLine
 10
1118.542115024668
 20
463.5518402547341
 30
0.0
 11
1118.542115024668
 21
457.9547942547342
 31
0.0
  0
LINE
  5
6D0
330
1F
100
AcDbEntity
  8
0
 48
0.068609
370
    60
390
F
100
AcDbLine
 10
1131.742114024668
 20
454.2228452547342
 30
0.0
 11
1131.742118024668
 21
457.3784852547342
 31
0.0
  0
LINE
  5
6D1
330
1F
100
AcDbEntity
  8
0
 48
0.036559
370
    60
390
F
100
AcDbLine
 10
1145.742114024668
 20
456.9672152547342
 30
0.0
 11
1145.742114024668
 21
458.4295712547342
 31
0.0
  0
LINE
  5
6D2
330
1F
100
AcDbEntity
  8
0
 48
0.0625
370
    60
390
F
100
AcDbLine
 10
1145.742114024668
 20
456.9672152547342
 30
0.0
 11
1145.742114024668
 21
454.4672152547342
 31
0.0
  0
LINE
  5
6D5
330
1F
100
AcDbEntity
  8
0
 48
0.054801
370
    60
390
F
100
AcDbLine
 10
1121.030040024668
 20
464.6021332547342
 30
0.0
 11
1118.912705024668
 21
464.0347962547341
 31
0.0
  0
ARC
  5
6D9
330
1F
100
AcDbEntity
  8
0
370
    60
390
F
100
AcDbCircle
 10
1119.042115024668
 20
463.5518402547341
 30
0.0
 40
0.5000000000002475
100
AcDbArc
 50
104.9999879999899
 51
180.0000569999899
  0
ARC
  5
6DD
330
1F
100
AcDbEntity
  8
0
370
    60
390
F
100
AcDbCircle
 10
1188.953551024668
 20
464.1845912547342
 30
0.0
 40
4.999999999999964
100
AcDbArc
 50
271.0000029999978
 51
292.3913219999978
  0
LINE
  5
6EE
330
1F
100
AcDbEntity
  8
0
370
    60
390
F
100
AcDbLine
 10
1121.030040024668
 20
464.6021332547342
 30
0.0
 11
1164.227347024668
 21
476.1768092547342
 31
0.0
  0
ARC
  5
6F0
330
1F
100
AcDbEntity
  8
0
370
    60
390
F
100
AcDbCircle
 10
1163.839118024668
 20
477.6257082547341
 30
0.0
 40
1.500000000000002
100
AcDbArc
 50
285.0000059999984
 51
359.9999969999984
  0
LINE
  5
6F1
330
1F
100
AcDbEntity
  8
0
 48
0.350053
370
    60
390
F
100
AcDbLine
 10
1145.742114024668
 20
454.4672152547342
 30
0.0
 11
1131.742114024668
 21
454.2228452547342
 31
0.0
  0
LINE
  5
6F8
330
1F
100
AcDbEntity
  8
0
 48
0.05
370
    60
390
F
100
AcDbLine
 10
1111.573516024668
 20
603.3412232547341
 30
0.0
 11
1111.573516024668
 21
605.3412232547341
 31
0.0
  0
LINE
  5
6F9
330
1F
100
AcDbEntity
  8
0
370
    60
390
F
100
AcDbLine
 10
1165.339118024668
 20
606.2710022547342
 30
0.0
 11
1111.573516024668
 21
605.3412232547341
 31
0.0
  0
LINE
  5
6FE
330
1F
100
AcDbEntity
  8
0
370
    60
390
F
100
AcDbLine
 10
1098.542492024668
 20
571.1780452547341
 30
0.0
 11
1137.770286024668
 21
571.0411132547342
 31
0.0
  0
LINE
  5
6FF
330
1F
100
AcDbEntity
  8
0
 48
0.087736
370
    60
390
F
100
AcDbLine
 10
1137.770286024668
 20
571.0411132547342
 30
0.0
 11
1141.279723024668
 21
571.0288752547342
 31
0.0
  0
LINE
  5
700
330
1F
100
AcDbEntity
  8
0
 48
0.178913
370
    60
390
F
100
AcDbLine
 10
1148.436213024668
 20
571.0038822547342
 30
0.0
 11
1141.279723024668
 21
571.0288752547342
 31
0.0
  0
LINE
  5
701
330
1F
100
AcDbEntity
  8
0
 48
0.035083
370
    60
390
F
100
AcDbLine
 10
1148.436213024668
 20
571.0038822547342
 30
0.0
 11
1149.839515024668
 21
570.9989682547342
 31
0.0
  0
LINE
  5
702
330
1F
100
AcDbEntity
  8
0
 48
0.375002
370
    60
390
F
100
AcDbLine
 10
1165.339118024668
 20
570.9466312547343
 30
0.0
 11
1149.839515024668
 21
570.9989682547342
 31
0.0
  0
LINE
  5
705
330
1F
100
AcDbEntity
  8
0
 48
0.366803
370
    60
390
F
100
AcDbLine
 10
1098.542492024668
 20
609.8846192547342
 30
0.0
 11
1098.542492024668
 21
624.5567382547341
 31
0.0
  0
LINE
  5
706
330
1F
100
AcDbEntity
  8
0
 48
0.424714
370
    60
390
F
100
AcDbLine
 10
1081.556516024668
 20
609.5881412547341
 30
0.0
 11
1098.542492024668
 21
609.8846192547342
 31
0.0
  0
LINE
  5
707
330
1F
100
AcDbEntity
  8
0
370
    60
390
F
100
AcDbLine
 10
1081.556516024668
 20
609.5881412547341
 30
0.0
 11
1081.556516024668
 21
556.7480222547341
 31
0.0
  0
LINE
  5
709
330
1F
100
AcDbEntity
  8
0
 48
0.03125
370
    60
390
F
100
AcDbLine
 10
1110.323516024668
 20
600.8412232547341
 30
0.0
 11
1111.573516024668
 21
600.8412232547341
 31
0.0
  0
LINE
  5
70A
330
1F
100
AcDbEntity
  8
0
 48
0.0125
370
    60
390
F
100
AcDbLine
 10
1109.823516024668
 20
600.8412232547341
 30
0.0
 11
1110.323516024668
 21
600.8412232547341
 31
0.0
  0
LINE
  5
70B
330
1F
100
AcDbEntity
  8
0
 48
0.0625
370
    60
390
F
100
AcDbLine
 10
1111.573516024668
 20
603.3412232547341
 30
0.0
 11
1111.573516024668
 21
600.8412232547341
 31
0.0
  0
LINE
  5
712
330
1F
100
AcDbEntity
  8
0
 48
0.185555
370
    60
390
F
100
AcDbLine
 10
1149.839515024668
 20
570.9989682547342
 30
0.0
 11
1149.839515024668
 21
563.5767582547342
 31
0.0
  0
LINE
  5
713
330
1F
100
AcDbEntity
  8
0
 48
0.233108
370
    60
390
F
100
AcDbLine
 10
1149.839515024668
 20
487.5767582547342
 30
0.0
 11
1149.839515024668
 21
478.2524322547342
 31
0.0
  0
LINE
  5
714
330
1F
100
AcDbEntity
  8
0
370
    60
390
F
100
AcDbLine
 10
1149.839515024668
 20
487.5767582547342
 30
0.0
 11
1149.839515024668
 21
563.5767582547342
 31
0.0
  0
LINE
  5
716
330
1F
100
AcDbEntity
  8
0
 48
0.035083
370
    60
390
F
100
AcDbLine
 10
1148.436213024668
 20
567.6257082547341
 30
0.0
 11
1149.839515024668
 21
567.6257082547341
 31
0.0
  0
LINE
  5
718
330
1F
100
AcDbEntity
  8
0
 48
0.178912
370
    60
390
F
100
AcDbLine
 10
1148.436213024668
 20
567.6257082547341
 30
0.0
 11
1141.279723024668
 21
567.6257082547341
 31
0.0
  0
LINE
  5
719
330
1F
100
AcDbEntity
  8
0
 48
0.085385
370
    60
390
F
100
AcDbLine
 10
1137.770286024668
 20
571.0411132547342
 30
0.0
 11
1137.770286024668
 21
567.6257082547341
 31
0.0
  0
LINE
  5
71A
330
1F
100
AcDbEntity
  8
0
 48
0.087736
370
    60
390
F
100
AcDbLine
 10
1141.279723024668
 20
567.6257082547341
 30
0.0
 11
1137.770286024668
 21
567.6257082547341
 31
0.0
  0
LINE
  5
71B
330
1F
100
AcDbEntity
  8
0
370
    60
390
F
100
AcDbLine
 10
1098.542492024668
 20
464.4984652547342
 30
0.0
 11
1098.542492024668
 21
571.1780452547341
 31
0.0
  0
LINE
  5
720
330
1F
100
AcDbEntity
  8
0
 48
0.085385
370
    60
390
F
100
AcDbLine
 10
1137.770286024668
 20
481.6257082547341
 30
0.0
 11
1137.770286024668
 21
478.2103032547342
 31
0.0
  0
LINE
  5
721
330
1F
100
AcDbEntity
  8
0
 48
0.154864
370
    60
390
F
100
AcDbLine
 10
1098.542492024668
 20
458.3039002547342
 30
0.0
 11
1098.542492024668
 21
464.4984652547342
 31
0.0
  0
LINE
  5
723
330
1F
100
AcDbEntity
  8
0
 48
0.04375
370
    60
390
F
100
AcDbLine
 10
1108.573516024668
 20
603.3412232547341
 30
0.0
 11
1110.323516024668
 21
603.3412232547341
 31
0.0
  0
LINE
  5
725
330
1F
100
AcDbEntity
  8
0
370
    60
390
F
100
AcDbLine
 10
1109.823516024668
 20
571.1386472547341
 30
0.0
 11
1109.823516024668
 21
600.8412232547341
 31
0.0
  0
LINE
  5
726
330
1F
100
AcDbEntity
  8
0
 48
0.0625
370
    60
390
F
100
AcDbLine
 10
1106.073516024668
 20
603.3412232547341
 30
0.0
 11
1108.573516024668
 21
603.3412232547341
 31
0.0
  0
LINE
  5
727
330
1F
100
AcDbEntity
  8
0
370
    60
390
F
100
AcDbLine
 10
1106.073516024668
 20
571.1517392547341
 30
0.0
 11
1106.073516024668
 21
603.3412232547341
 31
0.0
  0
LINE
  5
728
330
1F
100
AcDbEntity
  8
0
 48
0.03125
370
    60
390
F
100
AcDbLine
 10
1110.323516024668
 20
603.3412232547341
 30
0.0
 11
1111.573516024668
 21
603.3412232547341
 31
0.0
  0
LINE
  5
72A
330
1F
100
AcDbEntity
  8
0
370
    60
390
F
100
AcDbLine
 10
1098.542492024668
 20
629.8096072547341
 30
0.0
 11
1167.151322597252
 21
630.9033278698
 31
0.0
  0
LINE
  5
72B
330
1F
100
AcDbEntity
  8
0
 48
0.131322
370
    60
390
F
100
AcDbLine
 10
1098.542492024668
 20
624.5567382547341
 30
0.0
 11
1098.542492024668
 21
629.8096072547341
 31
0.0
  0
LINE
  5
72C
330
1F
100
AcDbEntity
  8
0
 48
0.06749
370
    60
390
F
100
AcDbLine
 10
1081.556516024668
 20
612.2877262547341
 30
0.0
 11
1081.556516024668
 21
609.5881412547341
 31
0.0
  0
LINE
  5
72E
330
1F
100
AcDbEntity
  8
0
 48
0.06749
370
    60
390
F
100
AcDbLine
 10
1081.556516024668
 20
626.8135132547341
 30
0.0
 11
1081.556516024668
 21
629.5131282547342
 31
0.0
  0
LINE
  5
72F
330
1F
100
AcDbEntity
  8
0
 48
0.325645
370
    60
390
F
100
AcDbLine
 10
1081.556516024668
 20
613.7877262547341
 30
0.0
 11
1081.556516024668
 21
626.8135132547341
 31
0.0
  0
LINE
  5
730
330
1F
100
AcDbEntity
  8
0
 48
0.0375
370
    60
390
F
100
AcDbLine
 10
1081.556516024668
 20
613.7877262547341
 30
0.0
 11
1081.556516024668
 21
612.2877262547341
 31
0.0
  0
LINE
  5
731
330
1F
100
AcDbEntity
  8
0
 48
0.0675
370
    60
390
F
100
AcDbLine
 10
1081.556516024668
 20
554.0480412547341
 30
0.0
 11
1081.556516024668
 21
556.7480222547341
 31
0.0
  0
LINE
  5
732
330
1F
100
AcDbEntity
  8
0
 48
0.423435
370
    60
390
F
100
AcDbLine
 10
1081.556516024668
 20
554.0480412547341
 30
0.0
 11
1098.483605024668
 21
553.4569152547341
 31
0.0
  0
LINE
  5
737
330
1F
100
AcDbEntity
  8
0
 48
0.035083
370
    60
390
F
100
AcDbLine
 10
1149.839515024668
 20
481.6257082547341
 30
0.0
 11
1148.436213024668
 21
481.6257082547341
 31
0.0
  0
LINE
  5
738
330
1F
100
AcDbEntity
  8
0
 48
0.087736
370
    60
390
F
100
AcDbLine
 10
1141.279723024668
 20
481.6257082547341
 30
0.0
 11
1137.770286024668
 21
481.6257082547341
 31
0.0
  0
LINE
  5
739
330
1F
100
AcDbEntity
  8
0
 48
0.178912
370
    60
390
F
100
AcDbLine
 10
1148.436213024668
 20
481.6257082547341
 30
0.0
 11
1141.279723024668
 21
481.6257082547341
 31
0.0
  0
LINE
  5
73A
330
1F
100
AcDbEntity
  8
0
 48
0.035083
370
    60
390
F
100
AcDbLine
 10
1149.839515024668
 20
478.2524322547342
 30
0.0
 11
1148.436213024668
 21
478.2475342547341
 31
0.0
  0
LINE
  5
73B
330
1F
100
AcDbEntity
  8
0
 48
0.178913
370
    60
390
F
100
AcDbLine
 10
1148.436213024668
 20
478.2475342547341
 30
0.0
 11
1141.279723024668
 21
478.2225552547342
 31
0.0
  0
LINE
  5
73C
330
1F
100
AcDbEntity
  8
0
 48
0.087736
370
    60
390
F
100
AcDbLine
 10
1141.279723024668
 20
478.2225552547342
 30
0.0
 11
1137.770286024668
 21
478.2103032547342
 31
0.0
  0
LINE
  5
740
330
1F
100
AcDbEntity
  8
0
370
    60
390
F
100
AcDbLine
 10
1098.542492024668
 20
458.3039002547342
 30
0.0
 11
1118.542516024668
 21
457.9547942547342
 31
0.0
  0
LINE
  5
742
330
1F
100
AcDbEntity
  8
0
 48
0.001473
370
    60
390
F
100
AcDbLine
 10
1098.542494024668
 20
553.4548702547341
 30
0.0
 11
1098.483605024668
 21
553.4569152547341
 31
0.0
  0
LINE
  5
743
330
1F
100
AcDbEntity
  8
0
 48
0.424714
370
    60
390
F
100
AcDbLine
 10
1081.556516024668
 20
629.5131282547342
 30
0.0
 11
1098.542492024668
 21
629.8096072547341
 31
0.0
  0
LINE
  5
748
330
1F
100
AcDbEntity
  8
0
 48
0.147942
370
    60
390
F
100
AcDbLine
 10
1078.056516024668
 20
564.5427612547342
 30
0.0
 11
1078.056516024668
 21
570.4604552547341
 31
0.0
  0
LINE
  5
749
330
1F
100
AcDbEntity
  8
0
 48
0.052058
370
    60
390
F
100
AcDbLine
 10
1078.056516024668
 20
562.4604552547341
 30
0.0
 11
1078.056516024668
 21
564.5427612547342
 31
0.0
  0
LINE
  5
74B
330
1F
100
AcDbEntity
  8
0
 48
0.330304
370
    60
390
F
100
AcDbLine
 10
1118.542516024668
 20
457.9547942547342
 30
0.0
 11
1131.742118024668
 21
457.3784852547342
 31
0.0
  0
LINE
  5
750
330
1F
100
AcDbEntity
  8
0
 48
0.061116
370
    60
390
F
100
AcDbLine
 10
1158.542514024668
 20
458.6529902547342
 30
0.0
 11
1158.542514024668
 21
456.2083652547342
 31
0.0
  0
LINE
  5
751
330
1F
100
AcDbEntity
  8
0
 48
0.215331
370
    60
390
F
100
AcDbLine
 10
1100.542492024668
 20
449.6557222547342
 30
0.0
 11
1100.542492024668
 21
458.2689422547342
 31
0.0
  0
LINE
  5
752
330
1F
100
AcDbEntity
  8
0
 48
0.124981
370
    60
390
F
100
AcDbLine
 10
1100.542492024668
 20
444.6564692547342
 30
0.0
 11
1100.542492024668
 21
449.6557222547342
 31
0.0
  0
LINE
  5
753
330
1F
100
AcDbEntity
  8
0
 48
0.239282
370
    60
390
F
100
AcDbLine
 10
1110.112311024668
 20
449.8227602547342
 30
0.0
 11
1100.542492024668
 21
449.6557222547342
 31
0.0
  0
LINE
  5
754
330
1F
100
AcDbEntity
  8
0
 48
0.206978
370
    60
390
F
100
AcDbLine
 10
1110.112311024668
 20
449.8227602547342
 30
0.0
 11
1110.112311024668
 21
458.1018892547341
 31
0.0
  0
LINE
  5
756
330
1F
100
AcDbEntity
  8
0
370
    60
390
F
100
AcDbLine
 10
1135.191005024668
 20
630.4493162547341
 30
0.0
 11
1171.839515024668
 21
640.6318722547343
 31
0.0
  0
LINE
  5
757
330
1F
100
AcDbEntity
  8
0
 48
0.075192
370
    60
390
F
100
AcDbLine
 10
1174.846755024668
 20
640.5793822547342
 30
0.0
 11
1171.839515024668
 21
640.6318722547343
 31
0.0
  0
LINE
  5
758
330
1F
100
AcDbEntity
  8
0
 48
0.014247
370
    60
390
F
100
AcDbLine
 10
1110.112311024668
 20
444.8235232547342
 30
0.0
 11
1110.682120024668
 21
444.8334712547341
 31
0.0
  0
LINE
  5
759
330
1F
100
AcDbEntity
  8
0
 48
0.239282
370
    60
390
F
100
AcDbLine
 10
1110.112311024668
 20
444.8235232547342
 30
0.0
 11
1100.542492024668
 21
444.6564692547342
 31
0.0
  0
LINE
  5
75A
330
1F
100
AcDbEntity
  8
0
 48
0.147942
370
    60
390
F
100
AcDbLine
 10
1098.542492024668
 20
542.6764282547341
 30
0.0
 11
1098.542492024668
 21
536.7587342547341
 31
0.0
  0
LINE
  5
75B
330
1F
100
AcDbEntity
  8
0
 48
0.052058
370
    60
390
F
100
AcDbLine
 10
1098.542492024668
 20
544.7587342547341
 30
0.0
 11
1098.542492024668
 21
542.6764282547341
 31
0.0
  0
LINE
  5
75C
330
1F
100
AcDbEntity
  8
0
 48
0.124899
370
    60
390
F
100
AcDbLine
 10
1110.112311024668
 20
444.8267882547342
 30
0.0
 11
1110.112311024668
 21
449.8227602547342
 31
0.0
  0
ARC
  5
75D
330
1F
100
AcDbEntity
  8
0
370
    60
390
F
100
AcDbCircle
 10
1110.612311024668
 20
448.8328612547342
 30
0.0
 40
4.000000000000005
100
AcDbArc
 50
271.0000030000004
 51
359.9999970000004
  0
LINE
  5
75E
330
1F
100
AcDbEntity
  8
0
 48
0.229762
370
    60
390
F
100
AcDbLine
 10
1114.612311024668
 20
448.8328612547342
 30
0.0
 11
1114.612311024668
 21
458.0233522547342
 31
0.0
  0
LINE
  5
762
330
1F
100
AcDbEntity
  8
0
 48
0.375002
370
    60
390
F
100
AcDbLine
 10
1165.339118024668
 20
478.3047852547342
 30
0.0
 11
1149.839515024668
 21
478.2524322547342
 31
0.0
  0
LINE
  5
763
330
1F
100
AcDbEntity
  8
0
 48
0.087513
370
    60
390
F
100
AcDbLine
 10
1078.056516024668
 20
570.4604552547341
 30
0.0
 11
1081.556516024668
 21
570.5215512547342
 31
0.0
  0
LINE
  5
764
330
1F
100
AcDbEntity
  8
0
 48
0.087513
370
    60
390
F
100
AcDbLine
 10
1078.056516024668
 20
562.4604552547341
 30
0.0
 11
1081.556516024668
 21
562.3993592547341
 31
0.0
  0
LINE
  5
765
330
1F
100
AcDbEntity
  8
0
 48
0.087513
370
    60
390
F
100
AcDbLine
 10
1078.056516024668
 20
570.4604552547341
 30
0.0
 11
1081.556516024668
 21
570.5215512547342
 31
0.0
  0
LINE
  5
768
330
1F
100
AcDbEntity
  8
0
370
    60
390
F
100
AcDbLine
 10
1135.191005024668
 20
630.4493162547341
 30
0.0
 11
1171.839515024668
 21
640.6318722547343
 31
0.0
  0
LINE
  5
769
330
1F
100
AcDbEntity
  8
0
 48
0.075188
370
    60
390
F
100
AcDbLine
 10
1171.839515024668
 20
640.6318722547343
 30
0.0
 11
1174.846564024668
 21
640.5793822547342
 31
0.0
  0
LINE
  5
771
330
1F
100
AcDbEntity
  8
0
 48
0.025
370
    60
390
F
100
AcDbLine
 10
1146.042514024668
 20
452.4210872547342
 30
0.0
 11
1145.742114024668
 21
454.4672152547342
 31
0.0
  0
LINE
  5
772
330
1F
100
AcDbEntity
  8
0
 48
0.0625
370
    60
390
F
100
AcDbLine
 10
1148.542514024668
 20
452.4210872547342
 30
0.0
 11
1146.042514024668
 21
452.4210872547342
 31
0.0
  0
LINE
  5
774
330
1F
100
AcDbEntity
  8
0
 48
0.267329
370
    60
390
F
100
AcDbLine
 10
1158.542514024668
 20
456.2083652547342
 30
0.0
 11
1148.542514024668
 21
452.4210872547342
 31
0.0
  0
LINE
  5
7CB
330
1F
100
AcDbEntity
  8
0
370
    60
100
AcDbLine
 10
857.0237453209836
 20
497.4081052617444
 30
0.0
 11
862.6214011097939
 21
497.5544933092662
 31
0.0
  0
DIMENSION
  5
7F3
330
1F
100
AcDbEntity
  8
0
370
    25
100
AcDbDimension
  2
*D42
 10
962.8561124780879
 20
672.9142375634842
 30
0.0
 11
822.8590145615526
 21
699.1284107918307
 31
0.0
 70
   160
 71
     5
 41
2.5
 42
279.9941958330706
  3
Standard
100
AcDbAlignedDimension
 13
682.8619166450172
 23
485.8846474857474
 33
0.0
 14
962.8561124780879
 24
487.5708222547342
 34
0.0
100
AcDbRotatedDimension
1001
ACAD
1000
DSTYLE
1002
{
1070
    41
1040
10.0
1070
   140
1040
36.0
1070
   147
1040
10.0
1070
   176
1070
     7
1070
   177
1070
     7
1070
   271
1070
     0
1002
}
  0
DIMENSION
  5
862
330
1F
100
AcDbEntity
  8
0
370
    60
100
AcDbDimension
  2
*D44
 10
1014.698771017053
 20
417.4607302547342
 30
0.0
 11
988.4987710170528
 21
529.8621432547342
 31
0.0
 70
   160
 71
     5
 41
2.5
 42
224.8028259999999
  3
Standard
100
AcDbAlignedDimension
 13
856.6371404780879
 23
642.2635562547341
 33
0.0
 14
824.3733467727674
 24
417.4607302547342
 34
0.0
 50
90.0
100
AcDbRotatedDimension
1001
ACAD
1000
DSTYLE
1002
{
1070
    41
1040
10.0
1070
   140
1040
36.0
1070
   147
1040
10.0
1070
   176
1070
     7
1070
   177
1070
     7
1070
   271
1070
     0
1002
}
  0
DIMENSION
  5
8A5
330
1F
100
AcDbEntity
  8
0
370
    25
100
AcDbDimension
  2
*D47
 10
1215.608334985123
 20
672.9142375634842
 30
0.0
 11
1141.417048265765
 21
699.1142375634843
 31
0.0
 70
   160
 71
     5
 41
2.5
 42
137.551818960455
  3
Standard
100
AcDbAlignedDimension
 13
1078.056516024668
 23
567.5016082547342
 33
0.0
 14
1215.608334985123
 24
497.5519831055303
 34
0.0
100
AcDbRotatedDimension
1001
ACAD
1000
DSTYLE
1002
{
1070
    41
1040
10.0
1070
   140
1040
36.0
1070
   147
1040
10.0
1070
   176
1070
     7
1070
   177
1070
     7
1070
   271
1070
     0
1002
}
  0
VIEWPORT
  5
5E2
330
73
100
AcDbEntity
 67
     1
  8
0
 62
     0
370
     0
390
F
100
AcDbViewport
 10
0.0
 20
0.0
 30
0.0
 40
1000.0
 41
1000.0
 68
     1
 69
     1
 12
0.0
 22
0.0
 13
0.0
 23
0.0
 14
1.0
 24
1.0
 15
1.0
 25
1.0
 16
0.0
 26
0.0
 36
1.0
 17
0.0
 27
0.0
 37
0.0
 42
50.0
 43
0.0
 44
0.0
 45
1000.0
 50
0.0
 51
0.0
 72
   100
 90
   557056
  1

281
     0
 71
     0
 74
     0
110
0.0
120
0.0
130
0.0
111
1.0
121
0.0
131
0.0
112
0.0
122
1.0
132
0.0
 79
     0
146
0.0
170
     0
  0
ENDSEC
  0
SECTION
  2
OBJECTS
  0
DICTIONARY
  5
C
330
0
100
AcDbDictionary
281
     1
  3
ACAD_COLOR
350
6C
  3
ACAD_GROUP
350
D
  3
ACAD_LAYOUT
350
1A
  3
ACAD_MATERIAL
350
6B
  3
ACAD_MLEADERSTYLE
350
7BD
  3
ACAD_MLINESTYLE
350
17
  3
ACAD_PLOTSETTINGS
350
19
  3
ACAD_PLOTSTYLENAME
350
E
  3
ACAD_SCALELIST
350
99
  3
ACAD_TABLESTYLE
350
92
  3
ACAD_WIPEOUT_VARS
350
A51
  3
AcDbVariableDictionary
350
59
  0
DICTIONARY
  5
6C
102
{ACAD_REACTORS
330
C
102
}
330
C
100
AcDbDictionary
281
     1
  0
DICTIONARY
  5
D
102
{ACAD_REACTORS
330
C
102
}
330
C
100
AcDbDictionary
281
     1
  0
DICTIONARY
  5
1A
102
{ACAD_REACTORS
330
C
102
}
330
C
100
AcDbDictionary
281
     1
  3
Layout1
350
74
  3
Model
350
22
  0
DICTIONARY
  5
6B
102
{ACAD_REACTORS
330
C
102
}
330
C
100
AcDbDictionary
281
     1
  0
DICTIONARY
  5
7BD
102
{ACAD_REACTORS
330
C
102
}
330
C
100
AcDbDictionary
281
     1
  0
DICTIONARY
  5
17
102
{ACAD_REACTORS
330
C
102
}
330
C
100
AcDbDictionary
281
     1
  3
Standard
350
18
  0
DICTIONARY
  5
19
102
{ACAD_REACTORS
330
C
102
}
330
C
100
AcDbDictionary
281
     1
  0
ACDBDICTIONARYWDFLT
  5
E
102
{ACAD_REACTORS
330
C
102
}
330
C
100
AcDbDictionary
281
     1
  3
Normal
350
F
100
AcDbDictionaryWithDefault
340
F
  0
DICTIONARY
  5
99
102
{ACAD_REACTORS
330
C
102
}
330
C
100
AcDbDictionary
281
     1
  3
A0
350
65C
  3
A1
350
65D
  3
A2
350
65E
  3
A3
350
65F
  3
A4
350
660
  3
A5
350
661
  3
A6
350
662
  3
A7
350
663
  3
A8
350
664
  3
A9
350
665
  3
B0
350
666
  3
B1
350
667
  3
B2
350
668
  3
B3
350
669
  3
B4
350
66A
  3
B5
350
66B
  3
B6
350
66C
  3
B7
350
66D
  3
B8
350
66E
  3
B9
350
66F
  3
C0
350
670
  3
C1
350
671
  3
C2
350
672
  3
C3
350
673
  3
C4
350
674
  3
C5
350
675
  3
C6
350
676
  3
C7
350
677
  3
C8
350
678
  3
C9
350
679
  3
D0
350
67A
  3
D1
350
67B
  3
D2
350
67C
  0
DICTIONARY
  5
92
102
{ACAD_REACTORS
330
C
102
}
330
C
100
AcDbDictionary
281
     1
  3
Standard
350
A50
  0
WIPEOUTVARIABLES
  5
A51
102
{ACAD_REACTORS
330
C
102
}
330
C
100
AcDbWipeoutVariables
 70
     1
  0
DICTIONARY
  5
59
102
{ACAD_REACTORS
330
C
102
}
330
C
100
AcDbDictionary
281
     1
  3
CTABLESTYLE
350
A52
  3
DIMASSOC
350
5A
  3
HIDETEXT
350
5E
  0
LAYOUT
  5
74
102
{ACAD_REACTORS
330
1A
102
}
330
1A
100
AcDbPlotSettings
  1

  2
none_device
  4
none_user_media
  6

 40
0.0
 41
0.0
 42
0.0
 43
0.0
 44
0.0
 45
0.0
 46
0.0
 47
0.0
 48
0.0
 49
0.0
140
0.0
141
0.0
142
1.0
143
1.0
 70
   544
 72
     0
 73
     0
 74
     0
  7

 75
    16
 76
     0
 77
     2
 78
   300
147
1.0
148
0.0
149
0.0
100
AcDbLayout
  1
Layout1
 70
     1
 71
     0
 10
0.0
 20
0.0
 11
420.0
 21
297.0
 12
0.0
 22
0.0
 32
0.0
 14
0.0
 24
0.0
 34
0.0
 15
361.953827
 25
137.496246
 35
2.0
146
0.0
 13
0.0
 23
0.0
 33
0.0
 16
1.0
 26
0.0
 36
0.0
 17
0.0
 27
1.0
 37
0.0
 76
     0
330
73
331
5E2
  0
LAYOUT
  5
22
102
{ACAD_REACTORS
330
1A
102
}
330
1A
100
AcDbPlotSettings
  1

  2
none_device
  4
none_user_media
  6

 40
6.349999904632568
 41
6.349999904632568
 42
6.350006103515625
 43
6.350006103515625
 44
215.8999938964844
 45
279.3999938964844
 46
0.0
 47
0.0
 48
0.0
 49
0.0
140
0.0
141
0.0
142
1.0
143
1.0
 70
 11936
 72
     0
 73
     0
 74
     0
  7

 75
     0
 76
     0
 77
     2
 78
   300
147
0.3344606709050603
148
0.0
149
0.0
100
AcDbLayout
  1
Model
 70
     1
 71
     0
 10
0.0
 20
0.0
 11
420.0
 21
297.0
 12
0.0
 22
0.0
 32
0.0
 14
682.8619104780879
 24
263.9606265517252
 34
0.0
 15
1215.620994024668
 25
714.4425840201772
 35
0.0
146
0.0
 13
0.0
 23
0.0
 33
0.0
 16
1.0
 26
0.0
 36
0.0
 17
0.0
 27
1.0
 37
0.0
 76
     0
330
1F
331
97
  0
MLINESTYLE
  5
18
102
{ACAD_REACTORS
330
17
102
}
330
17
100
AcDbMlineStyle
  2
Standard
 70
     0
  3

 62
     0
 51
90.0
 52
90.0
 71
     2
 49
0.5
 62
   256
  6
BYLAYER
 49
-0.5
 62
   256
  6
BYLAYER
  0
ACDBPLACEHOLDER
  5
F
102
{ACAD_REACTORS
330
E
102
}
330
E
  0
SCALE
  5
65C
102
{ACAD_REACTORS
330
99
102
}
330
99
100
AcDbScale
 70
     0
300
1:1
140
1.0
141
1.0
290
     1
  0
SCALE
  5
65D
102
{ACAD_REACTORS
330
99
102
}
330
99
100
AcDbScale
 70
     0
300
1:2
140
1.0
141
2.0
290
     0
  0
SCALE
  5
65E
102
{ACAD_REACTORS
330
99
102
}
330
99
100
AcDbScale
 70
     0
300
1:4
140
1.0
141
4.0
290
     0
  0
SCALE
  5
65F
102
{ACAD_REACTORS
330
99
102
}
330
99
100
AcDbScale
 70
     0
300
1:5
140
1.0
141
5.0
290
     0
  0
SCALE
  5
660
102
{ACAD_REACTORS
330
99
102
}
330
99
100
AcDbScale
 70
     0
300
1:8
140
1.0
141
8.0
290
     0
  0
SCALE
  5
661
102
{ACAD_REACTORS
330
99
102
}
330
99
100
AcDbScale
 70
     0
300
1:10
140
1.0
141
10.0
290
     0
  0
SCALE
  5
662
102
{ACAD_REACTORS
330
99
102
}
330
99
100
AcDbScale
 70
     0
300
1:16
140
1.0
141
16.0
290
     0
  0
SCALE
  5
663
102
{ACAD_REACTORS
330
99
102
}
330
99
100
AcDbScale
 70
     0
300
1:20
140
1.0
141
20.0
290
     0
  0
SCALE
  5
664
102
{ACAD_REACTORS
330
99
102
}
330
99
100
AcDbScale
 70
     0
300
1:30
140
1.0
141
30.0
290
     0
  0
SCALE
  5
665
102
{ACAD_REACTORS
330
99
102
}
330
99
100
AcDbScale
 70
     0
300
1:40
140
1.0
141
40.0
290
     0
  0
SCALE
  5
666
102
{ACAD_REACTORS
330
99
102
}
330
99
100
AcDbScale
 70
     0
300
1:50
140
1.0
141
50.0
290
     0
  0
SCALE
  5
667
102
{ACAD_REACTORS
330
99
102
}
330
99
100
AcDbScale
 70
     0
300
1:100
140
1.0
141
100.0
290
     0
  0
SCALE
  5
668
102
{ACAD_REACTORS
330
99
102
}
330
99
100
AcDbScale
 70
     0
300
2:1
140
2.0
141
1.0
290
     0
  0
SCALE
  5
669
102
{ACAD_REACTORS
330
99
102
}
330
99
100
AcDbScale
 70
     0
300
4:1
140
4.0
141
1.0
290
     0
  0
SCALE
  5
66A
102
{ACAD_REACTORS
330
99
102
}
330
99
100
AcDbScale
 70
     0
300
8:1
140
8.0
141
1.0
290
     0
  0
SCALE
  5
66B
102
{ACAD_REACTORS
330
99
102
}
330
99
100
AcDbScale
 70
     0
300
10:1
140
10.0
141
1.0
290
     0
  0
SCALE
  5
66C
102
{ACAD_REACTORS
330
99
102
}
330
99
100
AcDbScale
 70
     0
300
100:1
140
100.0
141
1.0
290
     0
  0
SCALE
  5
66D
102
{ACAD_REACTORS
330
99
102
}
330
99
100
AcDbScale
 70
     0
300
1/128" = 1'-0"
140
0.0078125
141
12.0
290
     0
  0
SCALE
  5
66E
102
{ACAD_REACTORS
330
99
102
}
330
99
100
AcDbScale
 70
     0
300
1/64" = 1'-0"
140
0.015625
141
12.0
290
     0
  0
SCALE
  5
66F
102
{ACAD_REACTORS
330
99
102
}
330
99
100
AcDbScale
 70
     0
300
1/32" = 1'-0"
140
0.03125
141
12.0
290
     0
  0
SCALE
  5
670
102
{ACAD_REACTORS
330
99
102
}
330
99
100
AcDbScale
 70
     0
300
1/16" = 1'-0"
140
0.0625
141
12.0
290
     0
  0
SCALE
  5
671
102
{ACAD_REACTORS
330
99
102
}
330
99
100
AcDbScale
 70
     0
300
3/32" = 1'-0"
140
0.09375
141
12.0
290
     0
  0
SCALE
  5
672
102
{ACAD_REACTORS
330
99
102
}
330
99
100
AcDbScale
 70
     0
300
1/8" = 1'-0"
140
0.125
141
12.0
290
     0
  0
SCALE
  5
673
102
{ACAD_REACTORS
330
99
102
}
330
99
100
AcDbScale
 70
     0
300
3/16" = 1'-0"
140
0.1875
141
12.0
290
     0
  0
SCALE
  5
674
102
{ACAD_REACTORS
330
99
102
}
330
99
100
AcDbScale
 70
     0
300
1/4" = 1'-0"
140
0.25
141
12.0
290
     0
  0
SCALE
  5
675
102
{ACAD_REACTORS
330
99
102
}
330
99
100
AcDbScale
 70
     0
300
3/8" = 1'-0"
140
0.375
141
12.0
290
     0
  0
SCALE
  5
676
102
{ACAD_REACTORS
330
99
102
}
330
99
100
AcDbScale
 70
     0
300
1/2" = 1'-0"
140
0.5
141
12.0
290
     0
  0
SCALE
  5
677
102
{ACAD_REACTORS
330
99
102
}
330
99
100
AcDbScale
 70
     0
300
3/4" = 1'-0"
140
0.75
141
12.0
290
     0
  0
SCALE
  5
678
102
{ACAD_REACTORS
330
99
102
}
330
99
100
AcDbScale
 70
     0
300
1" = 1'-0"
140
1.0
141
12.0
290
     0
  0
SCALE
  5
679
102
{ACAD_REACTORS
330
99
102
}
330
99
100
AcDbScale
 70
     0
300
1-1/2" = 1'-0"
140
1.5
141
12.0
290
     0
  0
SCALE
  5
67A
102
{ACAD_REACTORS
330
99
102
}
330
99
100
AcDbScale
 70
     0
300
3" = 1'-0"
140
3.0
141
12.0
290
     0
  0
SCALE
  5
67B
102
{ACAD_REACTORS
330
99
102
}
330
99
100
AcDbScale
 70
     0
300
6" = 1'-0"
140
6.0
141
12.0
290
     0
  0
SCALE
  5
67C
102
{ACAD_REACTORS
330
99
102
}
330
99
100
AcDbScale
 70
     0
300
1'-0" = 1'-0"
140
12.0
141
12.0
290
     0
  0
TABLESTYLE
  5
A50
102
{ACAD_REACTORS
330
92
102
}
102
{ACAD_XDICTIONARY
360
AB3
102
}
330
92
100
AcDbTableStyle
  3
Standard
 70
     0
 71
     0
 40
0.06
 41
0.06
280
     0
281
     0
  7
Standard
140
0.18
170
     2
 62
     0
 63
     7
283
     0
274
    -2
284
     1
 64
     0
275
    -2
285
     1
 65
     0
276
    -2
286
     1
 66
     0
277
    -2
287
     1
 67
     0
278
    -2
288
     1
 68
     0
279
    -2
289
     1
 69
     0
  7
Standard
140
0.25
170
     5
 62
     0
 63
     7
283
     0
274
    -2
284
     1
 64
     0
275
    -2
285
     1
 65
     0
276
    -2
286
     1
 66
     0
277
    -2
287
     1
 67
     0
278
    -2
288
     1
 68
     0
279
    -2
289
     1
 69
     0
  7
Standard
140
0.18
170
     5
 62
     0
 63
     7
283
     0
274
    -2
284
     1
 64
     0
275
    -2
285
     1
 65
     0
276
    -2
286
     1
 66
     0
277
    -2
287
     1
 67
     0
278
    -2
288
     1
 68
     0
279
    -2
289
     1
 69
     0
  0
DICTIONARYVAR
  5
A52
102
{ACAD_REACTORS
330
59
102
}
330
59
100
DictionaryVariables
280
     0
  1
Standard
  0
DICTIONARYVAR
  5
5A
102
{ACAD_REACTORS
330
59
102
}
330
59
100
DictionaryVariables
280
     0
  1
2
  0
DICTIONARYVAR
  5
5E
102
{ACAD_REACTORS
330
59
102
}
330
59
100
DictionaryVariables
280
     0
  1
1
  0
DICTIONARY
  5
AB3
330
A50
100
AcDbDictionary
280
     1
281
     1
  3
ACAD_XREC_ROUNDTRIP
360
AB4
  0
XRECORD
  5
AB4
102
{ACAD_REACTORS
330
AB3
102
}
330
AB3
100
AcDbXrecord
280
     1
102
ACAD_ROUNDTRIP_PRE2007_TABLESTYLE
 90
      512
 91
        0
  1

 92
      512
 93
        0
  2

 94
      512
 95
        0
  3

  0
ENDSEC
  0
EOF
