  0
SECTION
  2
HEADER
  9
$ACADVER
  1
AC1018
  9
$ACADMAINTVER
 70
     0
  9
$DWGCODEPAGE
  3
ANSI_1252
  9
$LASTSAVEDBY
  1
BelottiMc
  9
$INSBASE
 10
0.0
 20
0.0
 30
0.0
  9
$EXTMIN
 10
2790.796062268048
 20
0.510895
 30
0.0
  9
$EXTMAX
 10
3290.433838
 20
318.7417933868854
 30
0.0
  9
$LIMMIN
 10
0.0
 20
0.0
  9
$LIMMAX
 10
420.0
 20
297.0
  9
$ORTHOMODE
 70
     0
  9
$REGENMODE
 70
     1
  9
$FILLMODE
 70
     1
  9
$QTEXTMODE
 70
     0
  9
$MIRRTEXT
 70
     1
  9
$LTSCALE
 40
1.0
  9
$ATTMODE
 70
     1
  9
$TEXTSIZE
 40
2.5
  9
$TRACEWID
 40
1.0
  9
$TEXTSTYLE
  7
Standard
  9
$CLAYER
  8
0
  9
$CELTYPE
  6
ByLayer
  9
$CECOLOR
 62
   256
  9
$CELTSCALE
 40
1.0
  9
$DISPSILH
 70
     0
  9
$DIMSCALE
 40
1.0
  9
$DIMASZ
 40
2.5
  9
$DIMEXO
 40
0.625
  9
$DIMDLI
 40
3.75
  9
$DIMRND
 40
0.0
  9
$DIMDLE
 40
0.0
  9
$DIMEXE
 40
1.25
  9
$DIMTP
 40
0.0
  9
$DIMTM
 40
0.0
  9
$DIMTXT
 40
2.5
  9
$DIMCEN
 40
2.5
  9
$DIMTSZ
 40
0.0
  9
$DIMTOL
 70
     0
  9
$DIMLIM
 70
     0
  9
$DIMTIH
 70
     0
  9
$DIMTOH
 70
     0
  9
$DIMSE1
 70
     0
  9
$DIMSE2
 70
     0
  9
$DIMTAD
 70
     1
  9
$DIMZIN
 70
     8
  9
$DIMBLK
  1

  9
$DIMASO
 70
     1
  9
$DIMSHO
 70
     1
  9
$DIMPOST
  1

  9
$DIMAPOST
  1

  9
$DIMALT
 70
     0
  9
$DIMALTD
 70
     3
  9
$DIMALTF
 40
0.03937
  9
$DIMLFAC
 40
1.0
  9
$DIMTOFL
 70
     1
  9
$DIMTVP
 40
0.0
  9
$DIMTIX
 70
     0
  9
$DIMSOXD
 70
     0
  9
$DIMSAH
 70
     0
  9
$DIMBLK1
  1

  9
$DIMBLK2
  1

  9
$DIMSTYLE
  2
Standard
  9
$DIMCLRD
 70
     0
  9
$DIMCLRE
 70
     0
  9
$DIMCLRT
 70
     0
  9
$DIMTFAC
 40
1.0
  9
$DIMGAP
 40
0.625
  9
$DIMJUST
 70
     0
  9
$DIMSD1
 70
     0
  9
$DIMSD2
 70
     0
  9
$DIMTOLJ
 70
     0
  9
$DIMTZIN
 70
     8
  9
$DIMALTZ
 70
     0
  9
$DIMALTTZ
 70
     0
  9
$DIMUPT
 70
     0
  9
$DIMDEC
 70
     2
  9
$DIMTDEC
 70
     2
  9
$DIMALTU
 70
     2
  9
$DIMALTTD
 70
     3
  9
$DIMTXSTY
  7
Standard
  9
$DIMAUNIT
 70
     0
  9
$DIMADEC
 70
     0
  9
$DIMALTRND
 40
0.0
  9
$DIMAZIN
 70
     0
  9
$DIMDSEP
 70
    46
  9
$DIMATFIT
 70
     0
  9
$DIMFRAC
 70
     0
  9
$DIMLDRBLK
  1

  9
$DIMLUNIT
 70
     2
  9
$DIMLWD
 70
    -2
  9
$DIMLWE
 70
    -2
  9
$DIMTMOVE
 70
     2
  9
$LUNITS
 70
     2
  9
$LUPREC
 70
     4
  9
$SKETCHINC
 40
1.0
  9
$FILLETRAD
 40
2.5
  9
$AUNITS
 70
     0
  9
$AUPREC
 70
     0
  9
$MENU
  1
.
  9
$ELEVATION
 40
0.0
  9
$PELEVATION
 40
0.0
  9
$THICKNESS
 40
0.0
  9
$LIMCHECK
 70
     0
  9
$CHAMFERA
 40
2.5
  9
$CHAMFERB
 40
2.5
  9
$CHAMFERC
 40
0.0
  9
$CHAMFERD
 40
0.0
  9
$SKPOLY
 70
     0
  9
$TDCREATE
 40
2447893.0
  9
$TDUCREATE
 40
2447892.916666667
  9
$TDUPDATE
 40
2447892.999999977
  9
$TDUUPDATE
 40
2447892.916666644
  9
$TDINDWG
 40
0.0252198958
  9
$TDUSRTIMER
 40
0.025196713
  9
$USRTIMER
 70
     1
  9
$ANGBASE
 50
0.0
  9
$ANGDIR
 70
     0
  9
$PDMODE
 70
     0
  9
$PDSIZE
 40
0.0
  9
$PLINEWID
 40
0.0
  9
$SPLFRAME
 70
     0
  9
$SPLINETYPE
 70
     6
  9
$SPLINESEGS
 70
     8
  9
$HANDSEED
  5
566
  9
$SURFTAB1
 70
     6
  9
$SURFTAB2
 70
     6
  9
$SURFTYPE
 70
     6
  9
$SURFU
 70
     6
  9
$SURFV
 70
     6
  9
$UCSBASE
  2

  9
$UCSNAME
  2

  9
$UCSORG
 10
0.0
 20
0.0
 30
0.0
  9
$UCSXDIR
 10
1.0
 20
0.0
 30
0.0
  9
$UCSYDIR
 10
0.0
 20
1.0
 30
0.0
  9
$UCSORTHOREF
  2

  9
$UCSORTHOVIEW
 70
     0
  9
$UCSORGTOP
 10
0.0
 20
0.0
 30
0.0
  9
$UCSORGBOTTOM
 10
0.0
 20
0.0
 30
0.0
  9
$UCSORGLEFT
 10
0.0
 20
0.0
 30
0.0
  9
$UCSORGRIGHT
 10
0.0
 20
0.0
 30
0.0
  9
$UCSORGFRONT
 10
0.0
 20
0.0
 30
0.0
  9
$UCSORGBACK
 10
0.0
 20
0.0
 30
0.0
  9
$PUCSBASE
  2

  9
$PUCSNAME
  2

  9
$PUCSORG
 10
0.0
 20
0.0
 30
0.0
  9
$PUCSXDIR
 10
1.0
 20
0.0
 30
0.0
  9
$PUCSYDIR
 10
0.0
 20
1.0
 30
0.0
  9
$PUCSORTHOREF
  2

  9
$PUCSORTHOVIEW
 70
     0
  9
$PUCSORGTOP
 10
0.0
 20
0.0
 30
0.0
  9
$PUCSORGBOTTOM
 10
0.0
 20
0.0
 30
0.0
  9
$PUCSORGLEFT
 10
0.0
 20
0.0
 30
0.0
  9
$PUCSORGRIGHT
 10
0.0
 20
0.0
 30
0.0
  9
$PUCSORGFRONT
 10
0.0
 20
0.0
 30
0.0
  9
$PUCSORGBACK
 10
0.0
 20
0.0
 30
0.0
  9
$USERI1
 70
     0
  9
$USERI2
 70
     0
  9
$USERI3
 70
     0
  9
$USERI4
 70
     0
  9
$USERI5
 70
     0
  9
$USERR1
 40
0.0
  9
$USERR2
 40
0.0
  9
$USERR3
 40
0.0
  9
$USERR4
 40
0.0
  9
$USERR5
 40
0.0
  9
$WORLDVIEW
 70
     1
  9
$SHADEDGE
 70
     3
  9
$SHADEDIF
 70
    70
  9
$TILEMODE
 70
     1
  9
$MAXACTVP
 70
    48
  9
$PINSBASE
 10
0.0
 20
0.0
 30
0.0
  9
$PLIMCHECK
 70
     0
  9
$PEXTMIN
 10
0.0
 20
0.0
 30
0.0
  9
$PEXTMAX
 10
3799.038574
 20
300.167419
 30
2.0
  9
$PLIMMIN
 10
0.0
 20
0.0
  9
$PLIMMAX
 10
420.0
 20
297.0
  9
$UNITMODE
 70
     0
  9
$VISRETAIN
 70
     0
  9
$PLINEGEN
 70
     0
  9
$PSLTSCALE
 70
     1
  9
$TREEDEPTH
 70
  3020
  9
$CMLSTYLE
  2
Standard
  9
$CMLJUST
 70
     0
  9
$CMLSCALE
 40
20.0
  9
$PROXYGRAPHICS
 70
     1
  9
$MEASUREMENT
 70
     1
  9
$CELWEIGHT
370
    -1
  9
$ENDCAPS
280
     0
  9
$JOINSTYLE
280
     0
  9
$LWDISPLAY
290
     0
  9
$INSUNITS
 70
     0
  9
$HYPERLINKBASE
  1

  9
$STYLESHEET
  1

  9
$XEDIT
290
     1
  9
$CEPSNTYPE
380
     0
  9
$PSTYLEMODE
290
     1
  9
$FINGERPRINTGUID
  2
{060C0D46-0972-47BC-9DFC-14AEC2C131DB}
  9
$VERSIONGUID
  2
{FAEB1C32-E019-11D5-929B-00C0DF256EC4}
  9
$EXTNAMES
290
     1
  9
$PSVPSCALE
 40
0.0
  9
$OLESTARTUP
290
     0
  9
$SORTENTS
280
   127
  9
$INDEXCTL
280
     0
  9
$HIDETEXT
280
     1
  9
$XCLIPFRAME
290
     0
  9
$HALOGAP
280
     0
  9
$OBSCOLOR
 70
   257
  9
$OBSLTYPE
280
     0
  9
$INTERSECTIONDISPLAY
280
     0
  9
$INTERSECTIONCOLOR
 70
   257
  9
$DIMASSOC
280
     2
  9
$PROJECTNAME
  1

  0
ENDSEC
  0
SECTION
  2
CLASSES
  0
CLASS
  1
ACDBDICTIONARYWDFLT
  2
AcDbDictionaryWithDefault
  3
ObjectDBX Classes
 90
        0
 91
        4
280
     0
281
     0
  0
CLASS
  1
ACDBPLACEHOLDER
  2
AcDbPlaceHolder
  3
ObjectDBX Classes
 90
        0
 91
        1
280
     0
281
     0
  0
CLASS
  1
LAYOUT
  2
AcDbLayout
  3
ObjectDBX Classes
 90
        0
 91
        1
280
     0
281
     0
  0
CLASS
  1
DICTIONARYVAR
  2
AcDbDictionaryVar
  3
ObjectDBX Classes
 90
        0
 91
        4
280
     0
281
     0
  0
CLASS
  1
TABLESTYLE
  2
AcDbTableStyle
  3
ObjectDBX Classes
 90
     4095
 91
        6
280
     0
281
     0
  0
CLASS
  1
SCALE
  2
AcDbScale
  3
ObjectDBX Classes
 90
     1153
 91
       70
280
     0
281
     0
  0
ENDSEC
  0
SECTION
  2
TABLES
  0
TABLE
  2
VPORT
  5
8
330
0
100
AcDbSymbolTable
 70
     2
  0
VPORT
  5
97
330
8
100
AcDbSymbolTableRecord
100
AcDbViewportTableRecord
  2
*ACTIVE
 70
     0
 10
0.0
 20
0.0
 11
1.0
 21
1.0
 12
3046.983309667023
 22
88.14079155230473
 13
0.0
 23
0.0
 14
1.0
 24
1.0
 15
0.5
 25
0.5
 16
0.0
 26
0.0
 36
1.0
 17
0.0
 27
0.0
 37
0.0
 40
549.2067148293667
 41
0.688564
 42
50.0
 43
0.0
 44
0.0
 50
0.0
 51
0.0
 71
     0
 72
   100
 73
     1
 74
     1
 75
     0
 76
     0
 77
     0
 78
     0
281
     0
 65
     1
110
0.0
120
0.0
130
0.0
111
1.0
121
0.0
131
0.0
112
0.0
122
1.0
132
0.0
 79
     0
146
0.0
  0
ENDTAB
  0
TABLE
  2
LTYPE
  5
5
330
0
100
AcDbSymbolTable
 70
     9
  0
LTYPE
  5
14
330
5
100
AcDbSymbolTableRecord
100
AcDbLinetypeTableRecord
  2
ByBlock
 70
     0
  3

 72
    65
 73
     0
 40
0.0
  0
LTYPE
  5
15
330
5
100
AcDbSymbolTableRecord
100
AcDbLinetypeTableRecord
  2
ByLayer
 70
     0
  3

 72
    65
 73
     0
 40
0.0
  0
LTYPE
  5
16
330
5
100
AcDbSymbolTableRecord
100
AcDbLinetypeTableRecord
  2
Continuous
 70
     0
  3
Solid line
 72
    65
 73
     0
 40
0.0
  0
LTYPE
  5
534
330
5
100
AcDbSymbolTableRecord
100
AcDbLinetypeTableRecord
  2
DASHED
 70
     0
  3
__ __ __ __ __ __ __ __ __ __ __ __ __ __ __ __
 72
    65
 73
     2
 40
15.0
 49
12.0
 74
     0
 49
-3.0
 74
     0
  0
LTYPE
  5
535
330
5
100
AcDbSymbolTableRecord
100
AcDbLinetypeTableRecord
  2
DASHDOT
 70
     0
  3
 __ . __ . __ . __ . __ . __ . __ . 
 72
    65
 73
     4
 40
18.5
 49
12.0
 74
     0
 49
-3.0
 74
     0
 49
0.5
 74
     0
 49
-3.0
 74
     0
  0
LTYPE
  5
536
330
5
100
AcDbSymbolTableRecord
100
AcDbLinetypeTableRecord
  2
DOT
 70
     0
  3
 . . . . . . . . . . . . . . . .
 72
    65
 73
     2
 40
3.5
 49
0.5
 74
     0
 49
-3.0
 74
     0
  0
LTYPE
  5
537
330
5
100
AcDbSymbolTableRecord
100
AcDbLinetypeTableRecord
  2
DASHSPACE
 70
     0
  3
__    __    __    __    __   
 72
    65
 73
     2
 40
30.0
 49
12.0
 74
     0
 49
-18.0
 74
     0
  0
LTYPE
  5
538
330
5
100
AcDbSymbolTableRecord
100
AcDbLinetypeTableRecord
  2
DASHDOT2
 70
     0
  3
__ . . __ . . __ . . __ 
 72
    65
 73
     6
 40
22.0
 49
12.0
 74
     0
 49
-3.0
 74
     0
 49
0.5
 74
     0
 49
-3.0
 74
     0
 49
0.5
 74
     0
 49
-3.0
 74
     0
  0
LTYPE
  5
539
330
5
100
AcDbSymbolTableRecord
100
AcDbLinetypeTableRecord
  2
PHANTOM
 70
     0
  3
____________    ____    ____   _
 72
    65
 73
     6
 40
20.0
 49
10.0
 74
     0
 49
-2.0
 74
     0
 49
2.0
 74
     0
 49
-2.0
 74
     0
 49
2.0
 74
     0
 49
-2.0
 74
     0
  0
LTYPE
  5
53A
330
5
100
AcDbSymbolTableRecord
100
AcDbLinetypeTableRecord
  2
AXES
 70
     0
  3
________  __  ________  __  _____
 72
    65
 73
     4
 40
24.0
 49
15.0
 74
     0
 49
-3.0
 74
     0
 49
3.0
 74
     0
 49
-3.0
 74
     0
  0
LTYPE
  5
53B
330
5
100
AcDbSymbolTableRecord
100
AcDbLinetypeTableRecord
  2
SOLID
 70
     0
  3

 72
    65
 73
     0
 40
0.0
  0
ENDTAB
  0
TABLE
  2
LAYER
  5
2
330
0
100
AcDbSymbolTable
 70
     3
  0
LAYER
  5
10
330
2
100
AcDbSymbolTableRecord
100
AcDbLayerTableRecord
  2
0
 70
     0
 62
     7
  6
Continuous
370
    -3
390
F
  0
LAYER
  5
241
330
2
100
AcDbSymbolTableRecord
100
AcDbLayerTableRecord
  2
DEFPOINTS
 70
     0
 62
     7
  6
Continuous
290
     0
370
    -3
390
F
  0
LAYER
  5
4AB
330
2
100
AcDbSymbolTableRecord
100
AcDbLayerTableRecord
  2
STANDARD_LAYER
 70
     0
 62
     7
  6
SOLID
370
    -3
390
F
  0
ENDTAB
  0
TABLE
  2
STYLE
  5
3
330
0
100
AcDbSymbolTable
 70
     1
  0
STYLE
  5
11
330
3
100
AcDbSymbolTableRecord
100
AcDbTextStyleTableRecord
  2
Standard
 70
     0
 40
0.0
 41
1.0
 50
0.0
 71
     0
 42
0.2
  3
txt
  4

  0
ENDTAB
  0
TABLE
  2
VIEW
  5
6
330
0
100
AcDbSymbolTable
 70
     0
  0
ENDTAB
  0
TABLE
  2
UCS
  5
7
330
0
100
AcDbSymbolTable
 70
     0
  0
ENDTAB
  0
TABLE
  2
APPID
  5
9
330
0
100
AcDbSymbolTable
 70
     2
  0
APPID
  5
12
330
9
100
AcDbSymbolTableRecord
100
AcDbRegAppTableRecord
  2
ACAD
 70
     0
  0
APPID
  5
533
330
9
100
AcDbSymbolTableRecord
100
AcDbRegAppTableRecord
  2
Conv5506CA
 70
     0
  0
ENDTAB
  0
TABLE
  2
DIMSTYLE
  5
A
330
0
100
AcDbSymbolTable
 70
     1
100
AcDbDimStyleTable
  0
DIMSTYLE
105
27
102
{ACAD_REACTORS
330
3DC
330
40A
330
439
102
}
330
A
100
AcDbSymbolTableRecord
100
AcDbDimStyleTableRecord
  2
Standard
 70
     0
340
11
  0
ENDTAB
  0
TABLE
  2
BLOCK_RECORD
  5
1
330
0
100
AcDbSymbolTable
 70
    19
  0
BLOCK_RECORD
  5
1F
330
1
100
AcDbSymbolTableRecord
100
AcDbBlockTableRecord
  2
*Model_Space
340
22
  0
BLOCK_RECORD
  5
73
330
1
100
AcDbSymbolTableRecord
100
AcDbBlockTableRecord
  2
*Paper_Space
340
74
  0
BLOCK_RECORD
  5
24D
330
1
100
AcDbSymbolTableRecord
100
AcDbBlockTableRecord
  2
*D0
340
0
  0
BLOCK_RECORD
  5
3CF
330
1
100
AcDbSymbolTableRecord
100
AcDbBlockTableRecord
  2
*D1
340
0
  0
BLOCK_RECORD
  5
3DB
330
1
100
AcDbSymbolTableRecord
100
AcDbBlockTableRecord
  2
*D2
340
0
  0
BLOCK_RECORD
  5
3E7
330
1
100
AcDbSymbolTableRecord
100
AcDbBlockTableRecord
  2
*D3
340
0
  0
BLOCK_RECORD
  5
3F3
330
1
100
AcDbSymbolTableRecord
100
AcDbBlockTableRecord
  2
*D4
340
0
  0
BLOCK_RECORD
  5
3FE
330
1
100
AcDbSymbolTableRecord
100
AcDbBlockTableRecord
  2
*D5
340
0
  0
BLOCK_RECORD
  5
409
330
1
100
AcDbSymbolTableRecord
100
AcDbBlockTableRecord
  2
*D6
340
0
  0
BLOCK_RECORD
  5
415
330
1
100
AcDbSymbolTableRecord
100
AcDbBlockTableRecord
  2
*D7
340
0
  0
BLOCK_RECORD
  5
421
330
1
100
AcDbSymbolTableRecord
100
AcDbBlockTableRecord
  2
*D8
340
0
  0
BLOCK_RECORD
  5
42C
330
1
100
AcDbSymbolTableRecord
100
AcDbBlockTableRecord
  2
*D9
340
0
  0
BLOCK_RECORD
  5
437
330
1
100
AcDbSymbolTableRecord
100
AcDbBlockTableRecord
  2
*D10
340
0
  0
BLOCK_RECORD
  5
446
330
1
100
AcDbSymbolTableRecord
100
AcDbBlockTableRecord
  2
*D11
340
0
  0
BLOCK_RECORD
  5
453
330
1
100
AcDbSymbolTableRecord
100
AcDbBlockTableRecord
  2
*D12
340
0
  0
BLOCK_RECORD
  5
460
330
1
100
AcDbSymbolTableRecord
100
AcDbBlockTableRecord
  2
*D13
340
0
  0
BLOCK_RECORD
  5
46D
330
1
100
AcDbSymbolTableRecord
100
AcDbBlockTableRecord
  2
*D14
340
0
  0
BLOCK_RECORD
  5
47A
330
1
100
AcDbSymbolTableRecord
100
AcDbBlockTableRecord
  2
*D15
340
0
  0
BLOCK_RECORD
  5
519
330
1
100
AcDbSymbolTableRecord
100
AcDbBlockTableRecord
  2
*D16
340
0
  0
BLOCK_RECORD
  5
524
330
1
100
AcDbSymbolTableRecord
100
AcDbBlockTableRecord
  2
*D17
340
0
  0
BLOCK_RECORD
  5
531
330
1
100
AcDbSymbolTableRecord
100
AcDbBlockTableRecord
  2
*D18
340
0
  0
ENDTAB
  0
ENDSEC
  0
SECTION
  2
BLOCKS
  0
BLOCK
  5
20
330
1F
100
AcDbEntity
  8
0
100
AcDbBlockBegin
  2
*Model_Space
 70
     0
 10
0.0
 20
0.0
 30
0.0
  3
*Model_Space
  1

  0
ENDBLK
  5
21
330
1F
100
AcDbEntity
  8
0
100
AcDbBlockEnd
  0
BLOCK
  5
75
330
73
100
AcDbEntity
 67
     1
  8
0
100
AcDbBlockBegin
  2
*Paper_Space
 70
     0
 10
0.0
 20
0.0
 30
0.0
  3
*Paper_Space
  1

  0
ENDBLK
  5
76
330
73
100
AcDbEntity
 67
     1
  8
0
100
AcDbBlockEnd
  0
BLOCK
  5
53E
102
{ACAD_REACTORS
330
3DC
330
40A
330
439
102
}
330
24D
100
AcDbEntity
  8
0
100
AcDbBlockBegin
  2
*D0
 70
     1
 10
0.0
 20
0.0
 30
0.0
  3
*D0
  1

  0
POINT
  5
244
330
24D
100
AcDbEntity
  8
DEFPOINTS
  6
ByBlock
 62
     0
380
     1
100
AcDbPoint
 10
2837.352295
 20
274.5691470948692
 30
0.0
  0
POINT
  5
245
330
24D
100
AcDbEntity
  8
DEFPOINTS
  6
ByBlock
 62
     0
380
     1
100
AcDbPoint
 10
3175.644775
 20
274.5691470948692
 30
0.0
  0
LINE
  5
246
330
24D
100
AcDbEntity
  8
0
  6
ByBlock
 62
     0
370
    -2
380
     1
100
AcDbLine
 10
2837.352295
 20
275.1941470948692
 30
0.0
 11
2837.352295
 21
309.2028682035126
 31
0.0
  0
LINE
  5
247
330
24D
100
AcDbEntity
  8
0
  6
ByBlock
 62
     0
370
    -2
380
     1
100
AcDbLine
 10
3175.644775
 20
275.1941470948692
 30
0.0
 11
3175.644775
 21
309.2028682035126
 31
0.0
  0
LINE
  5
248
330
24D
100
AcDbEntity
  8
0
  6
ByBlock
 62
     0
370
    -2
380
     1
100
AcDbLine
 10
2839.852295
 20
307.9528682035126
 30
0.0
 11
3173.144775
 21
307.9528682035126
 31
0.0
  0
SOLID
  5
249
330
24D
100
AcDbEntity
  8
0
  6
ByBlock
 62
     0
380
     1
100
AcDbTrace
 10
2837.352295
 20
307.9528682035126
 30
0.0
 11
2839.852295
 21
307.5362015368459
 31
0.0
 12
2839.852295
 22
308.3695348701793
 32
0.0
 13
2839.852295
 23
308.3695348701793
 33
0.0
  0
SOLID
  5
24A
330
24D
100
AcDbEntity
  8
0
  6
ByBlock
 62
     0
380
     1
100
AcDbTrace
 10
3175.644775
 20
307.9528682035126
 30
0.0
 11
3173.144775
 21
307.5362015368459
 31
0.0
 12
3173.144775
 22
308.3695348701793
 32
0.0
 13
3173.144775
 23
308.3695348701793
 33
0.0
  0
MTEXT
  5
24B
330
24D
100
AcDbEntity
  8
0
  6
ByBlock
 62
     0
370
    -2
380
     1
100
AcDbMText
 10
3006.498535
 20
309.8278682035126
 30
0.0
 40
2.5
 41
0.0
 71
     5
 72
     1
  1
\A1;338.29
 73
     1
 44
1.0
  0
ENDBLK
  5
53F
330
24D
100
AcDbEntity
  8
0
100
AcDbBlockEnd
  0
BLOCK
  5
540
330
3CF
100
AcDbEntity
  8
0
100
AcDbBlockBegin
  2
*D1
 70
     1
 10
0.0
 20
0.0
 30
0.0
  3
*D1
  1

  0
POINT
  5
3C6
330
3CF
100
AcDbEntity
  8
DEFPOINTS
  6
ByBlock
 62
     0
380
     1
100
AcDbPoint
 10
2837.352387000002
 20
140.3939400385176
 30
0.0
  0
POINT
  5
3C7
330
3CF
100
AcDbEntity
  8
DEFPOINTS
  6
ByBlock
 62
     0
380
     1
100
AcDbPoint
 10
3175.644775
 20
130.563582079928
 30
0.0
  0
LINE
  5
3C8
330
3CF
100
AcDbEntity
  8
0
  6
ByBlock
 62
     0
370
    -2
380
     1
100
AcDbLine
 10
2837.352387000002
 20
141.0189400385176
 30
0.0
 11
2837.352387000002
 21
314.8708612431953
 31
0.0
  0
LINE
  5
3C9
330
3CF
100
AcDbEntity
  8
0
  6
ByBlock
 62
     0
370
    -2
380
     1
100
AcDbLine
 10
3175.644775
 20
131.188582079928
 30
0.0
 11
3175.644775
 21
314.8708612431953
 31
0.0
  0
LINE
  5
3CA
330
3CF
100
AcDbEntity
  8
0
  6
ByBlock
 62
     0
370
    -2
380
     1
100
AcDbLine
 10
2839.852387000002
 20
313.6208612431953
 30
0.0
 11
3173.144775
 21
313.6208612431953
 31
0.0
  0
SOLID
  5
3CB
330
3CF
100
AcDbEntity
  8
0
  6
ByBlock
 62
     0
380
     1
100
AcDbTrace
 10
2837.352387000002
 20
313.6208612431953
 30
0.0
 11
2839.852387000002
 21
313.2041945765286
 31
0.0
 12
2839.852387000002
 22
314.037527909862
 32
0.0
 13
2839.852387000002
 23
314.037527909862
 33
0.0
  0
SOLID
  5
3CC
330
3CF
100
AcDbEntity
  8
0
  6
ByBlock
 62
     0
380
     1
100
AcDbTrace
 10
3175.644775
 20
313.6208612431953
 30
0.0
 11
3173.144775
 21
313.2041945765286
 31
0.0
 12
3173.144775
 22
314.037527909862
 32
0.0
 13
3173.144775
 23
314.037527909862
 33
0.0
  0
MTEXT
  5
3CD
330
3CF
100
AcDbEntity
  8
0
  6
ByBlock
 62
     0
370
    -2
380
     1
100
AcDbMText
 10
3006.498581000001
 20
315.4958612431953
 30
0.0
 40
2.5
 41
0.0
 71
     5
 72
     1
  1
\A1;338.29
 73
     1
 44
1.0
  0
ENDBLK
  5
541
330
3CF
100
AcDbEntity
  8
0
100
AcDbBlockEnd
  0
BLOCK
  5
542
330
3DB
100
AcDbEntity
  8
0
100
AcDbBlockBegin
  2
*D2
 70
     1
 10
0.0
 20
0.0
 30
0.0
  3
*D2
  1

  0
POINT
  5
3D1
330
3DB
100
AcDbEntity
  8
DEFPOINTS
  6
ByBlock
 62
     0
380
     1
100
AcDbPoint
 10
2837.352387000002
 20
140.3939400385176
 30
0.0
  0
POINT
  5
3D2
330
3DB
100
AcDbEntity
  8
DEFPOINTS
  6
ByBlock
 62
     0
380
     1
100
AcDbPoint
 10
3175.644775
 20
130.563582079928
 30
0.0
  0
LINE
  5
3D3
330
3DB
100
AcDbEntity
  8
0
  6
ByBlock
 62
     0
370
    -2
380
     1
100
AcDbLine
 10
2837.352387000002
 20
141.0189400385176
 30
0.0
 11
2837.352387000002
 21
304.5664159460312
 31
0.0
  0
LINE
  5
3D4
330
3DB
100
AcDbEntity
  8
0
  6
ByBlock
 62
     0
370
    -2
380
     1
100
AcDbLine
 10
3175.644775
 20
131.188582079928
 30
0.0
 11
3175.644775
 21
304.5664159460312
 31
0.0
  0
LINE
  5
3D5
330
3DB
100
AcDbEntity
  8
0
  6
ByBlock
 62
     0
370
    -2
380
     1
100
AcDbLine
 10
2837.352387000002
 20
303.3164159460312
 30
0.0
 11
3175.644775
 21
303.3164159460312
 31
0.0
  0
SOLID
  5
3D6
330
3DB
100
AcDbEntity
  8
0
  6
ByBlock
 62
     0
380
     1
100
AcDbTrace
 10
2837.352387000002
 20
303.3164159460312
 30
0.0
 11
2839.852387000002
 21
302.8997492793645
 31
0.0
 12
2839.852387000002
 22
303.7330826126978
 32
0.0
 13
2839.852387000002
 23
303.7330826126978
 33
0.0
  0
SOLID
  5
3D7
330
3DB
100
AcDbEntity
  8
0
  6
ByBlock
 62
     0
380
     1
100
AcDbTrace
 10
3175.644775
 20
303.3164159460312
 30
0.0
 11
3173.144775
 21
302.8997492793645
 31
0.0
 12
3173.144775
 22
303.7330826126978
 32
0.0
 13
3173.144775
 23
303.7330826126978
 33
0.0
  0
LINE
  5
3D8
330
3DB
100
AcDbEntity
  8
0
  6
ByBlock
 62
     0
370
    -2
380
     1
100
AcDbLine
 10
2837.352387000002
 20
140.3939400385176
 30
0.0
 11
2837.352387000002
 21
140.3939400385176
 31
0.0
  0
MTEXT
  5
3D9
330
3DB
100
AcDbEntity
  8
0
  6
ByBlock
 62
     0
370
    -2
380
     1
100
AcDbMText
 10
3006.498581000001
 20
315.4958612431953
 30
0.0
 40
2.5
 41
0.0
 71
     5
 72
     1
  1
\A1;338.29
 73
     1
 44
1.0
  0
ENDBLK
  5
543
330
3DB
100
AcDbEntity
  8
0
100
AcDbBlockEnd
  0
BLOCK
  5
544
330
3E7
100
AcDbEntity
  8
0
100
AcDbBlockBegin
  2
*D3
 70
     1
 10
0.0
 20
0.0
 30
0.0
  3
*D3
  1

  0
POINT
  5
3DE
330
3E7
100
AcDbEntity
  8
DEFPOINTS
  6
ByBlock
 62
     0
380
     1
100
AcDbPoint
 10
2837.352387000002
 20
140.3939400385176
 30
0.0
  0
POINT
  5
3DF
330
3E7
100
AcDbEntity
  8
DEFPOINTS
  6
ByBlock
 62
     0
380
     1
100
AcDbPoint
 10
3175.644775
 20
140.393982
 30
0.0
  0
LINE
  5
3E0
330
3E7
100
AcDbEntity
  8
0
  6
ByBlock
 62
     0
370
    -2
380
     1
100
AcDbLine
 10
2837.352387000002
 20
141.0189400385176
 30
0.0
 11
2837.352387000002
 21
300.9917933868854
 31
0.0
  0
LINE
  5
3E1
330
3E7
100
AcDbEntity
  8
0
  6
ByBlock
 62
     0
370
    -2
380
     1
100
AcDbLine
 10
3175.644775
 20
141.018982
 30
0.0
 11
3175.644775
 21
300.9917933868854
 31
0.0
  0
LINE
  5
3E2
330
3E7
100
AcDbEntity
  8
0
  6
ByBlock
 62
     0
370
    -2
380
     1
100
AcDbLine
 10
2839.852387000002
 20
299.7417933868854
 30
0.0
 11
3173.144775
 21
299.7417933868854
 31
0.0
  0
SOLID
  5
3E3
330
3E7
100
AcDbEntity
  8
0
  6
ByBlock
 62
     0
380
     1
100
AcDbTrace
 10
2837.352387000002
 20
299.7417933868854
 30
0.0
 11
2839.852387000002
 21
299.3251267202188
 31
0.0
 12
2839.852387000002
 22
300.1584600535521
 32
0.0
 13
2839.852387000002
 23
300.1584600535521
 33
0.0
  0
SOLID
  5
3E4
330
3E7
100
AcDbEntity
  8
0
  6
ByBlock
 62
     0
380
     1
100
AcDbTrace
 10
3175.644775
 20
299.7417933868854
 30
0.0
 11
3173.144775
 21
299.3251267202188
 31
0.0
 12
3173.144775
 22
300.1584600535521
 32
0.0
 13
3173.144775
 23
300.1584600535521
 33
0.0
  0
MTEXT
  5
3E5
330
3E7
100
AcDbEntity
  8
0
  6
ByBlock
 62
     0
370
    -2
380
     1
100
AcDbMText
 10
3006.498581000001
 20
301.6167933868854
 30
0.0
 40
2.5
 41
0.0
 71
     5
 72
     1
  1
\A1;338.29
 73
     1
 44
1.0
  0
ENDBLK
  5
545
330
3E7
100
AcDbEntity
  8
0
100
AcDbBlockEnd
  0
BLOCK
  5
546
330
3F3
100
AcDbEntity
  8
0
100
AcDbBlockBegin
  2
*D4
 70
     1
 10
0.0
 20
0.0
 30
0.0
  3
*D4
  1

  0
POINT
  5
3E9
330
3F3
100
AcDbEntity
  8
DEFPOINTS
  6
ByBlock
 62
     0
380
     1
100
AcDbPoint
 10
2837.352387000002
 20
140.3939400385176
 30
0.0
  0
POINT
  5
3EA
330
3F3
100
AcDbEntity
  8
DEFPOINTS
  6
ByBlock
 62
     0
380
     1
100
AcDbPoint
 10
3175.644775
 20
140.393982
 30
0.0
  0
LINE
  5
3EB
330
3F3
100
AcDbEntity
  8
0
  6
ByBlock
 62
     0
370
    -2
380
     1
100
AcDbLine
 10
2837.352387000002
 20
141.0189400385176
 30
0.0
 11
2837.352387000002
 21
300.9917933868854
 31
0.0
  0
LINE
  5
3EC
330
3F3
100
AcDbEntity
  8
0
  6
ByBlock
 62
     0
370
    -2
380
     1
100
AcDbLine
 10
3175.644775
 20
141.018982
 30
0.0
 11
3175.644775
 21
300.9917933868854
 31
0.0
  0
LINE
  5
3ED
330
3F3
100
AcDbEntity
  8
0
  6
ByBlock
 62
     0
370
    -2
380
     1
100
AcDbLine
 10
2837.352387000002
 20
299.7417933868854
 30
0.0
 11
3175.644775
 21
299.7417933868854
 31
0.0
  0
SOLID
  5
3EE
330
3F3
100
AcDbEntity
  8
0
  6
ByBlock
 62
     0
380
     1
100
AcDbTrace
 10
2837.352387000002
 20
299.7417933868854
 30
0.0
 11
2839.852387000002
 21
299.3251267202188
 31
0.0
 12
2839.852387000002
 22
300.1584600535521
 32
0.0
 13
2839.852387000002
 23
300.1584600535521
 33
0.0
  0
SOLID
  5
3EF
330
3F3
100
AcDbEntity
  8
0
  6
ByBlock
 62
     0
380
     1
100
AcDbTrace
 10
3175.644775
 20
299.7417933868854
 30
0.0
 11
3173.144775
 21
299.3251267202188
 31
0.0
 12
3173.144775
 22
300.1584600535521
 32
0.0
 13
3173.144775
 23
300.1584600535521
 33
0.0
  0
LINE
  5
3F0
330
3F3
100
AcDbEntity
  8
0
  6
ByBlock
 62
     0
370
    -2
380
     1
100
AcDbLine
 10
2837.352387000002
 20
140.3939400385176
 30
0.0
 11
2837.352387000002
 21
140.3939400385176
 31
0.0
  0
MTEXT
  5
3F1
330
3F3
100
AcDbEntity
  8
0
  6
ByBlock
 62
     0
370
    -2
380
     1
100
AcDbMText
 10
3006.498581000001
 20
301.6167933868854
 30
0.0
 40
2.5
 41
0.0
 71
     5
 72
     1
  1
\A1;338.29
 73
     1
 44
1.0
  0
ENDBLK
  5
547
330
3F3
100
AcDbEntity
  8
0
100
AcDbBlockEnd
  0
BLOCK
  5
548
330
3FE
100
AcDbEntity
  8
0
100
AcDbBlockBegin
  2
*D5
 70
     1
 10
0.0
 20
0.0
 30
0.0
  3
*D5
  1

  0
POINT
  5
3F5
330
3FE
100
AcDbEntity
  8
DEFPOINTS
  6
ByBlock
 62
     7
380
     1
100
AcDbPoint
 10
2837.352387000002
 20
140.3939400385176
 30
0.0
  0
POINT
  5
3F6
330
3FE
100
AcDbEntity
  8
DEFPOINTS
  6
ByBlock
 62
     7
380
     1
100
AcDbPoint
 10
3175.644775
 20
140.393982
 30
0.0
  0
LINE
  5
3F7
330
3FE
100
AcDbEntity
  8
0
  6
ByBlock
 62
     7
370
    -2
380
     1
100
AcDbLine
 10
2837.352387000002
 20
141.0189400385176
 30
0.0
 11
2837.352387000002
 21
300.9917933868854
 31
0.0
  0
LINE
  5
3F8
330
3FE
100
AcDbEntity
  8
0
  6
ByBlock
 62
     7
370
    -2
380
     1
100
AcDbLine
 10
3175.644775
 20
141.018982
 30
0.0
 11
3175.644775
 21
300.9917933868854
 31
0.0
  0
LINE
  5
3F9
330
3FE
100
AcDbEntity
  8
0
  6
ByBlock
 62
     7
370
    -2
380
     1
100
AcDbLine
 10
2847.352387000002
 20
299.7417933868854
 30
0.0
 11
3165.644775
 21
299.7417933868854
 31
0.0
  0
SOLID
  5
3FA
330
3FE
100
AcDbEntity
  8
0
  6
ByBlock
 62
     7
380
     1
100
AcDbTrace
 10
2837.352387000002
 20
299.7417933868854
 30
0.0
 11
2847.352387000002
 21
298.0751267202188
 31
0.0
 12
2847.352387000002
 22
301.4084600535521
 32
0.0
 13
2847.352387000002
 23
301.4084600535521
 33
0.0
  0
SOLID
  5
3FB
330
3FE
100
AcDbEntity
  8
0
  6
ByBlock
 62
     7
380
     1
100
AcDbTrace
 10
3175.644775
 20
299.7417933868854
 30
0.0
 11
3165.644775
 21
298.0751267202188
 31
0.0
 12
3165.644775
 22
301.4084600535521
 32
0.0
 13
3165.644775
 23
301.4084600535521
 33
0.0
  0
MTEXT
  5
3FC
330
3FE
100
AcDbEntity
  8
0
  6
ByBlock
 62
     0
370
    -2
380
     1
100
AcDbMText
 10
3006.498581000001
 20
311.7417933868854
 30
0.0
 40
14.0
 41
0.0
 71
     5
 72
     1
  1
\A1;338.29
 73
     1
 44
1.0
  0
ENDBLK
  5
549
330
3FE
100
AcDbEntity
  8
0
100
AcDbBlockEnd
  0
BLOCK
  5
54A
330
409
100
AcDbEntity
  8
0
100
AcDbBlockBegin
  2
*D6
 70
     1
 10
0.0
 20
0.0
 30
0.0
  3
*D6
  1

  0
POINT
  5
400
330
409
100
AcDbEntity
  8
DEFPOINTS
  6
ByBlock
 62
     7
380
     1
100
AcDbPoint
 10
2837.352387000002
 20
140.3939400385176
 30
0.0
  0
POINT
  5
401
330
409
100
AcDbEntity
  8
DEFPOINTS
  6
ByBlock
 62
     7
380
     1
100
AcDbPoint
 10
3175.644775
 20
140.393982
 30
0.0
  0
LINE
  5
402
330
409
100
AcDbEntity
  8
0
  6
ByBlock
 62
     7
370
    -2
380
     1
100
AcDbLine
 10
2837.352387000002
 20
141.0189400385176
 30
0.0
 11
2837.352387000002
 21
300.9917933868854
 31
0.0
  0
LINE
  5
403
330
409
100
AcDbEntity
  8
0
  6
ByBlock
 62
     7
370
    -2
380
     1
100
AcDbLine
 10
3175.644775
 20
141.018982
 30
0.0
 11
3175.644775
 21
300.9917933868854
 31
0.0
  0
LINE
  5
404
330
409
100
AcDbEntity
  8
0
  6
ByBlock
 62
     7
370
    -2
380
     1
100
AcDbLine
 10
2847.352387000002
 20
299.7417933868854
 30
0.0
 11
3165.644775
 21
299.7417933868854
 31
0.0
  0
SOLID
  5
405
330
409
100
AcDbEntity
  8
0
  6
ByBlock
 62
     7
380
     1
100
AcDbTrace
 10
2837.352387000002
 20
299.7417933868854
 30
0.0
 11
2847.352387000002
 21
298.0751267202188
 31
0.0
 12
2847.352387000002
 22
301.4084600535521
 32
0.0
 13
2847.352387000002
 23
301.4084600535521
 33
0.0
  0
SOLID
  5
406
330
409
100
AcDbEntity
  8
0
  6
ByBlock
 62
     7
380
     1
100
AcDbTrace
 10
3175.644775
 20
299.7417933868854
 30
0.0
 11
3165.644775
 21
298.0751267202188
 31
0.0
 12
3165.644775
 22
301.4084600535521
 32
0.0
 13
3165.644775
 23
301.4084600535521
 33
0.0
  0
MTEXT
  5
407
330
409
100
AcDbEntity
  8
0
  6
ByBlock
 62
     0
370
    -2
380
     1
100
AcDbMText
 10
3006.498581000001
 20
311.7417933868854
 30
0.0
 40
14.0
 41
0.0
 71
     5
 72
     1
  1
338
 73
     1
 44
1.0
  0
ENDBLK
  5
54B
330
409
100
AcDbEntity
  8
0
100
AcDbBlockEnd
  0
BLOCK
  5
54C
330
415
100
AcDbEntity
  8
0
100
AcDbBlockBegin
  2
*D7
 70
     1
 10
0.0
 20
0.0
 30
0.0
  3
*D7
  1

  0
POINT
  5
40C
330
415
100
AcDbEntity
  8
DEFPOINTS
  6
ByBlock
 62
     0
380
     1
100
AcDbPoint
 10
3029.579834
 20
280.2191925
 30
0.0
  0
POINT
  5
40D
330
415
100
AcDbEntity
  8
DEFPOINTS
  6
ByBlock
 62
     0
380
     1
100
AcDbPoint
 10
3035.923646663074
 20
0.5147585786452684
 30
0.0
  0
LINE
  5
40E
330
415
100
AcDbEntity
  8
0
  6
ByBlock
 62
     0
370
    -2
380
     1
100
AcDbLine
 10
3028.954834
 20
280.2191925
 30
0.0
 11
2808.546062268048
 21
280.2191925
 31
0.0
  0
LINE
  5
40F
330
415
100
AcDbEntity
  8
0
  6
ByBlock
 62
     0
370
    -2
380
     1
100
AcDbLine
 10
3035.298646663074
 20
0.5147585786452851
 30
0.0
 11
2808.546062268048
 21
0.5147585786452851
 31
0.0
  0
LINE
  5
410
330
415
100
AcDbEntity
  8
0
  6
ByBlock
 62
     0
370
    -2
380
     1
100
AcDbLine
 10
2809.796062268048
 20
277.7191925
 30
0.0
 11
2809.796062268048
 21
3.014758578645285
 31
0.0
  0
SOLID
  5
411
330
415
100
AcDbEntity
  8
0
  6
ByBlock
 62
     0
380
     1
100
AcDbTrace
 10
2809.796062268048
 20
280.2191925
 30
0.0
 11
2809.379395601382
 21
277.7191925
 31
0.0
 12
2810.212728934715
 22
277.7191925
 32
0.0
 13
2810.212728934715
 23
277.7191925
 33
0.0
  0
SOLID
  5
412
330
415
100
AcDbEntity
  8
0
  6
ByBlock
 62
     0
380
     1
100
AcDbTrace
 10
2809.796062268048
 20
0.5147585786452851
 30
0.0
 11
2809.379395601382
 21
3.014758578645285
 31
0.0
 12
2810.212728934715
 22
3.014758578645285
 32
0.0
 13
2810.212728934715
 23
3.014758578645285
 33
0.0
  0
MTEXT
  5
413
330
415
100
AcDbEntity
  8
0
  6
ByBlock
 62
     0
370
    -2
380
     1
100
AcDbMText
 10
2807.921062268048
 20
140.3669755393226
 30
0.0
 40
2.5
 41
0.0
 71
     5
 72
     1
  1
\A1;279.7
 11
6.123031769111886E-17
 21
1.0
 31
0.0
 73
     1
 44
1.0
  0
ENDBLK
  5
54D
330
415
100
AcDbEntity
  8
0
100
AcDbBlockEnd
  0
BLOCK
  5
54E
330
421
100
AcDbEntity
  8
0
100
AcDbBlockBegin
  2
*D8
 70
     1
 10
0.0
 20
0.0
 30
0.0
  3
*D8
  1

  0
POINT
  5
417
330
421
100
AcDbEntity
  8
DEFPOINTS
  6
ByBlock
 62
     0
380
     1
100
AcDbPoint
 10
3029.579834
 20
280.2191925
 30
0.0
  0
POINT
  5
418
330
421
100
AcDbEntity
  8
DEFPOINTS
  6
ByBlock
 62
     0
380
     1
100
AcDbPoint
 10
3035.923646663074
 20
0.5147585786452684
 30
0.0
  0
LINE
  5
419
330
421
100
AcDbEntity
  8
0
  6
ByBlock
 62
     0
370
    -2
380
     1
100
AcDbLine
 10
3028.954834
 20
280.2191925
 30
0.0
 11
2808.546062268048
 21
280.2191925
 31
0.0
  0
LINE
  5
41A
330
421
100
AcDbEntity
  8
0
  6
ByBlock
 62
     0
370
    -2
380
     1
100
AcDbLine
 10
3035.298646663074
 20
0.5147585786452851
 30
0.0
 11
2808.546062268048
 21
0.5147585786452851
 31
0.0
  0
LINE
  5
41B
330
421
100
AcDbEntity
  8
0
  6
ByBlock
 62
     0
370
    -2
380
     1
100
AcDbLine
 10
2809.796062268048
 20
280.2191925
 30
0.0
 11
2809.796062268048
 21
0.5147585786452851
 31
0.0
  0
SOLID
  5
41C
330
421
100
AcDbEntity
  8
0
  6
ByBlock
 62
     0
380
     1
100
AcDbTrace
 10
2809.796062268048
 20
280.2191925
 30
0.0
 11
2809.379395601382
 21
277.7191925
 31
0.0
 12
2810.212728934715
 22
277.7191925
 32
0.0
 13
2810.212728934715
 23
277.7191925
 33
0.0
  0
SOLID
  5
41D
330
421
100
AcDbEntity
  8
0
  6
ByBlock
 62
     0
380
     1
100
AcDbTrace
 10
2809.796062268048
 20
0.5147585786452851
 30
0.0
 11
2809.379395601382
 21
3.014758578645285
 31
0.0
 12
2810.212728934715
 22
3.014758578645285
 32
0.0
 13
2810.212728934715
 23
3.014758578645285
 33
0.0
  0
LINE
  5
41E
330
421
100
AcDbEntity
  8
0
  6
ByBlock
 62
     0
370
    -2
380
     1
100
AcDbLine
 10
3029.579834
 20
280.2191925
 30
0.0
 11
3029.579834
 21
280.2191925
 31
0.0
  0
MTEXT
  5
41F
330
421
100
AcDbEntity
  8
0
  6
ByBlock
 62
     0
370
    -2
380
     1
100
AcDbMText
 10
2807.921062268048
 20
140.3669755393226
 30
0.0
 40
2.5
 41
0.0
 71
     5
 72
     1
  1
\A1;279.7
 11
6.123031769111886E-17
 21
1.0
 31
0.0
 73
     1
 44
1.0
  0
ENDBLK
  5
54F
330
421
100
AcDbEntity
  8
0
100
AcDbBlockEnd
  0
BLOCK
  5
550
330
42C
100
AcDbEntity
  8
0
100
AcDbBlockBegin
  2
*D9
 70
     1
 10
0.0
 20
0.0
 30
0.0
  3
*D9
  1

  0
POINT
  5
423
330
42C
100
AcDbEntity
  8
DEFPOINTS
  6
ByBlock
 62
     7
380
     1
100
AcDbPoint
 10
3029.579834
 20
280.2191925
 30
0.0
  0
POINT
  5
424
330
42C
100
AcDbEntity
  8
DEFPOINTS
  6
ByBlock
 62
     7
380
     1
100
AcDbPoint
 10
3035.923646663074
 20
0.5147585786452684
 30
0.0
  0
LINE
  5
425
330
42C
100
AcDbEntity
  8
0
  6
ByBlock
 62
     7
370
    -2
380
     1
100
AcDbLine
 10
3028.954834
 20
280.2191925
 30
0.0
 11
2808.546062268048
 21
280.2191925
 31
0.0
  0
LINE
  5
426
330
42C
100
AcDbEntity
  8
0
  6
ByBlock
 62
     7
370
    -2
380
     1
100
AcDbLine
 10
3035.298646663074
 20
0.5147585786452851
 30
0.0
 11
2808.546062268048
 21
0.5147585786452851
 31
0.0
  0
LINE
  5
427
330
42C
100
AcDbEntity
  8
0
  6
ByBlock
 62
     7
370
    -2
380
     1
100
AcDbLine
 10
2809.796062268048
 20
270.2191925
 30
0.0
 11
2809.796062268048
 21
10.51475857864529
 31
0.0
  0
SOLID
  5
428
330
42C
100
AcDbEntity
  8
0
  6
ByBlock
 62
     7
380
     1
100
AcDbTrace
 10
2809.796062268048
 20
280.2191925
 30
0.0
 11
2808.129395601382
 21
270.2191925
 31
0.0
 12
2811.462728934715
 22
270.2191925
 32
0.0
 13
2811.462728934715
 23
270.2191925
 33
0.0
  0
SOLID
  5
429
330
42C
100
AcDbEntity
  8
0
  6
ByBlock
 62
     7
380
     1
100
AcDbTrace
 10
2809.796062268048
 20
0.5147585786452851
 30
0.0
 11
2808.129395601382
 21
10.51475857864529
 31
0.0
 12
2811.462728934715
 22
10.51475857864529
 32
0.0
 13
2811.462728934715
 23
10.51475857864529
 33
0.0
  0
MTEXT
  5
42A
330
42C
100
AcDbEntity
  8
0
  6
ByBlock
 62
     0
370
    -2
380
     1
100
AcDbMText
 10
2797.796062268048
 20
140.3669755393226
 30
0.0
 40
14.0
 41
0.0
 71
     5
 72
     1
  1
\A1;279.7
 11
6.123031769111886E-17
 21
1.0
 31
0.0
 73
     1
 44
1.0
  0
ENDBLK
  5
551
330
42C
100
AcDbEntity
  8
0
100
AcDbBlockEnd
  0
BLOCK
  5
552
330
437
100
AcDbEntity
  8
0
100
AcDbBlockBegin
  2
*D10
 70
     1
 10
0.0
 20
0.0
 30
0.0
  3
*D10
  1

  0
POINT
  5
42E
330
437
100
AcDbEntity
  8
DEFPOINTS
  6
ByBlock
 62
     7
380
     1
100
AcDbPoint
 10
3029.579834
 20
280.2191925
 30
0.0
  0
POINT
  5
42F
330
437
100
AcDbEntity
  8
DEFPOINTS
  6
ByBlock
 62
     7
380
     1
100
AcDbPoint
 10
3035.923646663074
 20
0.5147585786452684
 30
0.0
  0
LINE
  5
430
330
437
100
AcDbEntity
  8
0
  6
ByBlock
 62
     7
370
    -2
380
     1
100
AcDbLine
 10
3028.954834
 20
280.2191925
 30
0.0
 11
2808.546062268048
 21
280.2191925
 31
0.0
  0
LINE
  5
431
330
437
100
AcDbEntity
  8
0
  6
ByBlock
 62
     7
370
    -2
380
     1
100
AcDbLine
 10
3035.298646663074
 20
0.5147585786452851
 30
0.0
 11
2808.546062268048
 21
0.5147585786452851
 31
0.0
  0
LINE
  5
432
330
437
100
AcDbEntity
  8
0
  6
ByBlock
 62
     7
370
    -2
380
     1
100
AcDbLine
 10
2809.796062268048
 20
270.2191925
 30
0.0
 11
2809.796062268048
 21
10.51475857864529
 31
0.0
  0
SOLID
  5
433
330
437
100
AcDbEntity
  8
0
  6
ByBlock
 62
     7
380
     1
100
AcDbTrace
 10
2809.796062268048
 20
280.2191925
 30
0.0
 11
2808.129395601382
 21
270.2191925
 31
0.0
 12
2811.462728934715
 22
270.2191925
 32
0.0
 13
2811.462728934715
 23
270.2191925
 33
0.0
  0
SOLID
  5
434
330
437
100
AcDbEntity
  8
0
  6
ByBlock
 62
     7
380
     1
100
AcDbTrace
 10
2809.796062268048
 20
0.5147585786452851
 30
0.0
 11
2808.129395601382
 21
10.51475857864529
 31
0.0
 12
2811.462728934715
 22
10.51475857864529
 32
0.0
 13
2811.462728934715
 23
10.51475857864529
 33
0.0
  0
MTEXT
  5
435
330
437
100
AcDbEntity
  8
0
  6
ByBlock
 62
     0
370
    -2
380
     1
100
AcDbMText
 10
2797.796062268048
 20
140.3669755393226
 30
0.0
 40
14.0
 41
0.0
 71
     5
 72
     1
  1
280
 11
6.123031769111886E-17
 21
1.0
 31
0.0
 73
     1
 44
1.0
  0
ENDBLK
  5
553
330
437
100
AcDbEntity
  8
0
100
AcDbBlockEnd
  0
BLOCK
  5
554
330
446
100
AcDbEntity
  8
0
100
AcDbBlockBegin
  2
*D11
 70
     1
 10
0.0
 20
0.0
 30
0.0
  3
*D11
  1

  0
POINT
  5
43B
330
446
100
AcDbEntity
  8
DEFPOINTS
  6
ByBlock
 62
     0
380
     1
100
AcDbPoint
 10
3266.433838
 20
224.4627060134411
 30
0.0
  0
POINT
  5
43C
330
446
100
AcDbEntity
  8
DEFPOINTS
  6
ByBlock
 62
     0
380
     1
100
AcDbPoint
 10
3270.433838
 20
224.4627060134411
 30
0.0
  0
LINE
  5
43D
330
446
100
AcDbEntity
  8
0
  6
ByBlock
 62
     0
370
    -2
380
     1
100
AcDbLine
 10
3266.433838
 20
225.0877060134411
 30
0.0
 11
3266.433838
 21
300.9917933868854
 31
0.0
  0
LINE
  5
43E
330
446
100
AcDbEntity
  8
0
  6
ByBlock
 62
     0
370
    -2
380
     1
100
AcDbLine
 10
3270.433838
 20
225.0877060134411
 30
0.0
 11
3270.433838
 21
300.9917933868854
 31
0.0
  0
LINE
  5
43F
330
446
100
AcDbEntity
  8
0
  6
ByBlock
 62
     0
370
    -2
380
     1
100
AcDbLine
 10
3263.933838
 20
299.7417933868854
 30
0.0
 11
3261.433838
 21
299.7417933868854
 31
0.0
  0
LINE
  5
440
330
446
100
AcDbEntity
  8
0
  6
ByBlock
 62
     0
370
    -2
380
     1
100
AcDbLine
 10
3272.933838
 20
299.7417933868854
 30
0.0
 11
3275.433838
 21
299.7417933868854
 31
0.0
  0
SOLID
  5
441
330
446
100
AcDbEntity
  8
0
  6
ByBlock
 62
     0
380
     1
100
AcDbTrace
 10
3266.433838
 20
299.7417933868854
 30
0.0
 11
3263.933838
 21
299.3251267202187
 31
0.0
 12
3263.933838
 22
300.1584600535521
 32
0.0
 13
3263.933838
 23
300.1584600535521
 33
0.0
  0
SOLID
  5
442
330
446
100
AcDbEntity
  8
0
  6
ByBlock
 62
     0
380
     1
100
AcDbTrace
 10
3270.433838
 20
299.7417933868854
 30
0.0
 11
3272.933838
 21
299.3251267202187
 31
0.0
 12
3272.933838
 22
300.1584600535521
 32
0.0
 13
3272.933838
 23
300.1584600535521
 33
0.0
  0
LINE
  5
443
330
446
100
AcDbEntity
  8
0
  6
ByBlock
 62
     0
370
    -2
380
     1
100
AcDbLine
 10
3266.433838
 20
299.7417933868854
 30
0.0
 11
3270.433838
 21
299.7417933868854
 31
0.0
  0
MTEXT
  5
444
330
446
100
AcDbEntity
  8
0
  6
ByBlock
 62
     0
370
    -2
380
     1
100
AcDbMText
 10
3268.433838
 20
301.6167933868854
 30
0.0
 40
2.5
 41
0.0
 71
     5
 72
     1
  1
\A1;4
 73
     1
 44
1.0
  0
ENDBLK
  5
555
330
446
100
AcDbEntity
  8
0
100
AcDbBlockEnd
  0
BLOCK
  5
556
330
453
100
AcDbEntity
  8
0
100
AcDbBlockBegin
  2
*D12
 70
     1
 10
0.0
 20
0.0
 30
0.0
  3
*D12
  1

  0
POINT
  5
448
330
453
100
AcDbEntity
  8
DEFPOINTS
  6
ByBlock
 62
     0
380
     1
100
AcDbPoint
 10
3266.433838
 20
224.4627060134411
 30
0.0
  0
POINT
  5
449
330
453
100
AcDbEntity
  8
DEFPOINTS
  6
ByBlock
 62
     0
380
     1
100
AcDbPoint
 10
3270.433838
 20
224.4627060134411
 30
0.0
  0
LINE
  5
44A
330
453
100
AcDbEntity
  8
0
  6
ByBlock
 62
     0
370
    -2
380
     1
100
AcDbLine
 10
3266.433838
 20
225.0877060134411
 30
0.0
 11
3266.433838
 21
300.9917933868854
 31
0.0
  0
LINE
  5
44B
330
453
100
AcDbEntity
  8
0
  6
ByBlock
 62
     0
370
    -2
380
     1
100
AcDbLine
 10
3270.433838
 20
225.0877060134411
 30
0.0
 11
3270.433838
 21
300.9917933868854
 31
0.0
  0
LINE
  5
44C
330
453
100
AcDbEntity
  8
0
  6
ByBlock
 62
     0
370
    -2
380
     1
100
AcDbLine
 10
3263.933838
 20
299.7417933868854
 30
0.0
 11
3261.433838
 21
299.7417933868854
 31
0.0
  0
LINE
  5
44D
330
453
100
AcDbEntity
  8
0
  6
ByBlock
 62
     0
370
    -2
380
     1
100
AcDbLine
 10
3272.933838
 20
299.7417933868854
 30
0.0
 11
3275.433838
 21
299.7417933868854
 31
0.0
  0
SOLID
  5
44E
330
453
100
AcDbEntity
  8
0
  6
ByBlock
 62
     0
380
     1
100
AcDbTrace
 10
3266.433838
 20
299.7417933868854
 30
0.0
 11
3263.933838
 21
299.3251267202187
 31
0.0
 12
3263.933838
 22
300.1584600535521
 32
0.0
 13
3263.933838
 23
300.1584600535521
 33
0.0
  0
SOLID
  5
44F
330
453
100
AcDbEntity
  8
0
  6
ByBlock
 62
     0
380
     1
100
AcDbTrace
 10
3270.433838
 20
299.7417933868854
 30
0.0
 11
3272.933838
 21
299.3251267202187
 31
0.0
 12
3272.933838
 22
300.1584600535521
 32
0.0
 13
3272.933838
 23
300.1584600535521
 33
0.0
  0
LINE
  5
450
330
453
100
AcDbEntity
  8
0
  6
ByBlock
 62
     0
370
    -2
380
     1
100
AcDbLine
 10
3266.433838
 20
299.7417933868854
 30
0.0
 11
3270.433838
 21
299.7417933868854
 31
0.0
  0
MTEXT
  5
451
330
453
100
AcDbEntity
  8
0
  6
ByBlock
 62
     0
370
    -2
380
     1
100
AcDbMText
 10
3268.433838
 20
301.6167933868854
 30
0.0
 40
2.5
 41
0.0
 71
     5
 72
     1
  1
\A1;4
 73
     1
 44
1.0
  0
ENDBLK
  5
557
330
453
100
AcDbEntity
  8
0
100
AcDbBlockEnd
  0
BLOCK
  5
558
330
460
100
AcDbEntity
  8
0
100
AcDbBlockBegin
  2
*D13
 70
     1
 10
0.0
 20
0.0
 30
0.0
  3
*D13
  1

  0
POINT
  5
455
330
460
100
AcDbEntity
  8
DEFPOINTS
  6
ByBlock
 62
     7
380
     1
100
AcDbPoint
 10
3266.433838
 20
224.4627060134411
 30
0.0
  0
POINT
  5
456
330
460
100
AcDbEntity
  8
DEFPOINTS
  6
ByBlock
 62
     7
380
     1
100
AcDbPoint
 10
3270.433838
 20
224.4627060134411
 30
0.0
  0
LINE
  5
457
330
460
100
AcDbEntity
  8
0
  6
ByBlock
 62
     7
370
    -2
380
     1
100
AcDbLine
 10
3266.433838
 20
225.0877060134411
 30
0.0
 11
3266.433838
 21
300.9917933868854
 31
0.0
  0
LINE
  5
458
330
460
100
AcDbEntity
  8
0
  6
ByBlock
 62
     7
370
    -2
380
     1
100
AcDbLine
 10
3270.433838
 20
225.0877060134411
 30
0.0
 11
3270.433838
 21
300.9917933868854
 31
0.0
  0
LINE
  5
459
330
460
100
AcDbEntity
  8
0
  6
ByBlock
 62
     7
370
    -2
380
     1
100
AcDbLine
 10
3256.433838
 20
299.7417933868854
 30
0.0
 11
3246.433838
 21
299.7417933868854
 31
0.0
  0
LINE
  5
45A
330
460
100
AcDbEntity
  8
0
  6
ByBlock
 62
     7
370
    -2
380
     1
100
AcDbLine
 10
3280.433838
 20
299.7417933868854
 30
0.0
 11
3290.433838
 21
299.7417933868854
 31
0.0
  0
SOLID
  5
45B
330
460
100
AcDbEntity
  8
0
  6
ByBlock
 62
     7
380
     1
100
AcDbTrace
 10
3266.433838
 20
299.7417933868854
 30
0.0
 11
3256.433838
 21
298.0751267202187
 31
0.0
 12
3256.433838
 22
301.4084600535521
 32
0.0
 13
3256.433838
 23
301.4084600535521
 33
0.0
  0
SOLID
  5
45C
330
460
100
AcDbEntity
  8
0
  6
ByBlock
 62
     7
380
     1
100
AcDbTrace
 10
3270.433838
 20
299.7417933868854
 30
0.0
 11
3280.433838
 21
298.0751267202187
 31
0.0
 12
3280.433838
 22
301.4084600535521
 32
0.0
 13
3280.433838
 23
301.4084600535521
 33
0.0
  0
LINE
  5
45D
330
460
100
AcDbEntity
  8
0
  6
ByBlock
 62
     7
370
    -2
380
     1
100
AcDbLine
 10
3266.433838
 20
299.7417933868854
 30
0.0
 11
3270.433838
 21
299.7417933868854
 31
0.0
  0
MTEXT
  5
45E
330
460
100
AcDbEntity
  8
0
  6
ByBlock
 62
     0
370
    -2
380
     1
100
AcDbMText
 10
3268.433838
 20
301.6167933868854
 30
0.0
 40
14.0
 41
0.0
 71
     5
 72
     1
  1
\A1;4
 73
     1
 44
1.0
  0
ENDBLK
  5
559
330
460
100
AcDbEntity
  8
0
100
AcDbBlockEnd
  0
BLOCK
  5
55A
330
46D
100
AcDbEntity
  8
0
100
AcDbBlockBegin
  2
*D14
 70
     1
 10
0.0
 20
0.0
 30
0.0
  3
*D14
  1

  0
POINT
  5
462
330
46D
100
AcDbEntity
  8
DEFPOINTS
  6
ByBlock
 62
     7
380
     1
100
AcDbPoint
 10
3266.433838
 20
224.4627060134411
 30
0.0
  0
POINT
  5
463
330
46D
100
AcDbEntity
  8
DEFPOINTS
  6
ByBlock
 62
     7
380
     1
100
AcDbPoint
 10
3270.433838
 20
224.4627060134411
 30
0.0
  0
LINE
  5
464
330
46D
100
AcDbEntity
  8
0
  6
ByBlock
 62
     7
370
    -2
380
     1
100
AcDbLine
 10
3266.433838
 20
225.0877060134411
 30
0.0
 11
3266.433838
 21
300.9917933868854
 31
0.0
  0
LINE
  5
465
330
46D
100
AcDbEntity
  8
0
  6
ByBlock
 62
     7
370
    -2
380
     1
100
AcDbLine
 10
3270.433838
 20
225.0877060134411
 30
0.0
 11
3270.433838
 21
300.9917933868854
 31
0.0
  0
LINE
  5
466
330
46D
100
AcDbEntity
  8
0
  6
ByBlock
 62
     7
370
    -2
380
     1
100
AcDbLine
 10
3256.433838
 20
299.7417933868854
 30
0.0
 11
3246.433838
 21
299.7417933868854
 31
0.0
  0
LINE
  5
467
330
46D
100
AcDbEntity
  8
0
  6
ByBlock
 62
     7
370
    -2
380
     1
100
AcDbLine
 10
3280.433838
 20
299.7417933868854
 30
0.0
 11
3290.433838
 21
299.7417933868854
 31
0.0
  0
SOLID
  5
468
330
46D
100
AcDbEntity
  8
0
  6
ByBlock
 62
     7
380
     1
100
AcDbTrace
 10
3266.433838
 20
299.7417933868854
 30
0.0
 11
3256.433838
 21
298.0751267202187
 31
0.0
 12
3256.433838
 22
301.4084600535521
 32
0.0
 13
3256.433838
 23
301.4084600535521
 33
0.0
  0
SOLID
  5
469
330
46D
100
AcDbEntity
  8
0
  6
ByBlock
 62
     7
380
     1
100
AcDbTrace
 10
3270.433838
 20
299.7417933868854
 30
0.0
 11
3280.433838
 21
298.0751267202187
 31
0.0
 12
3280.433838
 22
301.4084600535521
 32
0.0
 13
3280.433838
 23
301.4084600535521
 33
0.0
  0
LINE
  5
46A
330
46D
100
AcDbEntity
  8
0
  6
ByBlock
 62
     7
370
    -2
380
     1
100
AcDbLine
 10
3266.433838
 20
299.7417933868854
 30
0.0
 11
3270.433838
 21
299.7417933868854
 31
0.0
  0
MTEXT
  5
46B
330
46D
100
AcDbEntity
  8
0
  6
ByBlock
 62
     0
370
    -2
380
     1
100
AcDbMText
 10
3268.433838
 20
311.7417933868854
 30
0.0
 40
14.0
 41
0.0
 71
     5
 72
     1
  1
\A1;4
 73
     1
 44
1.0
  0
ENDBLK
  5
55B
330
46D
100
AcDbEntity
  8
0
100
AcDbBlockEnd
  0
BLOCK
  5
55C
330
47A
100
AcDbEntity
  8
0
100
AcDbBlockBegin
  2
*D15
 70
     1
 10
0.0
 20
0.0
 30
0.0
  3
*D15
  1

  0
POINT
  5
46F
330
47A
100
AcDbEntity
  8
DEFPOINTS
  6
ByBlock
 62
     7
380
     1
100
AcDbPoint
 10
3266.433838
 20
224.4627060134411
 30
0.0
  0
POINT
  5
470
330
47A
100
AcDbEntity
  8
DEFPOINTS
  6
ByBlock
 62
     7
380
     1
100
AcDbPoint
 10
3270.433838
 20
224.4627060134411
 30
0.0
  0
LINE
  5
471
330
47A
100
AcDbEntity
  8
0
  6
ByBlock
 62
     7
370
    -2
380
     1
100
AcDbLine
 10
3266.433838
 20
225.0877060134411
 30
0.0
 11
3266.433838
 21
300.9917933868854
 31
0.0
  0
LINE
  5
472
330
47A
100
AcDbEntity
  8
0
  6
ByBlock
 62
     7
370
    -2
380
     1
100
AcDbLine
 10
3270.433838
 20
225.0877060134411
 30
0.0
 11
3270.433838
 21
300.9917933868854
 31
0.0
  0
LINE
  5
473
330
47A
100
AcDbEntity
  8
0
  6
ByBlock
 62
     7
370
    -2
380
     1
100
AcDbLine
 10
3280.433838
 20
299.7417933868854
 30
0.0
 11
3290.433838
 21
299.7417933868854
 31
0.0
  0
LINE
  5
474
330
47A
100
AcDbEntity
  8
0
  6
ByBlock
 62
     7
370
    -2
380
     1
100
AcDbLine
 10
3256.433838
 20
299.7417933868854
 30
0.0
 11
3236.767171333333
 21
299.7417933868854
 31
0.0
  0
SOLID
  5
475
330
47A
100
AcDbEntity
  8
0
  6
ByBlock
 62
     7
380
     1
100
AcDbTrace
 10
3266.433838
 20
299.7417933868854
 30
0.0
 11
3256.433838
 21
298.0751267202187
 31
0.0
 12
3256.433838
 22
301.4084600535521
 32
0.0
 13
3256.433838
 23
301.4084600535521
 33
0.0
  0
SOLID
  5
476
330
47A
100
AcDbEntity
  8
0
  6
ByBlock
 62
     7
380
     1
100
AcDbTrace
 10
3270.433838
 20
299.7417933868854
 30
0.0
 11
3280.433838
 21
298.0751267202187
 31
0.0
 12
3280.433838
 22
301.4084600535521
 32
0.0
 13
3280.433838
 23
301.4084600535521
 33
0.0
  0
LINE
  5
477
330
47A
100
AcDbEntity
  8
0
  6
ByBlock
 62
     7
370
    -2
380
     1
100
AcDbLine
 10
3266.433838
 20
299.7417933868854
 30
0.0
 11
3270.433838
 21
299.7417933868854
 31
0.0
  0
MTEXT
  5
478
330
47A
100
AcDbEntity
  8
0
  6
ByBlock
 62
     0
370
    -2
380
     1
100
AcDbMText
 10
3246.433838
 20
311.7417933868854
 30
0.0
 40
14.0
 41
0.0
 71
     5
 72
     1
  1
\A1;4
 73
     1
 44
1.0
  0
ENDBLK
  5
55D
330
47A
100
AcDbEntity
  8
0
100
AcDbBlockEnd
  0
BLOCK
  5
55E
330
519
100
AcDbEntity
  8
0
100
AcDbBlockBegin
  2
*D16
 70
     1
 10
0.0
 20
0.0
 30
0.0
  3
*D16
  1

  0
POINT
  5
510
330
519
100
AcDbEntity
  8
DEFPOINTS
  6
ByBlock
 62
     7
380
     1
100
AcDbPoint
 10
2837.352387000002
 20
140.3939400385176
 30
0.0
  0
POINT
  5
511
330
519
100
AcDbEntity
  8
DEFPOINTS
  6
ByBlock
 62
     7
380
     1
100
AcDbPoint
 10
3175.644775
 20
140.393982
 30
0.0
  0
LINE
  5
512
330
519
100
AcDbEntity
  8
0
  6
ByBlock
 62
     7
370
    -2
380
     1
100
AcDbLine
 10
2837.352387000002
 20
141.0189400385176
 30
0.0
 11
2837.352387000002
 21
300.9917933868854
 31
0.0
  0
LINE
  5
513
330
519
100
AcDbEntity
  8
0
  6
ByBlock
 62
     7
370
    -2
380
     1
100
AcDbLine
 10
3175.644775
 20
141.018982
 30
0.0
 11
3175.644775
 21
300.9917933868854
 31
0.0
  0
LINE
  5
514
330
519
100
AcDbEntity
  8
0
  6
ByBlock
 62
     7
370
    -2
380
     1
100
AcDbLine
 10
2847.352387000002
 20
299.7417933868854
 30
0.0
 11
3165.644775
 21
299.7417933868854
 31
0.0
  0
SOLID
  5
515
330
519
100
AcDbEntity
  8
0
  6
ByBlock
 62
     7
380
     1
100
AcDbTrace
 10
2837.352387000002
 20
299.7417933868854
 30
0.0
 11
2847.352387000002
 21
298.0751267202187
 31
0.0
 12
2847.352387000002
 22
301.4084600535521
 32
0.0
 13
2847.352387000002
 23
301.4084600535521
 33
0.0
  0
SOLID
  5
516
330
519
100
AcDbEntity
  8
0
  6
ByBlock
 62
     7
380
     1
100
AcDbTrace
 10
3175.644775
 20
299.7417933868854
 30
0.0
 11
3165.644775
 21
298.0751267202187
 31
0.0
 12
3165.644775
 22
301.4084600535521
 32
0.0
 13
3165.644775
 23
301.4084600535521
 33
0.0
  0
MTEXT
  5
517
330
519
100
AcDbEntity
  8
0
  6
ByBlock
 62
     0
370
    -2
380
     1
100
AcDbMText
 10
3006.498581000001
 20
327.7417933868854
 30
0.0
 40
36.0
 41
0.0
 71
     5
 72
     1
  1
338
 73
     1
 44
1.0
  0
ENDBLK
  5
55F
330
519
100
AcDbEntity
  8
0
100
AcDbBlockEnd
  0
BLOCK
  5
560
330
524
100
AcDbEntity
  8
0
100
AcDbBlockBegin
  2
*D17
 70
     1
 10
0.0
 20
0.0
 30
0.0
  3
*D17
  1

  0
POINT
  5
51B
330
524
100
AcDbEntity
  8
DEFPOINTS
  6
ByBlock
 62
     7
380
     1
100
AcDbPoint
 10
3029.579834
 20
280.2191925
 30
0.0
  0
POINT
  5
51C
330
524
100
AcDbEntity
  8
DEFPOINTS
  6
ByBlock
 62
     7
380
     1
100
AcDbPoint
 10
3035.923646663074
 20
0.5147585786452684
 30
0.0
  0
LINE
  5
51D
330
524
100
AcDbEntity
  8
0
  6
ByBlock
 62
     7
370
    -2
380
     1
100
AcDbLine
 10
3028.954834
 20
280.2191925
 30
0.0
 11
2808.546062268048
 21
280.2191925
 31
0.0
  0
LINE
  5
51E
330
524
100
AcDbEntity
  8
0
  6
ByBlock
 62
     7
370
    -2
380
     1
100
AcDbLine
 10
3035.298646663074
 20
0.5147585786452851
 30
0.0
 11
2808.546062268048
 21
0.5147585786452851
 31
0.0
  0
LINE
  5
51F
330
524
100
AcDbEntity
  8
0
  6
ByBlock
 62
     7
370
    -2
380
     1
100
AcDbLine
 10
2809.796062268048
 20
270.2191925
 30
0.0
 11
2809.796062268048
 21
10.51475857864529
 31
0.0
  0
SOLID
  5
520
330
524
100
AcDbEntity
  8
0
  6
ByBlock
 62
     7
380
     1
100
AcDbTrace
 10
2809.796062268048
 20
280.2191925
 30
0.0
 11
2808.129395601381
 21
270.2191925
 31
0.0
 12
2811.462728934715
 22
270.2191925
 32
0.0
 13
2811.462728934715
 23
270.2191925
 33
0.0
  0
SOLID
  5
521
330
524
100
AcDbEntity
  8
0
  6
ByBlock
 62
     7
380
     1
100
AcDbTrace
 10
2809.796062268048
 20
0.5147585786452851
 30
0.0
 11
2808.129395601381
 21
10.51475857864529
 31
0.0
 12
2811.462728934715
 22
10.51475857864529
 32
0.0
 13
2811.462728934715
 23
10.51475857864529
 33
0.0
  0
MTEXT
  5
522
330
524
100
AcDbEntity
  8
0
  6
ByBlock
 62
     0
370
    -2
380
     1
100
AcDbMText
 10
2781.796062268048
 20
140.3669755393227
 30
0.0
 40
36.0
 41
0.0
 71
     5
 72
     1
  1
280
 11
6.123031769111886E-17
 21
1.0
 31
0.0
 73
     1
 44
1.0
  0
ENDBLK
  5
561
330
524
100
AcDbEntity
  8
0
100
AcDbBlockEnd
  0
BLOCK
  5
562
330
531
100
AcDbEntity
  8
0
100
AcDbBlockBegin
  2
*D18
 70
     1
 10
0.0
 20
0.0
 30
0.0
  3
*D18
  1

  0
POINT
  5
526
330
531
100
AcDbEntity
  8
DEFPOINTS
  6
ByBlock
 62
     7
380
     1
100
AcDbPoint
 10
3266.433838
 20
224.4627060134411
 30
0.0
  0
POINT
  5
527
330
531
100
AcDbEntity
  8
DEFPOINTS
  6
ByBlock
 62
     7
380
     1
100
AcDbPoint
 10
3270.433838
 20
224.4627060134411
 30
0.0
  0
LINE
  5
528
330
531
100
AcDbEntity
  8
0
  6
ByBlock
 62
     7
370
    -2
380
     1
100
AcDbLine
 10
3266.433838
 20
225.0877060134411
 30
0.0
 11
3266.433838
 21
300.9917933868854
 31
0.0
  0
LINE
  5
529
330
531
100
AcDbEntity
  8
0
  6
ByBlock
 62
     7
370
    -2
380
     1
100
AcDbLine
 10
3270.433838
 20
225.0877060134411
 30
0.0
 11
3270.433838
 21
300.9917933868854
 31
0.0
  0
LINE
  5
52A
330
531
100
AcDbEntity
  8
0
  6
ByBlock
 62
     7
370
    -2
380
     1
100
AcDbLine
 10
3280.433838
 20
299.7417933868854
 30
0.0
 11
3290.433838
 21
299.7417933868854
 31
0.0
  0
LINE
  5
52B
330
531
100
AcDbEntity
  8
0
  6
ByBlock
 62
     7
370
    -2
380
     1
100
AcDbLine
 10
3256.433838
 20
299.7417933868854
 30
0.0
 11
3212.433838
 21
299.7417933868854
 31
0.0
  0
SOLID
  5
52C
330
531
100
AcDbEntity
  8
0
  6
ByBlock
 62
     7
380
     1
100
AcDbTrace
 10
3266.433838
 20
299.7417933868854
 30
0.0
 11
3256.433838
 21
298.0751267202187
 31
0.0
 12
3256.433838
 22
301.4084600535521
 32
0.0
 13
3256.433838
 23
301.4084600535521
 33
0.0
  0
SOLID
  5
52D
330
531
100
AcDbEntity
  8
0
  6
ByBlock
 62
     7
380
     1
100
AcDbTrace
 10
3270.433838
 20
299.7417933868854
 30
0.0
 11
3280.433838
 21
298.0751267202187
 31
0.0
 12
3280.433838
 22
301.4084600535521
 32
0.0
 13
3280.433838
 23
301.4084600535521
 33
0.0
  0
LINE
  5
52E
330
531
100
AcDbEntity
  8
0
  6
ByBlock
 62
     7
370
    -2
380
     1
100
AcDbLine
 10
3266.433838
 20
299.7417933868854
 30
0.0
 11
3270.433838
 21
299.7417933868854
 31
0.0
  0
MTEXT
  5
52F
330
531
100
AcDbEntity
  8
0
  6
ByBlock
 62
     0
370
    -2
380
     1
100
AcDbMText
 10
3234.433838
 20
327.7417933868854
 30
0.0
 40
36.0
 41
0.0
 71
     5
 72
     1
  1
\A1;4
 73
     1
 44
1.0
  0
ENDBLK
  5
563
330
531
100
AcDbEntity
  8
0
100
AcDbBlockEnd
  0
ENDSEC
  0
SECTION
  2
ENTITIES
  0
LINE
  5
39
330
1F
100
AcDbEntity
  8
0
 48
0.05
370
    60
100
AcDbLine
 10
3269.433838
 20
0.510895
 30
0.0
 11
3267.433838
 21
0.510895
 31
0.0
  0
LINE
  5
3A
330
1F
100
AcDbEntity
  8
0
 48
0.05
370
    60
100
AcDbLine
 10
3269.433838
 20
280.277069
 30
0.0
 11
3267.433838
 21
280.277069
 31
0.0
  0
LINE
  5
3B
330
1F
100
AcDbEntity
  8
0
370
    60
100
AcDbLine
 10
3270.433838
 20
140.393982
 30
0.0
 11
3270.433838
 21
247.196213
 31
0.0
  0
LINE
  5
3C
330
1F
100
AcDbEntity
  8
0
370
    60
100
AcDbLine
 10
3266.433838
 20
140.393982
 30
0.0
 11
3266.433838
 21
247.196213
 31
0.0
  0
LINE
  5
3D
330
1F
100
AcDbEntity
  8
0
370
    60
100
AcDbLine
 10
3270.433838
 20
33.591743
 30
0.0
 11
3270.433838
 21
140.393982
 31
0.0
  0
LINE
  5
3E
330
1F
100
AcDbEntity
  8
0
370
    60
100
AcDbLine
 10
3266.433838
 20
33.591743
 30
0.0
 11
3266.433838
 21
140.393982
 31
0.0
  0
LINE
  5
3F
330
1F
100
AcDbEntity
  8
0
370
    60
100
AcDbLine
 10
3270.433838
 20
6.016937
 30
0.0
 11
3270.433838
 21
33.591743
 31
0.0
  0
LINE
  5
40
330
1F
100
AcDbEntity
  8
0
370
    60
100
AcDbLine
 10
3266.433838
 20
6.017044
 30
0.0
 11
3266.433838
 21
33.591743
 31
0.0
  0
LINE
  5
41
330
1F
100
AcDbEntity
  8
0
 48
0.112651
370
    60
100
AcDbLine
 10
3270.433838
 20
1.510895
 30
0.0
 11
3270.433838
 21
6.016937
 31
0.0
  0
LINE
  5
42
330
1F
100
AcDbEntity
  8
0
 48
0.112654
370
    60
100
AcDbLine
 10
3266.433838
 20
1.510895
 30
0.0
 11
3266.433838
 21
6.017044
 31
0.0
  0
LINE
  5
43
330
1F
100
AcDbEntity
  8
0
 48
0.112654
370
    60
100
AcDbLine
 10
3270.433838
 20
274.770905
 30
0.0
 11
3270.433838
 21
279.277069
 31
0.0
  0
LINE
  5
44
330
1F
100
AcDbEntity
  8
0
 48
0.112651
370
    60
100
AcDbLine
 10
3266.433838
 20
274.771027
 30
0.0
 11
3266.433838
 21
279.277069
 31
0.0
  0
LINE
  5
45
330
1F
100
AcDbEntity
  8
0
370
    60
100
AcDbLine
 10
3270.433838
 20
247.196213
 30
0.0
 11
3270.433838
 21
274.770905
 31
0.0
  0
LINE
  5
46
330
1F
100
AcDbEntity
  8
0
370
    60
100
AcDbLine
 10
3266.433838
 20
247.196213
 30
0.0
 11
3266.433838
 21
274.771027
 31
0.0
  0
LINE
  5
47
330
1F
100
AcDbEntity
  8
0
370
    60
100
AcDbLine
 10
3266.433838
 20
90.118629
 30
0.0
 11
3266.433838
 21
190.669327
 31
0.0
  0
LINE
  5
48
330
1F
100
AcDbEntity
  8
0
370
    60
100
AcDbLine
 10
3266.433838
 20
211.261353
 30
0.0
 11
3266.433838
 21
255.082382
 31
0.0
  0
LINE
  5
49
330
1F
100
AcDbEntity
  8
0
370
    60
100
AcDbLine
 10
3266.433838
 20
214.564178
 30
0.0
 11
3266.433838
 21
255.082291
 31
0.0
  0
LINE
  5
4A
330
1F
100
AcDbEntity
  8
0
370
    60
100
AcDbLine
 10
3266.433838
 20
66.223358
 30
0.0
 11
3266.433838
 21
214.564606
 31
0.0
  0
LINE
  5
4B
330
1F
100
AcDbEntity
  8
0
370
    60
100
AcDbLine
 10
3266.433838
 20
25.705666
 30
0.0
 11
3266.433838
 21
66.223778
 31
0.0
  0
LINE
  5
4C
330
1F
100
AcDbEntity
  8
0
370
    60
100
AcDbLine
 10
3266.433838
 20
25.705574
 30
0.0
 11
3266.433838
 21
69.526604
 31
0.0
  0
LINE
  5
4D
330
1F
100
AcDbEntity
  8
0
370
    60
100
AcDbLine
 10
3266.433838
 20
190.669327
 30
0.0
 11
3266.433838
 21
211.261353
 31
0.0
  0
LINE
  5
4E
330
1F
100
AcDbEntity
  8
0
370
    60
100
AcDbLine
 10
3266.433838
 20
69.526604
 30
0.0
 11
3266.433838
 21
90.118629
 31
0.0
  0
ARC
  5
4F
330
1F
100
AcDbEntity
  8
0
370
    60
100
AcDbCircle
 10
3269.433838
 20
279.277069
 30
0.0
 40
1.0
100
AcDbArc
 50
0.000001
 51
90.0
  0
ARC
  5
50
330
1F
100
AcDbEntity
  8
0
370
    60
100
AcDbCircle
 10
3267.433838
 20
279.277069
 30
0.0
 40
1.0
100
AcDbArc
 50
90.0
 51
180.000003
  0
ARC
  5
51
330
1F
100
AcDbEntity
  8
0
370
    60
100
AcDbCircle
 10
3267.433838
 20
1.510895
 30
0.0
 40
1.0
100
AcDbArc
 50
180.000003
 51
270.000005
  0
ARC
  5
52
330
1F
100
AcDbEntity
  8
0
370
    60
100
AcDbCircle
 10
3269.433838
 20
1.510895
 30
0.0
 40
1.0
100
AcDbArc
 50
270.000005
 51
0.000001
  0
LINE
  5
15F
330
1F
100
AcDbEntity
  8
0
370
    60
100
AcDbLine
 10
3175.644775
 20
140.393982
 30
0.0
 11
3175.644775
 21
247.196228
 31
0.0
  0
LINE
  5
160
330
1F
100
AcDbEntity
  8
0
370
    60
100
AcDbLine
 10
3175.644775
 20
33.591743
 30
0.0
 11
3175.644775
 21
140.393982
 31
0.0
  0
ARC
  5
161
330
1F
100
AcDbEntity
  8
0
370
    60
100
AcDbCircle
 10
3147.929199
 20
33.591743
 30
0.0
 40
27.715637
100
AcDbArc
 50
275.782931
 51
0.0
  0
ARC
  5
17D
330
1F
100
AcDbEntity
  8
0
370
    60
100
AcDbCircle
 10
3147.929199
 20
247.196228
 30
0.0
 40
27.715637
100
AcDbArc
 50
0.000001
 51
84.217066
  0
POINT
  5
17E
330
1F
100
AcDbEntity
  8
0
370
    60
100
AcDbPoint
 10
3041.731689
 20
280.287964
 30
0.0
  0
POINT
  5
181
330
1F
100
AcDbEntity
  8
0
370
    60
100
AcDbPoint
 10
2837.352295
 20
140.393982
 30
0.0
  0
ARC
  5
182
330
1F
100
AcDbEntity
  8
0
370
    60
100
AcDbCircle
 10
2925.28125
 20
188.631302
 30
0.0
 40
84.988747
100
AcDbArc
 50
92.75436500000002
 51
172.038873
  0
ARC
  5
183
330
1F
100
AcDbEntity
  8
0
370
    60
100
AcDbCircle
 10
2925.28125
 20
92.156662
 30
0.0
 40
84.988747
100
AcDbArc
 50
187.961123
 51
267.245631
  0
ARC
  5
195
330
1F
100
AcDbEntity
  8
0
370
    60
100
AcDbCircle
 10
3318.195557
 20
140.393982
 30
0.0
 40
480.84317
100
AcDbArc
 50
172.830902
 51
187.169108
  0
ARC
  5
196
330
1F
100
AcDbEntity
  8
0
370
    60
100
AcDbCircle
 10
3041.792725
 20
1078.389893
 30
0.0
 40
1077.891113
100
AcDbArc
 50
263.575989
 51
275.8000610000001
  0
LINE
  5
197
330
1F
100
AcDbEntity
  8
0
370
    60
100
AcDbLine
 10
3152.474365
 20
95.420898
 30
0.0
 11
3152.474365
 21
185.367065
 31
0.0
  0
ARC
  5
20E
330
1F
100
AcDbEntity
  8
0
370
    60
100
AcDbCircle
 10
2901.460693
 20
99.864456
 30
0.0
 40
44.500763
100
AcDbArc
 50
179.999991
 51
240.030359
  0
ARC
  5
20F
330
1F
100
AcDbEntity
  8
0
370
    60
100
AcDbCircle
 10
2901.460693
 20
180.923508
 30
0.0
 40
44.500763
100
AcDbArc
 50
119.969636
 51
180.000005
  0
ARC
  5
210
330
1F
100
AcDbEntity
  8
0
370
    60
100
AcDbCircle
 10
4266.384766
 20
140.393982
 30
0.0
 40
1410.007568
100
AcDbArc
 50
178.35285
 51
181.647146
  0
ARC
  5
211
330
1F
100
AcDbEntity
  8
0
370
    60
100
AcDbCircle
 10
3076.776855
 20
140.394226
 30
0.0
 40
88.048882
100
AcDbArc
 50
302.063669
 51
329.285112
  0
ARC
  5
212
330
1F
100
AcDbEntity
  8
0
370
    60
100
AcDbCircle
 10
2980.987305
 20
262.823761
 30
0.0
 40
243.193039
100
AcDbArc
 50
276.511274
 51
305.879556
  0
ARC
  5
213
330
1F
100
AcDbEntity
  8
0
370
    60
100
AcDbCircle
 10
3018.529053
 20
281.877319
 30
0.0
 40
260.868225
100
AcDbArc
 50
237.725281
 51
267.811034
  0
POINT
  5
214
330
1F
100
AcDbEntity
  8
0
370
    60
100
AcDbPoint
 10
2837.352295
 20
140.393982
 30
0.0
  0
POINT
  5
216
330
1F
100
AcDbEntity
  8
0
370
    60
100
AcDbPoint
 10
3175.644775
 20
140.393982
 30
0.0
  0
LINE
  5
257
330
1F
100
AcDbEntity
  8
0
370
    60
100
AcDbLine
 10
3150.721924
 20
274.771118
 30
0.0
 11
3141.408691
 21
275.674255
 31
0.0
  0
LINE
  5
258
330
1F
100
AcDbEntity
  8
0
370
    60
100
AcDbLine
 10
3141.408691
 20
275.674255
 30
0.0
 11
3136.728516
 21
276.098114
 31
0.0
  0
LINE
  5
259
330
1F
100
AcDbEntity
  8
0
370
    60
100
AcDbLine
 10
3136.728516
 20
276.098114
 30
0.0
 11
3132.046631
 21
276.501953
 31
0.0
  0
LINE
  5
25A
330
1F
100
AcDbEntity
  8
0
370
    60
100
AcDbLine
 10
3132.046631
 20
276.501953
 30
0.0
 11
3127.375488
 21
276.884796
 31
0.0
  0
LINE
  5
25B
330
1F
100
AcDbEntity
  8
0
370
    60
100
AcDbLine
 10
3127.375488
 20
276.884796
 30
0.0
 11
3122.702881
 21
277.247589
 31
0.0
  0
LINE
  5
25C
330
1F
100
AcDbEntity
  8
0
370
    60
100
AcDbLine
 10
3122.702881
 20
277.247589
 30
0.0
 11
3118.047119
 21
277.588989
 31
0.0
  0
LINE
  5
25D
330
1F
100
AcDbEntity
  8
0
370
    60
100
AcDbLine
 10
3118.047119
 20
277.588989
 30
0.0
 11
3113.389893
 21
277.91037
 31
0.0
  0
LINE
  5
25E
330
1F
100
AcDbEntity
  8
0
370
    60
100
AcDbLine
 10
3113.389893
 20
277.91037
 30
0.0
 11
3108.751709
 21
278.210327
 31
0.0
  0
LINE
  5
25F
330
1F
100
AcDbEntity
  8
0
370
    60
100
AcDbLine
 10
3108.751709
 20
278.210327
 30
0.0
 11
3104.112305
 21
278.490234
 31
0.0
  0
LINE
  5
260
330
1F
100
AcDbEntity
  8
0
370
    60
100
AcDbLine
 10
3104.112305
 20
278.490234
 30
0.0
 11
3099.491211
 21
278.748962
 31
0.0
  0
LINE
  5
261
330
1F
100
AcDbEntity
  8
0
370
    60
100
AcDbLine
 10
3099.491211
 20
278.748962
 30
0.0
 11
3094.869141
 21
278.98761
 31
0.0
  0
LINE
  5
262
330
1F
100
AcDbEntity
  8
0
370
    60
100
AcDbLine
 10
3094.869141
 20
278.98761
 30
0.0
 11
3090.261719
 21
279.205475
 31
0.0
  0
LINE
  5
263
330
1F
100
AcDbEntity
  8
0
370
    60
100
AcDbLine
 10
3090.261719
 20
279.205475
 30
0.0
 11
3085.653564
 21
279.40332
 31
0.0
  0
LINE
  5
264
330
1F
100
AcDbEntity
  8
0
370
    60
100
AcDbLine
 10
3085.653564
 20
279.40332
 30
0.0
 11
3076.452148
 21
279.73822
 31
0.0
  0
LINE
  5
265
330
1F
100
AcDbEntity
  8
0
370
    60
100
AcDbLine
 10
3076.452148
 20
279.73822
 30
0.0
 11
3067.247314
 21
279.993225
 31
0.0
  0
LINE
  5
266
330
1F
100
AcDbEntity
  8
0
370
    60
100
AcDbLine
 10
3067.247314
 20
279.993225
 30
0.0
 11
3058.014404
 21
280.169189
 31
0.0
  0
LINE
  5
267
330
1F
100
AcDbEntity
  8
0
370
    60
100
AcDbLine
 10
3058.014404
 20
280.169189
 30
0.0
 11
3048.722412
 21
280.266541
 31
0.0
  0
LINE
  5
268
330
1F
100
AcDbEntity
  8
0
370
    60
100
AcDbLine
 10
3048.722412
 20
280.266541
 30
0.0
 11
3039.331055
 21
280.2854
 31
0.0
  0
LINE
  5
269
330
1F
100
AcDbEntity
  8
0
370
    60
100
AcDbLine
 10
3039.331055
 20
280.2854
 30
0.0
 11
3036.724854
 21
280.276794
 31
0.0
  0
LINE
  5
26A
330
1F
100
AcDbEntity
  8
0
370
    60
100
AcDbLine
 10
3036.724854
 20
280.276794
 30
0.0
 11
3031.961426
 21
280.245453
 31
0.0
  0
LINE
  5
26B
330
1F
100
AcDbEntity
  8
0
370
    60
100
AcDbLine
 10
3031.961426
 20
280.245453
 30
0.0
 11
3027.198242
 21
280.192932
 31
0.0
  0
LINE
  5
26C
330
1F
100
AcDbEntity
  8
0
370
    60
100
AcDbLine
 10
3027.198242
 20
280.192932
 30
0.0
 11
3018.081787
 21
280.031708
 31
0.0
  0
LINE
  5
26D
330
1F
100
AcDbEntity
  8
0
370
    60
100
AcDbLine
 10
3018.081787
 20
280.031708
 30
0.0
 11
3008.854736
 21
279.788971
 31
0.0
  0
LINE
  5
26E
330
1F
100
AcDbEntity
  8
0
370
    60
100
AcDbLine
 10
3008.854736
 20
279.788971
 30
0.0
 11
3001.886963
 21
279.553162
 31
0.0
  0
LINE
  5
291
330
1F
100
AcDbEntity
  8
0
370
    60
100
AcDbLine
 10
3001.886963
 20
279.553162
 30
0.0
 11
2992.622314
 21
279.169556
 31
0.0
  0
LINE
  5
292
330
1F
100
AcDbEntity
  8
0
370
    60
100
AcDbLine
 10
2992.622314
 20
279.169556
 30
0.0
 11
2983.333008
 21
278.704956
 31
0.0
  0
LINE
  5
293
330
1F
100
AcDbEntity
  8
0
370
    60
100
AcDbLine
 10
2983.333008
 20
278.704956
 30
0.0
 11
2974.040039
 21
278.160095
 31
0.0
  0
LINE
  5
294
330
1F
100
AcDbEntity
  8
0
370
    60
100
AcDbLine
 10
2974.040039
 20
278.160095
 30
0.0
 11
2969.39624
 21
277.857788
 31
0.0
  0
LINE
  5
295
330
1F
100
AcDbEntity
  8
0
370
    60
100
AcDbLine
 10
2969.39624
 20
277.857788
 30
0.0
 11
2964.753418
 21
277.535461
 31
0.0
  0
LINE
  5
296
330
1F
100
AcDbEntity
  8
0
370
    60
100
AcDbLine
 10
2964.753418
 20
277.535461
 30
0.0
 11
2960.117676
 21
277.193573
 31
0.0
  0
LINE
  5
297
330
1F
100
AcDbEntity
  8
0
370
    60
100
AcDbLine
 10
2960.117676
 20
277.193573
 30
0.0
 11
2955.483154
 21
276.831696
 31
0.0
  0
LINE
  5
298
330
1F
100
AcDbEntity
  8
0
370
    60
100
AcDbLine
 10
2955.483154
 20
276.831696
 30
0.0
 11
2950.860352
 21
276.450623
 31
0.0
  0
LINE
  5
299
330
1F
100
AcDbEntity
  8
0
370
    60
100
AcDbLine
 10
2950.860352
 20
276.450623
 30
0.0
 11
2946.239258
 21
276.049561
 31
0.0
  0
LINE
  5
29A
330
1F
100
AcDbEntity
  8
0
370
    60
100
AcDbLine
 10
2946.239258
 20
276.049561
 30
0.0
 11
2941.634277
 21
275.629822
 31
0.0
  0
LINE
  5
29B
330
1F
100
AcDbEntity
  8
0
370
    60
100
AcDbLine
 10
2941.634277
 20
275.629822
 30
0.0
 11
2937.03125
 21
275.190094
 31
0.0
  0
LINE
  5
29C
330
1F
100
AcDbEntity
  8
0
370
    60
100
AcDbLine
 10
2937.03125
 20
275.190094
 30
0.0
 11
2932.44873
 21
274.732178
 31
0.0
  0
LINE
  5
29D
330
1F
100
AcDbEntity
  8
0
370
    60
100
AcDbLine
 10
2932.44873
 20
274.732178
 30
0.0
 11
2927.868408
 21
274.254303
 31
0.0
  0
LINE
  5
29E
330
1F
100
AcDbEntity
  8
0
370
    60
100
AcDbLine
 10
2927.868408
 20
274.254303
 30
0.0
 11
2921.197021
 21
273.521851
 31
0.0
  0
LINE
  5
29F
330
1F
100
AcDbEntity
  8
0
370
    60
100
AcDbLine
 10
3008.564941
 20
259.588531
 30
0.0
 11
3010.722168
 21
259.345306
 31
0.0
  0
LINE
  5
2A0
330
1F
100
AcDbEntity
  8
0
370
    60
100
AcDbLine
 10
3010.722168
 20
259.345306
 30
0.0
 11
3012.876953
 21
259.082123
 31
0.0
  0
LINE
  5
2A1
330
1F
100
AcDbEntity
  8
0
370
    60
100
AcDbLine
 10
3012.876953
 20
259.082123
 30
0.0
 11
3015.021729
 21
258.799988
 31
0.0
  0
LINE
  5
2A2
330
1F
100
AcDbEntity
  8
0
370
    60
100
AcDbLine
 10
3015.021729
 20
258.799988
 30
0.0
 11
3017.163574
 21
258.497955
 31
0.0
  0
LINE
  5
2A3
330
1F
100
AcDbEntity
  8
0
370
    60
100
AcDbLine
 10
3017.163574
 20
258.497955
 30
0.0
 11
3019.296875
 21
258.176941
 31
0.0
  0
LINE
  5
2A4
330
1F
100
AcDbEntity
  8
0
370
    60
100
AcDbLine
 10
3019.296875
 20
258.176941
 30
0.0
 11
3021.427246
 21
257.836121
 31
0.0
  0
LINE
  5
2A5
330
1F
100
AcDbEntity
  8
0
370
    60
100
AcDbLine
 10
3021.427246
 20
257.836121
 30
0.0
 11
3023.550049
 21
257.476227
 31
0.0
  0
LINE
  5
2A6
330
1F
100
AcDbEntity
  8
0
370
    60
100
AcDbLine
 10
3023.550049
 20
257.476227
 30
0.0
 11
3025.669189
 21
257.096619
 31
0.0
  0
LINE
  5
2A7
330
1F
100
AcDbEntity
  8
0
370
    60
100
AcDbLine
 10
3025.669189
 20
257.096619
 30
0.0
 11
3027.781982
 21
256.697815
 31
0.0
  0
LINE
  5
2A8
330
1F
100
AcDbEntity
  8
0
370
    60
100
AcDbLine
 10
3027.781982
 20
256.697815
 30
0.0
 11
3029.891113
 21
256.279358
 31
0.0
  0
LINE
  5
2A9
330
1F
100
AcDbEntity
  8
0
370
    60
100
AcDbLine
 10
3029.891113
 20
256.279358
 30
0.0
 11
3034.093994
 21
255.384277
 31
0.0
  0
LINE
  5
2AA
330
1F
100
AcDbEntity
  8
0
370
    60
100
AcDbLine
 10
3034.093994
 20
255.384277
 30
0.0
 11
3038.278809
 21
254.411224
 31
0.0
  0
LINE
  5
2AB
330
1F
100
AcDbEntity
  8
0
370
    60
100
AcDbLine
 10
3038.278809
 20
254.411224
 30
0.0
 11
3042.446777
 21
253.360031
 31
0.0
  0
LINE
  5
2AC
330
1F
100
AcDbEntity
  8
0
370
    60
100
AcDbLine
 10
3042.446777
 20
253.360031
 30
0.0
 11
3046.598633
 21
252.230453
 31
0.0
  0
LINE
  5
2AD
330
1F
100
AcDbEntity
  8
0
370
    60
100
AcDbLine
 10
3046.598633
 20
252.230453
 30
0.0
 11
3050.734863
 21
251.022232
 31
0.0
  0
LINE
  5
2AE
330
1F
100
AcDbEntity
  8
0
370
    60
100
AcDbLine
 10
3050.734863
 20
251.022232
 30
0.0
 11
3054.856445
 21
249.735077
 31
0.0
  0
LINE
  5
2AF
330
1F
100
AcDbEntity
  8
0
370
    60
100
AcDbLine
 10
3054.856445
 20
249.735077
 30
0.0
 11
3058.963867
 21
248.368637
 31
0.0
  0
LINE
  5
2B0
330
1F
100
AcDbEntity
  8
0
370
    60
100
AcDbLine
 10
3058.963867
 20
248.368637
 30
0.0
 11
3063.057617
 21
246.922577
 31
0.0
  0
LINE
  5
2B1
330
1F
100
AcDbEntity
  8
0
370
    60
100
AcDbLine
 10
3063.057617
 20
246.922577
 30
0.0
 11
3067.138184
 21
245.396469
 31
0.0
  0
LINE
  5
2B2
330
1F
100
AcDbEntity
  8
0
370
    60
100
AcDbLine
 10
3067.138184
 20
245.396469
 30
0.0
 11
3071.206055
 21
243.789902
 31
0.0
  0
LINE
  5
2B3
330
1F
100
AcDbEntity
  8
0
370
    60
100
AcDbLine
 10
3071.206055
 20
243.789902
 30
0.0
 11
3075.261475
 21
242.102386
 31
0.0
  0
LINE
  5
2B4
330
1F
100
AcDbEntity
  8
0
370
    60
100
AcDbLine
 10
3075.261475
 20
242.102386
 30
0.0
 11
3079.305176
 21
240.33342
 31
0.0
  0
LINE
  5
2B5
330
1F
100
AcDbEntity
  8
0
370
    60
100
AcDbLine
 10
3079.305176
 20
240.33342
 30
0.0
 11
3083.336914
 21
238.482452
 31
0.0
  0
LINE
  5
2B6
330
1F
100
AcDbEntity
  8
0
370
    60
100
AcDbLine
 10
3083.336914
 20
238.482452
 30
0.0
 11
3087.357666
 21
236.548859
 31
0.0
  0
LINE
  5
2B7
330
1F
100
AcDbEntity
  8
0
370
    60
100
AcDbLine
 10
3087.357666
 20
236.548859
 30
0.0
 11
3091.367432
 21
234.531982
 31
0.0
  0
LINE
  5
2B8
330
1F
100
AcDbEntity
  8
0
370
    60
100
AcDbLine
 10
3091.367432
 20
234.531982
 30
0.0
 11
3095.366943
 21
232.431107
 31
0.0
  0
LINE
  5
2B9
330
1F
100
AcDbEntity
  8
0
370
    60
100
AcDbLine
 10
3095.366943
 20
232.431107
 30
0.0
 11
3099.356445
 21
230.245438
 31
0.0
  0
LINE
  5
2BA
330
1F
100
AcDbEntity
  8
0
370
    60
100
AcDbLine
 10
3099.356445
 20
230.245438
 30
0.0
 11
3103.336182
 21
227.974091
 31
0.0
  0
LINE
  5
2BB
330
1F
100
AcDbEntity
  8
0
370
    60
100
AcDbLine
 10
3103.336182
 20
227.974091
 30
0.0
 11
3107.307129
 21
225.616089
 31
0.0
  0
LINE
  5
2BC
330
1F
100
AcDbEntity
  8
0
370
    60
100
AcDbLine
 10
3107.307129
 20
225.616089
 30
0.0
 11
3111.27002
 21
223.170334
 31
0.0
  0
LINE
  5
2BD
330
1F
100
AcDbEntity
  8
0
370
    60
100
AcDbLine
 10
3111.27002
 20
223.170334
 30
0.0
 11
3115.225342
 21
220.63559
 31
0.0
  0
LINE
  5
2BE
330
1F
100
AcDbEntity
  8
0
370
    60
100
AcDbLine
 10
3115.225342
 20
220.63559
 30
0.0
 11
3119.174072
 21
218.010437
 31
0.0
  0
LINE
  5
2BF
330
1F
100
AcDbEntity
  8
0
370
    60
100
AcDbLine
 10
3119.174072
 20
218.010437
 30
0.0
 11
3123.117676
 21
215.29332
 31
0.0
  0
LINE
  5
2C0
330
1F
100
AcDbEntity
  8
0
370
    60
100
AcDbLine
 10
3123.117676
 20
215.29332
 30
0.0
 11
3123.619873
 21
214.940323
 31
0.0
  0
LINE
  5
2C1
330
1F
100
AcDbEntity
  8
0
370
    60
100
AcDbLine
 10
2877.467773
 20
218.400604
 30
0.0
 11
2879.711426
 21
219.764191
 31
0.0
  0
LINE
  5
2C2
330
1F
100
AcDbEntity
  8
0
370
    60
100
AcDbLine
 10
2879.711426
 20
219.764191
 30
0.0
 11
2881.965332
 21
221.110321
 31
0.0
  0
LINE
  5
2C3
330
1F
100
AcDbEntity
  8
0
370
    60
100
AcDbLine
 10
2881.965332
 20
221.110321
 30
0.0
 11
2884.196045
 21
222.419266
 31
0.0
  0
LINE
  5
2C4
330
1F
100
AcDbEntity
  8
0
370
    60
100
AcDbLine
 10
2884.196045
 20
222.419266
 30
0.0
 11
2886.437256
 21
223.710678
 31
0.0
  0
LINE
  5
2C5
330
1F
100
AcDbEntity
  8
0
370
    60
100
AcDbLine
 10
2886.437256
 20
223.710678
 30
0.0
 11
2888.660645
 21
224.968628
 31
0.0
  0
LINE
  5
2C6
330
1F
100
AcDbEntity
  8
0
370
    60
100
AcDbLine
 10
2888.660645
 20
224.968628
 30
0.0
 11
2890.893799
 21
226.208923
 31
0.0
  0
LINE
  5
2C7
330
1F
100
AcDbEntity
  8
0
370
    60
100
AcDbLine
 10
2890.893799
 20
226.208923
 30
0.0
 11
2893.110107
 21
227.416809
 31
0.0
  0
LINE
  5
2C8
330
1F
100
AcDbEntity
  8
0
370
    60
100
AcDbLine
 10
2893.110107
 20
227.416809
 30
0.0
 11
2895.335938
 21
228.606918
 31
0.0
  0
LINE
  5
2C9
330
1F
100
AcDbEntity
  8
0
370
    60
100
AcDbLine
 10
2895.335938
 20
228.606918
 30
0.0
 11
2897.545898
 21
229.765625
 31
0.0
  0
LINE
  5
2CA
330
1F
100
AcDbEntity
  8
0
370
    60
100
AcDbLine
 10
2897.545898
 20
229.765625
 30
0.0
 11
2899.765137
 21
230.906403
 31
0.0
  0
LINE
  5
2CB
330
1F
100
AcDbEntity
  8
0
370
    60
100
AcDbLine
 10
2899.765137
 20
230.906403
 30
0.0
 11
2901.969238
 21
232.016724
 31
0.0
  0
LINE
  5
2CC
330
1F
100
AcDbEntity
  8
0
370
    60
100
AcDbLine
 10
2901.969238
 20
232.016724
 30
0.0
 11
2904.182129
 21
233.108978
 31
0.0
  0
LINE
  5
2CD
330
1F
100
AcDbEntity
  8
0
370
    60
100
AcDbLine
 10
2904.182129
 20
233.108978
 30
0.0
 11
2906.380615
 21
234.171646
 31
0.0
  0
LINE
  5
2CE
330
1F
100
AcDbEntity
  8
0
370
    60
100
AcDbLine
 10
2906.380615
 20
234.171646
 30
0.0
 11
2908.587891
 21
235.216095
 31
0.0
  0
LINE
  5
2CF
330
1F
100
AcDbEntity
  8
0
370
    60
100
AcDbLine
 10
2908.587891
 20
235.216095
 30
0.0
 11
2910.781494
 21
236.231812
 31
0.0
  0
LINE
  5
2D0
330
1F
100
AcDbEntity
  8
0
370
    60
100
AcDbLine
 10
2910.781494
 20
236.231812
 30
0.0
 11
2912.983398
 21
237.229156
 31
0.0
  0
LINE
  5
2D1
330
1F
100
AcDbEntity
  8
0
370
    60
100
AcDbLine
 10
2912.983398
 20
237.229156
 30
0.0
 11
2915.172363
 21
238.198517
 31
0.0
  0
LINE
  5
2D2
330
1F
100
AcDbEntity
  8
0
370
    60
100
AcDbLine
 10
2915.172363
 20
238.198517
 30
0.0
 11
2917.369385
 21
239.149414
 31
0.0
  0
LINE
  5
2D3
330
1F
100
AcDbEntity
  8
0
370
    60
100
AcDbLine
 10
2917.369385
 20
239.149414
 30
0.0
 11
2919.553955
 21
240.073029
 31
0.0
  0
LINE
  5
2D4
330
1F
100
AcDbEntity
  8
0
370
    60
100
AcDbLine
 10
2919.553955
 20
240.073029
 30
0.0
 11
2921.746338
 21
240.978043
 31
0.0
  0
LINE
  5
2D5
330
1F
100
AcDbEntity
  8
0
370
    60
100
AcDbLine
 10
2921.746338
 20
240.978043
 30
0.0
 11
2923.927002
 21
241.856476
 31
0.0
  0
LINE
  5
2D6
330
1F
100
AcDbEntity
  8
0
370
    60
100
AcDbLine
 10
2923.927002
 20
241.856476
 30
0.0
 11
2926.115234
 21
242.716187
 31
0.0
  0
LINE
  5
2D7
330
1F
100
AcDbEntity
  8
0
370
    60
100
AcDbLine
 10
2926.115234
 20
242.716187
 30
0.0
 11
2928.292236
 21
243.549942
 31
0.0
  0
LINE
  5
2D8
330
1F
100
AcDbEntity
  8
0
370
    60
100
AcDbLine
 10
2928.292236
 20
243.549942
 30
0.0
 11
2930.476563
 21
244.364838
 31
0.0
  0
LINE
  5
2D9
330
1F
100
AcDbEntity
  8
0
370
    60
100
AcDbLine
 10
2930.476563
 20
244.364838
 30
0.0
 11
2932.650146
 21
245.154419
 31
0.0
  0
LINE
  5
2DA
330
1F
100
AcDbEntity
  8
0
370
    60
100
AcDbLine
 10
2932.650146
 20
245.154419
 30
0.0
 11
2934.830811
 21
245.925018
 31
0.0
  0
LINE
  5
2DB
330
1F
100
AcDbEntity
  8
0
370
    60
100
AcDbLine
 10
2934.830811
 20
245.925018
 30
0.0
 11
2937.001465
 21
246.670837
 31
0.0
  0
LINE
  5
2DC
330
1F
100
AcDbEntity
  8
0
370
    60
100
AcDbLine
 10
2937.001465
 20
246.670837
 30
0.0
 11
2939.178467
 21
247.397583
 31
0.0
  0
LINE
  5
2DD
330
1F
100
AcDbEntity
  8
0
370
    60
100
AcDbLine
 10
2939.178467
 20
247.397583
 30
0.0
 11
2941.346436
 21
248.100098
 31
0.0
  0
LINE
  5
2DE
330
1F
100
AcDbEntity
  8
0
370
    60
100
AcDbLine
 10
2941.346436
 20
248.100098
 30
0.0
 11
2943.520508
 21
248.783417
 31
0.0
  0
LINE
  5
2DF
330
1F
100
AcDbEntity
  8
0
370
    60
100
AcDbLine
 10
2943.520508
 20
248.783417
 30
0.0
 11
2945.686035
 21
249.443008
 31
0.0
  0
LINE
  5
2E0
330
1F
100
AcDbEntity
  8
0
370
    60
100
AcDbLine
 10
2945.686035
 20
249.443008
 30
0.0
 11
2947.857178
 21
250.083313
 31
0.0
  0
LINE
  5
2E1
330
1F
100
AcDbEntity
  8
0
370
    60
100
AcDbLine
 10
2947.857178
 20
250.083313
 30
0.0
 11
2950.020264
 21
250.700317
 31
0.0
  0
LINE
  5
2E2
330
1F
100
AcDbEntity
  8
0
370
    60
100
AcDbLine
 10
2950.020264
 20
250.700317
 30
0.0
 11
2952.188965
 21
251.297974
 31
0.0
  0
LINE
  5
2E3
330
1F
100
AcDbEntity
  8
0
370
    60
100
AcDbLine
 10
2952.188965
 20
251.297974
 30
0.0
 11
2954.350098
 21
251.872772
 31
0.0
  0
LINE
  5
2E4
330
1F
100
AcDbEntity
  8
0
370
    60
100
AcDbLine
 10
2954.350098
 20
251.872772
 30
0.0
 11
2956.516602
 21
252.428116
 31
0.0
  0
LINE
  5
2E5
330
1F
100
AcDbEntity
  8
0
370
    60
100
AcDbLine
 10
2956.516602
 20
252.428116
 30
0.0
 11
2958.676025
 21
252.961014
 31
0.0
  0
LINE
  5
2E6
330
1F
100
AcDbEntity
  8
0
370
    60
100
AcDbLine
 10
2958.676025
 20
252.961014
 30
0.0
 11
2960.840332
 21
253.474365
 31
0.0
  0
LINE
  5
2E7
330
1F
100
AcDbEntity
  8
0
370
    60
100
AcDbLine
 10
2960.840332
 20
253.474365
 30
0.0
 11
2962.998291
 21
253.965668
 31
0.0
  0
LINE
  5
2E8
330
1F
100
AcDbEntity
  8
0
370
    60
100
AcDbLine
 10
2962.998291
 20
253.965668
 30
0.0
 11
2965.160645
 21
254.437347
 31
0.0
  0
LINE
  5
2E9
330
1F
100
AcDbEntity
  8
0
370
    60
100
AcDbLine
 10
2965.160645
 20
254.437347
 30
0.0
 11
2967.317627
 21
254.887268
 31
0.0
  0
LINE
  5
2EA
330
1F
100
AcDbEntity
  8
0
370
    60
100
AcDbLine
 10
2967.317627
 20
254.887268
 30
0.0
 11
2969.478516
 21
255.317535
 31
0.0
  0
LINE
  5
2EB
330
1F
100
AcDbEntity
  8
0
370
    60
100
AcDbLine
 10
2969.478516
 20
255.317535
 30
0.0
 11
2971.634521
 21
255.726379
 31
0.0
  0
LINE
  5
2EC
330
1F
100
AcDbEntity
  8
0
370
    60
100
AcDbLine
 10
2971.634521
 20
255.726379
 30
0.0
 11
2973.793945
 21
256.115479
 31
0.0
  0
LINE
  5
2ED
330
1F
100
AcDbEntity
  8
0
370
    60
100
AcDbLine
 10
2973.793945
 20
256.115479
 30
0.0
 11
2975.949219
 21
256.483459
 31
0.0
  0
LINE
  5
2EE
330
1F
100
AcDbEntity
  8
0
370
    60
100
AcDbLine
 10
2975.949219
 20
256.483459
 30
0.0
 11
2978.10791
 21
256.831635
 31
0.0
  0
LINE
  5
2EF
330
1F
100
AcDbEntity
  8
0
370
    60
100
AcDbLine
 10
2978.10791
 20
256.831635
 30
0.0
 11
2980.262695
 21
257.158936
 31
0.0
  0
LINE
  5
2F0
330
1F
100
AcDbEntity
  8
0
370
    60
100
AcDbLine
 10
2980.262695
 20
257.158936
 30
0.0
 11
2982.42041
 21
257.46637
 31
0.0
  0
LINE
  5
2F1
330
1F
100
AcDbEntity
  8
0
370
    60
100
AcDbLine
 10
2982.42041
 20
257.46637
 30
0.0
 11
2984.575195
 21
257.753143
 31
0.0
  0
LINE
  5
2F2
330
1F
100
AcDbEntity
  8
0
370
    60
100
AcDbLine
 10
2984.575195
 20
257.753143
 30
0.0
 11
2986.732422
 21
258.02005
 31
0.0
  0
LINE
  5
2F3
330
1F
100
AcDbEntity
  8
0
370
    60
100
AcDbLine
 10
2986.732422
 20
258.02005
 30
0.0
 11
2988.887451
 21
258.266479
 31
0.0
  0
LINE
  5
2F4
330
1F
100
AcDbEntity
  8
0
370
    60
100
AcDbLine
 10
2988.887451
 20
258.266479
 30
0.0
 11
2991.044678
 21
258.492981
 31
0.0
  0
LINE
  5
2F5
330
1F
100
AcDbEntity
  8
0
370
    60
100
AcDbLine
 10
2991.044678
 20
258.492981
 30
0.0
 11
2993.199951
 21
258.699219
 31
0.0
  0
LINE
  5
2F6
330
1F
100
AcDbEntity
  8
0
370
    60
100
AcDbLine
 10
2993.199951
 20
258.699219
 30
0.0
 11
2995.357178
 21
258.885468
 31
0.0
  0
LINE
  5
2F7
330
1F
100
AcDbEntity
  8
0
370
    60
100
AcDbLine
 10
2995.357178
 20
258.885468
 30
0.0
 11
2997.513428
 21
259.051544
 31
0.0
  0
LINE
  5
2F8
330
1F
100
AcDbEntity
  8
0
370
    60
100
AcDbLine
 10
2997.513428
 20
259.051544
 30
0.0
 11
2999.670898
 21
259.197662
 31
0.0
  0
LINE
  5
2F9
330
1F
100
AcDbEntity
  8
0
370
    60
100
AcDbLine
 10
2999.670898
 20
259.197662
 30
0.0
 11
3003.986572
 21
259.429779
 31
0.0
  0
LINE
  5
2FA
330
1F
100
AcDbEntity
  8
0
370
    60
100
AcDbLine
 10
3003.986572
 20
259.429779
 30
0.0
 11
3008.304688
 21
259.581909
 31
0.0
  0
LINE
  5
2FB
330
1F
100
AcDbEntity
  8
0
370
    60
100
AcDbLine
 10
3008.304688
 20
259.581909
 30
0.0
 11
3008.564941
 21
259.588531
 31
0.0
  0
LINE
  5
2FC
330
1F
100
AcDbEntity
  8
0
370
    60
100
AcDbLine
 10
3123.411865
 20
215.078339
 30
0.0
 11
3125.639648
 21
213.640289
 31
0.0
  0
LINE
  5
2FD
330
1F
100
AcDbEntity
  8
0
370
    60
100
AcDbLine
 10
3125.639648
 20
213.640289
 30
0.0
 11
3127.824219
 21
212.134964
 31
0.0
  0
LINE
  5
2FE
330
1F
100
AcDbEntity
  8
0
370
    60
100
AcDbLine
 10
3127.824219
 20
212.134964
 30
0.0
 11
3129.962891
 21
210.564117
 31
0.0
  0
LINE
  5
2FF
330
1F
100
AcDbEntity
  8
0
370
    60
100
AcDbLine
 10
3129.962891
 20
210.564117
 30
0.0
 11
3132.053467
 21
208.929291
 31
0.0
  0
LINE
  5
300
330
1F
100
AcDbEntity
  8
0
370
    60
100
AcDbLine
 10
3132.053467
 20
208.929291
 30
0.0
 11
3134.093994
 21
207.232071
 31
0.0
  0
LINE
  5
301
330
1F
100
AcDbEntity
  8
0
370
    60
100
AcDbLine
 10
3134.093994
 20
207.232071
 30
0.0
 11
3136.08252
 21
205.47406
 31
0.0
  0
LINE
  5
302
330
1F
100
AcDbEntity
  8
0
370
    60
100
AcDbLine
 10
3136.08252
 20
205.47406
 30
0.0
 11
3138.017334
 21
203.656921
 31
0.0
  0
LINE
  5
303
330
1F
100
AcDbEntity
  8
0
370
    60
100
AcDbLine
 10
3138.017334
 20
203.656921
 30
0.0
 11
3139.89624
 21
201.782333
 31
0.0
  0
LINE
  5
304
330
1F
100
AcDbEntity
  8
0
370
    60
100
AcDbLine
 10
3139.89624
 20
201.782333
 30
0.0
 11
3141.717773
 21
199.85202
 31
0.0
  0
LINE
  5
305
330
1F
100
AcDbEntity
  8
0
370
    60
100
AcDbLine
 10
3141.717773
 20
199.85202
 30
0.0
 11
3143.480469
 21
197.867737
 31
0.0
  0
LINE
  5
306
330
1F
100
AcDbEntity
  8
0
370
    60
100
AcDbLine
 10
3143.480469
 20
197.867737
 30
0.0
 11
3145.182129
 21
195.831268
 31
0.0
  0
LINE
  5
307
330
1F
100
AcDbEntity
  8
0
370
    60
100
AcDbLine
 10
3145.182129
 20
195.831268
 30
0.0
 11
3146.822021
 21
193.744415
 31
0.0
  0
LINE
  5
308
330
1F
100
AcDbEntity
  8
0
370
    60
100
AcDbLine
 10
3146.822021
 20
193.744415
 30
0.0
 11
3148.398193
 21
191.60907
 31
0.0
  0
LINE
  5
309
330
1F
100
AcDbEntity
  8
0
370
    60
100
AcDbLine
 10
3148.398193
 20
191.60907
 30
0.0
 11
3149.90918
 21
189.427109
 31
0.0
  0
LINE
  5
30A
330
1F
100
AcDbEntity
  8
0
370
    60
100
AcDbLine
 10
3149.90918
 20
189.427109
 30
0.0
 11
3151.354004
 21
187.20047
 31
0.0
  0
LINE
  5
30B
330
1F
100
AcDbEntity
  8
0
370
    60
100
AcDbLine
 10
3151.354004
 20
187.20047
 30
0.0
 11
3152.473633
 21
185.367218
 31
0.0
  0
LINE
  5
331
330
1F
100
AcDbEntity
  8
0
370
    60
100
AcDbLine
 10
3150.721924
 20
274.771118
 30
0.0
 11
3141.408691
 21
275.674255
 31
0.0
  0
LINE
  5
332
330
1F
100
AcDbEntity
  8
0
370
    60
100
AcDbLine
 10
3141.408691
 20
275.674255
 30
0.0
 11
3136.728516
 21
276.098114
 31
0.0
  0
LINE
  5
333
330
1F
100
AcDbEntity
  8
0
370
    60
100
AcDbLine
 10
3136.728516
 20
276.098114
 30
0.0
 11
3132.046631
 21
276.501953
 31
0.0
  0
LINE
  5
334
330
1F
100
AcDbEntity
  8
0
370
    60
100
AcDbLine
 10
3132.046631
 20
276.501953
 30
0.0
 11
3127.375488
 21
276.884796
 31
0.0
  0
LINE
  5
335
330
1F
100
AcDbEntity
  8
0
370
    60
100
AcDbLine
 10
3127.375488
 20
276.884796
 30
0.0
 11
3122.702881
 21
277.247589
 31
0.0
  0
LINE
  5
336
330
1F
100
AcDbEntity
  8
0
370
    60
100
AcDbLine
 10
3122.702881
 20
277.247589
 30
0.0
 11
3118.047119
 21
277.588989
 31
0.0
  0
LINE
  5
337
330
1F
100
AcDbEntity
  8
0
370
    60
100
AcDbLine
 10
3118.047119
 20
277.588989
 30
0.0
 11
3113.389893
 21
277.91037
 31
0.0
  0
LINE
  5
338
330
1F
100
AcDbEntity
  8
0
370
    60
100
AcDbLine
 10
3113.389893
 20
277.91037
 30
0.0
 11
3108.751709
 21
278.210327
 31
0.0
  0
LINE
  5
339
330
1F
100
AcDbEntity
  8
0
370
    60
100
AcDbLine
 10
3108.751709
 20
278.210327
 30
0.0
 11
3104.112305
 21
278.490234
 31
0.0
  0
LINE
  5
33A
330
1F
100
AcDbEntity
  8
0
370
    60
100
AcDbLine
 10
3104.112305
 20
278.490234
 30
0.0
 11
3099.491211
 21
278.748962
 31
0.0
  0
LINE
  5
33B
330
1F
100
AcDbEntity
  8
0
370
    60
100
AcDbLine
 10
3099.491211
 20
278.748962
 30
0.0
 11
3094.869141
 21
278.98761
 31
0.0
  0
LINE
  5
33C
330
1F
100
AcDbEntity
  8
0
370
    60
100
AcDbLine
 10
3094.869141
 20
278.98761
 30
0.0
 11
3090.261719
 21
279.205475
 31
0.0
  0
LINE
  5
33D
330
1F
100
AcDbEntity
  8
0
370
    60
100
AcDbLine
 10
3090.261719
 20
279.205475
 30
0.0
 11
3085.653564
 21
279.40332
 31
0.0
  0
LINE
  5
33E
330
1F
100
AcDbEntity
  8
0
370
    60
100
AcDbLine
 10
3085.653564
 20
279.40332
 30
0.0
 11
3076.452148
 21
279.73822
 31
0.0
  0
LINE
  5
33F
330
1F
100
AcDbEntity
  8
0
370
    60
100
AcDbLine
 10
3076.452148
 20
279.73822
 30
0.0
 11
3067.247314
 21
279.993225
 31
0.0
  0
LINE
  5
340
330
1F
100
AcDbEntity
  8
0
370
    60
100
AcDbLine
 10
3067.247314
 20
279.993225
 30
0.0
 11
3058.014404
 21
280.169189
 31
0.0
  0
LINE
  5
341
330
1F
100
AcDbEntity
  8
0
370
    60
100
AcDbLine
 10
3058.014404
 20
280.169189
 30
0.0
 11
3048.722412
 21
280.266541
 31
0.0
  0
LINE
  5
342
330
1F
100
AcDbEntity
  8
0
370
    60
100
AcDbLine
 10
3048.722412
 20
280.266541
 30
0.0
 11
3039.331055
 21
280.2854
 31
0.0
  0
LINE
  5
343
330
1F
100
AcDbEntity
  8
0
370
    60
100
AcDbLine
 10
3039.331055
 20
280.2854
 30
0.0
 11
3036.724854
 21
280.276794
 31
0.0
  0
LINE
  5
344
330
1F
100
AcDbEntity
  8
0
370
    60
100
AcDbLine
 10
3036.724854
 20
280.276794
 30
0.0
 11
3031.961426
 21
280.245453
 31
0.0
  0
LINE
  5
345
330
1F
100
AcDbEntity
  8
0
370
    60
100
AcDbLine
 10
3031.961426
 20
280.245453
 30
0.0
 11
3027.198242
 21
280.192932
 31
0.0
  0
LINE
  5
346
330
1F
100
AcDbEntity
  8
0
370
    60
100
AcDbLine
 10
3027.198242
 20
280.192932
 30
0.0
 11
3018.081787
 21
280.031708
 31
0.0
  0
LINE
  5
347
330
1F
100
AcDbEntity
  8
0
370
    60
100
AcDbLine
 10
3018.081787
 20
280.031708
 30
0.0
 11
3008.854736
 21
279.788971
 31
0.0
  0
LINE
  5
348
330
1F
100
AcDbEntity
  8
0
370
    60
100
AcDbLine
 10
3008.854736
 20
279.788971
 30
0.0
 11
3001.886963
 21
279.553162
 31
0.0
  0
LINE
  5
349
330
1F
100
AcDbEntity
  8
0
370
    60
100
AcDbLine
 10
3001.886963
 20
279.553162
 30
0.0
 11
2992.622314
 21
279.169556
 31
0.0
  0
LINE
  5
34A
330
1F
100
AcDbEntity
  8
0
370
    60
100
AcDbLine
 10
2992.622314
 20
279.169556
 30
0.0
 11
2983.333008
 21
278.704956
 31
0.0
  0
LINE
  5
34B
330
1F
100
AcDbEntity
  8
0
370
    60
100
AcDbLine
 10
2983.333008
 20
278.704956
 30
0.0
 11
2974.040039
 21
278.160095
 31
0.0
  0
LINE
  5
34C
330
1F
100
AcDbEntity
  8
0
370
    60
100
AcDbLine
 10
2974.040039
 20
278.160095
 30
0.0
 11
2969.39624
 21
277.857788
 31
0.0
  0
LINE
  5
34D
330
1F
100
AcDbEntity
  8
0
370
    60
100
AcDbLine
 10
2969.39624
 20
277.857788
 30
0.0
 11
2964.753418
 21
277.535461
 31
0.0
  0
LINE
  5
34E
330
1F
100
AcDbEntity
  8
0
370
    60
100
AcDbLine
 10
2964.753418
 20
277.535461
 30
0.0
 11
2960.117676
 21
277.193573
 31
0.0
  0
LINE
  5
34F
330
1F
100
AcDbEntity
  8
0
370
    60
100
AcDbLine
 10
2960.117676
 20
277.193573
 30
0.0
 11
2955.483154
 21
276.831696
 31
0.0
  0
LINE
  5
350
330
1F
100
AcDbEntity
  8
0
370
    60
100
AcDbLine
 10
2955.483154
 20
276.831696
 30
0.0
 11
2950.860352
 21
276.450623
 31
0.0
  0
LINE
  5
351
330
1F
100
AcDbEntity
  8
0
370
    60
100
AcDbLine
 10
2950.860352
 20
276.450623
 30
0.0
 11
2946.239258
 21
276.049561
 31
0.0
  0
LINE
  5
352
330
1F
100
AcDbEntity
  8
0
370
    60
100
AcDbLine
 10
2946.239258
 20
276.049561
 30
0.0
 11
2941.634277
 21
275.629822
 31
0.0
  0
LINE
  5
353
330
1F
100
AcDbEntity
  8
0
370
    60
100
AcDbLine
 10
2941.634277
 20
275.629822
 30
0.0
 11
2937.03125
 21
275.190094
 31
0.0
  0
LINE
  5
354
330
1F
100
AcDbEntity
  8
0
370
    60
100
AcDbLine
 10
2937.03125
 20
275.190094
 30
0.0
 11
2932.44873
 21
274.732178
 31
0.0
  0
LINE
  5
355
330
1F
100
AcDbEntity
  8
0
370
    60
100
AcDbLine
 10
2932.44873
 20
274.732178
 30
0.0
 11
2927.868408
 21
274.254303
 31
0.0
  0
LINE
  5
356
330
1F
100
AcDbEntity
  8
0
370
    60
100
AcDbLine
 10
2927.868408
 20
274.254303
 30
0.0
 11
2921.197021
 21
273.521851
 31
0.0
  0
LINE
  5
357
330
1F
100
AcDbEntity
  8
0
370
    60
100
AcDbLine
 10
3008.564941
 20
259.588531
 30
0.0
 11
3010.722168
 21
259.345306
 31
0.0
  0
LINE
  5
358
330
1F
100
AcDbEntity
  8
0
370
    60
100
AcDbLine
 10
3010.722168
 20
259.345306
 30
0.0
 11
3012.876953
 21
259.082123
 31
0.0
  0
LINE
  5
359
330
1F
100
AcDbEntity
  8
0
370
    60
100
AcDbLine
 10
3012.876953
 20
259.082123
 30
0.0
 11
3015.021729
 21
258.799988
 31
0.0
  0
LINE
  5
35A
330
1F
100
AcDbEntity
  8
0
370
    60
100
AcDbLine
 10
3015.021729
 20
258.799988
 30
0.0
 11
3017.163574
 21
258.497955
 31
0.0
  0
LINE
  5
35B
330
1F
100
AcDbEntity
  8
0
370
    60
100
AcDbLine
 10
3017.163574
 20
258.497955
 30
0.0
 11
3019.296875
 21
258.176941
 31
0.0
  0
LINE
  5
35C
330
1F
100
AcDbEntity
  8
0
370
    60
100
AcDbLine
 10
3019.296875
 20
258.176941
 30
0.0
 11
3021.427246
 21
257.836121
 31
0.0
  0
LINE
  5
35D
330
1F
100
AcDbEntity
  8
0
370
    60
100
AcDbLine
 10
3021.427246
 20
257.836121
 30
0.0
 11
3023.550049
 21
257.476227
 31
0.0
  0
LINE
  5
35E
330
1F
100
AcDbEntity
  8
0
370
    60
100
AcDbLine
 10
3023.550049
 20
257.476227
 30
0.0
 11
3025.669189
 21
257.096619
 31
0.0
  0
LINE
  5
35F
330
1F
100
AcDbEntity
  8
0
370
    60
100
AcDbLine
 10
3025.669189
 20
257.096619
 30
0.0
 11
3027.781982
 21
256.697815
 31
0.0
  0
LINE
  5
360
330
1F
100
AcDbEntity
  8
0
370
    60
100
AcDbLine
 10
3027.781982
 20
256.697815
 30
0.0
 11
3029.891113
 21
256.279358
 31
0.0
  0
LINE
  5
361
330
1F
100
AcDbEntity
  8
0
370
    60
100
AcDbLine
 10
3029.891113
 20
256.279358
 30
0.0
 11
3034.093994
 21
255.384277
 31
0.0
  0
LINE
  5
362
330
1F
100
AcDbEntity
  8
0
370
    60
100
AcDbLine
 10
3034.093994
 20
255.384277
 30
0.0
 11
3038.278809
 21
254.411224
 31
0.0
  0
LINE
  5
363
330
1F
100
AcDbEntity
  8
0
370
    60
100
AcDbLine
 10
3038.278809
 20
254.411224
 30
0.0
 11
3042.446777
 21
253.360031
 31
0.0
  0
LINE
  5
364
330
1F
100
AcDbEntity
  8
0
370
    60
100
AcDbLine
 10
3042.446777
 20
253.360031
 30
0.0
 11
3046.598633
 21
252.230453
 31
0.0
  0
LINE
  5
365
330
1F
100
AcDbEntity
  8
0
370
    60
100
AcDbLine
 10
3046.598633
 20
252.230453
 30
0.0
 11
3050.734863
 21
251.022232
 31
0.0
  0
LINE
  5
366
330
1F
100
AcDbEntity
  8
0
370
    60
100
AcDbLine
 10
3050.734863
 20
251.022232
 30
0.0
 11
3054.856445
 21
249.735077
 31
0.0
  0
LINE
  5
367
330
1F
100
AcDbEntity
  8
0
370
    60
100
AcDbLine
 10
3054.856445
 20
249.735077
 30
0.0
 11
3058.963867
 21
248.368637
 31
0.0
  0
LINE
  5
368
330
1F
100
AcDbEntity
  8
0
370
    60
100
AcDbLine
 10
3058.963867
 20
248.368637
 30
0.0
 11
3063.057617
 21
246.922577
 31
0.0
  0
LINE
  5
369
330
1F
100
AcDbEntity
  8
0
370
    60
100
AcDbLine
 10
3063.057617
 20
246.922577
 30
0.0
 11
3067.138184
 21
245.396469
 31
0.0
  0
LINE
  5
36A
330
1F
100
AcDbEntity
  8
0
370
    60
100
AcDbLine
 10
3067.138184
 20
245.396469
 30
0.0
 11
3071.206055
 21
243.789902
 31
0.0
  0
LINE
  5
36B
330
1F
100
AcDbEntity
  8
0
370
    60
100
AcDbLine
 10
3071.206055
 20
243.789902
 30
0.0
 11
3075.261475
 21
242.102386
 31
0.0
  0
LINE
  5
36C
330
1F
100
AcDbEntity
  8
0
370
    60
100
AcDbLine
 10
3075.261475
 20
242.102386
 30
0.0
 11
3079.305176
 21
240.33342
 31
0.0
  0
LINE
  5
36D
330
1F
100
AcDbEntity
  8
0
370
    60
100
AcDbLine
 10
3079.305176
 20
240.33342
 30
0.0
 11
3083.336914
 21
238.482452
 31
0.0
  0
LINE
  5
36E
330
1F
100
AcDbEntity
  8
0
370
    60
100
AcDbLine
 10
3083.336914
 20
238.482452
 30
0.0
 11
3087.357666
 21
236.548859
 31
0.0
  0
LINE
  5
36F
330
1F
100
AcDbEntity
  8
0
370
    60
100
AcDbLine
 10
3087.357666
 20
236.548859
 30
0.0
 11
3091.367432
 21
234.531982
 31
0.0
  0
LINE
  5
370
330
1F
100
AcDbEntity
  8
0
370
    60
100
AcDbLine
 10
3091.367432
 20
234.531982
 30
0.0
 11
3095.366943
 21
232.431107
 31
0.0
  0
LINE
  5
371
330
1F
100
AcDbEntity
  8
0
370
    60
100
AcDbLine
 10
3095.366943
 20
232.431107
 30
0.0
 11
3099.356445
 21
230.245438
 31
0.0
  0
LINE
  5
372
330
1F
100
AcDbEntity
  8
0
370
    60
100
AcDbLine
 10
3099.356445
 20
230.245438
 30
0.0
 11
3103.336182
 21
227.974091
 31
0.0
  0
LINE
  5
373
330
1F
100
AcDbEntity
  8
0
370
    60
100
AcDbLine
 10
3103.336182
 20
227.974091
 30
0.0
 11
3107.307129
 21
225.616089
 31
0.0
  0
LINE
  5
374
330
1F
100
AcDbEntity
  8
0
370
    60
100
AcDbLine
 10
3107.307129
 20
225.616089
 30
0.0
 11
3111.27002
 21
223.170334
 31
0.0
  0
LINE
  5
375
330
1F
100
AcDbEntity
  8
0
370
    60
100
AcDbLine
 10
3111.27002
 20
223.170334
 30
0.0
 11
3115.225342
 21
220.63559
 31
0.0
  0
LINE
  5
376
330
1F
100
AcDbEntity
  8
0
370
    60
100
AcDbLine
 10
3115.225342
 20
220.63559
 30
0.0
 11
3119.174072
 21
218.010437
 31
0.0
  0
LINE
  5
377
330
1F
100
AcDbEntity
  8
0
370
    60
100
AcDbLine
 10
3119.174072
 20
218.010437
 30
0.0
 11
3123.117676
 21
215.29332
 31
0.0
  0
LINE
  5
378
330
1F
100
AcDbEntity
  8
0
370
    60
100
AcDbLine
 10
3123.117676
 20
215.29332
 30
0.0
 11
3123.619873
 21
214.940323
 31
0.0
  0
LINE
  5
379
330
1F
100
AcDbEntity
  8
0
370
    60
100
AcDbLine
 10
2877.467773
 20
218.400604
 30
0.0
 11
2879.711426
 21
219.764191
 31
0.0
  0
LINE
  5
37A
330
1F
100
AcDbEntity
  8
0
370
    60
100
AcDbLine
 10
2879.711426
 20
219.764191
 30
0.0
 11
2881.965332
 21
221.110321
 31
0.0
  0
LINE
  5
37B
330
1F
100
AcDbEntity
  8
0
370
    60
100
AcDbLine
 10
2881.965332
 20
221.110321
 30
0.0
 11
2884.196045
 21
222.419266
 31
0.0
  0
LINE
  5
37C
330
1F
100
AcDbEntity
  8
0
370
    60
100
AcDbLine
 10
2884.196045
 20
222.419266
 30
0.0
 11
2886.437256
 21
223.710678
 31
0.0
  0
LINE
  5
37D
330
1F
100
AcDbEntity
  8
0
370
    60
100
AcDbLine
 10
2886.437256
 20
223.710678
 30
0.0
 11
2888.660645
 21
224.968628
 31
0.0
  0
LINE
  5
37E
330
1F
100
AcDbEntity
  8
0
370
    60
100
AcDbLine
 10
2888.660645
 20
224.968628
 30
0.0
 11
2890.893799
 21
226.208923
 31
0.0
  0
LINE
  5
37F
330
1F
100
AcDbEntity
  8
0
370
    60
100
AcDbLine
 10
2890.893799
 20
226.208923
 30
0.0
 11
2893.110107
 21
227.416809
 31
0.0
  0
LINE
  5
380
330
1F
100
AcDbEntity
  8
0
370
    60
100
AcDbLine
 10
2893.110107
 20
227.416809
 30
0.0
 11
2895.335938
 21
228.606918
 31
0.0
  0
LINE
  5
381
330
1F
100
AcDbEntity
  8
0
370
    60
100
AcDbLine
 10
2895.335938
 20
228.606918
 30
0.0
 11
2897.545898
 21
229.765625
 31
0.0
  0
LINE
  5
382
330
1F
100
AcDbEntity
  8
0
370
    60
100
AcDbLine
 10
2897.545898
 20
229.765625
 30
0.0
 11
2899.765137
 21
230.906403
 31
0.0
  0
LINE
  5
383
330
1F
100
AcDbEntity
  8
0
370
    60
100
AcDbLine
 10
2899.765137
 20
230.906403
 30
0.0
 11
2901.969238
 21
232.016724
 31
0.0
  0
LINE
  5
384
330
1F
100
AcDbEntity
  8
0
370
    60
100
AcDbLine
 10
2901.969238
 20
232.016724
 30
0.0
 11
2904.182129
 21
233.108978
 31
0.0
  0
LINE
  5
385
330
1F
100
AcDbEntity
  8
0
370
    60
100
AcDbLine
 10
2904.182129
 20
233.108978
 30
0.0
 11
2906.380615
 21
234.171646
 31
0.0
  0
LINE
  5
386
330
1F
100
AcDbEntity
  8
0
370
    60
100
AcDbLine
 10
2906.380615
 20
234.171646
 30
0.0
 11
2908.587891
 21
235.216095
 31
0.0
  0
LINE
  5
387
330
1F
100
AcDbEntity
  8
0
370
    60
100
AcDbLine
 10
2908.587891
 20
235.216095
 30
0.0
 11
2910.781494
 21
236.231812
 31
0.0
  0
LINE
  5
388
330
1F
100
AcDbEntity
  8
0
370
    60
100
AcDbLine
 10
2910.781494
 20
236.231812
 30
0.0
 11
2912.983398
 21
237.229156
 31
0.0
  0
LINE
  5
389
330
1F
100
AcDbEntity
  8
0
370
    60
100
AcDbLine
 10
2912.983398
 20
237.229156
 30
0.0
 11
2915.172363
 21
238.198517
 31
0.0
  0
LINE
  5
38A
330
1F
100
AcDbEntity
  8
0
370
    60
100
AcDbLine
 10
2915.172363
 20
238.198517
 30
0.0
 11
2917.369385
 21
239.149414
 31
0.0
  0
LINE
  5
38B
330
1F
100
AcDbEntity
  8
0
370
    60
100
AcDbLine
 10
2917.369385
 20
239.149414
 30
0.0
 11
2919.553955
 21
240.073029
 31
0.0
  0
LINE
  5
38C
330
1F
100
AcDbEntity
  8
0
370
    60
100
AcDbLine
 10
2919.553955
 20
240.073029
 30
0.0
 11
2921.746338
 21
240.978043
 31
0.0
  0
LINE
  5
38D
330
1F
100
AcDbEntity
  8
0
370
    60
100
AcDbLine
 10
2921.746338
 20
240.978043
 30
0.0
 11
2923.927002
 21
241.856476
 31
0.0
  0
LINE
  5
38E
330
1F
100
AcDbEntity
  8
0
370
    60
100
AcDbLine
 10
2923.927002
 20
241.856476
 30
0.0
 11
2926.115234
 21
242.716187
 31
0.0
  0
LINE
  5
38F
330
1F
100
AcDbEntity
  8
0
370
    60
100
AcDbLine
 10
2926.115234
 20
242.716187
 30
0.0
 11
2928.292236
 21
243.549942
 31
0.0
  0
LINE
  5
390
330
1F
100
AcDbEntity
  8
0
370
    60
100
AcDbLine
 10
2928.292236
 20
243.549942
 30
0.0
 11
2930.476563
 21
244.364838
 31
0.0
  0
LINE
  5
391
330
1F
100
AcDbEntity
  8
0
370
    60
100
AcDbLine
 10
2930.476563
 20
244.364838
 30
0.0
 11
2932.650146
 21
245.154419
 31
0.0
  0
LINE
  5
392
330
1F
100
AcDbEntity
  8
0
370
    60
100
AcDbLine
 10
2932.650146
 20
245.154419
 30
0.0
 11
2934.830811
 21
245.925018
 31
0.0
  0
LINE
  5
393
330
1F
100
AcDbEntity
  8
0
370
    60
100
AcDbLine
 10
2934.830811
 20
245.925018
 30
0.0
 11
2937.001465
 21
246.670837
 31
0.0
  0
LINE
  5
394
330
1F
100
AcDbEntity
  8
0
370
    60
100
AcDbLine
 10
2937.001465
 20
246.670837
 30
0.0
 11
2939.178467
 21
247.397583
 31
0.0
  0
LINE
  5
395
330
1F
100
AcDbEntity
  8
0
370
    60
100
AcDbLine
 10
2939.178467
 20
247.397583
 30
0.0
 11
2941.346436
 21
248.100098
 31
0.0
  0
LINE
  5
396
330
1F
100
AcDbEntity
  8
0
370
    60
100
AcDbLine
 10
2941.346436
 20
248.100098
 30
0.0
 11
2943.520508
 21
248.783417
 31
0.0
  0
LINE
  5
397
330
1F
100
AcDbEntity
  8
0
370
    60
100
AcDbLine
 10
2943.520508
 20
248.783417
 30
0.0
 11
2945.686035
 21
249.443008
 31
0.0
  0
LINE
  5
398
330
1F
100
AcDbEntity
  8
0
370
    60
100
AcDbLine
 10
2945.686035
 20
249.443008
 30
0.0
 11
2947.857178
 21
250.083313
 31
0.0
  0
LINE
  5
399
330
1F
100
AcDbEntity
  8
0
370
    60
100
AcDbLine
 10
2947.857178
 20
250.083313
 30
0.0
 11
2950.020264
 21
250.700317
 31
0.0
  0
LINE
  5
39A
330
1F
100
AcDbEntity
  8
0
370
    60
100
AcDbLine
 10
2950.020264
 20
250.700317
 30
0.0
 11
2952.188965
 21
251.297974
 31
0.0
  0
LINE
  5
39B
330
1F
100
AcDbEntity
  8
0
370
    60
100
AcDbLine
 10
2952.188965
 20
251.297974
 30
0.0
 11
2954.350098
 21
251.872772
 31
0.0
  0
LINE
  5
39C
330
1F
100
AcDbEntity
  8
0
370
    60
100
AcDbLine
 10
2954.350098
 20
251.872772
 30
0.0
 11
2956.516602
 21
252.428116
 31
0.0
  0
LINE
  5
39D
330
1F
100
AcDbEntity
  8
0
370
    60
100
AcDbLine
 10
2956.516602
 20
252.428116
 30
0.0
 11
2958.676025
 21
252.961014
 31
0.0
  0
LINE
  5
39E
330
1F
100
AcDbEntity
  8
0
370
    60
100
AcDbLine
 10
2958.676025
 20
252.961014
 30
0.0
 11
2960.840332
 21
253.474365
 31
0.0
  0
LINE
  5
39F
330
1F
100
AcDbEntity
  8
0
370
    60
100
AcDbLine
 10
2960.840332
 20
253.474365
 30
0.0
 11
2962.998291
 21
253.965668
 31
0.0
  0
LINE
  5
3A0
330
1F
100
AcDbEntity
  8
0
370
    60
100
AcDbLine
 10
2962.998291
 20
253.965668
 30
0.0
 11
2965.160645
 21
254.437347
 31
0.0
  0
LINE
  5
3A1
330
1F
100
AcDbEntity
  8
0
370
    60
100
AcDbLine
 10
2965.160645
 20
254.437347
 30
0.0
 11
2967.317627
 21
254.887268
 31
0.0
  0
LINE
  5
3A2
330
1F
100
AcDbEntity
  8
0
370
    60
100
AcDbLine
 10
2967.317627
 20
254.887268
 30
0.0
 11
2969.478516
 21
255.317535
 31
0.0
  0
LINE
  5
3A3
330
1F
100
AcDbEntity
  8
0
370
    60
100
AcDbLine
 10
2969.478516
 20
255.317535
 30
0.0
 11
2971.634521
 21
255.726379
 31
0.0
  0
LINE
  5
3A4
330
1F
100
AcDbEntity
  8
0
370
    60
100
AcDbLine
 10
2971.634521
 20
255.726379
 30
0.0
 11
2973.793945
 21
256.115479
 31
0.0
  0
LINE
  5
3A5
330
1F
100
AcDbEntity
  8
0
370
    60
100
AcDbLine
 10
2973.793945
 20
256.115479
 30
0.0
 11
2975.949219
 21
256.483459
 31
0.0
  0
LINE
  5
3A6
330
1F
100
AcDbEntity
  8
0
370
    60
100
AcDbLine
 10
2975.949219
 20
256.483459
 30
0.0
 11
2978.10791
 21
256.831635
 31
0.0
  0
LINE
  5
3A7
330
1F
100
AcDbEntity
  8
0
370
    60
100
AcDbLine
 10
2978.10791
 20
256.831635
 30
0.0
 11
2980.262695
 21
257.158936
 31
0.0
  0
LINE
  5
3A8
330
1F
100
AcDbEntity
  8
0
370
    60
100
AcDbLine
 10
2980.262695
 20
257.158936
 30
0.0
 11
2982.42041
 21
257.46637
 31
0.0
  0
LINE
  5
3A9
330
1F
100
AcDbEntity
  8
0
370
    60
100
AcDbLine
 10
2982.42041
 20
257.46637
 30
0.0
 11
2984.575195
 21
257.753143
 31
0.0
  0
LINE
  5
3AA
330
1F
100
AcDbEntity
  8
0
370
    60
100
AcDbLine
 10
2984.575195
 20
257.753143
 30
0.0
 11
2986.732422
 21
258.02005
 31
0.0
  0
LINE
  5
3AB
330
1F
100
AcDbEntity
  8
0
370
    60
100
AcDbLine
 10
2986.732422
 20
258.02005
 30
0.0
 11
2988.887451
 21
258.266479
 31
0.0
  0
LINE
  5
3AC
330
1F
100
AcDbEntity
  8
0
370
    60
100
AcDbLine
 10
2988.887451
 20
258.266479
 30
0.0
 11
2991.044678
 21
258.492981
 31
0.0
  0
LINE
  5
3AD
330
1F
100
AcDbEntity
  8
0
370
    60
100
AcDbLine
 10
2991.044678
 20
258.492981
 30
0.0
 11
2993.199951
 21
258.699219
 31
0.0
  0
LINE
  5
3AE
330
1F
100
AcDbEntity
  8
0
370
    60
100
AcDbLine
 10
2993.199951
 20
258.699219
 30
0.0
 11
2995.357178
 21
258.885468
 31
0.0
  0
LINE
  5
3AF
330
1F
100
AcDbEntity
  8
0
370
    60
100
AcDbLine
 10
2995.357178
 20
258.885468
 30
0.0
 11
2997.513428
 21
259.051544
 31
0.0
  0
LINE
  5
3B0
330
1F
100
AcDbEntity
  8
0
370
    60
100
AcDbLine
 10
2997.513428
 20
259.051544
 30
0.0
 11
2999.670898
 21
259.197662
 31
0.0
  0
LINE
  5
3B1
330
1F
100
AcDbEntity
  8
0
370
    60
100
AcDbLine
 10
2999.670898
 20
259.197662
 30
0.0
 11
3003.986572
 21
259.429779
 31
0.0
  0
LINE
  5
3B2
330
1F
100
AcDbEntity
  8
0
370
    60
100
AcDbLine
 10
3003.986572
 20
259.429779
 30
0.0
 11
3008.304688
 21
259.581909
 31
0.0
  0
LINE
  5
3B3
330
1F
100
AcDbEntity
  8
0
370
    60
100
AcDbLine
 10
3008.304688
 20
259.581909
 30
0.0
 11
3008.564941
 21
259.588531
 31
0.0
  0
LINE
  5
3B4
330
1F
100
AcDbEntity
  8
0
370
    60
100
AcDbLine
 10
3123.411865
 20
215.078339
 30
0.0
 11
3125.639648
 21
213.640289
 31
0.0
  0
LINE
  5
3B5
330
1F
100
AcDbEntity
  8
0
370
    60
100
AcDbLine
 10
3125.639648
 20
213.640289
 30
0.0
 11
3127.824219
 21
212.134964
 31
0.0
  0
LINE
  5
3B6
330
1F
100
AcDbEntity
  8
0
370
    60
100
AcDbLine
 10
3127.824219
 20
212.134964
 30
0.0
 11
3129.962891
 21
210.564117
 31
0.0
  0
LINE
  5
3B7
330
1F
100
AcDbEntity
  8
0
370
    60
100
AcDbLine
 10
3129.962891
 20
210.564117
 30
0.0
 11
3132.053467
 21
208.929291
 31
0.0
  0
LINE
  5
3B8
330
1F
100
AcDbEntity
  8
0
370
    60
100
AcDbLine
 10
3132.053467
 20
208.929291
 30
0.0
 11
3134.093994
 21
207.232071
 31
0.0
  0
LINE
  5
3B9
330
1F
100
AcDbEntity
  8
0
370
    60
100
AcDbLine
 10
3134.093994
 20
207.232071
 30
0.0
 11
3136.08252
 21
205.47406
 31
0.0
  0
LINE
  5
3BA
330
1F
100
AcDbEntity
  8
0
370
    60
100
AcDbLine
 10
3136.08252
 20
205.47406
 30
0.0
 11
3138.017334
 21
203.656921
 31
0.0
  0
LINE
  5
3BB
330
1F
100
AcDbEntity
  8
0
370
    60
100
AcDbLine
 10
3138.017334
 20
203.656921
 30
0.0
 11
3139.89624
 21
201.782333
 31
0.0
  0
LINE
  5
3BC
330
1F
100
AcDbEntity
  8
0
370
    60
100
AcDbLine
 10
3139.89624
 20
201.782333
 30
0.0
 11
3141.717773
 21
199.85202
 31
0.0
  0
LINE
  5
3BD
330
1F
100
AcDbEntity
  8
0
370
    60
100
AcDbLine
 10
3141.717773
 20
199.85202
 30
0.0
 11
3143.480469
 21
197.867737
 31
0.0
  0
LINE
  5
3BE
330
1F
100
AcDbEntity
  8
0
370
    60
100
AcDbLine
 10
3143.480469
 20
197.867737
 30
0.0
 11
3145.182129
 21
195.831268
 31
0.0
  0
LINE
  5
3BF
330
1F
100
AcDbEntity
  8
0
370
    60
100
AcDbLine
 10
3145.182129
 20
195.831268
 30
0.0
 11
3146.822021
 21
193.744415
 31
0.0
  0
LINE
  5
3C0
330
1F
100
AcDbEntity
  8
0
370
    60
100
AcDbLine
 10
3146.822021
 20
193.744415
 30
0.0
 11
3148.398193
 21
191.60907
 31
0.0
  0
LINE
  5
3C1
330
1F
100
AcDbEntity
  8
0
370
    60
100
AcDbLine
 10
3148.398193
 20
191.60907
 30
0.0
 11
3149.90918
 21
189.427109
 31
0.0
  0
LINE
  5
3C2
330
1F
100
AcDbEntity
  8
0
370
    60
100
AcDbLine
 10
3149.90918
 20
189.427109
 30
0.0
 11
3151.354004
 21
187.20047
 31
0.0
  0
LINE
  5
3C3
330
1F
100
AcDbEntity
  8
0
370
    60
100
AcDbLine
 10
3151.354004
 20
187.20047
 30
0.0
 11
3152.473633
 21
185.367218
 31
0.0
  0
DIMENSION
  5
3DC
330
1F
100
AcDbEntity
  8
0
370
    25
100
AcDbDimension
  2
*D16
 10
3175.644775
 20
299.7417933868854
 30
0.0
 11
3006.498581000001
 21
327.7417933868854
 31
0.0
 70
    32
  1
338
 71
     5
 41
2.5
 42
338.292387999998
  3
Standard
100
AcDbAlignedDimension
 13
2837.352387000002
 23
140.3939400385176
 33
0.0
 14
3175.644775
 24
140.393982
 34
0.0
100
AcDbRotatedDimension
1001
ACAD
1000
DSTYLE
1002
{
1070
    41
1040
10.0
1070
    42
1040
0.625
1070
    43
1040
3.75
1070
    44
1040
1.25
1070
    73
1070
     0
1070
    74
1070
     0
1070
    77
1070
     1
1070
    78
1070
     8
1070
   140
1040
36.0
1070
   141
1040
2.5
1070
   143
1040
0.03937
1070
   147
1040
10.0
1070
   171
1070
     3
1070
   172
1070
     1
1070
   176
1070
     7
1070
   177
1070
     7
1070
   271
1070
     2
1070
   272
1070
     2
1070
   274
1070
     3
1070
   283
1070
     0
1070
   284
1070
     8
1070
   289
1070
     0
1002
}
  0
DIMENSION
  5
40A
330
1F
100
AcDbEntity
  8
0
370
    25
100
AcDbDimension
  2
*D17
 10
2809.796062268048
 20
0.5147585786452822
 30
0.0
 11
2781.796062268048
 21
140.3669755393227
 31
0.0
 70
    32
  1
280
 71
     5
 41
2.5
 42
279.7044339213547
  3
Standard
100
AcDbAlignedDimension
 13
3029.579834
 23
280.2191925
 33
0.0
 14
3035.923646663074
 24
0.5147585786452684
 34
0.0
 50
90.0
100
AcDbRotatedDimension
1001
ACAD
1000
DSTYLE
1002
{
1070
    41
1040
10.0
1070
    42
1040
0.625
1070
    43
1040
3.75
1070
    44
1040
1.25
1070
    73
1070
     0
1070
    74
1070
     0
1070
    77
1070
     1
1070
    78
1070
     8
1070
   140
1040
36.0
1070
   141
1040
2.5
1070
   143
1040
0.03937
1070
   147
1040
10.0
1070
   171
1070
     3
1070
   172
1070
     1
1070
   176
1070
     7
1070
   177
1070
     7
1070
   271
1070
     2
1070
   272
1070
     2
1070
   274
1070
     3
1070
   283
1070
     0
1070
   284
1070
     8
1070
   289
1070
     0
1002
}
  0
DIMENSION
  5
439
330
1F
100
AcDbEntity
  8
0
370
    25
100
AcDbDimension
  2
*D18
 10
3270.433838
 20
299.7417933868854
 30
0.0
 11
3234.433838
 21
327.7417933868854
 31
0.0
 70
   160
 71
     5
 41
2.5
 42
4.0
  3
Standard
100
AcDbAlignedDimension
 13
3266.433838
 23
224.4627060134411
 33
0.0
 14
3270.433838
 24
224.4627060134411
 34
0.0
100
AcDbRotatedDimension
1001
ACAD
1000
DSTYLE
1002
{
1070
    41
1040
10.0
1070
    42
1040
0.625
1070
    43
1040
3.75
1070
    44
1040
1.25
1070
    73
1070
     0
1070
    74
1070
     0
1070
    77
1070
     1
1070
    78
1070
     8
1070
   140
1040
36.0
1070
   141
1040
2.5
1070
   143
1040
0.03937
1070
   147
1040
10.0
1070
   171
1070
     3
1070
   172
1070
     1
1070
   176
1070
     7
1070
   177
1070
     7
1070
   271
1070
     2
1070
   272
1070
     2
1070
   274
1070
     3
1070
   283
1070
     0
1070
   284
1070
     8
1070
   289
1070
     0
1002
}
  0
LINE
  5
4AC
330
1F
100
AcDbEntity
  8
STANDARD_LAYER
370
    60
100
AcDbLine
 10
2979.917728651534
 20
155.2776115395624
 30
0.0
 11
3000.599410411533
 21
183.1902282195614
 31
0.0
  0
LINE
  5
4AD
330
1F
100
AcDbEntity
  8
STANDARD_LAYER
370
    60
100
AcDbLine
 10
2968.689539971534
 20
126.1892333195623
 30
0.0
 11
2989.372464091533
 21
154.1020375595614
 31
0.0
  0
LINE
  5
4AE
330
1F
100
AcDbEntity
  8
STANDARD_LAYER
370
    60
100
AcDbLine
 10
2963.667315331534
 20
146.7556457995624
 30
0.0
 11
2984.349435571534
 21
174.6687938995623
 31
0.0
  0
LINE
  5
4AF
330
1F
100
AcDbEntity
  8
STANDARD_LAYER
370
    60
100
AcDbLine
 10
2997.349574131534
 20
114.1423378795625
 30
0.0
 11
3018.032059771534
 21
142.0551212795614
 31
0.0
  0
LINE
  5
4B0
330
1F
100
AcDbEntity
  8
STANDARD_LAYER
370
    60
100
AcDbLine
 10
3014.486667091533
 20
125.6012014595614
 30
0.0
 11
3035.168891731534
 21
153.5134534395624
 31
0.0
  0
VIEWPORT
  5
217
330
73
100
AcDbEntity
 67
     1
  8
0
 62
     0
100
AcDbViewport
 10
0.0
 20
0.0
 30
0.0
 40
1000.0
 41
1000.0
 68
     1
 69
     1
 12
0.0
 22
0.0
 13
0.0
 23
0.0
 14
1.0
 24
1.0
 15
1.0
 25
1.0
 16
0.0
 26
0.0
 36
1.0
 17
0.0
 27
0.0
 37
0.0
 42
50.0
 43
0.0
 44
0.0
 45
1000.0
 50
0.0
 51
0.0
 72
   100
 90
   557216
  1

281
     0
 71
     1
 74
     0
110
0.0
120
0.0
130
0.0
111
1.0
121
0.0
131
0.0
112
0.0
122
1.0
132
0.0
 79
     0
146
0.0
170
     0
  0
ENDSEC
  0
SECTION
  2
OBJECTS
  0
DICTIONARY
  5
C
330
0
100
AcDbDictionary
281
     1
  3
ACAD_COLOR
350
6C
  3
ACAD_GROUP
350
D
  3
ACAD_LAYOUT
350
1A
  3
ACAD_MATERIAL
350
6B
  3
ACAD_MLEADERSTYLE
350
4A3
  3
ACAD_MLINESTYLE
350
17
  3
ACAD_PLOTSETTINGS
350
19
  3
ACAD_PLOTSTYLENAME
350
E
  3
ACAD_SCALELIST
350
99
  3
ACAD_TABLESTYLE
350
92
  3
AcDbVariableDictionary
350
59
  0
DICTIONARY
  5
6C
102
{ACAD_REACTORS
330
C
102
}
330
C
100
AcDbDictionary
281
     1
  0
DICTIONARY
  5
D
102
{ACAD_REACTORS
330
C
102
}
330
C
100
AcDbDictionary
281
     1
  0
DICTIONARY
  5
1A
102
{ACAD_REACTORS
330
C
102
}
330
C
100
AcDbDictionary
281
     1
  3
Layout1
350
74
  3
Model
350
22
  0
DICTIONARY
  5
6B
102
{ACAD_REACTORS
330
C
102
}
330
C
100
AcDbDictionary
281
     1
  0
DICTIONARY
  5
4A3
102
{ACAD_REACTORS
330
C
102
}
330
C
100
AcDbDictionary
281
     1
  0
DICTIONARY
  5
17
102
{ACAD_REACTORS
330
C
102
}
330
C
100
AcDbDictionary
281
     1
  3
Standard
350
18
  0
DICTIONARY
  5
19
102
{ACAD_REACTORS
330
C
102
}
330
C
100
AcDbDictionary
281
     1
  0
ACDBDICTIONARYWDFLT
  5
E
102
{ACAD_REACTORS
330
C
102
}
330
C
100
AcDbDictionary
281
     1
  3
Normal
350
F
100
AcDbDictionaryWithDefault
340
F
  0
DICTIONARY
  5
99
102
{ACAD_REACTORS
330
C
102
}
330
C
100
AcDbDictionary
281
     1
  3
A0
350
21C
  3
A1
350
21D
  3
A2
350
21E
  3
A3
350
21F
  3
A4
350
220
  3
A5
350
221
  3
A6
350
222
  3
A7
350
223
  3
A8
350
224
  3
A9
350
225
  3
B0
350
226
  3
B1
350
227
  3
B2
350
228
  3
B3
350
229
  3
B4
350
22A
  3
B5
350
22B
  3
B6
350
22C
  3
B7
350
22D
  3
B8
350
22E
  3
B9
350
22F
  3
C0
350
230
  3
C1
350
231
  3
C2
350
232
  3
C3
350
233
  3
C4
350
234
  3
C5
350
235
  3
C6
350
236
  3
C7
350
237
  3
C8
350
238
  3
C9
350
239
  3
D0
350
23A
  3
D1
350
23B
  3
D2
350
23C
  0
DICTIONARY
  5
92
102
{ACAD_REACTORS
330
C
102
}
330
C
100
AcDbDictionary
281
     1
  3
Standard
350
53C
  0
DICTIONARY
  5
59
102
{ACAD_REACTORS
330
C
102
}
330
C
100
AcDbDictionary
281
     1
  3
CTABLESTYLE
350
53D
  3
DIMASSOC
350
5A
  3
HIDETEXT
350
5E
  0
LAYOUT
  5
74
102
{ACAD_REACTORS
330
1A
102
}
330
1A
100
AcDbPlotSettings
  1

  2
none_device
  4
Letter_(8.50_x_11.00_Inches)
  6

 40
6.35
 41
6.35
 42
6.35000508
 43
6.35000508
 44
215.9
 45
279.4
 46
0.0
 47
0.0
 48
0.0
 49
0.0
140
0.0
141
0.0
142
1.0
143
1.0
 70
   688
 72
     0
 73
     0
 74
     5
  7

 75
    16
 76
     0
 77
     2
 78
   300
147
1.0
148
0.0
149
0.0
100
AcDbLayout
  1
Layout1
 70
     1
 71
     1
 10
0.0
 20
0.0
 11
420.0
 21
297.0
 12
0.0
 22
0.0
 32
0.0
 14
0.0
 24
0.0
 34
0.0
 15
3799.038574
 25
300.167419
 35
2.0
146
0.0
 13
0.0
 23
0.0
 33
0.0
 16
1.0
 26
0.0
 36
0.0
 17
0.0
 27
1.0
 37
0.0
 76
     0
330
73
331
217
  0
LAYOUT
  5
22
102
{ACAD_REACTORS
330
1A
102
}
330
1A
100
AcDbPlotSettings
  1

  2
none_device
  4
Letter_(8.50_x_11.00_Inches)
  6

 40
6.35
 41
6.35
 42
6.35000508
 43
6.35000508
 44
215.9
 45
279.4
 46
0.0
 47
0.0
 48
0.0
 49
0.0
140
0.0
141
0.0
142
1.0
143
1.0
 70
 11952
 72
     0
 73
     0
 74
     0
  7

 75
    16
 76
     0
 77
     2
 78
   300
147
1.0
148
0.0
149
0.0
100
AcDbLayout
  1
Model
 70
     1
 71
     0
 10
0.0
 20
0.0
 11
420.0
 21
297.0
 12
0.0
 22
0.0
 32
0.0
 14
2790.796062268048
 24
0.510895
 34
0.0
 15
3290.433838
 25
318.7417933868854
 35
0.0
146
0.0
 13
0.0
 23
0.0
 33
0.0
 16
1.0
 26
0.0
 36
0.0
 17
0.0
 27
1.0
 37
0.0
 76
     0
330
1F
331
97
  0
MLINESTYLE
  5
18
102
{ACAD_REACTORS
330
17
102
}
330
17
100
AcDbMlineStyle
  2
STANDARD
 70
     0
  3

 62
     0
 51
90.0
 52
90.0
 71
     2
 49
0.5
 62
   256
  6
BYLAYER
 49
-0.5
 62
   256
  6
BYLAYER
  0
ACDBPLACEHOLDER
  5
F
102
{ACAD_REACTORS
330
E
102
}
330
E
  0
SCALE
  5
21C
102
{ACAD_REACTORS
330
99
102
}
330
99
100
AcDbScale
 70
     0
300
1:1
140
1.0
141
1.0
290
     1
  0
SCALE
  5
21D
102
{ACAD_REACTORS
330
99
102
}
330
99
100
AcDbScale
 70
     0
300
1:2
140
1.0
141
2.0
290
     0
  0
SCALE
  5
21E
102
{ACAD_REACTORS
330
99
102
}
330
99
100
AcDbScale
 70
     0
300
1:4
140
1.0
141
4.0
290
     0
  0
SCALE
  5
21F
102
{ACAD_REACTORS
330
99
102
}
330
99
100
AcDbScale
 70
     0
300
1:5
140
1.0
141
5.0
290
     0
  0
SCALE
  5
220
102
{ACAD_REACTORS
330
99
102
}
330
99
100
AcDbScale
 70
     0
300
1:8
140
1.0
141
8.0
290
     0
  0
SCALE
  5
221
102
{ACAD_REACTORS
330
99
102
}
330
99
100
AcDbScale
 70
     0
300
1:10
140
1.0
141
10.0
290
     0
  0
SCALE
  5
222
102
{ACAD_REACTORS
330
99
102
}
330
99
100
AcDbScale
 70
     0
300
1:16
140
1.0
141
16.0
290
     0
  0
SCALE
  5
223
102
{ACAD_REACTORS
330
99
102
}
330
99
100
AcDbScale
 70
     0
300
1:20
140
1.0
141
20.0
290
     0
  0
SCALE
  5
224
102
{ACAD_REACTORS
330
99
102
}
330
99
100
AcDbScale
 70
     0
300
1:30
140
1.0
141
30.0
290
     0
  0
SCALE
  5
225
102
{ACAD_REACTORS
330
99
102
}
330
99
100
AcDbScale
 70
     0
300
1:40
140
1.0
141
40.0
290
     0
  0
SCALE
  5
226
102
{ACAD_REACTORS
330
99
102
}
330
99
100
AcDbScale
 70
     0
300
1:50
140
1.0
141
50.0
290
     0
  0
SCALE
  5
227
102
{ACAD_REACTORS
330
99
102
}
330
99
100
AcDbScale
 70
     0
300
1:100
140
1.0
141
100.0
290
     0
  0
SCALE
  5
228
102
{ACAD_REACTORS
330
99
102
}
330
99
100
AcDbScale
 70
     0
300
2:1
140
2.0
141
1.0
290
     0
  0
SCALE
  5
229
102
{ACAD_REACTORS
330
99
102
}
330
99
100
AcDbScale
 70
     0
300
4:1
140
4.0
141
1.0
290
     0
  0
SCALE
  5
22A
102
{ACAD_REACTORS
330
99
102
}
330
99
100
AcDbScale
 70
     0
300
8:1
140
8.0
141
1.0
290
     0
  0
SCALE
  5
22B
102
{ACAD_REACTORS
330
99
102
}
330
99
100
AcDbScale
 70
     0
300
10:1
140
10.0
141
1.0
290
     0
  0
SCALE
  5
22C
102
{ACAD_REACTORS
330
99
102
}
330
99
100
AcDbScale
 70
     0
300
100:1
140
100.0
141
1.0
290
     0
  0
SCALE
  5
22D
102
{ACAD_REACTORS
330
99
102
}
330
99
100
AcDbScale
 70
     0
300
1/128" = 1'-0"
140
0.0078125
141
12.0
290
     0
  0
SCALE
  5
22E
102
{ACAD_REACTORS
330
99
102
}
330
99
100
AcDbScale
 70
     0
300
1/64" = 1'-0"
140
0.015625
141
12.0
290
     0
  0
SCALE
  5
22F
102
{ACAD_REACTORS
330
99
102
}
330
99
100
AcDbScale
 70
     0
300
1/32" = 1'-0"
140
0.03125
141
12.0
290
     0
  0
SCALE
  5
230
102
{ACAD_REACTORS
330
99
102
}
330
99
100
AcDbScale
 70
     0
300
1/16" = 1'-0"
140
0.0625
141
12.0
290
     0
  0
SCALE
  5
231
102
{ACAD_REACTORS
330
99
102
}
330
99
100
AcDbScale
 70
     0
300
3/32" = 1'-0"
140
0.09375
141
12.0
290
     0
  0
SCALE
  5
232
102
{ACAD_REACTORS
330
99
102
}
330
99
100
AcDbScale
 70
     0
300
1/8" = 1'-0"
140
0.125
141
12.0
290
     0
  0
SCALE
  5
233
102
{ACAD_REACTORS
330
99
102
}
330
99
100
AcDbScale
 70
     0
300
3/16" = 1'-0"
140
0.1875
141
12.0
290
     0
  0
SCALE
  5
234
102
{ACAD_REACTORS
330
99
102
}
330
99
100
AcDbScale
 70
     0
300
1/4" = 1'-0"
140
0.25
141
12.0
290
     0
  0
SCALE
  5
235
102
{ACAD_REACTORS
330
99
102
}
330
99
100
AcDbScale
 70
     0
300
3/8" = 1'-0"
140
0.375
141
12.0
290
     0
  0
SCALE
  5
236
102
{ACAD_REACTORS
330
99
102
}
330
99
100
AcDbScale
 70
     0
300
1/2" = 1'-0"
140
0.5
141
12.0
290
     0
  0
SCALE
  5
237
102
{ACAD_REACTORS
330
99
102
}
330
99
100
AcDbScale
 70
     0
300
3/4" = 1'-0"
140
0.75
141
12.0
290
     0
  0
SCALE
  5
238
102
{ACAD_REACTORS
330
99
102
}
330
99
100
AcDbScale
 70
     0
300
1" = 1'-0"
140
1.0
141
12.0
290
     0
  0
SCALE
  5
239
102
{ACAD_REACTORS
330
99
102
}
330
99
100
AcDbScale
 70
     0
300
1-1/2" = 1'-0"
140
1.5
141
12.0
290
     0
  0
SCALE
  5
23A
102
{ACAD_REACTORS
330
99
102
}
330
99
100
AcDbScale
 70
     0
300
3" = 1'-0"
140
3.0
141
12.0
290
     0
  0
SCALE
  5
23B
102
{ACAD_REACTORS
330
99
102
}
330
99
100
AcDbScale
 70
     0
300
6" = 1'-0"
140
6.0
141
12.0
290
     0
  0
SCALE
  5
23C
102
{ACAD_REACTORS
330
99
102
}
330
99
100
AcDbScale
 70
     0
300
1'-0" = 1'-0"
140
12.0
141
12.0
290
     0
  0
TABLESTYLE
  5
53C
102
{ACAD_REACTORS
330
92
102
}
102
{ACAD_XDICTIONARY
360
564
102
}
330
92
100
AcDbTableStyle
  3
Standard
 70
     0
 71
     0
 40
0.06
 41
0.06
280
     0
281
     0
  7
Standard
140
0.18
170
     2
 62
     0
 63
     7
283
     0
274
    -2
284
     1
 64
     0
275
    -2
285
     1
 65
     0
276
    -2
286
     1
 66
     0
277
    -2
287
     1
 67
     0
278
    -2
288
     1
 68
     0
279
    -2
289
     1
 69
     0
  7
Standard
140
0.25
170
     5
 62
     0
 63
     7
283
     0
274
    -2
284
     1
 64
     0
275
    -2
285
     1
 65
     0
276
    -2
286
     1
 66
     0
277
    -2
287
     1
 67
     0
278
    -2
288
     1
 68
     0
279
    -2
289
     1
 69
     0
  7
Standard
140
0.18
170
     5
 62
     0
 63
     7
283
     0
274
    -2
284
     1
 64
     0
275
    -2
285
     1
 65
     0
276
    -2
286
     1
 66
     0
277
    -2
287
     1
 67
     0
278
    -2
288
     1
 68
     0
279
    -2
289
     1
 69
     0
  0
DICTIONARYVAR
  5
53D
102
{ACAD_REACTORS
330
59
102
}
330
59
100
DictionaryVariables
280
     0
  1
Standard
  0
DICTIONARYVAR
  5
5A
102
{ACAD_REACTORS
330
59
102
}
330
59
100
DictionaryVariables
280
     0
  1
2
  0
DICTIONARYVAR
  5
5E
102
{ACAD_REACTORS
330
59
102
}
330
59
100
DictionaryVariables
280
     0
  1
1
  0
DICTIONARY
  5
564
330
53C
100
AcDbDictionary
280
     1
281
     1
  3
ACAD_XREC_ROUNDTRIP
360
565
  0
XRECORD
  5
565
102
{ACAD_REACTORS
330
564
102
}
330
564
100
AcDbXrecord
280
     1
102
ACAD_ROUNDTRIP_PRE2007_TABLESTYLE
 90
      512
 91
        0
  1

 92
      512
 93
        0
  2

 94
      512
 95
        0
  3

  0
ENDSEC
  0
EOF
