  0
SECTION
  2
HEADER
  9
$ACADVER
  1
AC1015
  9
$ACADMAINTVER
 70
     6
  9
$DWGCODEPAGE
  3
ANSI_1252
  9
$INSBASE
 10
0.0
 20
0.0
 30
0.0
  9
$EXTMIN
 10
15.687012
 20
-47.7091026856085
 30
0.0
  9
$EXTMAX
 10
1567.181074583212
 20
757.8070368110236
 30
0.0
  9
$LIMMIN
 10
0.0
 20
0.0
  9
$LIMMAX
 10
420.0
 20
297.0
  9
$ORTHOMODE
 70
     0
  9
$REGENMODE
 70
     1
  9
$FILLMODE
 70
     1
  9
$QTEXTMODE
 70
     0
  9
$MIRRTEXT
 70
     1
  9
$LTSCALE
 40
1.0
  9
$ATTMODE
 70
     1
  9
$TEXTSIZE
 40
2.5
  9
$TRACEWID
 40
1.0
  9
$TEXTSTYLE
  7
Standard
  9
$CLAYER
  8
0
  9
$CELTYPE
  6
ByLayer
  9
$CECOLOR
 62
   256
  9
$CELTSCALE
 40
1.0
  9
$DISPSILH
 70
     0
  9
$DIMSCALE
 40
1.0
  9
$DIMASZ
 40
2.5
  9
$DIMEXO
 40
0.625
  9
$DIMDLI
 40
3.75
  9
$DIMRND
 40
0.0
  9
$DIMDLE
 40
0.0
  9
$DIMEXE
 40
1.25
  9
$DIMTP
 40
0.0
  9
$DIMTM
 40
0.0
  9
$DIMTXT
 40
2.5
  9
$DIMCEN
 40
2.5
  9
$DIMTSZ
 40
0.0
  9
$DIMTOL
 70
     0
  9
$DIMLIM
 70
     0
  9
$DIMTIH
 70
     0
  9
$DIMTOH
 70
     0
  9
$DIMSE1
 70
     0
  9
$DIMSE2
 70
     0
  9
$DIMTAD
 70
     1
  9
$DIMZIN
 70
     8
  9
$DIMBLK
  1

  9
$DIMASO
 70
     1
  9
$DIMSHO
 70
     1
  9
$DIMPOST
  1

  9
$DIMAPOST
  1

  9
$DIMALT
 70
     0
  9
$DIMALTD
 70
     3
  9
$DIMALTF
 40
0.03937
  9
$DIMLFAC
 40
1.0
  9
$DIMTOFL
 70
     1
  9
$DIMTVP
 40
0.0
  9
$DIMTIX
 70
     0
  9
$DIMSOXD
 70
     0
  9
$DIMSAH
 70
     0
  9
$DIMBLK1
  1

  9
$DIMBLK2
  1

  9
$DIMSTYLE
  2
Standard
  9
$DIMCLRD
 70
     0
  9
$DIMCLRE
 70
     0
  9
$DIMCLRT
 70
     0
  9
$DIMTFAC
 40
1.0
  9
$DIMGAP
 40
0.625
  9
$DIMJUST
 70
     0
  9
$DIMSD1
 70
     0
  9
$DIMSD2
 70
     0
  9
$DIMTOLJ
 70
     0
  9
$DIMTZIN
 70
     8
  9
$DIMALTZ
 70
     0
  9
$DIMALTTZ
 70
     0
  9
$DIMUPT
 70
     0
  9
$DIMDEC
 70
     2
  9
$DIMTDEC
 70
     2
  9
$DIMALTU
 70
     2
  9
$DIMALTTD
 70
     3
  9
$DIMTXSTY
  7
Standard
  9
$DIMAUNIT
 70
     0
  9
$DIMADEC
 70
     0
  9
$DIMALTRND
 40
0.0
  9
$DIMAZIN
 70
     0
  9
$DIMDSEP
 70
    44
  9
$DIMATFIT
 70
     0
  9
$DIMFRAC
 70
     0
  9
$DIMLDRBLK
  1

  9
$DIMLUNIT
 70
     2
  9
$DIMLWD
 70
    -2
  9
$DIMLWE
 70
    -2
  9
$DIMTMOVE
 70
     0
  9
$LUNITS
 70
     2
  9
$LUPREC
 70
     4
  9
$SKETCHINC
 40
1.0
  9
$FILLETRAD
 40
2.5
  9
$AUNITS
 70
     0
  9
$AUPREC
 70
     0
  9
$MENU
  1
.
  9
$ELEVATION
 40
0.0
  9
$PELEVATION
 40
0.0
  9
$THICKNESS
 40
0.0
  9
$LIMCHECK
 70
     0
  9
$CHAMFERA
 40
2.5
  9
$CHAMFERB
 40
2.5
  9
$CHAMFERC
 40
0.0
  9
$CHAMFERD
 40
0.0
  9
$SKPOLY
 70
     0
  9
$TDCREATE
 40
2447893.083333333
  9
$TDUCREATE
 40
2447893.0
  9
$TDUPDATE
 40
2447893.083333333
  9
$TDUUPDATE
 40
2447893.0
  9
$TDINDWG
 40
0.0821411921
  9
$TDUSRTIMER
 40
0.0821411921
  9
$USRTIMER
 70
     1
  9
$ANGBASE
 50
0.0
  9
$ANGDIR
 70
     0
  9
$PDMODE
 70
     0
  9
$PDSIZE
 40
0.0
  9
$PLINEWID
 40
0.0
  9
$SPLFRAME
 70
     0
  9
$SPLINETYPE
 70
     6
  9
$SPLINESEGS
 70
     8
  9
$HANDSEED
  5
827
  9
$SURFTAB1
 70
     6
  9
$SURFTAB2
 70
     6
  9
$SURFTYPE
 70
     6
  9
$SURFU
 70
     6
  9
$SURFV
 70
     6
  9
$UCSBASE
  2

  9
$UCSNAME
  2

  9
$UCSORG
 10
0.0
 20
0.0
 30
0.0
  9
$UCSXDIR
 10
1.0
 20
0.0
 30
0.0
  9
$UCSYDIR
 10
0.0
 20
1.0
 30
0.0
  9
$UCSORTHOREF
  2

  9
$UCSORTHOVIEW
 70
     0
  9
$UCSORGTOP
 10
0.0
 20
0.0
 30
0.0
  9
$UCSORGBOTTOM
 10
0.0
 20
0.0
 30
0.0
  9
$UCSORGLEFT
 10
0.0
 20
0.0
 30
0.0
  9
$UCSORGRIGHT
 10
0.0
 20
0.0
 30
0.0
  9
$UCSORGFRONT
 10
0.0
 20
0.0
 30
0.0
  9
$UCSORGBACK
 10
0.0
 20
0.0
 30
0.0
  9
$PUCSBASE
  2

  9
$PUCSNAME
  2

  9
$PUCSORG
 10
0.0
 20
0.0
 30
0.0
  9
$PUCSXDIR
 10
1.0
 20
0.0
 30
0.0
  9
$PUCSYDIR
 10
0.0
 20
1.0
 30
0.0
  9
$PUCSORTHOREF
  2

  9
$PUCSORTHOVIEW
 70
     0
  9
$PUCSORGTOP
 10
0.0
 20
0.0
 30
0.0
  9
$PUCSORGBOTTOM
 10
0.0
 20
0.0
 30
0.0
  9
$PUCSORGLEFT
 10
0.0
 20
0.0
 30
0.0
  9
$PUCSORGRIGHT
 10
0.0
 20
0.0
 30
0.0
  9
$PUCSORGFRONT
 10
0.0
 20
0.0
 30
0.0
  9
$PUCSORGBACK
 10
0.0
 20
0.0
 30
0.0
  9
$USERI1
 70
     0
  9
$USERI2
 70
     0
  9
$USERI3
 70
     0
  9
$USERI4
 70
     0
  9
$USERI5
 70
     0
  9
$USERR1
 40
0.0
  9
$USERR2
 40
0.0
  9
$USERR3
 40
0.0
  9
$USERR4
 40
0.0
  9
$USERR5
 40
0.0
  9
$WORLDVIEW
 70
     1
  9
$SHADEDGE
 70
     3
  9
$SHADEDIF
 70
    70
  9
$TILEMODE
 70
     1
  9
$MAXACTVP
 70
    48
  9
$PINSBASE
 10
0.0
 20
0.0
 30
0.0
  9
$PLIMCHECK
 70
     0
  9
$PEXTMIN
 10
0.0
 20
0.0
 30
0.0
  9
$PEXTMAX
 10
562.349609
 20
434.477661
 30
2.0
  9
$PLIMMIN
 10
0.0
 20
0.0
  9
$PLIMMAX
 10
420.0
 20
297.0
  9
$UNITMODE
 70
     0
  9
$VISRETAIN
 70
     0
  9
$PLINEGEN
 70
     0
  9
$PSLTSCALE
 70
     1
  9
$TREEDEPTH
 70
  3020
  9
$CMLSTYLE
  2
Standard
  9
$CMLJUST
 70
     0
  9
$CMLSCALE
 40
20.0
  9
$PROXYGRAPHICS
 70
     1
  9
$MEASUREMENT
 70
     1
  9
$CELWEIGHT
370
    -1
  9
$ENDCAPS
280
     0
  9
$JOINSTYLE
280
     0
  9
$LWDISPLAY
290
     0
  9
$INSUNITS
 70
     0
  9
$HYPERLINKBASE
  1

  9
$STYLESHEET
  1

  9
$XEDIT
290
     1
  9
$CEPSNTYPE
380
     0
  9
$PSTYLEMODE
290
     0
  9
$FINGERPRINTGUID
  2

  9
$VERSIONGUID
  2

  9
$EXTNAMES
290
     0
  9
$PSVPSCALE
 40
0.0
  9
$OLESTARTUP
290
     0
  0
ENDSEC
  0
SECTION
  2
CLASSES
  0
CLASS
  1
ACDBDICTIONARYWDFLT
  2
AcDbDictionaryWithDefault
  3
ObjectDBX Classes
 90
        0
280
     0
281
     0
  0
CLASS
  1
ACDBPLACEHOLDER
  2
AcDbPlaceHolder
  3
ObjectDBX Classes
 90
        0
280
     0
281
     0
  0
CLASS
  1
LAYOUT
  2
AcDbLayout
  3
ObjectDBX Classes
 90
        0
280
     0
281
     0
  0
CLASS
  1
DICTIONARYVAR
  2
AcDbDictionaryVar
  3
ObjectDBX Classes
 90
        0
280
     0
281
     0
  0
CLASS
  1
TABLESTYLE
  2
AcDbTableStyle
  3
ObjectDBX Classes
 90
     4095
280
     0
281
     0
  0
CLASS
  1
SCALE
  2
AcDbScale
  3
ObjectDBX Classes
 90
     1153
280
     0
281
     0
  0
CLASS
  1
WIPEOUTVARIABLES
  2
AcDbWipeoutVariables
  3
WipeOut|AutoCAD Express Tool|expresstools@autodesk.com
 90
        0
280
     0
281
     0
  0
ENDSEC
  0
SECTION
  2
TABLES
  0
TABLE
  2
VPORT
  5
8
330
0
100
AcDbSymbolTable
 70
     2
  0
VPORT
  5
97
330
8
100
AcDbSymbolTableRecord
100
AcDbViewportTableRecord
  2
*ACTIVE
 70
     0
 10
0.0
 20
0.0
 11
1.0
 21
1.0
 12
739.9160554041805
 22
238.8767379316251
 13
0.0
 23
0.0
 14
1.0
 24
1.0
 15
0.5
 25
0.5
 16
0.0
 26
0.0
 36
1.0
 17
0.0
 27
0.0
 37
0.0
 40
1541.438257081362
 41
0.688564
 42
50.0
 43
0.0
 44
0.0
 50
0.0
 51
0.0
 71
     0
 72
   100
 73
     1
 74
     1
 75
     0
 76
     0
 77
     0
 78
     0
281
     0
 65
     1
110
0.0
120
0.0
130
0.0
111
1.0
121
0.0
131
0.0
112
0.0
122
1.0
132
0.0
 79
     0
146
0.0
  0
ENDTAB
  0
TABLE
  2
LTYPE
  5
5
330
0
100
AcDbSymbolTable
 70
     8
  0
LTYPE
  5
14
330
5
100
AcDbSymbolTableRecord
100
AcDbLinetypeTableRecord
  2
ByBlock
 70
     0
  3

 72
    65
 73
     0
 40
0.0
  0
LTYPE
  5
15
330
5
100
AcDbSymbolTableRecord
100
AcDbLinetypeTableRecord
  2
ByLayer
 70
     0
  3

 72
    65
 73
     0
 40
0.0
  0
LTYPE
  5
16
330
5
100
AcDbSymbolTableRecord
100
AcDbLinetypeTableRecord
  2
Continuous
 70
     0
  3
Solid line
 72
    65
 73
     0
 40
0.0
  0
LTYPE
  5
752
330
5
100
AcDbSymbolTableRecord
100
AcDbLinetypeTableRecord
  2
DASHED
 70
     0
  3
__ __ __ __ __ __ __ __ __ __ __ __ __ __ __ __
 72
    65
 73
     2
 40
15.0
 49
12.0
 74
     0
 49
-3.0
 74
     0
  0
LTYPE
  5
753
330
5
100
AcDbSymbolTableRecord
100
AcDbLinetypeTableRecord
  2
DASHDOT
 70
     0
  3
 __ . __ . __ . __ . __ . __ . __ . 
 72
    65
 73
     4
 40
18.5
 49
12.0
 74
     0
 49
-3.0
 74
     0
 49
0.5
 74
     0
 49
-3.0
 74
     0
  0
LTYPE
  5
754
330
5
100
AcDbSymbolTableRecord
100
AcDbLinetypeTableRecord
  2
DOT
 70
     0
  3
 . . . . . . . . . . . . . . . .
 72
    65
 73
     2
 40
3.5
 49
0.5
 74
     0
 49
-3.0
 74
     0
  0
LTYPE
  5
755
330
5
100
AcDbSymbolTableRecord
100
AcDbLinetypeTableRecord
  2
DASHSPACE
 70
     0
  3
__    __    __    __    __   
 72
    65
 73
     2
 40
30.0
 49
12.0
 74
     0
 49
-18.0
 74
     0
  0
LTYPE
  5
756
330
5
100
AcDbSymbolTableRecord
100
AcDbLinetypeTableRecord
  2
DASHDOT2
 70
     0
  3
__ . . __ . . __ . . __ 
 72
    65
 73
     6
 40
22.0
 49
12.0
 74
     0
 49
-3.0
 74
     0
 49
0.5
 74
     0
 49
-3.0
 74
     0
 49
0.5
 74
     0
 49
-3.0
 74
     0
  0
LTYPE
  5
757
330
5
100
AcDbSymbolTableRecord
100
AcDbLinetypeTableRecord
  2
PHANTOM
 70
     0
  3
____________    ____    ____   _
 72
    65
 73
     6
 40
20.0
 49
10.0
 74
     0
 49
-2.0
 74
     0
 49
2.0
 74
     0
 49
-2.0
 74
     0
 49
2.0
 74
     0
 49
-2.0
 74
     0
  0
LTYPE
  5
758
330
5
100
AcDbSymbolTableRecord
100
AcDbLinetypeTableRecord
  2
AXES
 70
     0
  3
________  __  ________  __  _____
 72
    65
 73
     4
 40
24.0
 49
15.0
 74
     0
 49
-3.0
 74
     0
 49
3.0
 74
     0
 49
-3.0
 74
     0
  0
ENDTAB
  0
TABLE
  2
LAYER
  5
2
330
0
100
AcDbSymbolTable
 70
     2
  0
LAYER
  5
10
330
2
100
AcDbSymbolTableRecord
100
AcDbLayerTableRecord
  2
0
 70
     0
 62
     7
  6
Continuous
370
    13
390
F
  0
LAYER
  5
68E
330
2
100
AcDbSymbolTableRecord
100
AcDbLayerTableRecord
  2
DEFPOINTS
 70
     0
 62
     7
  6
Continuous
290
     0
370
    -3
390
F
  0
ENDTAB
  0
TABLE
  2
STYLE
  5
3
330
0
100
AcDbSymbolTable
 70
     2
  0
STYLE
  5
11
330
3
100
AcDbSymbolTableRecord
100
AcDbTextStyleTableRecord
  2
Standard
 70
     0
 40
0.0
 41
1.0
 50
0.0
 71
     0
 42
0.2
  3
isocp.shx
  4

  0
STYLE
  5
2B
330
3
100
AcDbSymbolTableRecord
100
AcDbTextStyleTableRecord
  2
GDT
 70
     0
 40
0.0
 41
1.0
 50
0.0
 71
     0
 42
0.2
  3
amgdt.shx
  4

  0
ENDTAB
  0
TABLE
  2
VIEW
  5
6
330
0
100
AcDbSymbolTable
 70
     0
  0
ENDTAB
  0
TABLE
  2
UCS
  5
7
330
0
100
AcDbSymbolTable
 70
     0
  0
ENDTAB
  0
TABLE
  2
APPID
  5
9
330
0
100
AcDbSymbolTable
 70
     2
  0
APPID
  5
12
330
9
100
AcDbSymbolTableRecord
100
AcDbRegAppTableRecord
  2
ACAD
 70
     0
  0
APPID
  5
751
330
9
100
AcDbSymbolTableRecord
100
AcDbRegAppTableRecord
  2
Conv5506CA
 70
     0
  0
ENDTAB
  0
TABLE
  2
DIMSTYLE
  5
A
330
0
100
AcDbSymbolTable
 70
     1
100
AcDbDimStyleTable
  0
DIMSTYLE
105
27
102
{ACAD_REACTORS
330
68F
330
6B2
330
6D4
330
72E
102
}
330
A
100
AcDbSymbolTableRecord
100
AcDbDimStyleTableRecord
  2
Standard
 70
     0
 41
2.5
 42
0.625
 43
3.75
 44
1.25
 73
     0
 74
     0
 77
     1
 78
     8
140
2.5
141
2.5
143
0.03937
147
0.625
171
     3
172
     1
271
     2
272
     2
274
     3
278
    44
283
     0
284
     8
289
     0
340
11
  0
ENDTAB
  0
TABLE
  2
BLOCK_RECORD
  5
1
330
0
100
AcDbSymbolTable
 70
    79
  0
BLOCK_RECORD
  5
1F
330
1
100
AcDbSymbolTableRecord
100
AcDbBlockTableRecord
  2
*Model_Space
340
22
  0
BLOCK_RECORD
  5
73
330
1
100
AcDbSymbolTableRecord
100
AcDbBlockTableRecord
  2
*Paper_Space
340
74
  0
BLOCK_RECORD
  5
2C
330
1
100
AcDbSymbolTableRecord
100
AcDbBlockTableRecord
  2
*D0
340
0
  0
BLOCK_RECORD
  5
2E
330
1
100
AcDbSymbolTableRecord
100
AcDbBlockTableRecord
  2
*D1
340
0
  0
BLOCK_RECORD
  5
30
330
1
100
AcDbSymbolTableRecord
100
AcDbBlockTableRecord
  2
*D2
340
0
  0
BLOCK_RECORD
  5
32
330
1
100
AcDbSymbolTableRecord
100
AcDbBlockTableRecord
  2
*D3
340
0
  0
BLOCK_RECORD
  5
34
330
1
100
AcDbSymbolTableRecord
100
AcDbBlockTableRecord
  2
*D4
340
0
  0
BLOCK_RECORD
  5
36
330
1
100
AcDbSymbolTableRecord
100
AcDbBlockTableRecord
  2
*D5
340
0
  0
BLOCK_RECORD
  5
38
330
1
100
AcDbSymbolTableRecord
100
AcDbBlockTableRecord
  2
*D6
340
0
  0
BLOCK_RECORD
  5
3A
330
1
100
AcDbSymbolTableRecord
100
AcDbBlockTableRecord
  2
*D7
340
0
  0
BLOCK_RECORD
  5
3C
330
1
100
AcDbSymbolTableRecord
100
AcDbBlockTableRecord
  2
*D8
340
0
  0
BLOCK_RECORD
  5
3E
330
1
100
AcDbSymbolTableRecord
100
AcDbBlockTableRecord
  2
*D9
340
0
  0
BLOCK_RECORD
  5
40
330
1
100
AcDbSymbolTableRecord
100
AcDbBlockTableRecord
  2
*D10
340
0
  0
BLOCK_RECORD
  5
42
330
1
100
AcDbSymbolTableRecord
100
AcDbBlockTableRecord
  2
*D11
340
0
  0
BLOCK_RECORD
  5
44
330
1
100
AcDbSymbolTableRecord
100
AcDbBlockTableRecord
  2
*D12
340
0
  0
BLOCK_RECORD
  5
46
330
1
100
AcDbSymbolTableRecord
100
AcDbBlockTableRecord
  2
*D13
340
0
  0
BLOCK_RECORD
  5
48
330
1
100
AcDbSymbolTableRecord
100
AcDbBlockTableRecord
  2
*D14
340
0
  0
BLOCK_RECORD
  5
4A
330
1
100
AcDbSymbolTableRecord
100
AcDbBlockTableRecord
  2
*D15
340
0
  0
BLOCK_RECORD
  5
4C
330
1
100
AcDbSymbolTableRecord
100
AcDbBlockTableRecord
  2
*D16
340
0
  0
BLOCK_RECORD
  5
4E
330
1
100
AcDbSymbolTableRecord
100
AcDbBlockTableRecord
  2
*D17
340
0
  0
BLOCK_RECORD
  5
50
330
1
100
AcDbSymbolTableRecord
100
AcDbBlockTableRecord
  2
*D18
340
0
  0
BLOCK_RECORD
  5
52
330
1
100
AcDbSymbolTableRecord
100
AcDbBlockTableRecord
  2
*D19
340
0
  0
BLOCK_RECORD
  5
54
330
1
100
AcDbSymbolTableRecord
100
AcDbBlockTableRecord
  2
*D20
340
0
  0
BLOCK_RECORD
  5
17D
330
1
100
AcDbSymbolTableRecord
100
AcDbBlockTableRecord
  2
Block0
340
0
  0
BLOCK_RECORD
  5
786
330
1
100
AcDbSymbolTableRecord
100
AcDbBlockTableRecord
  2
*D22
340
0
  0
BLOCK_RECORD
  5
789
330
1
100
AcDbSymbolTableRecord
100
AcDbBlockTableRecord
  2
*D23
340
0
  0
BLOCK_RECORD
  5
78C
330
1
100
AcDbSymbolTableRecord
100
AcDbBlockTableRecord
  2
*D24
340
0
  0
BLOCK_RECORD
  5
78F
330
1
100
AcDbSymbolTableRecord
100
AcDbBlockTableRecord
  2
*D25
340
0
  0
BLOCK_RECORD
  5
792
330
1
100
AcDbSymbolTableRecord
100
AcDbBlockTableRecord
  2
*D26
340
0
  0
BLOCK_RECORD
  5
EF
330
1
100
AcDbSymbolTableRecord
100
AcDbBlockTableRecord
  2
*D27
340
0
  0
BLOCK_RECORD
  5
F1
330
1
100
AcDbSymbolTableRecord
100
AcDbBlockTableRecord
  2
*D28
340
0
  0
BLOCK_RECORD
  5
F3
330
1
100
AcDbSymbolTableRecord
100
AcDbBlockTableRecord
  2
*D29
340
0
  0
BLOCK_RECORD
  5
F5
330
1
100
AcDbSymbolTableRecord
100
AcDbBlockTableRecord
  2
*D30
340
0
  0
BLOCK_RECORD
  5
F7
330
1
100
AcDbSymbolTableRecord
100
AcDbBlockTableRecord
  2
*D31
340
0
  0
BLOCK_RECORD
  5
F9
330
1
100
AcDbSymbolTableRecord
100
AcDbBlockTableRecord
  2
*D32
340
0
  0
BLOCK_RECORD
  5
FB
330
1
100
AcDbSymbolTableRecord
100
AcDbBlockTableRecord
  2
*D33
340
0
  0
BLOCK_RECORD
  5
FD
330
1
100
AcDbSymbolTableRecord
100
AcDbBlockTableRecord
  2
*D34
340
0
  0
BLOCK_RECORD
  5
FF
330
1
100
AcDbSymbolTableRecord
100
AcDbBlockTableRecord
  2
*D35
340
0
  0
BLOCK_RECORD
  5
101
330
1
100
AcDbSymbolTableRecord
100
AcDbBlockTableRecord
  2
*D36
340
0
  0
BLOCK_RECORD
  5
103
330
1
100
AcDbSymbolTableRecord
100
AcDbBlockTableRecord
  2
*D37
340
0
  0
BLOCK_RECORD
  5
105
330
1
100
AcDbSymbolTableRecord
100
AcDbBlockTableRecord
  2
*D38
340
0
  0
BLOCK_RECORD
  5
107
330
1
100
AcDbSymbolTableRecord
100
AcDbBlockTableRecord
  2
*D39
340
0
  0
BLOCK_RECORD
  5
109
330
1
100
AcDbSymbolTableRecord
100
AcDbBlockTableRecord
  2
*D40
340
0
  0
BLOCK_RECORD
  5
10B
330
1
100
AcDbSymbolTableRecord
100
AcDbBlockTableRecord
  2
*D41
340
0
  0
BLOCK_RECORD
  5
10D
330
1
100
AcDbSymbolTableRecord
100
AcDbBlockTableRecord
  2
*D42
340
0
  0
BLOCK_RECORD
  5
10F
330
1
100
AcDbSymbolTableRecord
100
AcDbBlockTableRecord
  2
*D43
340
0
  0
BLOCK_RECORD
  5
111
330
1
100
AcDbSymbolTableRecord
100
AcDbBlockTableRecord
  2
*D44
340
0
  0
BLOCK_RECORD
  5
113
330
1
100
AcDbSymbolTableRecord
100
AcDbBlockTableRecord
  2
*D45
340
0
  0
BLOCK_RECORD
  5
115
330
1
100
AcDbSymbolTableRecord
100
AcDbBlockTableRecord
  2
*D46
340
0
  0
BLOCK_RECORD
  5
117
330
1
100
AcDbSymbolTableRecord
100
AcDbBlockTableRecord
  2
*D47
340
0
  0
BLOCK_RECORD
  5
119
330
1
100
AcDbSymbolTableRecord
100
AcDbBlockTableRecord
  2
*D48
340
0
  0
BLOCK_RECORD
  5
11B
330
1
100
AcDbSymbolTableRecord
100
AcDbBlockTableRecord
  2
*D49
340
0
  0
BLOCK_RECORD
  5
11D
330
1
100
AcDbSymbolTableRecord
100
AcDbBlockTableRecord
  2
*D50
340
0
  0
BLOCK_RECORD
  5
11F
330
1
100
AcDbSymbolTableRecord
100
AcDbBlockTableRecord
  2
*D51
340
0
  0
BLOCK_RECORD
  5
121
330
1
100
AcDbSymbolTableRecord
100
AcDbBlockTableRecord
  2
*D52
340
0
  0
BLOCK_RECORD
  5
123
330
1
100
AcDbSymbolTableRecord
100
AcDbBlockTableRecord
  2
*D53
340
0
  0
BLOCK_RECORD
  5
125
330
1
100
AcDbSymbolTableRecord
100
AcDbBlockTableRecord
  2
*D54
340
0
  0
BLOCK_RECORD
  5
127
330
1
100
AcDbSymbolTableRecord
100
AcDbBlockTableRecord
  2
*D55
340
0
  0
BLOCK_RECORD
  5
129
330
1
100
AcDbSymbolTableRecord
100
AcDbBlockTableRecord
  2
*D56
340
0
  0
BLOCK_RECORD
  5
12B
330
1
100
AcDbSymbolTableRecord
100
AcDbBlockTableRecord
  2
*D57
340
0
  0
BLOCK_RECORD
  5
12D
330
1
100
AcDbSymbolTableRecord
100
AcDbBlockTableRecord
  2
*D58
340
0
  0
BLOCK_RECORD
  5
12F
330
1
100
AcDbSymbolTableRecord
100
AcDbBlockTableRecord
  2
*D59
340
0
  0
BLOCK_RECORD
  5
131
330
1
100
AcDbSymbolTableRecord
100
AcDbBlockTableRecord
  2
*D60
340
0
  0
BLOCK_RECORD
  5
133
330
1
100
AcDbSymbolTableRecord
100
AcDbBlockTableRecord
  2
*D61
340
0
  0
BLOCK_RECORD
  5
69A
330
1
100
AcDbSymbolTableRecord
100
AcDbBlockTableRecord
  2
*D62
340
0
  0
BLOCK_RECORD
  5
6A5
330
1
100
AcDbSymbolTableRecord
100
AcDbBlockTableRecord
  2
*D63
340
0
  0
BLOCK_RECORD
  5
6B0
330
1
100
AcDbSymbolTableRecord
100
AcDbBlockTableRecord
  2
*D64
340
0
  0
BLOCK_RECORD
  5
6BD
330
1
100
AcDbSymbolTableRecord
100
AcDbBlockTableRecord
  2
*D65
340
0
  0
BLOCK_RECORD
  5
6C8
330
1
100
AcDbSymbolTableRecord
100
AcDbBlockTableRecord
  2
*D66
340
0
  0
BLOCK_RECORD
  5
6D3
330
1
100
AcDbSymbolTableRecord
100
AcDbBlockTableRecord
  2
*D67
340
0
  0
BLOCK_RECORD
  5
6DF
330
1
100
AcDbSymbolTableRecord
100
AcDbBlockTableRecord
  2
*D68
340
0
  0
BLOCK_RECORD
  5
6EA
330
1
100
AcDbSymbolTableRecord
100
AcDbBlockTableRecord
  2
*D69
340
0
  0
BLOCK_RECORD
  5
6F5
330
1
100
AcDbSymbolTableRecord
100
AcDbBlockTableRecord
  2
*D70
340
0
  0
BLOCK_RECORD
  5
700
330
1
100
AcDbSymbolTableRecord
100
AcDbBlockTableRecord
  2
*D71
340
0
  0
BLOCK_RECORD
  5
70B
330
1
100
AcDbSymbolTableRecord
100
AcDbBlockTableRecord
  2
*D72
340
0
  0
BLOCK_RECORD
  5
716
330
1
100
AcDbSymbolTableRecord
100
AcDbBlockTableRecord
  2
*D73
340
0
  0
BLOCK_RECORD
  5
721
330
1
100
AcDbSymbolTableRecord
100
AcDbBlockTableRecord
  2
*D74
340
0
  0
BLOCK_RECORD
  5
72D
330
1
100
AcDbSymbolTableRecord
100
AcDbBlockTableRecord
  2
*D75
340
0
  0
BLOCK_RECORD
  5
739
330
1
100
AcDbSymbolTableRecord
100
AcDbBlockTableRecord
  2
*D76
340
0
  0
BLOCK_RECORD
  5
744
330
1
100
AcDbSymbolTableRecord
100
AcDbBlockTableRecord
  2
*D77
340
0
  0
BLOCK_RECORD
  5
74F
330
1
100
AcDbSymbolTableRecord
100
AcDbBlockTableRecord
  2
*D78
340
0
  0
ENDTAB
  0
ENDSEC
  0
SECTION
  2
BLOCKS
  0
BLOCK
  5
20
330
1F
100
AcDbEntity
  8
0
100
AcDbBlockBegin
  2
*Model_Space
 70
     0
 10
0.0
 20
0.0
 30
0.0
  3
*Model_Space
  1

  0
ENDBLK
  5
21
330
1F
100
AcDbEntity
  8
0
100
AcDbBlockEnd
  0
BLOCK
  5
75
330
73
100
AcDbEntity
 67
     1
  8
0
100
AcDbBlockBegin
  2
*Paper_Space
 70
     0
 10
0.0
 20
0.0
 30
0.0
  3
*Paper_Space
  1

  0
ENDBLK
  5
76
330
73
100
AcDbEntity
 67
     1
  8
0
100
AcDbBlockEnd
  0
BLOCK
  5
75A
330
2C
100
AcDbEntity
  8
0
100
AcDbBlockBegin
  2
*D0
 70
     1
 10
0.0
 20
0.0
 30
0.0
  3
*D0
  1

  0
TEXT
  5
17F
330
2C
100
AcDbEntity
  8
0
 62
     7
370
    13
390
F
100
AcDbText
 10
598.767786
 20
400.684334
 30
0.0
 40
3.0
  1
70
 41
1.332493967054873
 72
     5
 11
603.767786
 21
400.684334
 31
0.0
100
AcDbText
  0
TEXT
  5
180
330
2C
100
AcDbEntity
  8
0
 62
     7
370
    13
390
F
100
AcDbText
 10
595.567786
 20
400.684334
 30
0.0
 40
3.0
  1
%%c
 41
0.977777777777798
 72
     5
 11
597.767786
 21
400.684334
 31
0.0
100
AcDbText
  0
LINE
  5
181
330
2C
100
AcDbEntity
  8
0
 62
     7
 48
0.33928
370
    13
390
F
100
AcDbLine
 10
564.667786
 20
412.255524
 30
0.0
 11
564.667786
 21
398.684334
 31
0.0
  0
LINE
  5
182
330
2C
100
AcDbEntity
  8
0
 62
     7
 48
0.33928
370
    13
390
F
100
AcDbLine
 10
634.667786
 20
412.255524
 30
0.0
 11
634.667786
 21
398.684334
 31
0.0
  0
LWPOLYLINE
  5
183
330
2C
100
AcDbEntity
  8
0
 62
     7
370
    35
390
F
100
AcDbPolyline
 90
        3
 70
     0
 43
0.0
 10
566.599636
 20
400.201973
 10
564.667786
 20
399.684334
 10
566.599636
 20
399.166695
  0
LWPOLYLINE
  5
188
330
2C
100
AcDbEntity
  8
0
 62
     7
370
    35
390
F
100
AcDbPolyline
 90
        3
 70
     0
 43
0.0
 10
632.735935
 20
399.166695
 10
634.667786
 20
399.684334
 10
632.735935
 20
400.201973
  0
LINE
  5
18D
330
2C
100
AcDbEntity
  8
0
 62
     7
370
    13
390
F
100
AcDbLine
 10
564.667786
 20
399.684334
 30
0.0
 11
634.667786
 21
399.684334
 31
0.0
  0
ENDBLK
  5
75B
330
2C
100
AcDbEntity
  8
0
100
AcDbBlockEnd
  0
BLOCK
  5
75C
330
2E
100
AcDbEntity
  8
0
100
AcDbBlockBegin
  2
*D1
 70
     1
 10
0.0
 20
0.0
 30
0.0
  3
*D1
  1

  0
TEXT
  5
190
330
2E
100
AcDbEntity
  8
0
 62
     7
370
    13
390
F
100
AcDbText
 10
405.054825
 20
647.452087
 30
0.0
 40
3.0
  1
6,5
 50
40.53018047839831
 41
1.624999901123562
 72
     5
 11
410.983322
 21
652.520905
 31
0.0
100
AcDbText
  0
TEXT
  5
191
330
2E
100
AcDbEntity
  8
0
 62
     7
370
    13
390
F
100
AcDbText
 10
402.62262
 20
645.372574
 30
0.0
 40
3.0
  1
R
 50
40.52984086286028
 41
1.128205293222602
 72
     5
 11
404.294769
 21
646.802231
 31
0.0
100
AcDbText
  0
LWPOLYLINE
  5
192
330
2E
100
AcDbEntity
  8
0
 62
     7
370
    35
390
F
100
AcDbPolyline
 90
        3
 70
     0
 43
0.0
 10
400.740128
 20
643.128403
 10
399.608185
 20
641.479553
 10
401.412903
 20
642.341522
  0
LINE
  5
197
330
2E
100
AcDbEntity
  8
0
 62
     7
370
    13
390
F
100
AcDbLine
 10
392.007568
 20
634.981049
 30
0.0
 11
411.633163
 21
651.760849
 31
0.0
  0
ENDBLK
  5
75D
330
2E
100
AcDbEntity
  8
0
100
AcDbBlockEnd
  0
BLOCK
  5
75E
330
30
100
AcDbEntity
  8
0
100
AcDbBlockBegin
  2
*D2
 70
     1
 10
0.0
 20
0.0
 30
0.0
  3
*D2
  1

  0
TEXT
  5
19A
330
30
100
AcDbEntity
  8
0
 62
     7
370
    13
390
F
100
AcDbText
 10
34.976563
 20
647.918365
 30
0.0
 40
3.0
  1
25
 50
90.0
 41
1.333333333333333
 72
     5
 11
34.976563
 21
652.918365
 31
0.0
100
AcDbText
  0
LINE
  5
19B
330
30
100
AcDbEntity
  8
0
 62
     7
 48
0.367281
370
    13
390
F
100
AcDbLine
 10
49.667786
 20
662.255524
 30
0.0
 11
34.976563
 21
662.255524
 31
0.0
  0
LWPOLYLINE
  5
19C
330
30
100
AcDbEntity
  8
0
 62
     7
370
    35
390
F
100
AcDbPolyline
 90
        3
 70
     0
 43
0.0
 10
36.494202
 20
660.323669
 10
35.976563
 20
662.255524
 10
35.458923
 20
660.323669
  0
LWPOLYLINE
  5
1A1
330
30
100
AcDbEntity
  8
0
 62
     7
370
    35
390
F
100
AcDbPolyline
 90
        3
 70
     0
 43
0.0
 10
35.458923
 20
639.187378
 10
35.976563
 20
637.255524
 10
36.494202
 20
639.187378
  0
LINE
  5
1A6
330
30
100
AcDbEntity
  8
0
 62
     7
370
    13
390
F
100
AcDbLine
 10
35.976563
 20
637.255524
 30
0.0
 11
35.976563
 21
662.255524
 31
0.0
  0
ENDBLK
  5
75F
330
30
100
AcDbEntity
  8
0
100
AcDbBlockEnd
  0
BLOCK
  5
760
330
32
100
AcDbEntity
  8
0
100
AcDbBlockBegin
  2
*D3
 70
     1
 10
0.0
 20
0.0
 30
0.0
  3
*D3
  1

  0
TEXT
  5
1A9
330
32
100
AcDbEntity
  8
0
 62
     7
370
    13
390
F
100
AcDbText
 10
494.02726
 20
678.975952
 30
0.0
 40
3.0
  1
205
 41
1.333333846153847
 72
     5
 11
501.827263
 21
678.975952
 31
0.0
100
AcDbText
  0
LINE
  5
1AA
330
32
100
AcDbEntity
  8
0
 62
     7
370
    13
390
F
100
AcDbLine
 10
394.667786
 20
653.048386
 30
0.0
 11
394.667786
 21
678.975952
 31
0.0
  0
LINE
  5
1AB
330
32
100
AcDbEntity
  8
0
 62
     7
 48
0.063379
370
    13
390
F
100
AcDbLine
 10
599.667786
 20
676.440796
 30
0.0
 11
599.667786
 21
678.975952
 31
0.0
  0
LWPOLYLINE
  5
1AC
330
32
100
AcDbEntity
  8
0
 62
     7
370
    35
390
F
100
AcDbPolyline
 90
        3
 70
     0
 43
0.0
 10
597.735934
 20
677.458313
 10
599.667786
 20
677.975952
 10
597.735934
 20
678.493591
  0
LWPOLYLINE
  5
1B1
330
32
100
AcDbEntity
  8
0
 62
     7
370
    35
390
F
100
AcDbPolyline
 90
        3
 70
     0
 43
0.0
 10
396.59964
 20
678.493591
 10
394.667786
 20
677.975952
 10
396.59964
 20
677.458313
  0
LINE
  5
1B6
330
32
100
AcDbEntity
  8
0
 62
     7
370
    13
390
F
100
AcDbLine
 10
394.667786
 20
677.975952
 30
0.0
 11
599.667786
 21
677.975952
 31
0.0
  0
ENDBLK
  5
761
330
32
100
AcDbEntity
  8
0
100
AcDbBlockEnd
  0
BLOCK
  5
762
330
34
100
AcDbEntity
  8
0
100
AcDbBlockBegin
  2
*D4
 70
     1
 10
0.0
 20
0.0
 30
0.0
  3
*D4
  1

  0
TEXT
  5
1B9
330
34
100
AcDbEntity
  8
0
 62
     7
370
    13
390
F
100
AcDbText
 10
391.304459
 20
678.975952
 30
0.0
 40
3.0
  1
5
 41
1.333340606060615
 72
     5
 11
393.504471
 21
678.975952
 31
0.0
100
AcDbText
  0
LINE
  5
1BA
330
34
100
AcDbEntity
  8
0
 62
     7
370
    13
390
F
100
AcDbLine
 10
389.667786
 20
653.048386
 30
0.0
 11
389.667786
 21
678.975952
 31
0.0
  0
LINE
  5
1BB
330
34
100
AcDbEntity
  8
0
 62
     7
370
    13
390
F
100
AcDbLine
 10
394.667786
 20
653.048386
 30
0.0
 11
394.667786
 21
678.975952
 31
0.0
  0
LWPOLYLINE
  5
1BC
330
34
100
AcDbEntity
  8
0
 62
     7
370
    35
390
F
100
AcDbPolyline
 90
        3
 70
     0
 43
0.0
 10
396.59964
 20
678.493591
 10
394.667786
 20
677.975952
 10
396.59964
 20
677.458313
  0
LWPOLYLINE
  5
1C1
330
34
100
AcDbEntity
  8
0
 62
     7
370
    35
390
F
100
AcDbPolyline
 90
        3
 70
     0
 43
0.0
 10
387.735931
 20
677.458313
 10
389.667786
 20
677.975952
 10
387.735931
 20
678.493591
  0
LINE
  5
1C6
330
34
100
AcDbEntity
  8
0
 62
     7
 48
0.375
370
    13
390
F
100
AcDbLine
 10
384.667786
 20
677.975952
 30
0.0
 11
399.667786
 21
677.975952
 31
0.0
  0
ENDBLK
  5
763
330
34
100
AcDbEntity
  8
0
100
AcDbBlockEnd
  0
BLOCK
  5
764
330
36
100
AcDbEntity
  8
0
100
AcDbBlockBegin
  2
*D5
 70
     1
 10
0.0
 20
0.0
 30
0.0
  3
*D5
  1

  0
TEXT
  5
1C9
330
36
100
AcDbEntity
  8
0
 62
     7
370
    13
390
F
100
AcDbText
 10
359.667786
 20
678.975952
 30
0.0
 40
3.0
  1
55
 41
1.333333333333333
 72
     5
 11
364.667786
 21
678.975952
 31
0.0
100
AcDbText
  0
LINE
  5
1CA
330
36
100
AcDbEntity
  8
0
 62
     7
370
    13
390
F
100
AcDbLine
 10
334.667786
 20
650.16037
 30
0.0
 11
334.667786
 21
678.975952
 31
0.0
  0
LINE
  5
1CB
330
36
100
AcDbEntity
  8
0
 62
     7
370
    13
390
F
100
AcDbLine
 10
389.667786
 20
653.048386
 30
0.0
 11
389.667786
 21
678.975952
 31
0.0
  0
LWPOLYLINE
  5
1CC
330
36
100
AcDbEntity
  8
0
 62
     7
370
    35
390
F
100
AcDbPolyline
 90
        3
 70
     0
 43
0.0
 10
387.735931
 20
677.458313
 10
389.667786
 20
677.975952
 10
387.735931
 20
678.493591
  0
LWPOLYLINE
  5
1D1
330
36
100
AcDbEntity
  8
0
 62
     7
370
    35
390
F
100
AcDbPolyline
 90
        3
 70
     0
 43
0.0
 10
336.59964
 20
678.493591
 10
334.667786
 20
677.975952
 10
336.59964
 20
677.458313
  0
LINE
  5
1D6
330
36
100
AcDbEntity
  8
0
 62
     7
370
    13
390
F
100
AcDbLine
 10
334.667786
 20
677.975952
 30
0.0
 11
389.667786
 21
677.975952
 31
0.0
  0
ENDBLK
  5
765
330
36
100
AcDbEntity
  8
0
100
AcDbBlockEnd
  0
BLOCK
  5
766
330
38
100
AcDbEntity
  8
0
100
AcDbBlockBegin
  2
*D6
 70
     1
 10
0.0
 20
0.0
 30
0.0
  3
*D6
  1

  0
TEXT
  5
1D9
330
38
100
AcDbEntity
  8
0
 62
     7
370
    13
390
F
100
AcDbText
 10
331.04541
 20
678.975952
 30
0.0
 40
3.0
  1
5
 41
1.333340606060615
 72
     5
 11
333.245422
 21
678.975952
 31
0.0
100
AcDbText
  0
LINE
  5
1DA
330
38
100
AcDbEntity
  8
0
 62
     7
370
    13
390
F
100
AcDbLine
 10
329.667786
 20
648.031784
 30
0.0
 11
329.667786
 21
678.975952
 31
0.0
  0
LINE
  5
1DB
330
38
100
AcDbEntity
  8
0
 62
     7
370
    13
390
F
100
AcDbLine
 10
334.667786
 20
650.16037
 30
0.0
 11
334.667786
 21
678.975952
 31
0.0
  0
LWPOLYLINE
  5
1DC
330
38
100
AcDbEntity
  8
0
 62
     7
370
    35
390
F
100
AcDbPolyline
 90
        3
 70
     0
 43
0.0
 10
336.59964
 20
678.493591
 10
334.667786
 20
677.975952
 10
336.59964
 20
677.458313
  0
LWPOLYLINE
  5
1E1
330
38
100
AcDbEntity
  8
0
 62
     7
370
    35
390
F
100
AcDbPolyline
 90
        3
 70
     0
 43
0.0
 10
327.735931
 20
677.458313
 10
329.667786
 20
677.975952
 10
327.735931
 20
678.493591
  0
LINE
  5
1E6
330
38
100
AcDbEntity
  8
0
 62
     7
 48
0.375
370
    13
390
F
100
AcDbLine
 10
324.667786
 20
677.975952
 30
0.0
 11
339.667786
 21
677.975952
 31
0.0
  0
ENDBLK
  5
767
330
38
100
AcDbEntity
  8
0
100
AcDbBlockEnd
  0
BLOCK
  5
768
330
3A
100
AcDbEntity
  8
0
100
AcDbBlockBegin
  2
*D7
 70
     1
 10
0.0
 20
0.0
 30
0.0
  3
*D7
  1

  0
TEXT
  5
1E9
330
3A
100
AcDbEntity
  8
0
 62
     7
370
    13
390
F
100
AcDbText
 10
270.767792
 20
678.975952
 30
0.0
 40
3.0
  1
110
 41
1.676565077430829
 72
     5
 11
278.56778
 21
678.975952
 31
0.0
100
AcDbText
  0
LINE
  5
1EA
330
3A
100
AcDbEntity
  8
0
 62
     7
370
    13
390
F
100
AcDbLine
 10
219.667786
 20
657.037292
 30
0.0
 11
219.667786
 21
678.975952
 31
0.0
  0
LINE
  5
1EB
330
3A
100
AcDbEntity
  8
0
 62
     7
370
    13
390
F
100
AcDbLine
 10
329.667786
 20
648.031784
 30
0.0
 11
329.667786
 21
678.975952
 31
0.0
  0
LWPOLYLINE
  5
1EC
330
3A
100
AcDbEntity
  8
0
 62
     7
370
    35
390
F
100
AcDbPolyline
 90
        3
 70
     0
 43
0.0
 10
327.735931
 20
677.458313
 10
329.667786
 20
677.975952
 10
327.735931
 20
678.493591
  0
LWPOLYLINE
  5
1F1
330
3A
100
AcDbEntity
  8
0
 62
     7
370
    35
390
F
100
AcDbPolyline
 90
        3
 70
     0
 43
0.0
 10
221.59964
 20
678.493591
 10
219.667786
 20
677.975952
 10
221.59964
 20
677.458313
  0
LINE
  5
1F6
330
3A
100
AcDbEntity
  8
0
 62
     7
370
    13
390
F
100
AcDbLine
 10
219.667786
 20
677.975952
 30
0.0
 11
329.667786
 21
677.975952
 31
0.0
  0
ENDBLK
  5
769
330
3A
100
AcDbEntity
  8
0
100
AcDbBlockEnd
  0
BLOCK
  5
76A
330
3C
100
AcDbEntity
  8
0
100
AcDbBlockBegin
  2
*D8
 70
     1
 10
0.0
 20
0.0
 30
0.0
  3
*D8
  1

  0
TEXT
  5
1F9
330
3C
100
AcDbEntity
  8
0
 62
     7
370
    13
390
F
100
AcDbText
 10
216.358795
 20
678.975952
 30
0.0
 40
3.0
  1
5
 41
1.333340606060615
 72
     5
 11
218.558807
 21
678.975952
 31
0.0
100
AcDbText
  0
LINE
  5
1FA
330
3C
100
AcDbEntity
  8
0
 62
     7
370
    13
390
F
100
AcDbLine
 10
214.667786
 20
648.877121
 30
0.0
 11
214.667786
 21
678.975952
 31
0.0
  0
LINE
  5
1FB
330
3C
100
AcDbEntity
  8
0
 62
     7
370
    13
390
F
100
AcDbLine
 10
219.667786
 20
657.037292
 30
0.0
 11
219.667786
 21
678.975952
 31
0.0
  0
LWPOLYLINE
  5
1FC
330
3C
100
AcDbEntity
  8
0
 62
     7
370
    35
390
F
100
AcDbPolyline
 90
        3
 70
     0
 43
0.0
 10
221.59964
 20
678.493591
 10
219.667786
 20
677.975952
 10
221.59964
 20
677.458313
  0
LWPOLYLINE
  5
201
330
3C
100
AcDbEntity
  8
0
 62
     7
370
    35
390
F
100
AcDbPolyline
 90
        3
 70
     0
 43
0.0
 10
212.735931
 20
677.458313
 10
214.667786
 20
677.975952
 10
212.735931
 20
678.493591
  0
LINE
  5
206
330
3C
100
AcDbEntity
  8
0
 62
     7
 48
0.375
370
    13
390
F
100
AcDbLine
 10
209.667786
 20
677.975952
 30
0.0
 11
224.667786
 21
677.975952
 31
0.0
  0
ENDBLK
  5
76B
330
3C
100
AcDbEntity
  8
0
100
AcDbBlockEnd
  0
BLOCK
  5
76C
330
3E
100
AcDbEntity
  8
0
100
AcDbBlockBegin
  2
*D9
 70
     1
 10
0.0
 20
0.0
 30
0.0
  3
*D9
  1

  0
TEXT
  5
209
330
3E
100
AcDbEntity
  8
0
 62
     7
370
    13
390
F
100
AcDbText
 10
184.667786
 20
678.975952
 30
0.0
 40
3.0
  1
55
 41
1.333333333333333
 72
     5
 11
189.667786
 21
678.975952
 31
0.0
100
AcDbText
  0
LINE
  5
20A
330
3E
100
AcDbEntity
  8
0
 62
     7
370
    13
390
F
100
AcDbLine
 10
159.667786
 20
653.048386
 30
0.0
 11
159.667786
 21
678.975952
 31
0.0
  0
LINE
  5
20B
330
3E
100
AcDbEntity
  8
0
 62
     7
370
    13
390
F
100
AcDbLine
 10
214.667786
 20
648.877121
 30
0.0
 11
214.667786
 21
678.975952
 31
0.0
  0
LWPOLYLINE
  5
20C
330
3E
100
AcDbEntity
  8
0
 62
     7
370
    35
390
F
100
AcDbPolyline
 90
        3
 70
     0
 43
0.0
 10
212.735931
 20
677.458313
 10
214.667786
 20
677.975952
 10
212.735931
 20
678.493591
  0
LWPOLYLINE
  5
211
330
3E
100
AcDbEntity
  8
0
 62
     7
370
    35
390
F
100
AcDbPolyline
 90
        3
 70
     0
 43
0.0
 10
161.59964
 20
678.493591
 10
159.667786
 20
677.975952
 10
161.59964
 20
677.458313
  0
LINE
  5
216
330
3E
100
AcDbEntity
  8
0
 62
     7
370
    13
390
F
100
AcDbLine
 10
159.667786
 20
677.975952
 30
0.0
 11
214.667786
 21
677.975952
 31
0.0
  0
ENDBLK
  5
76D
330
3E
100
AcDbEntity
  8
0
100
AcDbBlockEnd
  0
BLOCK
  5
76E
330
40
100
AcDbEntity
  8
0
100
AcDbBlockBegin
  2
*D10
 70
     1
 10
0.0
 20
0.0
 30
0.0
  3
*D10
  1

  0
TEXT
  5
219
330
40
100
AcDbEntity
  8
0
 62
     7
370
    13
390
F
100
AcDbText
 10
156.377411
 20
678.975952
 30
0.0
 40
3.0
  1
5
 41
1.333340606060615
 72
     5
 11
158.577423
 21
678.975952
 31
0.0
100
AcDbText
  0
LINE
  5
21A
330
40
100
AcDbEntity
  8
0
 62
     7
370
    13
390
F
100
AcDbLine
 10
154.667786
 20
647.48674
 30
0.0
 11
154.667786
 21
678.975952
 31
0.0
  0
LINE
  5
21B
330
40
100
AcDbEntity
  8
0
 62
     7
370
    13
390
F
100
AcDbLine
 10
159.667786
 20
653.048386
 30
0.0
 11
159.667786
 21
678.975952
 31
0.0
  0
LWPOLYLINE
  5
21C
330
40
100
AcDbEntity
  8
0
 62
     7
370
    35
390
F
100
AcDbPolyline
 90
        3
 70
     0
 43
0.0
 10
161.59964
 20
678.493591
 10
159.667786
 20
677.975952
 10
161.59964
 20
677.458313
  0
LWPOLYLINE
  5
221
330
40
100
AcDbEntity
  8
0
 62
     7
370
    35
390
F
100
AcDbPolyline
 90
        3
 70
     0
 43
0.0
 10
152.735931
 20
677.458313
 10
154.667786
 20
677.975952
 10
152.735931
 20
678.493591
  0
LINE
  5
226
330
40
100
AcDbEntity
  8
0
 62
     7
 48
0.375
370
    13
390
F
100
AcDbLine
 10
149.667786
 20
677.975952
 30
0.0
 11
164.667786
 21
677.975952
 31
0.0
  0
ENDBLK
  5
76F
330
40
100
AcDbEntity
  8
0
100
AcDbBlockEnd
  0
BLOCK
  5
770
330
42
100
AcDbEntity
  8
0
100
AcDbBlockBegin
  2
*D11
 70
     1
 10
0.0
 20
0.0
 30
0.0
  3
*D11
  1

  0
TEXT
  5
229
330
42
100
AcDbEntity
  8
0
 62
     7
370
    13
390
F
100
AcDbText
 10
698.267784
 20
678.975952
 30
0.0
 40
3.0
  1
205
 41
1.333333846153837
 72
     5
 11
706.067787
 21
678.975952
 31
0.0
100
AcDbText
  0
LINE
  5
22A
330
42
100
AcDbEntity
  8
0
 62
     7
 48
0.063379
370
    13
390
F
100
AcDbLine
 10
599.667786
 20
676.440796
 30
0.0
 11
599.667786
 21
678.975952
 31
0.0
  0
LINE
  5
22B
330
42
100
AcDbEntity
  8
0
 62
     7
370
    13
390
F
100
AcDbLine
 10
804.667786
 20
647.48674
 30
0.0
 11
804.667786
 21
678.975952
 31
0.0
  0
LWPOLYLINE
  5
22C
330
42
100
AcDbEntity
  8
0
 62
     7
370
    35
390
F
100
AcDbPolyline
 90
        3
 70
     0
 43
0.0
 10
601.599637
 20
678.493591
 10
599.667786
 20
677.975952
 10
601.599637
 20
677.458313
  0
LWPOLYLINE
  5
231
330
42
100
AcDbEntity
  8
0
 62
     7
370
    35
390
F
100
AcDbPolyline
 90
        3
 70
     0
 43
0.0
 10
802.735931
 20
677.458313
 10
804.667786
 20
677.975952
 10
802.735931
 20
678.493591
  0
LINE
  5
236
330
42
100
AcDbEntity
  8
0
 62
     7
370
    13
390
F
100
AcDbLine
 10
599.667786
 20
677.975952
 30
0.0
 11
804.667786
 21
677.975952
 31
0.0
  0
ENDBLK
  5
771
330
42
100
AcDbEntity
  8
0
100
AcDbBlockEnd
  0
BLOCK
  5
772
330
44
100
AcDbEntity
  8
0
100
AcDbBlockBegin
  2
*D12
 70
     1
 10
0.0
 20
0.0
 30
0.0
  3
*D12
  1

  0
TEXT
  5
239
330
44
100
AcDbEntity
  8
0
 62
     7
370
    13
390
F
100
AcDbText
 10
806.083069
 20
678.975952
 30
0.0
 40
3.0
  1
5
 41
1.333340606060615
 72
     5
 11
808.283081
 21
678.975952
 31
0.0
100
AcDbText
  0
LINE
  5
23A
330
44
100
AcDbEntity
  8
0
 62
     7
370
    13
390
F
100
AcDbLine
 10
804.667786
 20
647.48674
 30
0.0
 11
804.667786
 21
678.975952
 31
0.0
  0
LINE
  5
23B
330
44
100
AcDbEntity
  8
0
 62
     7
370
    13
390
F
100
AcDbLine
 10
809.667786
 20
649.281158
 30
0.0
 11
809.667786
 21
678.975952
 31
0.0
  0
LWPOLYLINE
  5
23C
330
44
100
AcDbEntity
  8
0
 62
     7
370
    35
390
F
100
AcDbPolyline
 90
        3
 70
     0
 43
0.0
 10
802.735931
 20
677.458313
 10
804.667786
 20
677.975952
 10
802.735931
 20
678.493591
  0
LWPOLYLINE
  5
241
330
44
100
AcDbEntity
  8
0
 62
     7
370
    35
390
F
100
AcDbPolyline
 90
        3
 70
     0
 43
0.0
 10
811.59964
 20
678.493591
 10
809.667786
 20
677.975952
 10
811.59964
 20
677.458313
  0
LINE
  5
246
330
44
100
AcDbEntity
  8
0
 62
     7
 48
0.375
370
    13
390
F
100
AcDbLine
 10
799.667786
 20
677.975952
 30
0.0
 11
814.667786
 21
677.975952
 31
0.0
  0
ENDBLK
  5
773
330
44
100
AcDbEntity
  8
0
100
AcDbBlockEnd
  0
BLOCK
  5
774
330
46
100
AcDbEntity
  8
0
100
AcDbBlockBegin
  2
*D13
 70
     1
 10
0.0
 20
0.0
 30
0.0
  3
*D13
  1

  0
TEXT
  5
249
330
46
100
AcDbEntity
  8
0
 62
     7
370
    13
390
F
100
AcDbText
 10
834.667786
 20
678.975952
 30
0.0
 40
3.0
  1
55
 41
1.333333333333333
 72
     5
 11
839.667786
 21
678.975952
 31
0.0
100
AcDbText
  0
LINE
  5
24A
330
46
100
AcDbEntity
  8
0
 62
     7
370
    13
390
F
100
AcDbLine
 10
809.667786
 20
649.281158
 30
0.0
 11
809.667786
 21
678.975952
 31
0.0
  0
LINE
  5
24B
330
46
100
AcDbEntity
  8
0
 62
     7
370
    13
390
F
100
AcDbLine
 10
864.667786
 20
648.877121
 30
0.0
 11
864.667786
 21
678.975952
 31
0.0
  0
LWPOLYLINE
  5
24C
330
46
100
AcDbEntity
  8
0
 62
     7
370
    35
390
F
100
AcDbPolyline
 90
        3
 70
     0
 43
0.0
 10
811.59964
 20
678.493591
 10
809.667786
 20
677.975952
 10
811.59964
 20
677.458313
  0
LWPOLYLINE
  5
251
330
46
100
AcDbEntity
  8
0
 62
     7
370
    35
390
F
100
AcDbPolyline
 90
        3
 70
     0
 43
0.0
 10
862.735931
 20
677.458313
 10
864.667786
 20
677.975952
 10
862.735931
 20
678.493591
  0
LINE
  5
256
330
46
100
AcDbEntity
  8
0
 62
     7
370
    13
390
F
100
AcDbLine
 10
809.667786
 20
677.975952
 30
0.0
 11
864.667786
 21
677.975952
 31
0.0
  0
ENDBLK
  5
775
330
46
100
AcDbEntity
  8
0
100
AcDbBlockEnd
  0
BLOCK
  5
776
330
48
100
AcDbEntity
  8
0
100
AcDbBlockBegin
  2
*D14
 70
     1
 10
0.0
 20
0.0
 30
0.0
  3
*D14
  1

  0
TEXT
  5
259
330
48
100
AcDbEntity
  8
0
 62
     7
370
    13
390
F
100
AcDbText
 10
866.064453
 20
678.975952
 30
0.0
 40
3.0
  1
5
 41
1.333340606060615
 72
     5
 11
868.264465
 21
678.975952
 31
0.0
100
AcDbText
  0
LINE
  5
25A
330
48
100
AcDbEntity
  8
0
 62
     7
370
    13
390
F
100
AcDbLine
 10
864.667786
 20
648.877121
 30
0.0
 11
864.667786
 21
678.975952
 31
0.0
  0
LINE
  5
25B
330
48
100
AcDbEntity
  8
0
 62
     7
370
    13
390
F
100
AcDbLine
 10
869.667786
 20
657.037292
 30
0.0
 11
869.667786
 21
678.975952
 31
0.0
  0
LWPOLYLINE
  5
25C
330
48
100
AcDbEntity
  8
0
 62
     7
370
    35
390
F
100
AcDbPolyline
 90
        3
 70
     0
 43
0.0
 10
862.735931
 20
677.458313
 10
864.667786
 20
677.975952
 10
862.735931
 20
678.493591
  0
LWPOLYLINE
  5
261
330
48
100
AcDbEntity
  8
0
 62
     7
370
    35
390
F
100
AcDbPolyline
 90
        3
 70
     0
 43
0.0
 10
871.59964
 20
678.493591
 10
869.667786
 20
677.975952
 10
871.59964
 20
677.458313
  0
LINE
  5
266
330
48
100
AcDbEntity
  8
0
 62
     7
 48
0.375
370
    13
390
F
100
AcDbLine
 10
859.667786
 20
677.975952
 30
0.0
 11
874.667786
 21
677.975952
 31
0.0
  0
ENDBLK
  5
777
330
48
100
AcDbEntity
  8
0
100
AcDbBlockEnd
  0
BLOCK
  5
778
330
4A
100
AcDbEntity
  8
0
100
AcDbBlockBegin
  2
*D15
 70
     1
 10
0.0
 20
0.0
 30
0.0
  3
*D15
  1

  0
TEXT
  5
269
330
4A
100
AcDbEntity
  8
0
 62
     7
370
    13
390
F
100
AcDbText
 10
920.767792
 20
678.975952
 30
0.0
 40
3.0
  1
110
 41
1.676565077430817
 72
     5
 11
928.56778
 21
678.975952
 31
0.0
100
AcDbText
  0
LINE
  5
26A
330
4A
100
AcDbEntity
  8
0
 62
     7
370
    13
390
F
100
AcDbLine
 10
869.667786
 20
657.037292
 30
0.0
 11
869.667786
 21
678.975952
 31
0.0
  0
LINE
  5
26B
330
4A
100
AcDbEntity
  8
0
 62
     7
370
    13
390
F
100
AcDbLine
 10
979.667786
 20
648.031784
 30
0.0
 11
979.667786
 21
678.975952
 31
0.0
  0
LWPOLYLINE
  5
26C
330
4A
100
AcDbEntity
  8
0
 62
     7
370
    35
390
F
100
AcDbPolyline
 90
        3
 70
     0
 43
0.0
 10
871.59964
 20
678.493591
 10
869.667786
 20
677.975952
 10
871.59964
 20
677.458313
  0
LWPOLYLINE
  5
271
330
4A
100
AcDbEntity
  8
0
 62
     7
370
    35
390
F
100
AcDbPolyline
 90
        3
 70
     0
 43
0.0
 10
977.735931
 20
677.458313
 10
979.667786
 20
677.975952
 10
977.735931
 20
678.493591
  0
LINE
  5
276
330
4A
100
AcDbEntity
  8
0
 62
     7
370
    13
390
F
100
AcDbLine
 10
869.667786
 20
677.975952
 30
0.0
 11
979.667786
 21
677.975952
 31
0.0
  0
ENDBLK
  5
779
330
4A
100
AcDbEntity
  8
0
100
AcDbBlockEnd
  0
BLOCK
  5
77A
330
4C
100
AcDbEntity
  8
0
100
AcDbBlockBegin
  2
*D16
 70
     1
 10
0.0
 20
0.0
 30
0.0
  3
*D16
  1

  0
TEXT
  5
279
330
4C
100
AcDbEntity
  8
0
 62
     7
370
    13
390
F
100
AcDbText
 10
981.121307
 20
678.975952
 30
0.0
 40
3.0
  1
5
 41
1.33334121212122
 72
     5
 11
983.32132
 21
678.975952
 31
0.0
100
AcDbText
  0
LINE
  5
27A
330
4C
100
AcDbEntity
  8
0
 62
     7
370
    13
390
F
100
AcDbLine
 10
979.667786
 20
648.031784
 30
0.0
 11
979.667786
 21
678.975952
 31
0.0
  0
LINE
  5
27B
330
4C
100
AcDbEntity
  8
0
 62
     7
370
    13
390
F
100
AcDbLine
 10
984.667786
 20
650.16037
 30
0.0
 11
984.667786
 21
678.975952
 31
0.0
  0
LWPOLYLINE
  5
27C
330
4C
100
AcDbEntity
  8
0
 62
     7
370
    35
390
F
100
AcDbPolyline
 90
        3
 70
     0
 43
0.0
 10
977.735931
 20
677.458313
 10
979.667786
 20
677.975952
 10
977.735931
 20
678.493591
  0
LWPOLYLINE
  5
281
330
4C
100
AcDbEntity
  8
0
 62
     7
370
    35
390
F
100
AcDbPolyline
 90
        3
 70
     0
 43
0.0
 10
986.59964
 20
678.493591
 10
984.667786
 20
677.975952
 10
986.59964
 20
677.458313
  0
LINE
  5
286
330
4C
100
AcDbEntity
  8
0
 62
     7
 48
0.375
370
    13
390
F
100
AcDbLine
 10
974.667786
 20
677.975952
 30
0.0
 11
989.667786
 21
677.975952
 31
0.0
  0
ENDBLK
  5
77B
330
4C
100
AcDbEntity
  8
0
100
AcDbBlockEnd
  0
BLOCK
  5
77C
330
4E
100
AcDbEntity
  8
0
100
AcDbBlockBegin
  2
*D17
 70
     1
 10
0.0
 20
0.0
 30
0.0
  3
*D17
  1

  0
TEXT
  5
289
330
4E
100
AcDbEntity
  8
0
 62
     7
370
    13
390
F
100
AcDbText
 10
1009.667786
 20
678.975952
 30
0.0
 40
3.0
  1
55
 41
1.333333333333333
 72
     5
 11
1014.667786
 21
678.975952
 31
0.0
100
AcDbText
  0
LINE
  5
28A
330
4E
100
AcDbEntity
  8
0
 62
     7
370
    13
390
F
100
AcDbLine
 10
984.667786
 20
650.16037
 30
0.0
 11
984.667786
 21
678.975952
 31
0.0
  0
LINE
  5
28B
330
4E
100
AcDbEntity
  8
0
 62
     7
370
    13
390
F
100
AcDbLine
 10
1039.667786
 20
653.048386
 30
0.0
 11
1039.667786
 21
678.975952
 31
0.0
  0
LWPOLYLINE
  5
28C
330
4E
100
AcDbEntity
  8
0
 62
     7
370
    35
390
F
100
AcDbPolyline
 90
        3
 70
     0
 43
0.0
 10
986.59964
 20
678.493591
 10
984.667786
 20
677.975952
 10
986.59964
 20
677.458313
  0
LWPOLYLINE
  5
291
330
4E
100
AcDbEntity
  8
0
 62
     7
370
    35
390
F
100
AcDbPolyline
 90
        3
 70
     0
 43
0.0
 10
1037.735931
 20
677.458313
 10
1039.667786
 20
677.975952
 10
1037.735931
 20
678.493591
  0
LINE
  5
296
330
4E
100
AcDbEntity
  8
0
 62
     7
370
    13
390
F
100
AcDbLine
 10
984.667786
 20
677.975952
 30
0.0
 11
1039.667786
 21
677.975952
 31
0.0
  0
ENDBLK
  5
77D
330
4E
100
AcDbEntity
  8
0
100
AcDbBlockEnd
  0
BLOCK
  5
77E
330
50
100
AcDbEntity
  8
0
100
AcDbBlockBegin
  2
*D18
 70
     1
 10
0.0
 20
0.0
 30
0.0
  3
*D18
  1

  0
TEXT
  5
299
330
50
100
AcDbEntity
  8
0
 62
     7
370
    13
390
F
100
AcDbText
 10
1041.102692
 20
678.975952
 30
0.0
 40
3.0
  1
5
 41
1.333340606060615
 72
     5
 11
1043.302704
 21
678.975952
 31
0.0
100
AcDbText
  0
LINE
  5
29A
330
50
100
AcDbEntity
  8
0
 62
     7
370
    13
390
F
100
AcDbLine
 10
1039.667786
 20
653.048386
 30
0.0
 11
1039.667786
 21
678.975952
 31
0.0
  0
LINE
  5
29B
330
50
100
AcDbEntity
  8
0
 62
     7
370
    13
390
F
100
AcDbLine
 10
1044.667786
 20
653.048386
 30
0.0
 11
1044.667786
 21
678.975952
 31
0.0
  0
LWPOLYLINE
  5
29C
330
50
100
AcDbEntity
  8
0
 62
     7
370
    35
390
F
100
AcDbPolyline
 90
        3
 70
     0
 43
0.0
 10
1037.735931
 20
677.458313
 10
1039.667786
 20
677.975952
 10
1037.735931
 20
678.493591
  0
LWPOLYLINE
  5
2A1
330
50
100
AcDbEntity
  8
0
 62
     7
370
    35
390
F
100
AcDbPolyline
 90
        3
 70
     0
 43
0.0
 10
1046.59964
 20
678.493591
 10
1044.667786
 20
677.975952
 10
1046.59964
 20
677.458313
  0
LINE
  5
2A6
330
50
100
AcDbEntity
  8
0
 62
     7
 48
0.375
370
    13
390
F
100
AcDbLine
 10
1034.667786
 20
677.975952
 30
0.0
 11
1049.667786
 21
677.975952
 31
0.0
  0
ENDBLK
  5
77F
330
50
100
AcDbEntity
  8
0
100
AcDbBlockEnd
  0
BLOCK
  5
780
330
52
100
AcDbEntity
  8
0
100
AcDbBlockBegin
  2
*D19
 70
     1
 10
0.0
 20
0.0
 30
0.0
  3
*D19
  1

  0
TEXT
  5
2A9
330
52
100
AcDbEntity
  8
0
 62
     7
370
    13
390
F
100
AcDbText
 10
594.917737
 20
689.538788
 30
0.0
 40
3.0
  1
1100
 41
1.569821001690867
 72
     5
 11
605.517737
 21
689.538788
 31
0.0
100
AcDbText
  0
LINE
  5
2AA
330
52
100
AcDbEntity
  8
0
 62
     7
370
    13
390
F
100
AcDbLine
 10
49.667786
 20
662.255524
 30
0.0
 11
49.667786
 21
689.538788
 31
0.0
  0
LINE
  5
2AB
330
52
100
AcDbEntity
  8
0
 62
     7
370
    13
390
F
100
AcDbLine
 10
1149.667786
 20
662.255524
 30
0.0
 11
1149.667786
 21
689.538788
 31
0.0
  0
LWPOLYLINE
  5
2AC
330
52
100
AcDbEntity
  8
0
 62
     7
370
    35
390
F
100
AcDbPolyline
 90
        3
 70
     0
 43
0.0
 10
51.599609
 20
689.056427
 10
49.667786
 20
688.538788
 10
51.599609
 20
688.021149
  0
LWPOLYLINE
  5
2B1
330
52
100
AcDbEntity
  8
0
 62
     7
370
    35
390
F
100
AcDbPolyline
 90
        3
 70
     0
 43
0.0
 10
1147.735962
 20
688.021149
 10
1149.667786
 20
688.538788
 10
1147.735962
 20
689.056427
  0
LINE
  5
2B6
330
52
100
AcDbEntity
  8
0
 62
     7
370
    13
390
F
100
AcDbLine
 10
49.667786
 20
688.538788
 30
0.0
 11
1149.667786
 21
688.538788
 31
0.0
  0
ENDBLK
  5
781
330
52
100
AcDbEntity
  8
0
100
AcDbBlockEnd
  0
BLOCK
  5
782
330
54
100
AcDbEntity
  8
0
100
AcDbBlockBegin
  2
*D20
 70
     1
 10
0.0
 20
0.0
 30
0.0
  3
*D20
  1

  0
TEXT
  5
2B9
330
54
100
AcDbEntity
  8
0
 62
     7
370
    13
390
F
100
AcDbText
 10
642.35041
 20
405.869415
 30
0.0
 40
3.0
  1
3
 41
1.333331515151478
 72
     5
 11
644.550407
 21
405.869415
 31
0.0
100
AcDbText
  0
LINE
  5
2BA
330
54
100
AcDbEntity
  8
0
 62
     7
 48
0.209653
370
    13
390
F
100
AcDbLine
 10
631.667786
 20
412.255524
 30
0.0
 11
631.667786
 21
403.869415
 31
0.0
  0
LINE
  5
2BB
330
54
100
AcDbEntity
  8
0
 62
     7
 48
0.209653
370
    13
390
F
100
AcDbLine
 10
634.667786
 20
412.255524
 30
0.0
 11
634.667786
 21
403.869415
 31
0.0
  0
LWPOLYLINE
  5
2BC
330
54
100
AcDbEntity
  8
0
 62
     7
370
    35
390
F
100
AcDbPolyline
 90
        3
 70
     0
 43
0.0
 10
636.599636
 20
405.387054
 10
634.667786
 20
404.869415
 10
636.599636
 20
404.351776
  0
LWPOLYLINE
  5
2C1
330
54
100
AcDbEntity
  8
0
 62
     7
370
    35
390
F
100
AcDbPolyline
 90
        3
 70
     0
 43
0.0
 10
629.735933
 20
404.351776
 10
631.667786
 20
404.869415
 10
629.735933
 20
405.387054
  0
LINE
  5
2C6
330
54
100
AcDbEntity
  8
0
 62
     7
 48
0.447066
370
    13
390
F
100
AcDbLine
 10
626.667786
 20
404.869415
 30
0.0
 11
644.550407
 21
404.869415
 31
0.0
  0
ENDBLK
  5
783
330
54
100
AcDbEntity
  8
0
100
AcDbBlockEnd
  0
BLOCK
  5
784
330
17D
100
AcDbEntity
  8
0
100
AcDbBlockBegin
  2
Block0
 70
     0
 10
0.0
 20
0.0
 30
0.0
  3
Block0
  1

  0
TEXT
  5
2C9
330
17D
100
AcDbEntity
  8
0
 62
     7
370
    13
390
F
100
AcDbText
 10
-519.841309
 20
415.051147
 30
0.0
 40
14.0
  1
GW85081 TESTA PALO DOPPIO
 41
1.221774033876206
 72
     5
 11
-216.239014
 21
415.051147
 31
0.0
100
AcDbText
  0
ENDBLK
  5
785
330
17D
100
AcDbEntity
  8
0
100
AcDbBlockEnd
  0
BLOCK
  5
787
330
786
100
AcDbEntity
  8
0
100
AcDbBlockBegin
  2
*D22
 70
     1
 10
0.0
 20
0.0
 30
0.0
  3
*D22
  1

  0
TEXT
  5
2CC
330
786
100
AcDbEntity
  8
0
 62
     7
370
    13
390
F
100
AcDbText
 10
939.454175
 20
558.301788
 30
0.0
 40
3.0
  1
100
 41
1.485046098493379
 72
     5
 11
947.254175
 21
558.301788
 31
0.0
100
AcDbText
  0
LINE
  5
2CD
330
786
100
AcDbEntity
  8
0
 62
     7
370
    13
390
F
100
AcDbLine
 10
894.089996
 20
529.450378
 30
0.0
 11
894.089996
 21
558.301788
 31
0.0
  0
LINE
  5
2CE
330
786
100
AcDbEntity
  8
0
 62
     7
370
    13
390
F
100
AcDbLine
 10
994.089996
 20
529.450378
 30
0.0
 11
994.089996
 21
558.301788
 31
0.0
  0
LWPOLYLINE
  5
2CF
330
786
100
AcDbEntity
  8
0
 62
     7
370
    35
390
F
100
AcDbPolyline
 90
        3
 70
     0
 43
0.0
 10
896.021847
 20
557.819427
 10
894.089996
 20
557.301788
 10
896.021847
 20
556.784164
  0
LWPOLYLINE
  5
2D4
330
786
100
AcDbEntity
  8
0
 62
     7
370
    35
390
F
100
AcDbPolyline
 90
        3
 70
     0
 43
0.0
 10
992.158146
 20
556.784164
 10
994.089996
 20
557.301788
 10
992.158146
 20
557.819427
  0
LINE
  5
2D9
330
786
100
AcDbEntity
  8
0
 62
     7
370
    13
390
F
100
AcDbLine
 10
894.089996
 20
557.301788
 30
0.0
 11
994.089996
 21
557.301788
 31
0.0
  0
ENDBLK
  5
788
330
786
100
AcDbEntity
  8
0
100
AcDbBlockEnd
  0
BLOCK
  5
78A
330
789
100
AcDbEntity
  8
0
100
AcDbBlockBegin
  2
*D23
 70
     1
 10
0.0
 20
0.0
 30
0.0
  3
*D23
  1

  0
TEXT
  5
2DC
330
789
100
AcDbEntity
  8
0
 62
     7
370
    13
390
F
100
AcDbText
 10
1031.419754
 20
379.70256
 30
0.0
 40
3.0
  1
200
 50
90.0
 41
1.332795669021191
 72
     5
 11
1031.419754
 21
387.502563
 31
0.0
100
AcDbText
  0
LINE
  5
2DD
330
789
100
AcDbEntity
  8
0
 62
     7
370
    13
390
F
100
AcDbLine
 10
979.089996
 20
283.450378
 30
0.0
 11
1033.419754
 21
283.450378
 31
0.0
  0
LINE
  5
2DE
330
789
100
AcDbEntity
  8
0
 62
     7
370
    13
390
F
100
AcDbLine
 10
994.089996
 20
483.450378
 30
0.0
 11
1033.419754
 21
483.450378
 31
0.0
  0
LWPOLYLINE
  5
2DF
330
789
100
AcDbEntity
  8
0
 62
     7
370
    35
390
F
100
AcDbPolyline
 90
        3
 70
     0
 43
0.0
 10
1031.902115
 20
285.382229
 10
1032.419754
 20
283.450378
 10
1032.937393
 20
285.382229
  0
LWPOLYLINE
  5
2E4
330
789
100
AcDbEntity
  8
0
 62
     7
370
    35
390
F
100
AcDbPolyline
 90
        3
 70
     0
 43
0.0
 10
1032.937393
 20
481.518524
 10
1032.419754
 20
483.450378
 10
1031.902115
 20
481.518524
  0
LINE
  5
2E9
330
789
100
AcDbEntity
  8
0
 62
     7
370
    13
390
F
100
AcDbLine
 10
1032.419754
 20
283.450378
 30
0.0
 11
1032.419754
 21
483.450378
 31
0.0
  0
ENDBLK
  5
78B
330
789
100
AcDbEntity
  8
0
100
AcDbBlockEnd
  0
BLOCK
  5
78D
330
78C
100
AcDbEntity
  8
0
100
AcDbBlockBegin
  2
*D24
 70
     1
 10
0.0
 20
0.0
 30
0.0
  3
*D24
  1

  0
TEXT
  5
2EC
330
78C
100
AcDbEntity
  8
0
 62
     7
370
    13
390
F
100
AcDbText
 10
1031.419754
 20
505.950378
 30
0.0
 40
3.0
  1
50
 50
90.0
 41
1.332493967054873
 72
     5
 11
1031.419754
 21
510.950378
 31
0.0
100
AcDbText
  0
LINE
  5
2ED
330
78C
100
AcDbEntity
  8
0
 62
     7
370
    13
390
F
100
AcDbLine
 10
994.089996
 20
483.450378
 30
0.0
 11
1033.419754
 21
483.450378
 31
0.0
  0
LINE
  5
2EE
330
78C
100
AcDbEntity
  8
0
 62
     7
370
    13
390
F
100
AcDbLine
 10
990.089996
 20
533.450378
 30
0.0
 11
1033.419754
 21
533.450378
 31
0.0
  0
LWPOLYLINE
  5
2EF
330
78C
100
AcDbEntity
  8
0
 62
     7
370
    35
390
F
100
AcDbPolyline
 90
        3
 70
     0
 43
0.0
 10
1032.937393
 20
531.518524
 10
1032.419754
 20
533.450378
 10
1031.902115
 20
531.518524
  0
LWPOLYLINE
  5
2F4
330
78C
100
AcDbEntity
  8
0
 62
     7
370
    35
390
F
100
AcDbPolyline
 90
        3
 70
     0
 43
0.0
 10
1031.902115
 20
485.382233
 10
1032.419754
 20
483.450378
 10
1032.937393
 20
485.382233
  0
LINE
  5
2F9
330
78C
100
AcDbEntity
  8
0
 62
     7
370
    13
390
F
100
AcDbLine
 10
1032.419754
 20
483.450378
 30
0.0
 11
1032.419754
 21
533.450378
 31
0.0
  0
ENDBLK
  5
78E
330
78C
100
AcDbEntity
  8
0
100
AcDbBlockEnd
  0
BLOCK
  5
790
330
78F
100
AcDbEntity
  8
0
100
AcDbBlockBegin
  2
*D25
 70
     1
 10
0.0
 20
0.0
 30
0.0
  3
*D25
  1

  0
TEXT
  5
2FC
330
78F
100
AcDbEntity
  8
0
 62
     7
370
    13
390
F
100
AcDbText
 10
1015.615387
 20
518.564941
 30
0.0
 40
3.0
  1
27
 50
90.0
 41
1.333333333333333
 72
     5
 11
1015.615387
 21
523.564941
 31
0.0
100
AcDbText
  0
LINE
  5
2FD
330
78F
100
AcDbEntity
  8
0
 62
     7
370
    13
390
F
100
AcDbLine
 10
944.089996
 20
506.450378
 30
0.0
 11
1017.615387
 21
506.450378
 31
0.0
  0
LINE
  5
2FE
330
78F
100
AcDbEntity
  8
0
 62
     7
370
    13
390
F
100
AcDbLine
 10
990.089996
 20
533.450378
 30
0.0
 11
1017.615387
 21
533.450378
 31
0.0
  0
LWPOLYLINE
  5
2FF
330
78F
100
AcDbEntity
  8
0
 62
     7
370
    35
390
F
100
AcDbPolyline
 90
        3
 70
     0
 43
0.0
 10
1017.133026
 20
531.518524
 10
1016.615387
 20
533.450378
 10
1016.097748
 20
531.518524
  0
LWPOLYLINE
  5
304
330
78F
100
AcDbEntity
  8
0
 62
     7
370
    35
390
F
100
AcDbPolyline
 90
        3
 70
     0
 43
0.0
 10
1016.097748
 20
508.382233
 10
1016.615387
 20
506.450378
 10
1017.133026
 20
508.382233
  0
LINE
  5
309
330
78F
100
AcDbEntity
  8
0
 62
     7
370
    13
390
F
100
AcDbLine
 10
1016.615387
 20
506.450378
 30
0.0
 11
1016.615387
 21
533.450378
 31
0.0
  0
ENDBLK
  5
791
330
78F
100
AcDbEntity
  8
0
100
AcDbBlockEnd
  0
BLOCK
  5
793
330
792
100
AcDbEntity
  8
0
100
AcDbBlockBegin
  2
*D26
 70
     1
 10
0.0
 20
0.0
 30
0.0
  3
*D26
  1

  0
TEXT
  5
30C
330
792
100
AcDbEntity
  8
0
 62
     7
370
    13
390
F
100
AcDbText
 10
942.746664
 20
506.37648
 30
0.0
 40
3.0
  1
30
 50
51.16113636265266
 41
1.332493348975918
 72
     5
 11
945.882324
 21
510.271042
 31
0.0
100
AcDbText
  0
TEXT
  5
30D
330
792
100
AcDbEntity
  8
0
 62
     7
370
    13
390
F
100
AcDbText
 10
940.739842
 20
503.883957
 30
0.0
 40
3.0
  1
%%c
 50
51.16138094068734
 41
0.9777829334823873
 72
     5
 11
942.119533
 21
505.59758
 31
0.0
100
AcDbText
  0
LWPOLYLINE
  5
30E
330
792
100
AcDbEntity
  8
0
 62
     7
370
    35
390
F
100
AcDbPolyline
 90
        3
 70
     0
 43
0.0
 10
952.688644
 20
516.304703
 10
953.496975
 20
518.134079
 10
951.882254
 20
516.953964
  0
LWPOLYLINE
  5
313
330
792
100
AcDbEntity
  8
0
 62
     7
370
    35
390
F
100
AcDbPolyline
 90
        3
 70
     0
 43
0.0
 10
935.491348
 20
496.596054
 10
934.683018
 20
494.766678
 10
936.297739
 20
495.946793
  0
LINE
  5
318
330
792
100
AcDbEntity
  8
0
 62
     7
370
    13
390
F
100
AcDbLine
 10
934.683018
 20
494.766678
 30
0.0
 11
953.496975
 21
518.134079
 31
0.0
  0
ENDBLK
  5
794
330
792
100
AcDbEntity
  8
0
100
AcDbBlockEnd
  0
BLOCK
  5
795
330
EF
100
AcDbEntity
  8
0
100
AcDbBlockBegin
  2
*D27
 70
     1
 10
0.0
 20
0.0
 30
0.0
  3
*D27
  1

  0
TEXT
  5
31B
330
EF
100
AcDbEntity
  8
0
 62
     7
370
    13
390
F
100
AcDbText
 10
1073.74971
 20
123.326441
 30
0.0
 40
3.0
  1
13
 50
43.89647715591891
 41
1.587300388360832
 72
     5
 11
1077.352676
 21
126.793226
 31
0.0
100
AcDbText
  0
TEXT
  5
31C
330
EF
100
AcDbEntity
  8
0
 62
     7
370
    13
390
F
100
AcDbText
 10
1071.443802
 20
121.107698
 30
0.0
 40
3.0
  1
%%c
 50
43.89607310944585
 41
0.9777839489859821
 72
     5
 11
1073.029129
 21
122.633083
 31
0.0
100
AcDbText
  0
LWPOLYLINE
  5
31D
330
EF
100
AcDbEntity
  8
0
 62
     7
370
    35
390
F
100
AcDbPolyline
 90
        3
 70
     0
 43
0.0
 10
1059.730881
 20
109.168099
 10
1058.697708
 20
107.455629
 10
1060.448715
 20
108.422085
  0
LWPOLYLINE
  5
322
330
EF
100
AcDbEntity
  8
0
 62
     7
370
    35
390
F
100
AcDbPolyline
 90
        3
 70
     0
 43
0.0
 10
1067.032272
 20
114.756801
 10
1068.065445
 20
116.469271
 10
1066.314438
 20
115.502815
  0
LINE
  5
327
330
EF
100
AcDbEntity
  8
0
 62
     7
370
    13
390
F
100
AcDbLine
 10
1058.697708
 20
107.455629
 30
0.0
 11
1078.046036
 21
126.072632
 31
0.0
  0
ENDBLK
  5
796
330
EF
100
AcDbEntity
  8
0
100
AcDbBlockEnd
  0
BLOCK
  5
797
330
F1
100
AcDbEntity
  8
0
100
AcDbBlockBegin
  2
*D28
 70
     1
 10
0.0
 20
0.0
 30
0.0
  3
*D28
  1

  0
TEXT
  5
32A
330
F1
100
AcDbEntity
  8
0
 62
     7
370
    13
390
F
100
AcDbText
 10
1073.74971
 20
123.326441
 30
0.0
 40
3.0
  1
13
 50
43.89647715591891
 41
1.587300388360832
 72
     5
 11
1077.352676
 21
126.793226
 31
0.0
100
AcDbText
  0
TEXT
  5
32B
330
F1
100
AcDbEntity
  8
0
 62
     7
370
    13
390
F
100
AcDbText
 10
1071.443802
 20
121.107698
 30
0.0
 40
3.0
  1
%%c
 50
43.89607310944585
 41
0.9777839489859821
 72
     5
 11
1073.029129
 21
122.633083
 31
0.0
100
AcDbText
  0
LWPOLYLINE
  5
32C
330
F1
100
AcDbEntity
  8
0
 62
     7
370
    35
390
F
100
AcDbPolyline
 90
        3
 70
     0
 43
0.0
 10
1059.730881
 20
109.168099
 10
1058.697708
 20
107.455629
 10
1060.448715
 20
108.422085
  0
LWPOLYLINE
  5
331
330
F1
100
AcDbEntity
  8
0
 62
     7
370
    35
390
F
100
AcDbPolyline
 90
        3
 70
     0
 43
0.0
 10
1067.032272
 20
114.756801
 10
1068.065445
 20
116.469271
 10
1066.314438
 20
115.502815
  0
LINE
  5
336
330
F1
100
AcDbEntity
  8
0
 62
     7
370
    13
390
F
100
AcDbLine
 10
1058.697708
 20
107.455629
 30
0.0
 11
1078.046036
 21
126.072632
 31
0.0
  0
ENDBLK
  5
798
330
F1
100
AcDbEntity
  8
0
100
AcDbBlockEnd
  0
BLOCK
  5
799
330
F3
100
AcDbEntity
  8
0
100
AcDbBlockBegin
  2
*D29
 70
     1
 10
0.0
 20
0.0
 30
0.0
  3
*D29
  1

  0
TEXT
  5
339
330
F3
100
AcDbEntity
  8
0
 62
     7
370
    13
390
F
100
AcDbText
 10
1073.74971
 20
123.326441
 30
0.0
 40
3.0
  1
13
 50
43.89647715591891
 41
1.587300388360832
 72
     5
 11
1077.352676
 21
126.793226
 31
0.0
100
AcDbText
  0
TEXT
  5
33A
330
F3
100
AcDbEntity
  8
0
 62
     7
370
    13
390
F
100
AcDbText
 10
1071.443802
 20
121.107698
 30
0.0
 40
3.0
  1
%%c
 50
43.89607310944585
 41
0.9777839489859821
 72
     5
 11
1073.029129
 21
122.633083
 31
0.0
100
AcDbText
  0
LWPOLYLINE
  5
33B
330
F3
100
AcDbEntity
  8
0
 62
     7
370
    35
390
F
100
AcDbPolyline
 90
        3
 70
     0
 43
0.0
 10
1059.730881
 20
109.168099
 10
1058.697708
 20
107.455629
 10
1060.448715
 20
108.422085
  0
LWPOLYLINE
  5
340
330
F3
100
AcDbEntity
  8
0
 62
     7
370
    35
390
F
100
AcDbPolyline
 90
        3
 70
     0
 43
0.0
 10
1067.032272
 20
114.756801
 10
1068.065445
 20
116.469271
 10
1066.314438
 20
115.502815
  0
LINE
  5
345
330
F3
100
AcDbEntity
  8
0
 62
     7
370
    13
390
F
100
AcDbLine
 10
1058.697708
 20
107.455629
 30
0.0
 11
1078.046036
 21
126.072632
 31
0.0
  0
ENDBLK
  5
79A
330
F3
100
AcDbEntity
  8
0
100
AcDbBlockEnd
  0
BLOCK
  5
79B
330
F5
100
AcDbEntity
  8
0
100
AcDbBlockBegin
  2
*D30
 70
     1
 10
0.0
 20
0.0
 30
0.0
  3
*D30
  1

  0
TEXT
  5
348
330
F5
100
AcDbEntity
  8
0
 62
     7
370
    13
390
F
100
AcDbText
 10
1073.74971
 20
123.326441
 30
0.0
 40
3.0
  1
13
 50
43.89647715591891
 41
1.587300388360832
 72
     5
 11
1077.352676
 21
126.793226
 31
0.0
100
AcDbText
  0
TEXT
  5
349
330
F5
100
AcDbEntity
  8
0
 62
     7
370
    13
390
F
100
AcDbText
 10
1071.443802
 20
121.107698
 30
0.0
 40
3.0
  1
%%c
 50
43.89607310944585
 41
0.9777839489859821
 72
     5
 11
1073.029129
 21
122.633083
 31
0.0
100
AcDbText
  0
LWPOLYLINE
  5
34A
330
F5
100
AcDbEntity
  8
0
 62
     7
370
    35
390
F
100
AcDbPolyline
 90
        3
 70
     0
 43
0.0
 10
1059.730881
 20
109.168099
 10
1058.697708
 20
107.455629
 10
1060.448715
 20
108.422085
  0
LWPOLYLINE
  5
34F
330
F5
100
AcDbEntity
  8
0
 62
     7
370
    35
390
F
100
AcDbPolyline
 90
        3
 70
     0
 43
0.0
 10
1067.032272
 20
114.756801
 10
1068.065445
 20
116.469271
 10
1066.314438
 20
115.502815
  0
LINE
  5
354
330
F5
100
AcDbEntity
  8
0
 62
     7
370
    13
390
F
100
AcDbLine
 10
1058.697708
 20
107.455629
 30
0.0
 11
1078.046036
 21
126.072632
 31
0.0
  0
ENDBLK
  5
79C
330
F5
100
AcDbEntity
  8
0
100
AcDbBlockEnd
  0
BLOCK
  5
79D
330
F7
100
AcDbEntity
  8
0
100
AcDbBlockBegin
  2
*D31
 70
     1
 10
0.0
 20
0.0
 30
0.0
  3
*D31
  1

  0
TEXT
  5
357
330
F7
100
AcDbEntity
  8
0
 62
     7
370
    13
390
F
100
AcDbText
 10
126.2892
 20
175.803789
 30
0.0
 40
3.0
  1
30
 41
1.332493967054873
 72
     5
 11
131.2892
 21
175.803789
 31
0.0
100
AcDbText
  0
LINE
  5
358
330
F7
100
AcDbEntity
  8
0
 62
     7
370
    13
390
F
100
AcDbLine
 10
113.381577
 20
131.186598
 30
0.0
 11
113.381577
 21
175.803793
 31
0.0
  0
LINE
  5
359
330
F7
100
AcDbEntity
  8
0
 62
     7
370
    13
390
F
100
AcDbLine
 10
143.381577
 20
120.224185
 30
0.0
 11
143.381577
 21
175.803793
 31
0.0
  0
LWPOLYLINE
  5
35A
330
F7
100
AcDbEntity
  8
0
 62
     7
370
    35
390
F
100
AcDbPolyline
 90
        3
 70
     0
 43
0.0
 10
141.449722
 20
174.286154
 10
143.381577
 20
174.803793
 10
141.449722
 20
175.321428
  0
LWPOLYLINE
  5
35F
330
F7
100
AcDbEntity
  8
0
 62
     7
370
    35
390
F
100
AcDbPolyline
 90
        3
 70
     0
 43
0.0
 10
115.313431
 20
175.321428
 10
113.381577
 20
174.803793
 10
115.313431
 20
174.286154
  0
LINE
  5
364
330
F7
100
AcDbEntity
  8
0
 62
     7
370
    13
390
F
100
AcDbLine
 10
113.381577
 20
174.803793
 30
0.0
 11
143.381577
 21
174.803793
 31
0.0
  0
ENDBLK
  5
79E
330
F7
100
AcDbEntity
  8
0
100
AcDbBlockEnd
  0
BLOCK
  5
79F
330
F9
100
AcDbEntity
  8
0
100
AcDbBlockBegin
  2
*D32
 70
     1
 10
0.0
 20
0.0
 30
0.0
  3
*D32
  1

  0
TEXT
  5
367
330
F9
100
AcDbEntity
  8
0
 62
     7
370
    13
390
F
100
AcDbText
 10
1045.881577
 20
176.662111
 30
0.0
 40
3.0
  1
30
 41
1.332493967054873
 72
     5
 11
1050.881577
 21
176.662111
 31
0.0
100
AcDbText
  0
LINE
  5
368
330
F9
100
AcDbEntity
  8
0
 62
     7
370
    13
390
F
100
AcDbLine
 10
1033.381577
 20
121.755318
 30
0.0
 11
1033.381577
 21
176.662111
 31
0.0
  0
LINE
  5
369
330
F9
100
AcDbEntity
  8
0
 62
     7
370
    13
390
F
100
AcDbLine
 10
1063.381577
 20
130.351435
 30
0.0
 11
1063.381577
 21
176.662111
 31
0.0
  0
LWPOLYLINE
  5
36A
330
F9
100
AcDbEntity
  8
0
 62
     7
370
    35
390
F
100
AcDbPolyline
 90
        3
 70
     0
 43
0.0
 10
1035.313431
 20
176.17975
 10
1033.381577
 20
175.662111
 10
1035.313431
 20
175.144472
  0
LWPOLYLINE
  5
36F
330
F9
100
AcDbEntity
  8
0
 62
     7
370
    35
390
F
100
AcDbPolyline
 90
        3
 70
     0
 43
0.0
 10
1061.449722
 20
175.144472
 10
1063.381577
 20
175.662111
 10
1061.449722
 20
176.17975
  0
LINE
  5
374
330
F9
100
AcDbEntity
  8
0
 62
     7
370
    13
390
F
100
AcDbLine
 10
1033.381577
 20
175.662111
 30
0.0
 11
1063.381577
 21
175.662111
 31
0.0
  0
ENDBLK
  5
7A0
330
F9
100
AcDbEntity
  8
0
100
AcDbBlockEnd
  0
BLOCK
  5
7A1
330
FB
100
AcDbEntity
  8
0
100
AcDbBlockBegin
  2
*D33
 70
     1
 10
0.0
 20
0.0
 30
0.0
  3
*D33
  1

  0
TEXT
  5
377
330
FB
100
AcDbEntity
  8
0
 62
     7
370
    13
390
F
100
AcDbText
 10
135.345566
 20
180.540972
 30
0.0
 40
3.5
  1
5
 41
1.577148571428572
 72
     5
 11
138.381577
 21
180.540972
 31
0.0
100
AcDbText
  0
LINE
  5
378
330
FB
100
AcDbEntity
  8
0
 62
     7
370
    13
390
F
100
AcDbLine
 10
143.381577
 20
122.224185
 30
0.0
 11
143.381577
 21
180.540972
 31
0.0
  0
LINE
  5
379
330
FB
100
AcDbEntity
  8
0
 62
     7
370
    13
390
F
100
AcDbLine
 10
148.381577
 20
124.172899
 30
0.0
 11
148.381577
 21
180.540972
 31
0.0
  0
LWPOLYLINE
  5
37A
330
FB
100
AcDbEntity
  8
0
 62
     7
370
    13
390
F
100
AcDbPolyline
 90
        3
 70
     0
 43
0.0
 10
141.449722
 20
178.023333
 10
143.381577
 20
178.540972
 10
141.449722
 20
179.058611
  0
LWPOLYLINE
  5
37F
330
FB
100
AcDbEntity
  8
0
 62
     7
370
    13
390
F
100
AcDbPolyline
 90
        3
 70
     0
 43
0.0
 10
150.313431
 20
179.058611
 10
148.381577
 20
178.540972
 10
150.313431
 20
178.023333
  0
LINE
  5
384
330
FB
100
AcDbEntity
  8
0
 62
     7
 48
0.4509
370
    13
390
F
100
AcDbLine
 10
135.345566
 20
178.540972
 30
0.0
 11
153.381577
 21
178.540972
 31
0.0
  0
ENDBLK
  5
7A2
330
FB
100
AcDbEntity
  8
0
100
AcDbBlockEnd
  0
BLOCK
  5
7A3
330
FD
100
AcDbEntity
  8
0
100
AcDbBlockBegin
  2
*D34
 70
     1
 10
0.0
 20
0.0
 30
0.0
  3
*D34
  1

  0
TEXT
  5
387
330
FD
100
AcDbEntity
  8
0
 62
     7
370
    13
390
F
100
AcDbText
 10
172.49556
 20
176.798922
 30
0.0
 40
3.5
  1
55
 41
1.547893257142856
 72
     5
 11
179.267593
 21
176.798922
 31
0.0
100
AcDbText
  0
LINE
  5
388
330
FD
100
AcDbEntity
  8
0
 62
     7
370
    13
390
F
100
AcDbLine
 10
148.381577
 20
124.172899
 30
0.0
 11
148.381577
 21
176.798922
 31
0.0
  0
LINE
  5
389
330
FD
100
AcDbEntity
  8
0
 62
     7
370
    13
390
F
100
AcDbLine
 10
203.381577
 20
128.340919
 30
0.0
 11
203.381577
 21
176.798922
 31
0.0
  0
LWPOLYLINE
  5
38A
330
FD
100
AcDbEntity
  8
0
 62
     7
370
    13
390
F
100
AcDbPolyline
 90
        3
 70
     0
 43
0.0
 10
150.313431
 20
175.316557
 10
148.381577
 20
174.798922
 10
150.313431
 20
174.281282
  0
LWPOLYLINE
  5
38F
330
FD
100
AcDbEntity
  8
0
 62
     7
370
    13
390
F
100
AcDbPolyline
 90
        3
 70
     0
 43
0.0
 10
201.449722
 20
174.281282
 10
203.381577
 20
174.798922
 10
201.449722
 20
175.316557
  0
LINE
  5
394
330
FD
100
AcDbEntity
  8
0
 62
     7
370
    13
390
F
100
AcDbLine
 10
148.381577
 20
174.798922
 30
0.0
 11
203.381577
 21
174.798922
 31
0.0
  0
ENDBLK
  5
7A4
330
FD
100
AcDbEntity
  8
0
100
AcDbBlockEnd
  0
BLOCK
  5
7A5
330
FF
100
AcDbEntity
  8
0
100
AcDbBlockBegin
  2
*D35
 70
     1
 10
0.0
 20
0.0
 30
0.0
  3
*D35
  1

  0
TEXT
  5
397
330
FF
100
AcDbEntity
  8
0
 62
     7
370
    13
390
F
100
AcDbText
 10
203.911179
 20
180.828829
 30
0.0
 40
3.5
  1
5
 41
1.577148051948054
 72
     5
 11
206.947189
 21
180.828829
 31
0.0
100
AcDbText
  0
LINE
  5
398
330
FF
100
AcDbEntity
  8
0
 62
     7
370
    13
390
F
100
AcDbLine
 10
203.381577
 20
128.340919
 30
0.0
 11
203.381577
 21
180.828829
 31
0.0
  0
LINE
  5
399
330
FF
100
AcDbEntity
  8
0
 62
     7
370
    13
390
F
100
AcDbLine
 10
208.381577
 20
133.744221
 30
0.0
 11
208.381577
 21
180.828829
 31
0.0
  0
LWPOLYLINE
  5
39A
330
FF
100
AcDbEntity
  8
0
 62
     7
370
    13
390
F
100
AcDbPolyline
 90
        3
 70
     0
 43
0.0
 10
210.313431
 20
179.346468
 10
208.381577
 20
178.828829
 10
210.313431
 20
178.31119
  0
LWPOLYLINE
  5
39F
330
FF
100
AcDbEntity
  8
0
 62
     7
370
    13
390
F
100
AcDbPolyline
 90
        3
 70
     0
 43
0.0
 10
201.449722
 20
178.31119
 10
203.381577
 20
178.828829
 10
201.449722
 20
179.346468
  0
LINE
  5
3A4
330
FF
100
AcDbEntity
  8
0
 62
     7
 48
0.375
370
    13
390
F
100
AcDbLine
 10
198.381577
 20
178.828829
 30
0.0
 11
213.381577
 21
178.828829
 31
0.0
  0
ENDBLK
  5
7A6
330
FF
100
AcDbEntity
  8
0
100
AcDbBlockEnd
  0
BLOCK
  5
7A7
330
101
100
AcDbEntity
  8
0
100
AcDbBlockBegin
  2
*D36
 70
     1
 10
0.0
 20
0.0
 30
0.0
  3
*D36
  1

  0
TEXT
  5
3A7
330
101
100
AcDbEntity
  8
0
 62
     7
370
    13
390
F
100
AcDbText
 10
258.127548
 20
176.936205
 30
0.0
 40
3.5
  1
110
 41
1.935985549631888
 72
     5
 11
268.635605
 21
176.936205
 31
0.0
100
AcDbText
  0
LINE
  5
3A8
330
101
100
AcDbEntity
  8
0
 62
     7
370
    13
390
F
100
AcDbLine
 10
208.381577
 20
133.744221
 30
0.0
 11
208.381577
 21
176.936205
 31
0.0
  0
LINE
  5
3A9
330
101
100
AcDbEntity
  8
0
 62
     7
370
    13
390
F
100
AcDbLine
 10
318.381577
 20
124.738718
 30
0.0
 11
318.381577
 21
176.936205
 31
0.0
  0
LWPOLYLINE
  5
3AA
330
101
100
AcDbEntity
  8
0
 62
     7
370
    13
390
F
100
AcDbPolyline
 90
        3
 70
     0
 43
0.0
 10
210.313431
 20
175.45384
 10
208.381577
 20
174.936205
 10
210.313431
 20
174.418566
  0
LWPOLYLINE
  5
3AF
330
101
100
AcDbEntity
  8
0
 62
     7
370
    13
390
F
100
AcDbPolyline
 90
        3
 70
     0
 43
0.0
 10
316.449722
 20
174.418566
 10
318.381577
 20
174.936205
 10
316.449722
 20
175.45384
  0
LINE
  5
3B4
330
101
100
AcDbEntity
  8
0
 62
     7
370
    13
390
F
100
AcDbLine
 10
208.381577
 20
174.936205
 30
0.0
 11
318.381577
 21
174.936205
 31
0.0
  0
ENDBLK
  5
7A8
330
101
100
AcDbEntity
  8
0
100
AcDbBlockEnd
  0
BLOCK
  5
7A9
330
103
100
AcDbEntity
  8
0
100
AcDbBlockBegin
  2
*D37
 70
     1
 10
0.0
 20
0.0
 30
0.0
  3
*D37
  1

  0
TEXT
  5
3B7
330
103
100
AcDbEntity
  8
0
 62
     7
370
    13
390
F
100
AcDbText
 10
319.557236
 20
181.949747
 30
0.0
 40
3.5
  1
5
 41
1.577148051948069
 72
     5
 11
322.593246
 21
181.949747
 31
0.0
100
AcDbText
  0
LINE
  5
3B8
330
103
100
AcDbEntity
  8
0
 62
     7
370
    13
390
F
100
AcDbLine
 10
318.381577
 20
124.738718
 30
0.0
 11
318.381577
 21
181.949747
 31
0.0
  0
LINE
  5
3B9
330
103
100
AcDbEntity
  8
0
 62
     7
370
    13
390
F
100
AcDbLine
 10
323.381577
 20
126.867291
 30
0.0
 11
323.381577
 21
181.949747
 31
0.0
  0
LWPOLYLINE
  5
3BA
330
103
100
AcDbEntity
  8
0
 62
     7
370
    13
390
F
100
AcDbPolyline
 90
        3
 70
     0
 43
0.0
 10
325.313431
 20
180.467386
 10
323.381577
 20
179.949747
 10
325.313431
 20
179.432108
  0
LWPOLYLINE
  5
3BF
330
103
100
AcDbEntity
  8
0
 62
     7
370
    13
390
F
100
AcDbPolyline
 90
        3
 70
     0
 43
0.0
 10
316.449722
 20
179.432108
 10
318.381577
 20
179.949747
 10
316.449722
 20
180.467386
  0
LINE
  5
3C4
330
103
100
AcDbEntity
  8
0
 62
     7
 48
0.375
370
    13
390
F
100
AcDbLine
 10
313.381577
 20
179.949747
 30
0.0
 11
328.381577
 21
179.949747
 31
0.0
  0
ENDBLK
  5
7AA
330
103
100
AcDbEntity
  8
0
100
AcDbBlockEnd
  0
BLOCK
  5
7AB
330
105
100
AcDbEntity
  8
0
100
AcDbBlockBegin
  2
*D38
 70
     1
 10
0.0
 20
0.0
 30
0.0
  3
*D38
  1

  0
TEXT
  5
3C7
330
105
100
AcDbEntity
  8
0
 62
     7
370
    13
390
F
100
AcDbText
 10
347.49556
 20
177.301714
 30
0.0
 40
3.5
  1
55
 41
1.547893257142849
 72
     5
 11
354.267593
 21
177.301714
 31
0.0
100
AcDbText
  0
LINE
  5
3C8
330
105
100
AcDbEntity
  8
0
 62
     7
370
    13
390
F
100
AcDbLine
 10
323.381577
 20
126.867291
 30
0.0
 11
323.381577
 21
177.301714
 31
0.0
  0
LINE
  5
3C9
330
105
100
AcDbEntity
  8
0
 62
     7
370
    13
390
F
100
AcDbLine
 10
378.381577
 20
123.755318
 30
0.0
 11
378.381577
 21
177.301714
 31
0.0
  0
LWPOLYLINE
  5
3CA
330
105
100
AcDbEntity
  8
0
 62
     7
370
    13
390
F
100
AcDbPolyline
 90
        3
 70
     0
 43
0.0
 10
325.313431
 20
175.819349
 10
323.381577
 20
175.301714
 10
325.313431
 20
174.784075
  0
LWPOLYLINE
  5
3CF
330
105
100
AcDbEntity
  8
0
 62
     7
370
    13
390
F
100
AcDbPolyline
 90
        3
 70
     0
 43
0.0
 10
376.449722
 20
174.784075
 10
378.381577
 20
175.301714
 10
376.449722
 20
175.819349
  0
LINE
  5
3D4
330
105
100
AcDbEntity
  8
0
 62
     7
370
    13
390
F
100
AcDbLine
 10
323.381577
 20
175.301714
 30
0.0
 11
378.381577
 21
175.301714
 31
0.0
  0
ENDBLK
  5
7AC
330
105
100
AcDbEntity
  8
0
100
AcDbBlockEnd
  0
BLOCK
  5
7AD
330
107
100
AcDbEntity
  8
0
100
AcDbBlockBegin
  2
*D39
 70
     1
 10
0.0
 20
0.0
 30
0.0
  3
*D39
  1

  0
TEXT
  5
3D7
330
107
100
AcDbEntity
  8
0
 62
     7
370
    13
390
F
100
AcDbText
 10
370.345566
 20
181.95537
 30
0.0
 40
3.5
  1
5
 41
1.577148571428558
 72
     5
 11
373.381577
 21
181.95537
 31
0.0
100
AcDbText
  0
LINE
  5
3D8
330
107
100
AcDbEntity
  8
0
 62
     7
370
    13
390
F
100
AcDbLine
 10
378.381577
 20
123.755318
 30
0.0
 11
378.381577
 21
181.95537
 31
0.0
  0
LINE
  5
3D9
330
107
100
AcDbEntity
  8
0
 62
     7
370
    13
390
F
100
AcDbLine
 10
383.381577
 20
123.755318
 30
0.0
 11
383.381577
 21
181.95537
 31
0.0
  0
LWPOLYLINE
  5
3DA
330
107
100
AcDbEntity
  8
0
 62
     7
370
    13
390
F
100
AcDbPolyline
 90
        3
 70
     0
 43
0.0
 10
376.449722
 20
179.437731
 10
378.381577
 20
179.95537
 10
376.449722
 20
180.473009
  0
LWPOLYLINE
  5
3DF
330
107
100
AcDbEntity
  8
0
 62
     7
370
    13
390
F
100
AcDbPolyline
 90
        3
 70
     0
 43
0.0
 10
385.313431
 20
180.473009
 10
383.381577
 20
179.95537
 10
385.313431
 20
179.437731
  0
LINE
  5
3E4
330
107
100
AcDbEntity
  8
0
 62
     7
 48
0.450901
370
    13
390
F
100
AcDbLine
 10
370.345551
 20
179.95537
 30
0.0
 11
388.381577
 21
179.95537
 31
0.0
  0
ENDBLK
  5
7AE
330
107
100
AcDbEntity
  8
0
100
AcDbBlockEnd
  0
BLOCK
  5
7AF
330
109
100
AcDbEntity
  8
0
100
AcDbBlockBegin
  2
*D40
 70
     1
 10
0.0
 20
0.0
 30
0.0
  3
*D40
  1

  0
TEXT
  5
3E7
330
109
100
AcDbEntity
  8
0
 62
     7
370
    13
390
F
100
AcDbText
 10
394.99556
 20
177.30176
 30
0.0
 40
3.5
  1
30
 41
1.546918820090823
 72
     5
 11
401.767593
 21
177.30176
 31
0.0
100
AcDbText
  0
LINE
  5
3E8
330
109
100
AcDbEntity
  8
0
 62
     7
370
    13
390
F
100
AcDbLine
 10
383.381577
 20
123.755318
 30
0.0
 11
383.381577
 21
177.30176
 31
0.0
  0
LINE
  5
3E9
330
109
100
AcDbEntity
  8
0
 62
     7
370
    13
390
F
100
AcDbLine
 10
413.381577
 20
132.351435
 30
0.0
 11
413.381577
 21
177.30176
 31
0.0
  0
LWPOLYLINE
  5
3EA
330
109
100
AcDbEntity
  8
0
 62
     7
370
    13
390
F
100
AcDbPolyline
 90
        3
 70
     0
 43
0.0
 10
411.449722
 20
174.784121
 10
413.381577
 20
175.30176
 10
411.449722
 20
175.819395
  0
LWPOLYLINE
  5
3EF
330
109
100
AcDbEntity
  8
0
 62
     7
370
    13
390
F
100
AcDbPolyline
 90
        3
 70
     0
 43
0.0
 10
385.313431
 20
175.819395
 10
383.381577
 20
175.30176
 10
385.313431
 20
174.784121
  0
LINE
  5
3F4
330
109
100
AcDbEntity
  8
0
 62
     7
370
    13
390
F
100
AcDbLine
 10
383.381577
 20
175.30176
 30
0.0
 11
413.381577
 21
175.30176
 31
0.0
  0
ENDBLK
  5
7B0
330
109
100
AcDbEntity
  8
0
100
AcDbBlockEnd
  0
BLOCK
  5
7B1
330
10B
100
AcDbEntity
  8
0
100
AcDbBlockBegin
  2
*D41
 70
     1
 10
0.0
 20
0.0
 30
0.0
  3
*D41
  1

  0
TEXT
  5
3F7
330
10B
100
AcDbEntity
  8
0
 62
     7
370
    13
390
F
100
AcDbText
 10
495.627541
 20
177.30562
 30
0.0
 40
3.5
  1
175
 41
1.715603428571424
 72
     5
 11
506.135612
 21
177.30562
 31
0.0
100
AcDbText
  0
LINE
  5
3F8
330
10B
100
AcDbEntity
  8
0
 62
     7
370
    13
390
F
100
AcDbLine
 10
413.381577
 20
132.351435
 30
0.0
 11
413.381577
 21
177.30562
 31
0.0
  0
LINE
  5
3F9
330
10B
100
AcDbEntity
  8
0
 62
     7
370
    13
390
F
100
AcDbLine
 10
588.381577
 20
113.96245
 30
0.0
 11
588.381577
 21
177.30562
 31
0.0
  0
LWPOLYLINE
  5
3FA
330
10B
100
AcDbEntity
  8
0
 62
     7
370
    13
390
F
100
AcDbPolyline
 90
        3
 70
     0
 43
0.0
 10
586.449725
 20
174.787981
 10
588.381577
 20
175.30562
 10
586.449725
 20
175.823256
  0
LWPOLYLINE
  5
3FF
330
10B
100
AcDbEntity
  8
0
 62
     7
370
    13
390
F
100
AcDbPolyline
 90
        3
 70
     0
 43
0.0
 10
415.313431
 20
175.823256
 10
413.381577
 20
175.30562
 10
415.313431
 20
174.787981
  0
LINE
  5
404
330
10B
100
AcDbEntity
  8
0
 62
     7
370
    13
390
F
100
AcDbLine
 10
413.381577
 20
175.30562
 30
0.0
 11
588.381577
 21
175.30562
 31
0.0
  0
ENDBLK
  5
7B2
330
10B
100
AcDbEntity
  8
0
100
AcDbBlockEnd
  0
BLOCK
  5
7B3
330
10D
100
AcDbEntity
  8
0
100
AcDbBlockBegin
  2
*D42
 70
     1
 10
0.0
 20
0.0
 30
0.0
  3
*D42
  1

  0
TEXT
  5
407
330
10D
100
AcDbEntity
  8
0
 62
     7
370
    13
390
F
100
AcDbText
 10
670.627541
 20
177.306078
 30
0.0
 40
3.5
  1
175
 41
1.715603428571443
 72
     5
 11
681.135612
 21
177.306078
 31
0.0
100
AcDbText
  0
LINE
  5
408
330
10D
100
AcDbEntity
  8
0
 62
     7
370
    13
390
F
100
AcDbLine
 10
763.381577
 20
133.186598
 30
0.0
 11
763.381577
 21
177.306078
 31
0.0
  0
LWPOLYLINE
  5
409
330
10D
100
AcDbEntity
  8
0
 62
     7
370
    13
390
F
100
AcDbPolyline
 90
        3
 70
     0
 43
0.0
 10
761.449722
 20
174.788439
 10
763.381577
 20
175.306078
 10
761.449722
 20
175.823713
  0
LWPOLYLINE
  5
40E
330
10D
100
AcDbEntity
  8
0
 62
     7
370
    13
390
F
100
AcDbPolyline
 90
        3
 70
     0
 43
0.0
 10
590.313428
 20
175.823713
 10
588.381577
 20
175.306078
 10
590.313428
 20
174.788439
  0
LINE
  5
413
330
10D
100
AcDbEntity
  8
0
 62
     7
370
    13
390
F
100
AcDbLine
 10
588.381577
 20
175.306078
 30
0.0
 11
763.381577
 21
175.306078
 31
0.0
  0
ENDBLK
  5
7B4
330
10D
100
AcDbEntity
  8
0
100
AcDbBlockEnd
  0
BLOCK
  5
7B5
330
10F
100
AcDbEntity
  8
0
100
AcDbBlockBegin
  2
*D43
 70
     1
 10
0.0
 20
0.0
 30
0.0
  3
*D43
  1

  0
TEXT
  5
416
330
10F
100
AcDbEntity
  8
0
 62
     7
370
    13
390
F
100
AcDbText
 10
774.99556
 20
177.33536
 30
0.0
 40
3.5
  1
30
 41
1.546918820090849
 72
     5
 11
781.767593
 21
177.33536
 31
0.0
100
AcDbText
  0
LINE
  5
417
330
10F
100
AcDbEntity
  8
0
 62
     7
370
    13
390
F
100
AcDbLine
 10
763.381577
 20
133.186598
 30
0.0
 11
763.381577
 21
177.33536
 31
0.0
  0
LINE
  5
418
330
10F
100
AcDbEntity
  8
0
 62
     7
370
    13
390
F
100
AcDbLine
 10
793.381577
 20
122.224185
 30
0.0
 11
793.381577
 21
177.33536
 31
0.0
  0
LWPOLYLINE
  5
419
330
10F
100
AcDbEntity
  8
0
 62
     7
370
    13
390
F
100
AcDbPolyline
 90
        3
 70
     0
 43
0.0
 10
791.449722
 20
174.81772
 10
793.381577
 20
175.33536
 10
791.449722
 20
175.852995
  0
LWPOLYLINE
  5
41E
330
10F
100
AcDbEntity
  8
0
 62
     7
370
    13
390
F
100
AcDbPolyline
 90
        3
 70
     0
 43
0.0
 10
765.313431
 20
175.852995
 10
763.381577
 20
175.33536
 10
765.313431
 20
174.81772
  0
LINE
  5
423
330
10F
100
AcDbEntity
  8
0
 62
     7
370
    13
390
F
100
AcDbLine
 10
763.381577
 20
175.33536
 30
0.0
 11
793.381577
 21
175.33536
 31
0.0
  0
ENDBLK
  5
7B6
330
10F
100
AcDbEntity
  8
0
100
AcDbBlockEnd
  0
BLOCK
  5
7B7
330
111
100
AcDbEntity
  8
0
100
AcDbBlockBegin
  2
*D44
 70
     1
 10
0.0
 20
0.0
 30
0.0
  3
*D44
  1

  0
TEXT
  5
426
330
111
100
AcDbEntity
  8
0
 62
     7
370
    13
390
F
100
AcDbText
 10
794.497925
 20
183.740244
 30
0.0
 40
3.5
  1
5
 41
1.577148571428587
 72
     5
 11
797.533936
 21
183.740244
 31
0.0
100
AcDbText
  0
LINE
  5
427
330
111
100
AcDbEntity
  8
0
 62
     7
370
    13
390
F
100
AcDbLine
 10
793.381577
 20
122.224185
 30
0.0
 11
793.381577
 21
183.740244
 31
0.0
  0
LINE
  5
428
330
111
100
AcDbEntity
  8
0
 62
     7
370
    13
390
F
100
AcDbLine
 10
798.381577
 20
124.172899
 30
0.0
 11
798.381577
 21
183.740244
 31
0.0
  0
LWPOLYLINE
  5
429
330
111
100
AcDbEntity
  8
0
 62
     7
370
    13
390
F
100
AcDbPolyline
 90
        3
 70
     0
 43
0.0
 10
800.313431
 20
182.257883
 10
798.381577
 20
181.740244
 10
800.313431
 20
181.222605
  0
LWPOLYLINE
  5
42E
330
111
100
AcDbEntity
  8
0
 62
     7
370
    13
390
F
100
AcDbPolyline
 90
        3
 70
     0
 43
0.0
 10
791.449722
 20
181.222605
 10
793.381577
 20
181.740244
 10
791.449722
 20
182.257883
  0
LINE
  5
433
330
111
100
AcDbEntity
  8
0
 62
     7
 48
0.375
370
    13
390
F
100
AcDbLine
 10
788.381577
 20
181.740244
 30
0.0
 11
803.381577
 21
181.740244
 31
0.0
  0
ENDBLK
  5
7B8
330
111
100
AcDbEntity
  8
0
100
AcDbBlockEnd
  0
BLOCK
  5
7B9
330
113
100
AcDbEntity
  8
0
100
AcDbBlockBegin
  2
*D45
 70
     1
 10
0.0
 20
0.0
 30
0.0
  3
*D45
  1

  0
TEXT
  5
436
330
113
100
AcDbEntity
  8
0
 62
     7
370
    13
390
F
100
AcDbText
 10
822.49556
 20
177.335367
 30
0.0
 40
3.5
  1
55
 41
1.547893257142875
 72
     5
 11
829.267593
 21
177.335367
 31
0.0
100
AcDbText
  0
LINE
  5
437
330
113
100
AcDbEntity
  8
0
 62
     7
370
    13
390
F
100
AcDbLine
 10
798.381577
 20
124.172899
 30
0.0
 11
798.381577
 21
177.335367
 31
0.0
  0
LINE
  5
438
330
113
100
AcDbEntity
  8
0
 62
     7
370
    13
390
F
100
AcDbLine
 10
853.381577
 20
128.340919
 30
0.0
 11
853.381577
 21
177.335367
 31
0.0
  0
LWPOLYLINE
  5
439
330
113
100
AcDbEntity
  8
0
 62
     7
370
    13
390
F
100
AcDbPolyline
 90
        3
 70
     0
 43
0.0
 10
800.313431
 20
175.853003
 10
798.381577
 20
175.335367
 10
800.313431
 20
174.817728
  0
LWPOLYLINE
  5
43E
330
113
100
AcDbEntity
  8
0
 62
     7
370
    13
390
F
100
AcDbPolyline
 90
        3
 70
     0
 43
0.0
 10
851.449722
 20
174.817728
 10
853.381577
 20
175.335367
 10
851.449722
 20
175.853003
  0
LINE
  5
443
330
113
100
AcDbEntity
  8
0
 62
     7
370
    13
390
F
100
AcDbLine
 10
798.381577
 20
175.335367
 30
0.0
 11
853.381577
 21
175.335367
 31
0.0
  0
ENDBLK
  5
7BA
330
113
100
AcDbEntity
  8
0
100
AcDbBlockEnd
  0
BLOCK
  5
7BB
330
115
100
AcDbEntity
  8
0
100
AcDbBlockBegin
  2
*D46
 70
     1
 10
0.0
 20
0.0
 30
0.0
  3
*D46
  1

  0
TEXT
  5
446
330
115
100
AcDbEntity
  8
0
 62
     7
370
    13
390
F
100
AcDbText
 10
854.490219
 20
182.56885
 30
0.0
 40
3.5
  1
5
 41
1.577148571428587
 72
     5
 11
857.52623
 21
182.56885
 31
0.0
100
AcDbText
  0
LINE
  5
447
330
115
100
AcDbEntity
  8
0
 62
     7
370
    13
390
F
100
AcDbLine
 10
853.381577
 20
128.340919
 30
0.0
 11
853.381577
 21
182.56885
 31
0.0
  0
LINE
  5
448
330
115
100
AcDbEntity
  8
0
 62
     7
370
    13
390
F
100
AcDbLine
 10
858.381577
 20
133.744221
 30
0.0
 11
858.381577
 21
182.56885
 31
0.0
  0
LWPOLYLINE
  5
449
330
115
100
AcDbEntity
  8
0
 62
     7
370
    13
390
F
100
AcDbPolyline
 90
        3
 70
     0
 43
0.0
 10
860.313431
 20
181.086489
 10
858.381577
 20
180.56885
 10
860.313431
 20
180.05121
  0
LWPOLYLINE
  5
44E
330
115
100
AcDbEntity
  8
0
 62
     7
370
    13
390
F
100
AcDbPolyline
 90
        3
 70
     0
 43
0.0
 10
851.449722
 20
180.05121
 10
853.381577
 20
180.56885
 10
851.449722
 20
181.086489
  0
LINE
  5
453
330
115
100
AcDbEntity
  8
0
 62
     7
 48
0.375
370
    13
390
F
100
AcDbLine
 10
848.381577
 20
180.56885
 30
0.0
 11
863.381577
 21
180.56885
 31
0.0
  0
ENDBLK
  5
7BC
330
115
100
AcDbEntity
  8
0
100
AcDbBlockEnd
  0
BLOCK
  5
7BD
330
117
100
AcDbEntity
  8
0
100
AcDbBlockBegin
  2
*D47
 70
     1
 10
0.0
 20
0.0
 30
0.0
  3
*D47
  1

  0
TEXT
  5
456
330
117
100
AcDbEntity
  8
0
 62
     7
370
    13
390
F
100
AcDbText
 10
908.127548
 20
177.745981
 30
0.0
 40
3.5
  1
110
 41
1.935985549631888
 72
     5
 11
918.635605
 21
177.745981
 31
0.0
100
AcDbText
  0
LINE
  5
457
330
117
100
AcDbEntity
  8
0
 62
     7
370
    13
390
F
100
AcDbLine
 10
858.381577
 20
133.744221
 30
0.0
 11
858.381577
 21
177.745981
 31
0.0
  0
LINE
  5
458
330
117
100
AcDbEntity
  8
0
 62
     7
370
    13
390
F
100
AcDbLine
 10
968.381577
 20
124.738718
 30
0.0
 11
968.381577
 21
177.745981
 31
0.0
  0
LWPOLYLINE
  5
459
330
117
100
AcDbEntity
  8
0
 62
     7
370
    13
390
F
100
AcDbPolyline
 90
        3
 70
     0
 43
0.0
 10
966.449722
 20
175.228342
 10
968.381577
 20
175.745981
 10
966.449722
 20
176.26362
  0
LWPOLYLINE
  5
45E
330
117
100
AcDbEntity
  8
0
 62
     7
370
    13
390
F
100
AcDbPolyline
 90
        3
 70
     0
 43
0.0
 10
860.313431
 20
176.26362
 10
858.381577
 20
175.745981
 10
860.313431
 20
175.228342
  0
LINE
  5
463
330
117
100
AcDbEntity
  8
0
 62
     7
370
    13
390
F
100
AcDbLine
 10
858.381577
 20
175.745981
 30
0.0
 11
968.381577
 21
175.745981
 31
0.0
  0
ENDBLK
  5
7BE
330
117
100
AcDbEntity
  8
0
100
AcDbBlockEnd
  0
BLOCK
  5
7BF
330
119
100
AcDbEntity
  8
0
100
AcDbBlockBegin
  2
*D48
 70
     1
 10
0.0
 20
0.0
 30
0.0
  3
*D48
  1

  0
TEXT
  5
466
330
119
100
AcDbEntity
  8
0
 62
     7
370
    13
390
F
100
AcDbText
 10
969.202988
 20
184.005342
 30
0.0
 40
3.5
  1
5
 41
1.577148051948069
 72
     5
 11
972.238998
 21
184.005342
 31
0.0
100
AcDbText
  0
LINE
  5
467
330
119
100
AcDbEntity
  8
0
 62
     7
370
    13
390
F
100
AcDbLine
 10
968.381577
 20
124.738718
 30
0.0
 11
968.381577
 21
184.005342
 31
0.0
  0
LINE
  5
468
330
119
100
AcDbEntity
  8
0
 62
     7
370
    13
390
F
100
AcDbLine
 10
973.381577
 20
126.867291
 30
0.0
 11
973.381577
 21
184.005342
 31
0.0
  0
LWPOLYLINE
  5
469
330
119
100
AcDbEntity
  8
0
 62
     7
370
    13
390
F
100
AcDbPolyline
 90
        3
 70
     0
 43
0.0
 10
975.313431
 20
182.522982
 10
973.381577
 20
182.005342
 10
975.313431
 20
181.487703
  0
LWPOLYLINE
  5
46E
330
119
100
AcDbEntity
  8
0
 62
     7
370
    13
390
F
100
AcDbPolyline
 90
        3
 70
     0
 43
0.0
 10
966.449722
 20
181.487703
 10
968.381577
 20
182.005342
 10
966.449722
 20
182.522982
  0
LINE
  5
473
330
119
100
AcDbEntity
  8
0
 62
     7
 48
0.375
370
    13
390
F
100
AcDbLine
 10
963.381577
 20
182.005342
 30
0.0
 11
978.381577
 21
182.005342
 31
0.0
  0
ENDBLK
  5
7C0
330
119
100
AcDbEntity
  8
0
100
AcDbBlockEnd
  0
BLOCK
  5
7C1
330
11B
100
AcDbEntity
  8
0
100
AcDbBlockBegin
  2
*D49
 70
     1
 10
0.0
 20
0.0
 30
0.0
  3
*D49
  1

  0
TEXT
  5
476
330
11B
100
AcDbEntity
  8
0
 62
     7
370
    13
390
F
100
AcDbText
 10
997.49556
 20
177.733934
 30
0.0
 40
3.5
  1
55
 41
1.547893257142875
 72
     5
 11
1004.267593
 21
177.733934
 31
0.0
100
AcDbText
  0
LINE
  5
477
330
11B
100
AcDbEntity
  8
0
 62
     7
370
    13
390
F
100
AcDbLine
 10
973.381577
 20
126.867291
 30
0.0
 11
973.381577
 21
177.733934
 31
0.0
  0
LINE
  5
478
330
11B
100
AcDbEntity
  8
0
 62
     7
370
    13
390
F
100
AcDbLine
 10
1028.381577
 20
123.755318
 30
0.0
 11
1028.381577
 21
177.733934
 31
0.0
  0
LWPOLYLINE
  5
479
330
11B
100
AcDbEntity
  8
0
 62
     7
370
    13
390
F
100
AcDbPolyline
 90
        3
 70
     0
 43
0.0
 10
975.313431
 20
176.251574
 10
973.381577
 20
175.733934
 10
975.313431
 20
175.216295
  0
LWPOLYLINE
  5
47E
330
11B
100
AcDbEntity
  8
0
 62
     7
370
    13
390
F
100
AcDbPolyline
 90
        3
 70
     0
 43
0.0
 10
1026.449722
 20
175.216295
 10
1028.381577
 20
175.733934
 10
1026.449722
 20
176.251574
  0
LINE
  5
483
330
11B
100
AcDbEntity
  8
0
 62
     7
370
    13
390
F
100
AcDbLine
 10
973.381577
 20
175.733934
 30
0.0
 11
1028.381577
 21
175.733934
 31
0.0
  0
ENDBLK
  5
7C2
330
11B
100
AcDbEntity
  8
0
100
AcDbBlockEnd
  0
BLOCK
  5
7C3
330
11D
100
AcDbEntity
  8
0
100
AcDbBlockBegin
  2
*D50
 70
     1
 10
0.0
 20
0.0
 30
0.0
  3
*D50
  1

  0
TEXT
  5
486
330
11D
100
AcDbEntity
  8
0
 62
     7
370
    13
390
F
100
AcDbText
 10
1029.241867
 20
184.78882
 30
0.0
 40
3.5
  1
5
 41
1.577148571428646
 72
     5
 11
1032.277878
 21
184.78882
 31
0.0
100
AcDbText
  0
LINE
  5
487
330
11D
100
AcDbEntity
  8
0
 62
     7
370
    13
390
F
100
AcDbLine
 10
1028.381577
 20
123.755318
 30
0.0
 11
1028.381577
 21
184.78882
 31
0.0
  0
LINE
  5
488
330
11D
100
AcDbEntity
  8
0
 62
     7
370
    13
390
F
100
AcDbLine
 10
1033.381577
 20
123.755318
 30
0.0
 11
1033.381577
 21
184.78882
 31
0.0
  0
LWPOLYLINE
  5
489
330
11D
100
AcDbEntity
  8
0
 62
     7
370
    13
390
F
100
AcDbPolyline
 90
        3
 70
     0
 43
0.0
 10
1035.313431
 20
183.306459
 10
1033.381577
 20
182.78882
 10
1035.313431
 20
182.271181
  0
LWPOLYLINE
  5
48E
330
11D
100
AcDbEntity
  8
0
 62
     7
370
    13
390
F
100
AcDbPolyline
 90
        3
 70
     0
 43
0.0
 10
1026.449722
 20
182.271181
 10
1028.381577
 20
182.78882
 10
1026.449722
 20
183.306459
  0
LINE
  5
493
330
11D
100
AcDbEntity
  8
0
 62
     7
 48
0.375
370
    13
390
F
100
AcDbLine
 10
1023.381577
 20
182.78882
 30
0.0
 11
1038.381577
 21
182.78882
 31
0.0
  0
ENDBLK
  5
7C4
330
11D
100
AcDbEntity
  8
0
100
AcDbBlockEnd
  0
BLOCK
  5
7C5
330
11F
100
AcDbEntity
  8
0
100
AcDbBlockBegin
  2
*D51
 70
     1
 10
0.0
 20
0.0
 30
0.0
  3
*D51
  1

  0
TEXT
  5
496
330
11F
100
AcDbEntity
  8
0
 62
     7
370
    13
390
F
100
AcDbText
 10
1044.829269
 20
101.270449
 30
0.0
 40
3.5
  1
6.5
 50
309.6192409901897
 41
1.936968966395008
 72
     5
 11
1051.530075
 21
93.176102
 31
0.0
100
AcDbText
  0
TEXT
  5
497
330
11F
100
AcDbEntity
  8
0
 62
     7
370
    13
390
F
100
AcDbText
 10
1042.255539
 20
104.379389
 30
0.0
 40
3.5
  1
R
 50
309.6195153191621
 41
1.334518664269872
 72
     5
 11
1044.191574
 21
102.040747
 31
0.0
100
AcDbText
  0
LWPOLYLINE
  5
498
330
11F
100
AcDbEntity
  8
0
 62
     7
370
    13
390
F
100
AcDbPolyline
 90
        3
 70
     0
 43
0.0
 10
1039.157181
 20
105.7975
 10
1037.526535
 20
106.955512
 10
1038.359695
 20
105.137321
  0
LINE
  5
49D
330
11F
100
AcDbEntity
  8
0
 62
     7
370
    13
390
F
100
AcDbLine
 10
1033.381577
 20
111.96245
 30
0.0
 11
1049.989487
 21
91.900734
 31
0.0
  0
ENDBLK
  5
7C6
330
11F
100
AcDbEntity
  8
0
100
AcDbBlockEnd
  0
BLOCK
  5
7C7
330
121
100
AcDbEntity
  8
0
100
AcDbBlockBegin
  2
*D52
 70
     1
 10
0.0
 20
0.0
 30
0.0
  3
*D52
  1

  0
TEXT
  5
4A0
330
121
100
AcDbEntity
  8
0
 62
     7
370
    13
390
F
100
AcDbText
 10
983.6595
 20
100.141607
 30
0.0
 40
3.5
  1
6.5
 50
303.6706394645498
 41
1.936972603765855
 72
     5
 11
989.485367
 21
91.396383
 31
0.0
100
AcDbText
  0
TEXT
  5
4A1
330
121
100
AcDbEntity
  8
0
 62
     7
370
    13
390
F
100
AcDbText
 10
981.42186
 20
103.50054
 30
0.0
 40
3.5
  1
R
 50
303.6706540804986
 41
1.334515973590586
 72
     5
 11
983.105087
 21
100.973845
 31
0.0
100
AcDbText
  0
LWPOLYLINE
  5
4A2
330
121
100
AcDbEntity
  8
0
 62
     7
370
    13
390
F
100
AcDbPolyline
 90
        3
 70
     0
 43
0.0
 10
978.487137
 20
105.232124
 10
976.985275
 20
106.552898
 10
977.625534
 20
104.658149
  0
LINE
  5
4A7
330
121
100
AcDbEntity
  8
0
 62
     7
370
    13
390
F
100
AcDbLine
 10
973.381577
 20
111.96245
 30
0.0
 11
987.820877
 21
90.287548
 31
0.0
  0
ENDBLK
  5
7C8
330
121
100
AcDbEntity
  8
0
100
AcDbBlockEnd
  0
BLOCK
  5
7C9
330
123
100
AcDbEntity
  8
0
100
AcDbBlockBegin
  2
*D53
 70
     1
 10
0.0
 20
0.0
 30
0.0
  3
*D53
  1

  0
TEXT
  5
4AA
330
123
100
AcDbEntity
  8
0
 62
     7
370
    13
390
F
100
AcDbText
 10
868.898483
 20
100.353714
 30
0.0
 40
3.5
  1
6.5
 50
304.8395106906384
 41
1.936973052345994
 72
     5
 11
874.901535
 21
91.729151
 31
0.0
100
AcDbText
  0
TEXT
  5
4AB
330
123
100
AcDbEntity
  8
0
 62
     7
370
    13
390
F
100
AcDbText
 10
866.592789
 20
103.666306
 30
0.0
 40
3.5
  1
R
 50
304.839768361987
 41
1.334520618545807
 72
     5
 11
868.327225
 21
101.174472
 31
0.0
100
AcDbText
  0
LWPOLYLINE
  5
4AC
330
123
100
AcDbEntity
  8
0
 62
     7
370
    13
390
F
100
AcDbPolyline
 90
        3
 70
     0
 43
0.0
 10
863.623367
 20
105.337669
 10
862.094894
 20
106.627533
 10
862.773666
 20
104.746238
  0
LINE
  5
4B1
330
123
100
AcDbEntity
  8
0
 62
     7
370
    13
390
F
100
AcDbLine
 10
858.381577
 20
111.96245
 30
0.0
 11
873.259995
 21
90.586594
 31
0.0
  0
ENDBLK
  5
7CA
330
123
100
AcDbEntity
  8
0
100
AcDbBlockEnd
  0
BLOCK
  5
7CB
330
125
100
AcDbEntity
  8
0
100
AcDbBlockBegin
  2
*D54
 70
     1
 10
0.0
 20
0.0
 30
0.0
  3
*D54
  1

  0
TEXT
  5
4B4
330
125
100
AcDbEntity
  8
0
 62
     7
370
    13
390
F
100
AcDbText
 10
807.816208
 20
99.458216
 30
0.0
 40
3.5
  1
6.5
 50
299.6995268759708
 41
1.936971057391828
 72
     5
 11
813.022446
 21
90.330534
 31
0.0
100
AcDbText
  0
TEXT
  5
4B5
330
125
100
AcDbEntity
  8
0
 62
     7
370
    13
390
F
100
AcDbText
 10
805.816544
 20
102.964048
 30
0.0
 40
3.5
  1
R
 50
299.6996785152115
 41
1.334517276101538
 72
     5
 11
807.320755
 21
100.326851
 31
0.0
100
AcDbText
  0
LWPOLYLINE
  5
4B6
330
125
100
AcDbEntity
  8
0
 62
     7
370
    13
390
F
100
AcDbPolyline
 90
        3
 70
     0
 43
0.0
 10
803.008789
 20
104.894711
 10
801.60202
 20
106.31632
 10
802.109512
 20
104.381781
  0
LINE
  5
4BB
330
125
100
AcDbEntity
  8
0
 62
     7
370
    13
390
F
100
AcDbLine
 10
798.381577
 20
111.96245
 30
0.0
 11
811.285172
 21
89.339632
 31
0.0
  0
ENDBLK
  5
7CC
330
125
100
AcDbEntity
  8
0
100
AcDbBlockEnd
  0
BLOCK
  5
7CD
330
127
100
AcDbEntity
  8
0
100
AcDbBlockBegin
  2
*D55
 70
     1
 10
0.0
 20
0.0
 30
0.0
  3
*D55
  1

  0
TEXT
  5
4BE
330
127
100
AcDbEntity
  8
0
 62
     7
370
    13
390
F
100
AcDbText
 10
776.090454
 20
98.719614
 30
0.0
 40
3.5
  1
13
 50
307.5657285260054
 41
1.842734475678825
 72
     5
 11
780.219177
 21
93.351719
 31
0.0
100
AcDbText
  0
TEXT
  5
4BF
330
127
100
AcDbEntity
  8
0
 62
     7
370
    13
390
F
100
AcDbText
 10
773.346939
 20
102.286562
 30
0.0
 40
3.5
  1
%%c
 50
307.5657274542473
 41
1.333333982245489
 72
     5
 11
775.480789
 21
99.51227
 31
0.0
100
AcDbText
  0
LWPOLYLINE
  5
4C0
330
127
100
AcDbEntity
  8
0
 62
     7
370
    13
390
F
100
AcDbPolyline
 90
        3
 70
     0
 43
0.0
 10
761.006821
 20
115.899004
 10
759.418716
 20
117.114708
 10
760.186203
 20
115.267827
  0
LWPOLYLINE
  5
4C5
330
127
100
AcDbEntity
  8
0
 62
     7
370
    13
390
F
100
AcDbPolyline
 90
        3
 70
     0
 43
0.0
 10
765.756332
 20
108.025896
 10
767.344437
 20
106.810192
 10
766.57695
 20
108.657073
  0
LINE
  5
4CA
330
127
100
AcDbEntity
  8
0
 62
     7
370
    13
390
F
100
AcDbLine
 10
759.418716
 20
117.114708
 30
0.0
 11
778.633865
 21
92.132378
 31
0.0
  0
ENDBLK
  5
7CE
330
127
100
AcDbEntity
  8
0
100
AcDbBlockEnd
  0
BLOCK
  5
7CF
330
129
100
AcDbEntity
  8
0
100
AcDbBlockBegin
  2
*D56
 70
     1
 10
0.0
 20
0.0
 30
0.0
  3
*D56
  1

  0
TEXT
  5
4CD
330
129
100
AcDbEntity
  8
0
 62
     7
370
    13
390
F
100
AcDbText
 10
426.52916
 20
102.62751
 30
0.0
 40
3.5
  1
13
 50
317.4997719002513
 41
1.842733669811475
 72
     5
 11
431.522018
 21
98.052362
 31
0.0
100
AcDbText
  0
TEXT
  5
4CE
330
129
100
AcDbEntity
  8
0
 62
     7
370
    13
390
F
100
AcDbText
 10
423.211426
 20
105.667679
 30
0.0
 40
3.5
  1
%%c
 50
317.4999237973553
 41
1.333337191036648
 72
     5
 11
425.791901
 21
103.303103
 31
0.0
100
AcDbText
  0
LWPOLYLINE
  5
4CF
330
129
100
AcDbEntity
  8
0
 62
     7
370
    13
390
F
100
AcDbPolyline
 90
        3
 70
     0
 43
0.0
 10
410.363312
 20
115.430301
 10
408.589294
 20
116.353805
 10
409.663879
 20
114.667018
  0
LWPOLYLINE
  5
4D4
330
129
100
AcDbEntity
  8
0
 62
     7
370
    13
390
F
100
AcDbPolyline
 90
        3
 70
     0
 43
0.0
 10
416.399841
 20
108.494599
 10
418.173859
 20
107.571095
 10
417.099274
 20
109.257882
  0
LINE
  5
4D9
330
129
100
AcDbEntity
  8
0
 62
     7
370
    13
390
F
100
AcDbLine
 10
408.589294
 20
116.353805
 30
0.0
 11
430.170837
 21
96.577813
 31
0.0
  0
ENDBLK
  5
7D0
330
129
100
AcDbEntity
  8
0
100
AcDbBlockEnd
  0
BLOCK
  5
7D1
330
12B
100
AcDbEntity
  8
0
100
AcDbBlockBegin
  2
*D57
 70
     1
 10
0.0
 20
0.0
 30
0.0
  3
*D57
  1

  0
TEXT
  5
4DC
330
12B
100
AcDbEntity
  8
0
 62
     7
370
    13
390
F
100
AcDbText
 10
394.614014
 20
101.044568
 30
0.0
 40
3.5
  1
6.5
 50
308.4781726284854
 41
1.936972908022799
 72
     5
 11
401.152313
 21
92.818369
 31
0.0
100
AcDbText
  0
TEXT
  5
4DD
330
12B
100
AcDbEntity
  8
0
 62
     7
370
    13
390
F
100
AcDbText
 10
392.102737
 20
104.204153
 30
0.0
 40
3.5
  1
R
 50
308.4782333855068
 41
1.334517743606284
 72
     5
 11
393.991806
 21
101.827415
 31
0.0
100
AcDbText
  0
LWPOLYLINE
  5
4DE
330
12B
100
AcDbEntity
  8
0
 62
     7
370
    13
390
F
100
AcDbPolyline
 90
        3
 70
     0
 43
0.0
 10
389.033234
 20
105.683692
 10
387.42598
 20
106.873951
 10
388.222778
 20
105.039527
  0
LINE
  5
4E3
330
12B
100
AcDbEntity
  8
0
 62
     7
370
    13
390
F
100
AcDbLine
 10
383.381577
 20
111.96245
 30
0.0
 11
399.586624
 21
91.573938
 31
0.0
  0
ENDBLK
  5
7D2
330
12B
100
AcDbEntity
  8
0
100
AcDbBlockEnd
  0
BLOCK
  5
7D3
330
12D
100
AcDbEntity
  8
0
100
AcDbBlockBegin
  2
*D58
 70
     1
 10
0.0
 20
0.0
 30
0.0
  3
*D58
  1

  0
TEXT
  5
4E6
330
12D
100
AcDbEntity
  8
0
 62
     7
370
    13
390
F
100
AcDbText
 10
334.106033
 20
100.545182
 30
0.0
 40
3.5
  1
6.5
 50
305.8723370865255
 41
1.936971618714726
 72
     5
 11
340.263565
 21
92.030233
 31
0.0
100
AcDbText
  0
TEXT
  5
4E7
330
12D
100
AcDbEntity
  8
0
 62
     7
370
    13
390
F
100
AcDbText
 10
331.741013
 20
103.815673
 30
0.0
 40
3.5
  1
R
 50
305.8720939343874
 41
1.334511899287797
 72
     5
 11
333.52005
 21
101.355508
 31
0.0
100
AcDbText
  0
LWPOLYLINE
  5
4E8
330
12D
100
AcDbEntity
  8
0
 62
     7
370
    13
390
F
100
AcDbPolyline
 90
        3
 70
     0
 43
0.0
 10
328.741928
 20
105.433236
 10
327.190445
 20
106.695338
 10
327.90303
 20
104.826584
  0
LINE
  5
4ED
330
12D
100
AcDbEntity
  8
0
 62
     7
370
    13
390
F
100
AcDbLine
 10
323.381577
 20
111.96245
 30
0.0
 11
338.642914
 21
90.858271
 31
0.0
  0
ENDBLK
  5
7D4
330
12D
100
AcDbEntity
  8
0
100
AcDbBlockEnd
  0
BLOCK
  5
7D5
330
12F
100
AcDbEntity
  8
0
100
AcDbBlockBegin
  2
*D59
 70
     1
 10
0.0
 20
0.0
 30
0.0
  3
*D59
  1

  0
TEXT
  5
4F0
330
12F
100
AcDbEntity
  8
0
 62
     7
370
    13
390
F
100
AcDbText
 10
222.884476
 20
99.328725
 30
0.0
 40
3.5
  1
6.5
 50
312.9715722014141
 41
1.93696748346774
 72
     5
 11
230.047134
 21
91.64007
 31
0.0
100
AcDbText
  0
TEXT
  5
4F1
330
12F
100
AcDbEntity
  8
0
 62
     7
370
    13
390
F
100
AcDbText
 10
220.133347
 20
102.281844
 30
0.0
 40
3.5
  1
R
 50
312.9715816087319
 41
1.334513577605438
 72
     5
 11
222.202805
 21
100.060414
 31
0.0
100
AcDbText
  0
ARC
  5
4F2
330
12F
100
AcDbEntity
  8
0
 62
     7
370
    13
390
F
100
AcDbCircle
 10
208.381577
 20
111.96245
 30
0.0
 40
6.5
100
AcDbArc
 50
107.629473
 51
150.601176
  0
LWPOLYLINE
  5
4F3
330
12F
100
AcDbEntity
  8
0
 62
     7
370
    13
390
F
100
AcDbPolyline
 90
        3
 70
     0
 43
0.0
 10
205.6465
 20
115.657762
 10
203.950943
 20
116.718438
 10
204.888992
 20
114.952079
  0
LINE
  5
4F8
330
12F
100
AcDbEntity
  8
0
 62
     7
370
    13
390
F
100
AcDbLine
 10
203.950943
 20
116.718438
 30
0.0
 11
228.583755
 21
90.276796
 31
0.0
  0
ENDBLK
  5
7D6
330
12F
100
AcDbEntity
  8
0
100
AcDbBlockEnd
  0
BLOCK
  5
7D7
330
131
100
AcDbEntity
  8
0
100
AcDbBlockBegin
  2
*D60
 70
     1
 10
0.0
 20
0.0
 30
0.0
  3
*D60
  1

  0
TEXT
  5
4FB
330
131
100
AcDbEntity
  8
0
 62
     7
370
    13
390
F
100
AcDbText
 10
160.212601
 20
101.696249
 30
0.0
 40
3.5
  1
6.5
 50
311.7151691016423
 41
1.936973076827065
 72
     5
 11
167.204971
 21
93.852367
 31
0.0
100
AcDbText
  0
TEXT
  5
4FC
330
131
100
AcDbEntity
  8
0
 62
     7
370
    13
390
F
100
AcDbText
 10
157.526932
 20
104.708988
 30
0.0
 40
3.5
  1
R
 50
311.7152468476447
 41
1.334519038502124
 72
     5
 11
159.547195
 21
102.442709
 31
0.0
100
AcDbText
  0
LWPOLYLINE
  5
4FD
330
131
100
AcDbEntity
  8
0
 62
     7
370
    13
390
F
100
AcDbPolyline
 90
        3
 70
     0
 43
0.0
 10
154.378769
 20
106.01284
 10
152.706863
 20
107.110444
 10
153.605972
 20
105.323938
  0
LINE
  5
502
330
131
100
AcDbEntity
  8
0
 62
     7
370
    13
390
F
100
AcDbLine
 10
148.381577
 20
111.96245
 30
0.0
 11
165.712021
 21
92.521513
 31
0.0
  0
ENDBLK
  5
7D8
330
131
100
AcDbEntity
  8
0
100
AcDbBlockEnd
  0
BLOCK
  5
7D9
330
133
100
AcDbEntity
  8
0
100
AcDbBlockBegin
  2
*D61
 70
     1
 10
0.0
 20
0.0
 30
0.0
  3
*D61
  1

  0
TEXT
  5
505
330
133
100
AcDbEntity
  8
0
 62
     7
370
    13
390
F
100
AcDbText
 10
124.989944
 20
100.771112
 30
0.0
 40
3.5
  1
13
 50
308.9228750213128
 41
1.842734250315713
 72
     5
 11
129.244644
 21
95.50251
 31
0.0
100
AcDbText
  0
TEXT
  5
506
330
133
100
AcDbEntity
  8
0
 62
     7
370
    13
390
F
100
AcDbText
 10
122.162704
 20
104.27208
 30
0.0
 40
3.5
  1
%%c
 50
308.923084373192
 41
1.333337603002742
 72
     5
 11
124.361679
 21
101.549106
 31
0.0
100
AcDbText
  0
LWPOLYLINE
  5
507
330
133
100
AcDbEntity
  8
0
 62
     7
370
    13
390
F
100
AcDbPolyline
 90
        3
 70
     0
 43
0.0
 10
110.914261
 20
115.841654
 10
109.297806
 20
117.019403
 10
110.10881
 20
115.191218
  0
LWPOLYLINE
  5
50C
330
133
100
AcDbEntity
  8
0
 62
     7
370
    13
390
F
100
AcDbPolyline
 90
        3
 70
     0
 43
0.0
 10
115.848892
 20
108.083246
 10
117.465347
 20
106.905498
 10
116.654343
 20
108.733682
  0
LINE
  5
511
330
133
100
AcDbEntity
  8
0
 62
     7
370
    13
390
F
100
AcDbLine
 10
109.297806
 20
117.019403
 30
0.0
 11
127.688644
 21
94.245964
 31
0.0
  0
ENDBLK
  5
7DA
330
133
100
AcDbEntity
  8
0
100
AcDbBlockEnd
  0
BLOCK
  5
7DB
330
69A
100
AcDbEntity
  8
0
100
AcDbBlockBegin
  2
*D62
 70
     1
 10
0.0
 20
0.0
 30
0.0
  3
*D62
  1

  0
POINT
  5
691
330
69A
100
AcDbEntity
  8
DEFPOINTS
  6
ByBlock
 62
     0
380
     1
100
AcDbPoint
 10
1038.412605337626
 20
161.96245
 30
0.0
  0
POINT
  5
692
330
69A
100
AcDbEntity
  8
DEFPOINTS
  6
ByBlock
 62
     0
380
     1
100
AcDbPoint
 10
1038.412605337626
 20
61.96245
 30
0.0
  0
LINE
  5
693
330
69A
100
AcDbEntity
  8
0
  6
ByBlock
 62
     0
370
    -2
380
     1
100
AcDbLine
 10
1039.037605337626
 20
161.96245
 30
0.0
 11
1189.560093549755
 21
161.96245
 31
0.0
  0
LINE
  5
694
330
69A
100
AcDbEntity
  8
0
  6
ByBlock
 62
     0
370
    -2
380
     1
100
AcDbLine
 10
1039.037605337626
 20
61.96244999999999
 30
0.0
 11
1189.560093549755
 21
61.96244999999999
 31
0.0
  0
LINE
  5
695
330
69A
100
AcDbEntity
  8
0
  6
ByBlock
 62
     0
370
    -2
380
     1
100
AcDbLine
 10
1188.310093549755
 20
159.46245
 30
0.0
 11
1188.310093549755
 21
64.46244999999999
 31
0.0
  0
SOLID
  5
696
330
69A
100
AcDbEntity
  8
0
  6
ByBlock
 62
     0
380
     1
100
AcDbTrace
 10
1188.310093549755
 20
161.96245
 30
0.0
 11
1187.893426883089
 21
159.46245
 31
0.0
 12
1188.726760216422
 22
159.46245
 32
0.0
 13
1188.726760216422
 23
159.46245
 33
0.0
  0
SOLID
  5
697
330
69A
100
AcDbEntity
  8
0
  6
ByBlock
 62
     0
380
     1
100
AcDbTrace
 10
1188.310093549755
 20
61.96244999999999
 30
0.0
 11
1187.893426883089
 21
64.46244999999999
 31
0.0
 12
1188.726760216422
 22
64.46244999999999
 32
0.0
 13
1188.726760216422
 23
64.46244999999999
 33
0.0
  0
MTEXT
  5
698
330
69A
100
AcDbEntity
  8
0
  6
ByBlock
 62
     0
370
    -2
380
     1
100
AcDbMText
 10
1186.559109297787
 20
111.96245
 30
0.0
 40
2.5
 41
0.0
 71
     5
 72
     1
  1
\A1;100
 11
6.123031769111886E-17
 21
1.0
 31
0.0
 73
     1
 44
1.0
  0
ENDBLK
  5
7DC
330
69A
100
AcDbEntity
  8
0
100
AcDbBlockEnd
  0
BLOCK
  5
7DD
330
6A5
100
AcDbEntity
  8
0
100
AcDbBlockBegin
  2
*D63
 70
     1
 10
0.0
 20
0.0
 30
0.0
  3
*D63
  1

  0
POINT
  5
69C
330
6A5
100
AcDbEntity
  8
DEFPOINTS
  6
ByBlock
 62
     0
380
     1
100
AcDbPoint
 10
1038.412605337626
 20
161.96245
 30
0.0
  0
POINT
  5
69D
330
6A5
100
AcDbEntity
  8
DEFPOINTS
  6
ByBlock
 62
     0
380
     1
100
AcDbPoint
 10
1038.412605337626
 20
61.96245
 30
0.0
  0
LINE
  5
69E
330
6A5
100
AcDbEntity
  8
0
  6
ByBlock
 62
     0
370
    -2
380
     1
100
AcDbLine
 10
1039.037605337626
 20
161.96245
 30
0.0
 11
1189.560093549755
 21
161.96245
 31
0.0
  0
LINE
  5
69F
330
6A5
100
AcDbEntity
  8
0
  6
ByBlock
 62
     0
370
    -2
380
     1
100
AcDbLine
 10
1039.037605337626
 20
61.96244999999999
 30
0.0
 11
1189.560093549755
 21
61.96244999999999
 31
0.0
  0
LINE
  5
6A0
330
6A5
100
AcDbEntity
  8
0
  6
ByBlock
 62
     0
370
    -2
380
     1
100
AcDbLine
 10
1188.310093549755
 20
159.46245
 30
0.0
 11
1188.310093549755
 21
64.46244999999999
 31
0.0
  0
SOLID
  5
6A1
330
6A5
100
AcDbEntity
  8
0
  6
ByBlock
 62
     0
380
     1
100
AcDbTrace
 10
1188.310093549755
 20
161.96245
 30
0.0
 11
1187.893426883089
 21
159.46245
 31
0.0
 12
1188.726760216422
 22
159.46245
 32
0.0
 13
1188.726760216422
 23
159.46245
 33
0.0
  0
SOLID
  5
6A2
330
6A5
100
AcDbEntity
  8
0
  6
ByBlock
 62
     0
380
     1
100
AcDbTrace
 10
1188.310093549755
 20
61.96244999999999
 30
0.0
 11
1187.893426883089
 21
64.46244999999999
 31
0.0
 12
1188.726760216422
 22
64.46244999999999
 32
0.0
 13
1188.726760216422
 23
64.46244999999999
 33
0.0
  0
MTEXT
  5
6A3
330
6A5
100
AcDbEntity
  8
0
  6
ByBlock
 62
     0
370
    -2
380
     1
100
AcDbMText
 10
1186.559109297787
 20
111.96245
 30
0.0
 40
2.5
 41
0.0
 71
     5
 72
     1
  1
\A1;100
 11
6.123031769111886E-17
 21
1.0
 31
0.0
 73
     1
 44
1.0
  0
ENDBLK
  5
7DE
330
6A5
100
AcDbEntity
  8
0
100
AcDbBlockEnd
  0
BLOCK
  5
7DF
330
6B0
100
AcDbEntity
  8
0
100
AcDbBlockBegin
  2
*D64
 70
     1
 10
0.0
 20
0.0
 30
0.0
  3
*D64
  1

  0
POINT
  5
6A7
330
6B0
100
AcDbEntity
  8
DEFPOINTS
  6
ByBlock
 62
     7
380
     1
100
AcDbPoint
 10
1038.412605337626
 20
161.96245
 30
0.0
  0
POINT
  5
6A8
330
6B0
100
AcDbEntity
  8
DEFPOINTS
  6
ByBlock
 62
     7
380
     1
100
AcDbPoint
 10
1038.412605337626
 20
61.96245
 30
0.0
  0
LINE
  5
6A9
330
6B0
100
AcDbEntity
  8
0
  6
ByBlock
 62
     7
370
    -2
380
     1
100
AcDbLine
 10
1039.037605337626
 20
161.96245
 30
0.0
 11
1189.560093549755
 21
161.96245
 31
0.0
  0
LINE
  5
6AA
330
6B0
100
AcDbEntity
  8
0
  6
ByBlock
 62
     7
370
    -2
380
     1
100
AcDbLine
 10
1039.037605337626
 20
61.96244999999999
 30
0.0
 11
1189.560093549755
 21
61.96244999999999
 31
0.0
  0
LINE
  5
6AB
330
6B0
100
AcDbEntity
  8
0
  6
ByBlock
 62
     7
370
    -2
380
     1
100
AcDbLine
 10
1188.310093549755
 20
151.96245
 30
0.0
 11
1188.310093549755
 21
71.96244999999999
 31
0.0
  0
SOLID
  5
6AC
330
6B0
100
AcDbEntity
  8
0
  6
ByBlock
 62
     7
380
     1
100
AcDbTrace
 10
1188.310093549755
 20
161.96245
 30
0.0
 11
1186.643426883089
 21
151.96245
 31
0.0
 12
1189.976760216422
 22
151.96245
 32
0.0
 13
1189.976760216422
 23
151.96245
 33
0.0
  0
SOLID
  5
6AD
330
6B0
100
AcDbEntity
  8
0
  6
ByBlock
 62
     7
380
     1
100
AcDbTrace
 10
1188.310093549755
 20
61.96244999999999
 30
0.0
 11
1186.643426883089
 21
71.96244999999999
 31
0.0
 12
1189.976760216422
 22
71.96244999999999
 32
0.0
 13
1189.976760216422
 23
71.96244999999999
 33
0.0
  0
MTEXT
  5
6AE
330
6B0
100
AcDbEntity
  8
0
  6
ByBlock
 62
     0
370
    -2
380
     1
100
AcDbMText
 10
1177.004581738732
 20
111.96245
 30
0.0
 40
14.0
 41
0.0
 71
     5
 72
     1
  1
\A1;100
 11
6.123031769111886E-17
 21
1.0
 31
0.0
 73
     1
 44
1.0
  0
ENDBLK
  5
7E0
330
6B0
100
AcDbEntity
  8
0
100
AcDbBlockEnd
  0
BLOCK
  5
7E1
330
6BD
100
AcDbEntity
  8
0
100
AcDbBlockBegin
  2
*D65
 70
     1
 10
0.0
 20
0.0
 30
0.0
  3
*D65
  1

  0
POINT
  5
6B4
330
6BD
100
AcDbEntity
  8
DEFPOINTS
  6
ByBlock
 62
     0
380
     1
100
AcDbPoint
 10
49.667786
 20
642.255524
 30
0.0
  0
POINT
  5
6B5
330
6BD
100
AcDbEntity
  8
DEFPOINTS
  6
ByBlock
 62
     0
380
     1
100
AcDbPoint
 10
1149.667786
 20
642.255524
 30
0.0
  0
LINE
  5
6B6
330
6BD
100
AcDbEntity
  8
0
  6
ByBlock
 62
     0
370
    -2
380
     1
100
AcDbLine
 10
49.667786
 20
642.880524
 30
0.0
 11
49.667786
 21
692.5238153686848
 31
0.0
  0
LINE
  5
6B7
330
6BD
100
AcDbEntity
  8
0
  6
ByBlock
 62
     0
370
    -2
380
     1
100
AcDbLine
 10
1149.667786
 20
642.880524
 30
0.0
 11
1149.667786
 21
692.5238153686848
 31
0.0
  0
LINE
  5
6B8
330
6BD
100
AcDbEntity
  8
0
  6
ByBlock
 62
     0
370
    -2
380
     1
100
AcDbLine
 10
52.167786
 20
691.2738153686848
 30
0.0
 11
1147.167786
 21
691.2738153686848
 31
0.0
  0
SOLID
  5
6B9
330
6BD
100
AcDbEntity
  8
0
  6
ByBlock
 62
     0
380
     1
100
AcDbTrace
 10
49.667786
 20
691.2738153686848
 30
0.0
 11
52.167786
 21
690.8571487020182
 31
0.0
 12
52.167786
 22
691.6904820353515
 32
0.0
 13
52.167786
 23
691.6904820353515
 33
0.0
  0
SOLID
  5
6BA
330
6BD
100
AcDbEntity
  8
0
  6
ByBlock
 62
     0
380
     1
100
AcDbTrace
 10
1149.667786
 20
691.2738153686848
 30
0.0
 11
1147.167786
 21
690.8571487020182
 31
0.0
 12
1147.167786
 22
691.6904820353515
 32
0.0
 13
1147.167786
 23
691.6904820353515
 33
0.0
  0
MTEXT
  5
6BB
330
6BD
100
AcDbEntity
  8
0
  6
ByBlock
 62
     0
370
    -2
380
     1
100
AcDbMText
 10
599.667786
 20
693.0247996206533
 30
0.0
 40
2.5
 41
0.0
 71
     5
 72
     1
  1
\A1;1100
 73
     1
 44
1.0
  0
ENDBLK
  5
7E2
330
6BD
100
AcDbEntity
  8
0
100
AcDbBlockEnd
  0
BLOCK
  5
7E3
330
6C8
100
AcDbEntity
  8
0
100
AcDbBlockBegin
  2
*D66
 70
     1
 10
0.0
 20
0.0
 30
0.0
  3
*D66
  1

  0
POINT
  5
6BF
330
6C8
100
AcDbEntity
  8
DEFPOINTS
  6
ByBlock
 62
     0
380
     1
100
AcDbPoint
 10
49.667786
 20
642.255524
 30
0.0
  0
POINT
  5
6C0
330
6C8
100
AcDbEntity
  8
DEFPOINTS
  6
ByBlock
 62
     0
380
     1
100
AcDbPoint
 10
1149.667786
 20
642.255524
 30
0.0
  0
LINE
  5
6C1
330
6C8
100
AcDbEntity
  8
0
  6
ByBlock
 62
     0
370
    -2
380
     1
100
AcDbLine
 10
49.667786
 20
642.880524
 30
0.0
 11
49.667786
 21
692.5238153686848
 31
0.0
  0
LINE
  5
6C2
330
6C8
100
AcDbEntity
  8
0
  6
ByBlock
 62
     0
370
    -2
380
     1
100
AcDbLine
 10
1149.667786
 20
642.880524
 30
0.0
 11
1149.667786
 21
692.5238153686848
 31
0.0
  0
LINE
  5
6C3
330
6C8
100
AcDbEntity
  8
0
  6
ByBlock
 62
     0
370
    -2
380
     1
100
AcDbLine
 10
52.167786
 20
691.2738153686848
 30
0.0
 11
1147.167786
 21
691.2738153686848
 31
0.0
  0
SOLID
  5
6C4
330
6C8
100
AcDbEntity
  8
0
  6
ByBlock
 62
     0
380
     1
100
AcDbTrace
 10
49.667786
 20
691.2738153686848
 30
0.0
 11
52.167786
 21
690.8571487020182
 31
0.0
 12
52.167786
 22
691.6904820353515
 32
0.0
 13
52.167786
 23
691.6904820353515
 33
0.0
  0
SOLID
  5
6C5
330
6C8
100
AcDbEntity
  8
0
  6
ByBlock
 62
     0
380
     1
100
AcDbTrace
 10
1149.667786
 20
691.2738153686848
 30
0.0
 11
1147.167786
 21
690.8571487020182
 31
0.0
 12
1147.167786
 22
691.6904820353515
 32
0.0
 13
1147.167786
 23
691.6904820353515
 33
0.0
  0
MTEXT
  5
6C6
330
6C8
100
AcDbEntity
  8
0
  6
ByBlock
 62
     0
370
    -2
380
     1
100
AcDbMText
 10
599.667786
 20
693.0247996206533
 30
0.0
 40
2.5
 41
0.0
 71
     5
 72
     1
  1
\A1;1100
 73
     1
 44
1.0
  0
ENDBLK
  5
7E4
330
6C8
100
AcDbEntity
  8
0
100
AcDbBlockEnd
  0
BLOCK
  5
7E5
330
6D3
100
AcDbEntity
  8
0
100
AcDbBlockBegin
  2
*D67
 70
     1
 10
0.0
 20
0.0
 30
0.0
  3
*D67
  1

  0
POINT
  5
6CA
330
6D3
100
AcDbEntity
  8
DEFPOINTS
  6
ByBlock
 62
     7
380
     1
100
AcDbPoint
 10
49.667786
 20
642.255524
 30
0.0
  0
POINT
  5
6CB
330
6D3
100
AcDbEntity
  8
DEFPOINTS
  6
ByBlock
 62
     7
380
     1
100
AcDbPoint
 10
1149.667786
 20
642.255524
 30
0.0
  0
LINE
  5
6CC
330
6D3
100
AcDbEntity
  8
0
  6
ByBlock
 62
     7
370
    -2
380
     1
100
AcDbLine
 10
49.667786
 20
642.880524
 30
0.0
 11
49.667786
 21
692.5238153686848
 31
0.0
  0
LINE
  5
6CD
330
6D3
100
AcDbEntity
  8
0
  6
ByBlock
 62
     7
370
    -2
380
     1
100
AcDbLine
 10
1149.667786
 20
642.880524
 30
0.0
 11
1149.667786
 21
692.5238153686848
 31
0.0
  0
LINE
  5
6CE
330
6D3
100
AcDbEntity
  8
0
  6
ByBlock
 62
     7
370
    -2
380
     1
100
AcDbLine
 10
59.667786
 20
691.2738153686848
 30
0.0
 11
1139.667786
 21
691.2738153686848
 31
0.0
  0
SOLID
  5
6CF
330
6D3
100
AcDbEntity
  8
0
  6
ByBlock
 62
     7
380
     1
100
AcDbTrace
 10
49.667786
 20
691.2738153686848
 30
0.0
 11
59.667786
 21
689.6071487020182
 31
0.0
 12
59.667786
 22
692.9404820353515
 32
0.0
 13
59.667786
 23
692.9404820353515
 33
0.0
  0
SOLID
  5
6D0
330
6D3
100
AcDbEntity
  8
0
  6
ByBlock
 62
     7
380
     1
100
AcDbTrace
 10
1149.667786
 20
691.2738153686848
 30
0.0
 11
1139.667786
 21
689.6071487020182
 31
0.0
 12
1139.667786
 22
692.9404820353515
 32
0.0
 13
1139.667786
 23
692.9404820353515
 33
0.0
  0
MTEXT
  5
6D1
330
6D3
100
AcDbEntity
  8
0
  6
ByBlock
 62
     0
370
    -2
380
     1
100
AcDbMText
 10
599.667786
 20
702.5793271797085
 30
0.0
 40
14.0
 41
0.0
 71
     5
 72
     1
  1
\A1;1100
 73
     1
 44
1.0
  0
ENDBLK
  5
7E6
330
6D3
100
AcDbEntity
  8
0
100
AcDbBlockEnd
  0
BLOCK
  5
7E7
330
6DF
100
AcDbEntity
  8
0
100
AcDbBlockBegin
  2
*D68
 70
     1
 10
0.0
 20
0.0
 30
0.0
  3
*D68
  1

  0
POINT
  5
6D6
330
6DF
100
AcDbEntity
  8
DEFPOINTS
  6
ByBlock
 62
     0
380
     1
100
AcDbPoint
 10
564.667786
 20
418.1430439125629
 30
0.0
  0
POINT
  5
6D7
330
6DF
100
AcDbEntity
  8
DEFPOINTS
  6
ByBlock
 62
     0
380
     1
100
AcDbPoint
 10
634.667786
 20
418.1430439125629
 30
0.0
  0
LINE
  5
6D8
330
6DF
100
AcDbEntity
  8
0
  6
ByBlock
 62
     0
370
    -2
380
     1
100
AcDbLine
 10
564.667786
 20
417.5180439125629
 30
0.0
 11
564.667786
 21
396.9865339154594
 31
0.0
  0
LINE
  5
6D9
330
6DF
100
AcDbEntity
  8
0
  6
ByBlock
 62
     0
370
    -2
380
     1
100
AcDbLine
 10
634.667786
 20
417.5180439125629
 30
0.0
 11
634.667786
 21
396.9865339154594
 31
0.0
  0
LINE
  5
6DA
330
6DF
100
AcDbEntity
  8
0
  6
ByBlock
 62
     0
370
    -2
380
     1
100
AcDbLine
 10
567.167786
 20
398.2365339154594
 30
0.0
 11
632.167786
 21
398.2365339154594
 31
0.0
  0
SOLID
  5
6DB
330
6DF
100
AcDbEntity
  8
0
  6
ByBlock
 62
     0
380
     1
100
AcDbTrace
 10
564.667786
 20
398.2365339154594
 30
0.0
 11
567.167786
 21
397.8198672487927
 31
0.0
 12
567.167786
 22
398.6532005821261
 32
0.0
 13
567.167786
 23
398.6532005821261
 33
0.0
  0
SOLID
  5
6DC
330
6DF
100
AcDbEntity
  8
0
  6
ByBlock
 62
     0
380
     1
100
AcDbTrace
 10
634.667786
 20
398.2365339154594
 30
0.0
 11
632.167786
 21
397.8198672487927
 31
0.0
 12
632.167786
 22
398.6532005821261
 32
0.0
 13
632.167786
 23
398.6532005821261
 33
0.0
  0
MTEXT
  5
6DD
330
6DF
100
AcDbEntity
  8
0
  6
ByBlock
 62
     0
370
    -2
380
     1
100
AcDbMText
 10
599.667786
 20
399.9875181674279
 30
0.0
 40
2.5
 41
0.0
 71
     5
 72
     1
  1
\A1;70
 73
     1
 44
1.0
  0
ENDBLK
  5
7E8
330
6DF
100
AcDbEntity
  8
0
100
AcDbBlockEnd
  0
BLOCK
  5
7E9
330
6EA
100
AcDbEntity
  8
0
100
AcDbBlockBegin
  2
*D69
 70
     1
 10
0.0
 20
0.0
 30
0.0
  3
*D69
  1

  0
POINT
  5
6E1
330
6EA
100
AcDbEntity
  8
DEFPOINTS
  6
ByBlock
 62
     0
380
     1
100
AcDbPoint
 10
564.667786
 20
418.1430439125629
 30
0.0
  0
POINT
  5
6E2
330
6EA
100
AcDbEntity
  8
DEFPOINTS
  6
ByBlock
 62
     0
380
     1
100
AcDbPoint
 10
634.667786
 20
418.1430439125629
 30
0.0
  0
LINE
  5
6E3
330
6EA
100
AcDbEntity
  8
0
  6
ByBlock
 62
     0
370
    -2
380
     1
100
AcDbLine
 10
564.667786
 20
417.5180439125629
 30
0.0
 11
564.667786
 21
396.9865339154594
 31
0.0
  0
LINE
  5
6E4
330
6EA
100
AcDbEntity
  8
0
  6
ByBlock
 62
     0
370
    -2
380
     1
100
AcDbLine
 10
634.667786
 20
417.5180439125629
 30
0.0
 11
634.667786
 21
396.9865339154594
 31
0.0
  0
LINE
  5
6E5
330
6EA
100
AcDbEntity
  8
0
  6
ByBlock
 62
     0
370
    -2
380
     1
100
AcDbLine
 10
567.167786
 20
398.2365339154594
 30
0.0
 11
632.167786
 21
398.2365339154594
 31
0.0
  0
SOLID
  5
6E6
330
6EA
100
AcDbEntity
  8
0
  6
ByBlock
 62
     0
380
     1
100
AcDbTrace
 10
564.667786
 20
398.2365339154594
 30
0.0
 11
567.167786
 21
397.8198672487927
 31
0.0
 12
567.167786
 22
398.6532005821261
 32
0.0
 13
567.167786
 23
398.6532005821261
 33
0.0
  0
SOLID
  5
6E7
330
6EA
100
AcDbEntity
  8
0
  6
ByBlock
 62
     0
380
     1
100
AcDbTrace
 10
634.667786
 20
398.2365339154594
 30
0.0
 11
632.167786
 21
397.8198672487927
 31
0.0
 12
632.167786
 22
398.6532005821261
 32
0.0
 13
632.167786
 23
398.6532005821261
 33
0.0
  0
MTEXT
  5
6E8
330
6EA
100
AcDbEntity
  8
0
  6
ByBlock
 62
     0
370
    -2
380
     1
100
AcDbMText
 10
599.667786
 20
399.9875181674279
 30
0.0
 40
2.5
 41
0.0
 71
     5
 72
     1
  1
\A1;70
 73
     1
 44
1.0
  0
ENDBLK
  5
7EA
330
6EA
100
AcDbEntity
  8
0
100
AcDbBlockEnd
  0
BLOCK
  5
7EB
330
6F5
100
AcDbEntity
  8
0
100
AcDbBlockBegin
  2
*D70
 70
     1
 10
0.0
 20
0.0
 30
0.0
  3
*D70
  1

  0
POINT
  5
6EC
330
6F5
100
AcDbEntity
  8
DEFPOINTS
  6
ByBlock
 62
     7
380
     1
100
AcDbPoint
 10
564.667786
 20
418.1430439125629
 30
0.0
  0
POINT
  5
6ED
330
6F5
100
AcDbEntity
  8
DEFPOINTS
  6
ByBlock
 62
     7
380
     1
100
AcDbPoint
 10
634.667786
 20
418.1430439125629
 30
0.0
  0
LINE
  5
6EE
330
6F5
100
AcDbEntity
  8
0
  6
ByBlock
 62
     7
370
    -2
380
     1
100
AcDbLine
 10
564.667786
 20
417.5180439125629
 30
0.0
 11
564.667786
 21
396.9865339154594
 31
0.0
  0
LINE
  5
6EF
330
6F5
100
AcDbEntity
  8
0
  6
ByBlock
 62
     7
370
    -2
380
     1
100
AcDbLine
 10
634.667786
 20
417.5180439125629
 30
0.0
 11
634.667786
 21
396.9865339154594
 31
0.0
  0
LINE
  5
6F0
330
6F5
100
AcDbEntity
  8
0
  6
ByBlock
 62
     7
370
    -2
380
     1
100
AcDbLine
 10
574.667786
 20
398.2365339154594
 30
0.0
 11
624.667786
 21
398.2365339154594
 31
0.0
  0
SOLID
  5
6F1
330
6F5
100
AcDbEntity
  8
0
  6
ByBlock
 62
     7
380
     1
100
AcDbTrace
 10
564.667786
 20
398.2365339154594
 30
0.0
 11
574.667786
 21
396.5698672487927
 31
0.0
 12
574.667786
 22
399.9032005821261
 32
0.0
 13
574.667786
 23
399.9032005821261
 33
0.0
  0
SOLID
  5
6F2
330
6F5
100
AcDbEntity
  8
0
  6
ByBlock
 62
     7
380
     1
100
AcDbTrace
 10
634.667786
 20
398.2365339154594
 30
0.0
 11
624.667786
 21
396.5698672487927
 31
0.0
 12
624.667786
 22
399.9032005821261
 32
0.0
 13
624.667786
 23
399.9032005821261
 33
0.0
  0
MTEXT
  5
6F3
330
6F5
100
AcDbEntity
  8
0
  6
ByBlock
 62
     0
370
    -2
380
     1
100
AcDbMText
 10
599.667786
 20
409.5365339154594
 30
0.0
 40
14.0
 41
0.0
 71
     5
 72
     1
  1
\A1;70
 73
     1
 44
1.0
  0
ENDBLK
  5
7EC
330
6F5
100
AcDbEntity
  8
0
100
AcDbBlockEnd
  0
BLOCK
  5
7ED
330
700
100
AcDbEntity
  8
0
100
AcDbBlockBegin
  2
*D71
 70
     1
 10
0.0
 20
0.0
 30
0.0
  3
*D71
  1

  0
POINT
  5
6F7
330
700
100
AcDbEntity
  8
DEFPOINTS
  6
ByBlock
 62
     7
380
     1
100
AcDbPoint
 10
564.667786
 20
418.1430439125629
 30
0.0
  0
POINT
  5
6F8
330
700
100
AcDbEntity
  8
DEFPOINTS
  6
ByBlock
 62
     7
380
     1
100
AcDbPoint
 10
634.667786
 20
418.1430439125629
 30
0.0
  0
LINE
  5
6F9
330
700
100
AcDbEntity
  8
0
  6
ByBlock
 62
     7
370
    -2
380
     1
100
AcDbLine
 10
564.667786
 20
417.5180439125629
 30
0.0
 11
564.667786
 21
396.9865339154594
 31
0.0
  0
LINE
  5
6FA
330
700
100
AcDbEntity
  8
0
  6
ByBlock
 62
     7
370
    -2
380
     1
100
AcDbLine
 10
634.667786
 20
417.5180439125629
 30
0.0
 11
634.667786
 21
396.9865339154594
 31
0.0
  0
LINE
  5
6FB
330
700
100
AcDbEntity
  8
0
  6
ByBlock
 62
     7
370
    -2
380
     1
100
AcDbLine
 10
574.667786
 20
398.2365339154594
 30
0.0
 11
624.667786
 21
398.2365339154594
 31
0.0
  0
SOLID
  5
6FC
330
700
100
AcDbEntity
  8
0
  6
ByBlock
 62
     7
380
     1
100
AcDbTrace
 10
564.667786
 20
398.2365339154594
 30
0.0
 11
574.667786
 21
396.5698672487927
 31
0.0
 12
574.667786
 22
399.9032005821261
 32
0.0
 13
574.667786
 23
399.9032005821261
 33
0.0
  0
SOLID
  5
6FD
330
700
100
AcDbEntity
  8
0
  6
ByBlock
 62
     7
380
     1
100
AcDbTrace
 10
634.667786
 20
398.2365339154594
 30
0.0
 11
624.667786
 21
396.5698672487927
 31
0.0
 12
624.667786
 22
399.9032005821261
 32
0.0
 13
624.667786
 23
399.9032005821261
 33
0.0
  0
MTEXT
  5
6FE
330
700
100
AcDbEntity
  8
0
  6
ByBlock
 62
     0
370
    -2
380
     1
100
AcDbMText
 10
599.667786
 20
409.5365339154594
 30
0.0
 40
14.0
 41
0.0
 71
     5
 72
     1
  1
\A1;70
 73
     1
 44
1.0
  0
ENDBLK
  5
7EE
330
700
100
AcDbEntity
  8
0
100
AcDbBlockEnd
  0
BLOCK
  5
7EF
330
70B
100
AcDbEntity
  8
0
100
AcDbBlockBegin
  2
*D72
 70
     1
 10
0.0
 20
0.0
 30
0.0
  3
*D72
  1

  0
POINT
  5
702
330
70B
100
AcDbEntity
  8
DEFPOINTS
  6
ByBlock
 62
     7
380
     1
100
AcDbPoint
 10
564.667786
 20
418.1430439125629
 30
0.0
  0
POINT
  5
703
330
70B
100
AcDbEntity
  8
DEFPOINTS
  6
ByBlock
 62
     7
380
     1
100
AcDbPoint
 10
634.667786
 20
418.1430439125629
 30
0.0
  0
LINE
  5
704
330
70B
100
AcDbEntity
  8
0
  6
ByBlock
 62
     7
370
    -2
380
     1
100
AcDbLine
 10
564.667786
 20
417.5180439125629
 30
0.0
 11
564.667786
 21
386.8752907423274
 31
0.0
  0
LINE
  5
705
330
70B
100
AcDbEntity
  8
0
  6
ByBlock
 62
     7
370
    -2
380
     1
100
AcDbLine
 10
634.667786
 20
417.5180439125629
 30
0.0
 11
634.667786
 21
386.8752907423274
 31
0.0
  0
LINE
  5
706
330
70B
100
AcDbEntity
  8
0
  6
ByBlock
 62
     7
370
    -2
380
     1
100
AcDbLine
 10
574.667786
 20
388.1252907423274
 30
0.0
 11
624.667786
 21
388.1252907423274
 31
0.0
  0
SOLID
  5
707
330
70B
100
AcDbEntity
  8
0
  6
ByBlock
 62
     7
380
     1
100
AcDbTrace
 10
564.667786
 20
388.1252907423274
 30
0.0
 11
574.667786
 21
386.4586240756607
 31
0.0
 12
574.667786
 22
389.7919574089941
 32
0.0
 13
574.667786
 23
389.7919574089941
 33
0.0
  0
SOLID
  5
708
330
70B
100
AcDbEntity
  8
0
  6
ByBlock
 62
     7
380
     1
100
AcDbTrace
 10
634.667786
 20
388.1252907423274
 30
0.0
 11
624.667786
 21
386.4586240756607
 31
0.0
 12
624.667786
 22
389.7919574089941
 32
0.0
 13
624.667786
 23
389.7919574089941
 33
0.0
  0
MTEXT
  5
709
330
70B
100
AcDbEntity
  8
0
  6
ByBlock
 62
     0
370
    -2
380
     1
100
AcDbMText
 10
599.667786
 20
399.4252907423274
 30
0.0
 40
14.0
 41
0.0
 71
     5
 72
     1
  1
\A1;70
 73
     1
 44
1.0
  0
ENDBLK
  5
7F0
330
70B
100
AcDbEntity
  8
0
100
AcDbBlockEnd
  0
BLOCK
  5
7F1
330
716
100
AcDbEntity
  8
0
100
AcDbBlockBegin
  2
*D73
 70
     1
 10
0.0
 20
0.0
 30
0.0
  3
*D73
  1

  0
POINT
  5
70D
330
716
100
AcDbEntity
  8
DEFPOINTS
  6
ByBlock
 62
     7
380
     1
100
AcDbPoint
 10
564.667786
 20
418.1430439125629
 30
0.0
  0
POINT
  5
70E
330
716
100
AcDbEntity
  8
DEFPOINTS
  6
ByBlock
 62
     7
380
     1
100
AcDbPoint
 10
634.667786
 20
418.1430439125629
 30
0.0
  0
LINE
  5
70F
330
716
100
AcDbEntity
  8
0
  6
ByBlock
 62
     7
370
    -2
380
     1
100
AcDbLine
 10
564.667786
 20
417.5180439125629
 30
0.0
 11
564.667786
 21
380.3451128596797
 31
0.0
  0
LINE
  5
710
330
716
100
AcDbEntity
  8
0
  6
ByBlock
 62
     7
370
    -2
380
     1
100
AcDbLine
 10
634.667786
 20
417.5180439125629
 30
0.0
 11
634.667786
 21
380.3451128596797
 31
0.0
  0
LINE
  5
711
330
716
100
AcDbEntity
  8
0
  6
ByBlock
 62
     7
370
    -2
380
     1
100
AcDbLine
 10
574.667786
 20
381.5951128596797
 30
0.0
 11
624.667786
 21
381.5951128596797
 31
0.0
  0
SOLID
  5
712
330
716
100
AcDbEntity
  8
0
  6
ByBlock
 62
     7
380
     1
100
AcDbTrace
 10
564.667786
 20
381.5951128596797
 30
0.0
 11
574.667786
 21
379.928446193013
 31
0.0
 12
574.667786
 22
383.2617795263464
 32
0.0
 13
574.667786
 23
383.2617795263464
 33
0.0
  0
SOLID
  5
713
330
716
100
AcDbEntity
  8
0
  6
ByBlock
 62
     7
380
     1
100
AcDbTrace
 10
634.667786
 20
381.5951128596797
 30
0.0
 11
624.667786
 21
379.928446193013
 31
0.0
 12
624.667786
 22
383.2617795263464
 32
0.0
 13
624.667786
 23
383.2617795263464
 33
0.0
  0
MTEXT
  5
714
330
716
100
AcDbEntity
  8
0
  6
ByBlock
 62
     0
370
    -2
380
     1
100
AcDbMText
 10
599.667786
 20
392.8951128596797
 30
0.0
 40
14.0
 41
0.0
 71
     5
 72
     1
  1
\A1;70
 73
     1
 44
1.0
  0
ENDBLK
  5
7F2
330
716
100
AcDbEntity
  8
0
100
AcDbBlockEnd
  0
BLOCK
  5
7F3
330
721
100
AcDbEntity
  8
0
100
AcDbBlockBegin
  2
*D74
 70
     1
 10
0.0
 20
0.0
 30
0.0
  3
*D74
  1

  0
POINT
  5
718
330
721
100
AcDbEntity
  8
DEFPOINTS
  6
ByBlock
 62
     7
380
     1
100
AcDbPoint
 10
564.667786
 20
418.1430439125629
 30
0.0
  0
POINT
  5
719
330
721
100
AcDbEntity
  8
DEFPOINTS
  6
ByBlock
 62
     7
380
     1
100
AcDbPoint
 10
634.667786
 20
418.1430439125629
 30
0.0
  0
LINE
  5
71A
330
721
100
AcDbEntity
  8
0
  6
ByBlock
 62
     7
370
    -2
380
     1
100
AcDbLine
 10
564.667786
 20
417.5180439125629
 30
0.0
 11
564.667786
 21
380.3451128596797
 31
0.0
  0
LINE
  5
71B
330
721
100
AcDbEntity
  8
0
  6
ByBlock
 62
     7
370
    -2
380
     1
100
AcDbLine
 10
634.667786
 20
417.5180439125629
 30
0.0
 11
634.667786
 21
380.3451128596797
 31
0.0
  0
LINE
  5
71C
330
721
100
AcDbEntity
  8
0
  6
ByBlock
 62
     7
370
    -2
380
     1
100
AcDbLine
 10
574.667786
 20
381.5951128596797
 30
0.0
 11
624.667786
 21
381.5951128596797
 31
0.0
  0
SOLID
  5
71D
330
721
100
AcDbEntity
  8
0
  6
ByBlock
 62
     7
380
     1
100
AcDbTrace
 10
564.667786
 20
381.5951128596797
 30
0.0
 11
574.667786
 21
379.928446193013
 31
0.0
 12
574.667786
 22
383.2617795263464
 32
0.0
 13
574.667786
 23
383.2617795263464
 33
0.0
  0
SOLID
  5
71E
330
721
100
AcDbEntity
  8
0
  6
ByBlock
 62
     7
380
     1
100
AcDbTrace
 10
634.667786
 20
381.5951128596797
 30
0.0
 11
624.667786
 21
379.928446193013
 31
0.0
 12
624.667786
 22
383.2617795263464
 32
0.0
 13
624.667786
 23
383.2617795263464
 33
0.0
  0
MTEXT
  5
71F
330
721
100
AcDbEntity
  8
0
  6
ByBlock
 62
     0
370
    -2
380
     1
100
AcDbMText
 10
599.667786
 20
392.9006246707033
 30
0.0
 40
14.0
 41
0.0
 71
     5
 72
     1
  1
Ø70
 73
     1
 44
1.0
  0
ENDBLK
  5
7F4
330
721
100
AcDbEntity
  8
0
100
AcDbBlockEnd
  0
BLOCK
  5
7F5
330
72D
100
AcDbEntity
  8
0
100
AcDbBlockBegin
  2
*D75
 70
     1
 10
0.0
 20
0.0
 30
0.0
  3
*D75
  1

  0
POINT
  5
724
330
72D
100
AcDbEntity
  8
DEFPOINTS
  6
ByBlock
 62
     7
380
     1
100
AcDbPoint
 10
1049.698814337626
 20
161.96245
 30
0.0
  0
POINT
  5
725
330
72D
100
AcDbEntity
  8
DEFPOINTS
  6
ByBlock
 62
     7
380
     1
100
AcDbPoint
 10
1049.698814337626
 20
61.96245
 30
0.0
  0
LINE
  5
726
330
72D
100
AcDbEntity
  8
0
  6
ByBlock
 62
     7
370
    -2
380
     1
100
AcDbLine
 10
1050.323814337626
 20
161.96245
 30
0.0
 11
1200.846302549755
 21
161.96245
 31
0.0
  0
LINE
  5
727
330
72D
100
AcDbEntity
  8
0
  6
ByBlock
 62
     7
370
    -2
380
     1
100
AcDbLine
 10
1050.323814337626
 20
61.96244999999999
 30
0.0
 11
1200.846302549755
 21
61.96244999999999
 31
0.0
  0
LINE
  5
728
330
72D
100
AcDbEntity
  8
0
  6
ByBlock
 62
     7
370
    -2
380
     1
100
AcDbLine
 10
1199.596302549755
 20
151.96245
 30
0.0
 11
1199.596302549755
 21
71.96244999999999
 31
0.0
  0
SOLID
  5
729
330
72D
100
AcDbEntity
  8
0
  6
ByBlock
 62
     7
380
     1
100
AcDbTrace
 10
1199.596302549755
 20
161.96245
 30
0.0
 11
1197.929635883089
 21
151.96245
 31
0.0
 12
1201.262969216422
 22
151.96245
 32
0.0
 13
1201.262969216422
 23
151.96245
 33
0.0
  0
SOLID
  5
72A
330
72D
100
AcDbEntity
  8
0
  6
ByBlock
 62
     7
380
     1
100
AcDbTrace
 10
1199.596302549755
 20
61.96244999999999
 30
0.0
 11
1197.929635883089
 21
71.96244999999999
 31
0.0
 12
1201.262969216422
 22
71.96244999999999
 32
0.0
 13
1201.262969216422
 23
71.96244999999999
 33
0.0
  0
MTEXT
  5
72B
330
72D
100
AcDbEntity
  8
0
  6
ByBlock
 62
     0
370
    -2
380
     1
100
AcDbMText
 10
1188.290790738732
 20
111.96245
 30
0.0
 40
14.0
 41
0.0
 71
     5
 72
     1
  1
\A1;100
 11
6.123031769111886E-17
 21
1.0
 31
0.0
 73
     1
 44
1.0
  0
ENDBLK
  5
7F6
330
72D
100
AcDbEntity
  8
0
100
AcDbBlockEnd
  0
BLOCK
  5
7F7
330
739
100
AcDbEntity
  8
0
100
AcDbBlockBegin
  2
*D76
 70
     1
 10
0.0
 20
0.0
 30
0.0
  3
*D76
  1

  0
POINT
  5
730
330
739
100
AcDbEntity
  8
DEFPOINTS
  6
ByBlock
 62
     0
380
     1
100
AcDbPoint
 10
1392.135721557073
 20
662.255524
 30
0.0
  0
POINT
  5
731
330
739
100
AcDbEntity
  8
DEFPOINTS
  6
ByBlock
 62
     0
380
     1
100
AcDbPoint
 10
1392.135721557073
 20
412.255524
 30
0.0
  0
LINE
  5
732
330
739
100
AcDbEntity
  8
0
  6
ByBlock
 62
     0
370
    -2
380
     1
100
AcDbLine
 10
1392.760721557073
 20
662.255524
 30
0.0
 11
1467.152952716661
 21
662.255524
 31
0.0
  0
LINE
  5
733
330
739
100
AcDbEntity
  8
0
  6
ByBlock
 62
     0
370
    -2
380
     1
100
AcDbLine
 10
1392.760721557073
 20
412.255524
 30
0.0
 11
1467.152952716661
 21
412.255524
 31
0.0
  0
LINE
  5
734
330
739
100
AcDbEntity
  8
0
  6
ByBlock
 62
     0
370
    -2
380
     1
100
AcDbLine
 10
1465.902952716661
 20
659.755524
 30
0.0
 11
1465.902952716661
 21
414.755524
 31
0.0
  0
SOLID
  5
735
330
739
100
AcDbEntity
  8
0
  6
ByBlock
 62
     0
380
     1
100
AcDbTrace
 10
1465.902952716661
 20
662.255524
 30
0.0
 11
1465.486286049994
 21
659.755524
 31
0.0
 12
1466.319619383328
 22
659.755524
 32
0.0
 13
1466.319619383328
 23
659.755524
 33
0.0
  0
SOLID
  5
736
330
739
100
AcDbEntity
  8
0
  6
ByBlock
 62
     0
380
     1
100
AcDbTrace
 10
1465.902952716661
 20
412.255524
 30
0.0
 11
1465.486286049994
 21
414.755524
 31
0.0
 12
1466.319619383328
 22
414.755524
 32
0.0
 13
1466.319619383328
 23
414.755524
 33
0.0
  0
MTEXT
  5
737
330
739
100
AcDbEntity
  8
0
  6
ByBlock
 62
     0
370
    -2
380
     1
100
AcDbMText
 10
1464.151968464692
 20
537.255524
 30
0.0
 40
2.5
 41
0.0
 71
     5
 72
     1
  1
\A1;250
 11
6.123031769111886E-17
 21
1.0
 31
0.0
 73
     1
 44
1.0
  0
ENDBLK
  5
7F8
330
739
100
AcDbEntity
  8
0
100
AcDbBlockEnd
  0
BLOCK
  5
7F9
330
744
100
AcDbEntity
  8
0
100
AcDbBlockBegin
  2
*D77
 70
     1
 10
0.0
 20
0.0
 30
0.0
  3
*D77
  1

  0
POINT
  5
73B
330
744
100
AcDbEntity
  8
DEFPOINTS
  6
ByBlock
 62
     0
380
     1
100
AcDbPoint
 10
1392.135721557073
 20
662.255524
 30
0.0
  0
POINT
  5
73C
330
744
100
AcDbEntity
  8
DEFPOINTS
  6
ByBlock
 62
     0
380
     1
100
AcDbPoint
 10
1392.135721557073
 20
412.255524
 30
0.0
  0
LINE
  5
73D
330
744
100
AcDbEntity
  8
0
  6
ByBlock
 62
     0
370
    -2
380
     1
100
AcDbLine
 10
1392.760721557073
 20
662.255524
 30
0.0
 11
1467.152952716661
 21
662.255524
 31
0.0
  0
LINE
  5
73E
330
744
100
AcDbEntity
  8
0
  6
ByBlock
 62
     0
370
    -2
380
     1
100
AcDbLine
 10
1392.760721557073
 20
412.255524
 30
0.0
 11
1467.152952716661
 21
412.255524
 31
0.0
  0
LINE
  5
73F
330
744
100
AcDbEntity
  8
0
  6
ByBlock
 62
     0
370
    -2
380
     1
100
AcDbLine
 10
1465.902952716661
 20
659.755524
 30
0.0
 11
1465.902952716661
 21
414.755524
 31
0.0
  0
SOLID
  5
740
330
744
100
AcDbEntity
  8
0
  6
ByBlock
 62
     0
380
     1
100
AcDbTrace
 10
1465.902952716661
 20
662.255524
 30
0.0
 11
1465.486286049994
 21
659.755524
 31
0.0
 12
1466.319619383328
 22
659.755524
 32
0.0
 13
1466.319619383328
 23
659.755524
 33
0.0
  0
SOLID
  5
741
330
744
100
AcDbEntity
  8
0
  6
ByBlock
 62
     0
380
     1
100
AcDbTrace
 10
1465.902952716661
 20
412.255524
 30
0.0
 11
1465.486286049994
 21
414.755524
 31
0.0
 12
1466.319619383328
 22
414.755524
 32
0.0
 13
1466.319619383328
 23
414.755524
 33
0.0
  0
MTEXT
  5
742
330
744
100
AcDbEntity
  8
0
  6
ByBlock
 62
     0
370
    -2
380
     1
100
AcDbMText
 10
1464.151968464692
 20
537.255524
 30
0.0
 40
2.5
 41
0.0
 71
     5
 72
     1
  1
\A1;250
 11
6.123031769111886E-17
 21
1.0
 31
0.0
 73
     1
 44
1.0
  0
ENDBLK
  5
7FA
330
744
100
AcDbEntity
  8
0
100
AcDbBlockEnd
  0
BLOCK
  5
7FB
330
74F
100
AcDbEntity
  8
0
100
AcDbBlockBegin
  2
*D78
 70
     1
 10
0.0
 20
0.0
 30
0.0
  3
*D78
  1

  0
POINT
  5
746
330
74F
100
AcDbEntity
  8
DEFPOINTS
  6
ByBlock
 62
     7
380
     1
100
AcDbPoint
 10
1392.135721557073
 20
662.255524
 30
0.0
  0
POINT
  5
747
330
74F
100
AcDbEntity
  8
DEFPOINTS
  6
ByBlock
 62
     7
380
     1
100
AcDbPoint
 10
1392.135721557073
 20
412.255524
 30
0.0
  0
LINE
  5
748
330
74F
100
AcDbEntity
  8
0
  6
ByBlock
 62
     7
370
    -2
380
     1
100
AcDbLine
 10
1392.760721557073
 20
662.255524
 30
0.0
 11
1467.152952716661
 21
662.255524
 31
0.0
  0
LINE
  5
749
330
74F
100
AcDbEntity
  8
0
  6
ByBlock
 62
     7
370
    -2
380
     1
100
AcDbLine
 10
1392.760721557073
 20
412.255524
 30
0.0
 11
1467.152952716661
 21
412.255524
 31
0.0
  0
LINE
  5
74A
330
74F
100
AcDbEntity
  8
0
  6
ByBlock
 62
     7
370
    -2
380
     1
100
AcDbLine
 10
1465.902952716661
 20
652.255524
 30
0.0
 11
1465.902952716661
 21
422.255524
 31
0.0
  0
SOLID
  5
74B
330
74F
100
AcDbEntity
  8
0
  6
ByBlock
 62
     7
380
     1
100
AcDbTrace
 10
1465.902952716661
 20
662.255524
 30
0.0
 11
1464.236286049994
 21
652.255524
 31
0.0
 12
1467.569619383328
 22
652.255524
 32
0.0
 13
1467.569619383328
 23
652.255524
 33
0.0
  0
SOLID
  5
74C
330
74F
100
AcDbEntity
  8
0
  6
ByBlock
 62
     7
380
     1
100
AcDbTrace
 10
1465.902952716661
 20
412.255524
 30
0.0
 11
1464.236286049994
 21
422.255524
 31
0.0
 12
1467.569619383328
 22
422.255524
 32
0.0
 13
1467.569619383328
 23
422.255524
 33
0.0
  0
MTEXT
  5
74D
330
74F
100
AcDbEntity
  8
0
  6
ByBlock
 62
     0
370
    -2
380
     1
100
AcDbMText
 10
1454.597440905637
 20
537.255524
 30
0.0
 40
14.0
 41
0.0
 71
     5
 72
     1
  1
\A1;250
 11
6.123031769111886E-17
 21
1.0
 31
0.0
 73
     1
 44
1.0
  0
ENDBLK
  5
7FC
330
74F
100
AcDbEntity
  8
0
100
AcDbBlockEnd
  0
ENDSEC
  0
SECTION
  2
ENTITIES
  0
POINT
  5
56
330
1F
100
AcDbEntity
  8
0
 62
     7
370
    60
390
F
100
AcDbPoint
 10
154.667786
 20
643.255524
 30
0.0
  0
POINT
  5
57
330
1F
100
AcDbEntity
  8
0
 62
     7
370
    60
390
F
100
AcDbPoint
 10
599.667786
 20
458.255524
 30
0.0
  0
POINT
  5
58
330
1F
100
AcDbEntity
  8
0
 62
     7
370
    60
390
F
100
AcDbPoint
 10
924.667786
 20
637.255524
 30
0.0
  0
POINT
  5
7FD
330
1F
100
AcDbEntity
  8
0
 62
     7
370
    60
390
F
100
AcDbPoint
 10
634.667786
 20
497.176178
 30
0.0
  0
POINT
  5
7FE
330
1F
100
AcDbEntity
  8
0
 62
     7
370
    60
390
F
100
AcDbPoint
 10
634.667786
 20
447.176178
 30
0.0
  0
POINT
  5
5B
330
1F
100
AcDbEntity
  8
0
 62
     7
370
    60
390
F
100
AcDbPoint
 10
599.667786
 20
602.255524
 30
0.0
  0
LINE
  5
5C
330
1F
100
AcDbEntity
  8
0
  6
DASHDOT
 62
     7
370
    25
390
F
100
AcDbLine
 10
599.667786
 20
407.766388
 30
0.0
 11
599.667786
 21
676.440796
 31
0.0
  0
LINE
  5
5D
330
1F
100
AcDbEntity
  8
0
 62
     7
370
    60
390
F
100
AcDbLine
 10
634.667786
 20
412.255524
 30
0.0
 11
634.667786
 21
612.255524
 31
0.0
  0
LINE
  5
7FF
330
1F
100
AcDbEntity
  8
0
  6
DASHSPACE
 62
     7
370
    25
390
F
100
AcDbLine
 10
599.667786
 20
658.255524
 30
0.0
 11
799.667786
 21
658.255524
 31
0.0
  0
LINE
  5
5F
330
1F
100
AcDbEntity
  8
0
  6
DASHSPACE
 62
     7
370
    25
390
F
100
AcDbLine
 10
399.667786
 20
658.255524
 30
0.0
 11
599.667786
 21
658.255524
 31
0.0
  0
LINE
  5
61
330
1F
100
AcDbEntity
  8
0
 62
     7
370
    60
390
F
100
AcDbLine
 10
564.667786
 20
412.255524
 30
0.0
 11
564.667786
 21
612.255524
 31
0.0
  0
LINE
  5
62
330
1F
100
AcDbEntity
  8
0
  6
DASHDOT
 62
     7
370
    25
390
F
100
AcDbLine
 10
15.687012
 20
637.255524
 30
0.0
 11
1162.017395
 21
637.255524
 31
0.0
  0
LINE
  5
63
330
1F
100
AcDbEntity
  8
0
  6
DASHDOT
 62
     7
370
    25
390
F
100
AcDbLine
 10
329.667786
 20
622.980118
 30
0.0
 11
329.667786
 21
648.031784
 31
0.0
  0
LINE
  5
64
330
1F
100
AcDbEntity
  8
0
  6
DASHDOT
 62
     7
370
    25
390
F
100
AcDbLine
 10
219.667786
 20
625.27243
 30
0.0
 11
219.667786
 21
657.037292
 31
0.0
  0
LINE
  5
65
330
1F
100
AcDbEntity
  8
0
  6
DASHDOT
 62
     7
370
    25
390
F
100
AcDbLine
 10
334.667786
 20
623.635056
 30
0.0
 11
334.667786
 21
650.16037
 31
0.0
  0
LINE
  5
66
330
1F
100
AcDbEntity
  8
0
  6
DASHDOT
 62
     7
370
    25
390
F
100
AcDbLine
 10
214.667786
 20
624.974457
 30
0.0
 11
214.667786
 21
648.877121
 31
0.0
  0
ARC
  5
67
330
1F
100
AcDbEntity
  8
0
 62
     7
370
    60
390
F
100
AcDbCircle
 10
334.667786
 20
637.255524
 30
0.0
 40
6.5
100
AcDbArc
 50
270.000001
 51
90.000003
  0
ARC
  5
68
330
1F
100
AcDbEntity
  8
0
 62
     7
370
    60
390
F
100
AcDbCircle
 10
329.667786
 20
637.255524
 30
0.0
 40
6.5
100
AcDbArc
 50
90.000003
 51
270.000001
  0
ARC
  5
69
330
1F
100
AcDbEntity
  8
0
 62
     7
370
    60
390
F
100
AcDbCircle
 10
214.667786
 20
637.255524
 30
0.0
 40
6.5
100
AcDbArc
 50
90.000003
 51
270.000001
  0
ARC
  5
6A
330
1F
100
AcDbEntity
  8
0
 62
     7
370
    60
390
F
100
AcDbCircle
 10
219.667786
 20
637.255524
 30
0.0
 40
6.5
100
AcDbArc
 50
270.000001
 51
90.000003
  0
LINE
  5
800
330
1F
100
AcDbEntity
  8
0
 62
     7
 48
0.125
370
    60
390
F
100
AcDbLine
 10
329.667786
 20
643.755524
 30
0.0
 11
334.667786
 21
643.755524
 31
0.0
  0
LINE
  5
801
330
1F
100
AcDbEntity
  8
0
 62
     7
 48
0.125
370
    60
390
F
100
AcDbLine
 10
329.667786
 20
630.755524
 30
0.0
 11
334.667786
 21
630.755524
 31
0.0
  0
LINE
  5
6D
330
1F
100
AcDbEntity
  8
0
 62
     7
 48
0.125
370
    60
390
F
100
AcDbLine
 10
214.667786
 20
643.755524
 30
0.0
 11
219.667786
 21
643.755524
 31
0.0
  0
LINE
  5
6E
330
1F
100
AcDbEntity
  8
0
 62
     7
 48
0.125
370
    60
390
F
100
AcDbLine
 10
214.667786
 20
630.755524
 30
0.0
 11
219.667786
 21
630.755524
 31
0.0
  0
LINE
  5
6F
330
1F
100
AcDbEntity
  8
0
  6
DASHDOT
 62
     7
370
    25
390
F
100
AcDbLine
 10
389.667786
 20
625.092789
 30
0.0
 11
389.667786
 21
653.048386
 31
0.0
  0
LINE
  5
70
330
1F
100
AcDbEntity
  8
0
  6
DASHDOT
 62
     7
370
    25
390
F
100
AcDbLine
 10
154.667786
 20
626.364838
 30
0.0
 11
154.667786
 21
647.48674
 31
0.0
  0
LINE
  5
71
330
1F
100
AcDbEntity
  8
0
  6
DASHDOT
 62
     7
370
    25
390
F
100
AcDbLine
 10
394.667786
 20
624.471558
 30
0.0
 11
394.667786
 21
653.048386
 31
0.0
  0
LINE
  5
72
330
1F
100
AcDbEntity
  8
0
 62
     7
 48
0.125
370
    60
390
F
100
AcDbLine
 10
389.667786
 20
643.755524
 30
0.0
 11
394.667786
 21
643.755524
 31
0.0
  0
ARC
  5
802
330
1F
100
AcDbEntity
  8
0
 62
     7
370
    60
390
F
100
AcDbCircle
 10
394.667786
 20
637.255524
 30
0.0
 40
6.5
100
AcDbArc
 50
270.000001
 51
90.000003
  0
LINE
  5
803
330
1F
100
AcDbEntity
  8
0
 62
     7
 48
0.125
370
    60
390
F
100
AcDbLine
 10
389.667786
 20
630.755524
 30
0.0
 11
394.667786
 21
630.755524
 31
0.0
  0
ARC
  5
804
330
1F
100
AcDbEntity
  8
0
 62
     7
370
    60
390
F
100
AcDbCircle
 10
389.667786
 20
637.255524
 30
0.0
 40
6.5
100
AcDbArc
 50
90.000003
 51
270.000001
  0
ARC
  5
805
330
1F
100
AcDbEntity
  8
0
 62
     7
370
    60
390
F
100
AcDbCircle
 10
154.667786
 20
637.255524
 30
0.0
 40
6.5
100
AcDbArc
 50
90.000003
 51
270.000001
  0
LINE
  5
77
330
1F
100
AcDbEntity
  8
0
 62
     7
 48
0.125
370
    60
390
F
100
AcDbLine
 10
154.667786
 20
643.755524
 30
0.0
 11
159.667786
 21
643.755524
 31
0.0
  0
ARC
  5
78
330
1F
100
AcDbEntity
  8
0
 62
     7
370
    60
390
F
100
AcDbCircle
 10
159.667786
 20
637.255524
 30
0.0
 40
6.5
100
AcDbArc
 50
270.000001
 51
90.000003
  0
LINE
  5
79
330
1F
100
AcDbEntity
  8
0
 62
     7
 48
0.125
370
    60
390
F
100
AcDbLine
 10
154.667786
 20
630.755524
 30
0.0
 11
159.667786
 21
630.755524
 31
0.0
  0
LINE
  5
7A
330
1F
100
AcDbEntity
  8
0
 62
     7
370
    60
390
F
100
AcDbLine
 10
49.667786
 20
662.255524
 30
0.0
 11
1149.667786
 21
662.255524
 31
0.0
  0
LINE
  5
7B
330
1F
100
AcDbEntity
  8
0
 62
     7
370
    60
390
F
100
AcDbLine
 10
59.667786
 20
612.255524
 30
0.0
 11
1139.667786
 21
612.255524
 31
0.0
  0
LINE
  5
7C
330
1F
100
AcDbEntity
  8
0
 62
     7
370
    60
390
F
100
AcDbLine
 10
564.667786
 20
412.255524
 30
0.0
 11
634.667786
 21
412.255524
 31
0.0
  0
LINE
  5
7D
330
1F
100
AcDbEntity
  8
0
 62
     7
370
    60
390
F
100
AcDbLine
 10
49.667786
 20
622.255524
 30
0.0
 11
49.667786
 21
662.255524
 31
0.0
  0
LINE
  5
7E
330
1F
100
AcDbEntity
  8
0
 62
     7
370
    60
390
F
100
AcDbLine
 10
1149.667786
 20
622.255524
 30
0.0
 11
1149.667786
 21
662.255524
 31
0.0
  0
ARC
  5
7F
330
1F
100
AcDbEntity
  8
0
 62
     7
370
    60
390
F
100
AcDbCircle
 10
1044.667786
 20
637.255524
 30
0.0
 40
6.5
100
AcDbArc
 50
270.000001
 51
90.000003
  0
LINE
  5
80
330
1F
100
AcDbEntity
  8
0
 62
     7
 48
0.125
370
    60
390
F
100
AcDbLine
 10
1039.667786
 20
630.755524
 30
0.0
 11
1044.667786
 21
630.755524
 31
0.0
  0
ARC
  5
81
330
1F
100
AcDbEntity
  8
0
 62
     7
370
    60
390
F
100
AcDbCircle
 10
1039.667786
 20
637.255524
 30
0.0
 40
6.5
100
AcDbArc
 50
90.000003
 51
270.000001
  0
LINE
  5
82
330
1F
100
AcDbEntity
  8
0
 62
     7
 48
0.125
370
    60
390
F
100
AcDbLine
 10
1039.667786
 20
643.755524
 30
0.0
 11
1044.667786
 21
643.755524
 31
0.0
  0
LINE
  5
83
330
1F
100
AcDbEntity
  8
0
  6
DASHDOT
 62
     7
370
    60
390
F
100
AcDbLine
 10
1039.667786
 20
625.092789
 30
0.0
 11
1039.667786
 21
653.048386
 31
0.0
  0
LINE
  5
84
330
1F
100
AcDbEntity
  8
0
  6
DASHDOT
 62
     7
370
    25
390
F
100
AcDbLine
 10
1044.667786
 20
624.471558
 30
0.0
 11
1044.667786
 21
653.048386
 31
0.0
  0
ARC
  5
85
330
1F
100
AcDbEntity
  8
0
 62
     7
370
    60
390
F
100
AcDbCircle
 10
984.667786
 20
637.255524
 30
0.0
 40
6.5
100
AcDbArc
 50
270.000001
 51
90.000003
  0
LINE
  5
86
330
1F
100
AcDbEntity
  8
0
 62
     7
 48
0.125
370
    60
390
F
100
AcDbLine
 10
979.667786
 20
630.755524
 30
0.0
 11
984.667786
 21
630.755524
 31
0.0
  0
LINE
  5
87
330
1F
100
AcDbEntity
  8
0
 62
     7
 48
0.125
370
    60
390
F
100
AcDbLine
 10
979.667786
 20
643.755524
 30
0.0
 11
984.667786
 21
643.755524
 31
0.0
  0
ARC
  5
88
330
1F
100
AcDbEntity
  8
0
 62
     7
370
    60
390
F
100
AcDbCircle
 10
979.667786
 20
637.255524
 30
0.0
 40
6.5
100
AcDbArc
 50
90.000003
 51
270.000001
  0
LINE
  5
89
330
1F
100
AcDbEntity
  8
0
  6
DASHDOT
 62
     7
370
    25
390
F
100
AcDbLine
 10
979.667786
 20
622.980118
 30
0.0
 11
979.667786
 21
648.031784
 31
0.0
  0
LINE
  5
8A
330
1F
100
AcDbEntity
  8
0
  6
DASHDOT
 62
     7
370
    25
390
F
100
AcDbLine
 10
984.667786
 20
623.635056
 30
0.0
 11
984.667786
 21
650.16037
 31
0.0
  0
ARC
  5
8B
330
1F
100
AcDbEntity
  8
0
 62
     7
370
    60
390
F
100
AcDbCircle
 10
869.667786
 20
637.255524
 30
0.0
 40
6.5
100
AcDbArc
 50
270.000001
 51
90.000003
  0
ARC
  5
8C
330
1F
100
AcDbEntity
  8
0
 62
     7
370
    60
390
F
100
AcDbCircle
 10
864.667786
 20
637.255524
 30
0.0
 40
6.5
100
AcDbArc
 50
90.000003
 51
270.000001
  0
LINE
  5
8D
330
1F
100
AcDbEntity
  8
0
 62
     7
 48
0.125
370
    60
390
F
100
AcDbLine
 10
864.667786
 20
630.755524
 30
0.0
 11
869.667786
 21
630.755524
 31
0.0
  0
LINE
  5
8E
330
1F
100
AcDbEntity
  8
0
 62
     7
 48
0.125
370
    60
390
F
100
AcDbLine
 10
864.667786
 20
643.755524
 30
0.0
 11
869.667786
 21
643.755524
 31
0.0
  0
LINE
  5
8F
330
1F
100
AcDbEntity
  8
0
  6
DASHDOT
 62
     7
370
    25
390
F
100
AcDbLine
 10
864.667786
 20
624.974457
 30
0.0
 11
864.667786
 21
648.877121
 31
0.0
  0
LINE
  5
90
330
1F
100
AcDbEntity
  8
0
  6
DASHDOT
 62
     7
370
    25
390
F
100
AcDbLine
 10
869.667786
 20
625.27243
 30
0.0
 11
869.667786
 21
657.037292
 31
0.0
  0
ARC
  5
91
330
1F
100
AcDbEntity
  8
0
 62
     7
370
    60
390
F
100
AcDbCircle
 10
809.667786
 20
637.255524
 30
0.0
 40
6.5
100
AcDbArc
 50
270.000001
 51
90.000003
  0
LINE
  5
806
330
1F
100
AcDbEntity
  8
0
 62
     7
 48
0.125
370
    60
390
F
100
AcDbLine
 10
804.667786
 20
630.755524
 30
0.0
 11
809.667786
 21
630.755524
 31
0.0
  0
LINE
  5
807
330
1F
100
AcDbEntity
  8
0
 62
     7
 48
0.125
370
    60
390
F
100
AcDbLine
 10
804.667786
 20
643.755524
 30
0.0
 11
809.667786
 21
643.755524
 31
0.0
  0
ARC
  5
94
330
1F
100
AcDbEntity
  8
0
 62
     7
370
    60
390
F
100
AcDbCircle
 10
804.667786
 20
637.255524
 30
0.0
 40
6.5
100
AcDbArc
 50
90.000003
 51
270.000001
  0
LINE
  5
95
330
1F
100
AcDbEntity
  8
0
  6
DASHDOT
 62
     7
370
    25
390
F
100
AcDbLine
 10
804.667786
 20
626.364838
 30
0.0
 11
804.667786
 21
647.48674
 31
0.0
  0
LINE
  5
96
330
1F
100
AcDbEntity
  8
0
  6
DASHDOT
 62
     7
370
    25
390
F
100
AcDbLine
 10
159.667786
 20
625.092789
 30
0.0
 11
159.667786
 21
653.048386
 31
0.0
  0
LINE
  5
808
330
1F
100
AcDbEntity
  8
0
  6
DASHDOT
 62
     7
370
    25
390
F
100
AcDbLine
 10
1039.667786
 20
625.092789
 30
0.0
 11
1039.667786
 21
653.048386
 31
0.0
  0
LINE
  5
809
330
1F
100
AcDbEntity
  8
0
  6
DASHDOT
 62
     7
370
    25
390
F
100
AcDbLine
 10
809.667786
 20
626.417892
 30
0.0
 11
809.667786
 21
649.281158
 31
0.0
  0
ARC
  5
80A
330
1F
100
AcDbEntity
  8
0
 62
     7
370
    60
390
F
100
AcDbCircle
 10
1139.667786
 20
622.255524
 30
0.0
 40
10.0
100
AcDbArc
 50
270.000001
 51
0.0
  0
ARC
  5
80B
330
1F
100
AcDbEntity
  8
0
 62
     7
370
    60
390
F
100
AcDbCircle
 10
59.667786
 20
622.255524
 30
0.0
 40
10.0
100
AcDbArc
 50
180.000005
 51
270.000001
  0
CIRCLE
  5
80C
330
1F
100
AcDbEntity
  8
0
 62
     7
370
    60
390
F
100
AcDbCircle
 10
599.667786
 20
602.255524
 30
0.0
 40
2.25
  0
LINE
  5
80D
330
1F
100
AcDbEntity
  8
0
  6
DASHDOT
 62
     7
370
    60
390
F
100
AcDbLine
 10
599.667786
 20
592.255524
 30
0.0
 11
599.667786
 21
612.255524
 31
0.0
  0
LINE
  5
80E
330
1F
100
AcDbEntity
  8
0
  6
DASHDOT
 62
     7
370
    25
390
F
100
AcDbLine
 10
589.667786
 20
602.255524
 30
0.0
 11
609.667786
 21
602.255524
 31
0.0
  0
LINE
  5
80F
330
1F
100
AcDbEntity
  8
0
  6
DASHSPACE
 62
     7
370
    25
390
F
100
AcDbLine
 10
631.667786
 20
412.255524
 30
0.0
 11
631.667786
 21
612.255524
 31
0.0
  0
LINE
  5
810
330
1F
100
AcDbEntity
  8
0
  6
DASHSPACE
 62
     7
370
    25
390
F
100
AcDbLine
 10
567.667786
 20
412.255524
 30
0.0
 11
567.667786
 21
612.255524
 31
0.0
  0
LINE
  5
811
330
1F
100
AcDbEntity
  8
0
 62
     7
 48
0.21
370
    60
390
F
100
AcDbLine
 10
634.667786
 20
451.505524
 30
0.0
 11
643.067787
 21
451.505524
 31
0.0
  0
LINE
  5
812
330
1F
100
AcDbEntity
  8
0
 62
     7
 48
0.46219
370
    60
390
F
100
AcDbLine
 10
643.067787
 20
433.01792
 30
0.0
 11
643.067787
 21
451.505524
 31
0.0
  0
LINE
  5
813
330
1F
100
AcDbEntity
  8
0
 62
     7
 48
0.21
370
    60
390
F
100
AcDbLine
 10
634.667786
 20
446.874326
 30
0.0
 11
643.067787
 21
446.874326
 31
0.0
  0
LINE
  5
814
330
1F
100
AcDbEntity
  8
0
 62
     7
 48
0.21
370
    60
390
F
100
AcDbLine
 10
634.667786
 20
437.636721
 30
0.0
 11
643.067787
 21
437.636721
 31
0.0
  0
LINE
  5
815
330
1F
100
AcDbEntity
  8
0
 62
     7
 48
0.2
370
    60
390
F
100
AcDbLine
 10
634.667786
 20
433.005524
 30
0.0
 11
642.667786
 21
433.005524
 31
0.0
  0
LINE
  5
816
330
1F
100
AcDbEntity
  8
0
 62
     7
 48
0.21
370
    60
390
F
100
AcDbLine
 10
634.667786
 20
487.636721
 30
0.0
 11
643.067787
 21
487.636721
 31
0.0
  0
LINE
  5
817
330
1F
100
AcDbEntity
  8
0
 62
     7
 48
0.46219
370
    60
390
F
100
AcDbLine
 10
643.067787
 20
483.01792
 30
0.0
 11
643.067787
 21
501.505524
 31
0.0
  0
LINE
  5
818
330
1F
100
AcDbEntity
  8
0
 62
     7
 48
0.21
370
    60
390
F
100
AcDbLine
 10
634.667786
 20
496.874325
 30
0.0
 11
643.067787
 21
496.874325
 31
0.0
  0
LINE
  5
819
330
1F
100
AcDbEntity
  8
0
 62
     7
 48
0.2
370
    60
390
F
100
AcDbLine
 10
634.667786
 20
483.005524
 30
0.0
 11
642.667786
 21
483.005524
 31
0.0
  0
LINE
  5
81A
330
1F
100
AcDbEntity
  8
0
 62
     7
 48
0.21
370
    60
390
F
100
AcDbLine
 10
634.667786
 20
501.505524
 30
0.0
 11
643.067787
 21
501.505524
 31
0.0
  0
POINT
  5
81B
330
1F
100
AcDbEntity
  8
0
 62
     7
370
    60
390
F
100
AcDbPoint
 10
1380.899424812994
 20
458.255524
 30
0.0
  0
POINT
  5
81C
330
1F
100
AcDbEntity
  8
0
 62
     7
370
    60
390
F
100
AcDbPoint
 10
1380.899424812994
 20
492.255524
 30
0.0
  0
POINT
  5
81D
330
1F
100
AcDbEntity
  8
0
 62
     7
370
    60
390
F
100
AcDbPoint
 10
1385.899424812994
 20
492.255524
 30
0.0
  0
POINT
  5
81E
330
1F
100
AcDbEntity
  8
0
 62
     7
370
    60
390
F
100
AcDbPoint
 10
1375.899424812994
 20
492.255524
 30
0.0
  0
POINT
  5
81F
330
1F
100
AcDbEntity
  8
0
 62
     7
370
    60
390
F
100
AcDbPoint
 10
1420.899424812994
 20
658.255524
 30
0.0
  0
POINT
  5
820
330
1F
100
AcDbEntity
  8
0
 62
     7
370
    60
390
F
100
AcDbPoint
 10
1340.899424812994
 20
658.255524
 30
0.0
  0
POINT
  5
821
330
1F
100
AcDbEntity
  8
0
 62
     7
370
    60
390
F
100
AcDbPoint
 10
1380.899424812994
 20
644.407105
 30
0.0
  0
POINT
  5
BB
330
1F
100
AcDbEntity
  8
0
 62
     7
370
    60
390
F
100
AcDbPoint
 10
1380.899424812994
 20
442.255524
 30
0.0
  0
POINT
  5
BC
330
1F
100
AcDbEntity
  8
0
 62
     7
370
    60
390
F
100
AcDbPoint
 10
1380.899424812994
 20
640.755524
 30
0.0
  0
POINT
  5
BD
330
1F
100
AcDbEntity
  8
0
 62
     7
370
    60
390
F
100
AcDbPoint
 10
1415.899424812994
 20
653.255524
 30
0.0
  0
POINT
  5
BE
330
1F
100
AcDbEntity
  8
0
 62
     7
370
    60
390
F
100
AcDbPoint
 10
1345.899424812994
 20
653.255524
 30
0.0
  0
POINT
  5
BF
330
1F
100
AcDbEntity
  8
0
 62
     7
370
    60
390
F
100
AcDbPoint
 10
1398.399424812994
 20
653.255524
 30
0.0
  0
POINT
  5
C0
330
1F
100
AcDbEntity
  8
0
 62
     7
370
    60
390
F
100
AcDbPoint
 10
1363.399424812994
 20
653.255524
 30
0.0
  0
POINT
  5
C1
330
1F
100
AcDbEntity
  8
0
 62
     7
370
    60
390
F
100
AcDbPoint
 10
1400.899424812994
 20
658.255524
 30
0.0
  0
POINT
  5
C2
330
1F
100
AcDbEntity
  8
0
 62
     7
370
    60
390
F
100
AcDbPoint
 10
1360.899424812994
 20
658.255524
 30
0.0
  0
POINT
  5
C3
330
1F
100
AcDbEntity
  8
0
 62
     7
370
    60
390
F
100
AcDbPoint
 10
1395.899424812994
 20
635.255524
 30
0.0
  0
POINT
  5
C4
330
1F
100
AcDbEntity
  8
0
 62
     7
370
    60
390
F
100
AcDbPoint
 10
1380.899424812994
 20
635.255524
 30
0.0
  0
LINE
  5
C5
330
1F
100
AcDbEntity
  8
0
 62
     7
370
    60
390
F
100
AcDbLine
 10
1345.899424812994
 20
412.255524
 30
0.0
 11
1345.899424812994
 21
653.255524
 31
0.0
  0
LINE
  5
C6
330
1F
100
AcDbEntity
  8
0
 62
     7
370
    60
390
F
100
AcDbLine
 10
1415.899424812994
 20
412.255524
 30
0.0
 11
1415.899424812994
 21
653.255524
 31
0.0
  0
LINE
  5
C7
330
1F
100
AcDbEntity
  8
0
 62
     7
370
    60
390
F
100
AcDbLine
 10
1330.899424812994
 20
612.255524
 30
0.0
 11
1330.899424812994
 21
658.255524
 31
0.0
  0
LINE
  5
C8
330
1F
100
AcDbEntity
  8
0
 62
     7
370
    60
390
F
100
AcDbLine
 10
1430.899424812994
 20
612.255524
 30
0.0
 11
1430.899424812994
 21
658.255524
 31
0.0
  0
LINE
  5
C9
330
1F
100
AcDbEntity
  8
0
 62
     7
 48
0.176777
370
    60
390
F
100
AcDbLine
 10
1415.899424812994
 20
653.255524
 30
0.0
 11
1420.899424812994
 21
658.255524
 31
0.0
  0
LINE
  5
CA
330
1F
100
AcDbEntity
  8
0
 62
     7
 48
0.176777
370
    60
390
F
100
AcDbLine
 10
1340.899424812994
 20
658.255524
 30
0.0
 11
1345.899424812994
 21
653.255524
 31
0.0
  0
LINE
  5
CB
330
1F
100
AcDbEntity
  8
0
 62
     7
370
    60
390
F
100
AcDbLine
 10
1334.899424812994
 20
658.255524
 30
0.0
 11
1426.899424812994
 21
658.255524
 31
0.0
  0
LINE
  5
CC
330
1F
100
AcDbEntity
  8
0
  6
DASHDOT
 62
     7
370
    25
390
F
100
AcDbLine
 10
1380.899424812994
 20
407.8731540000001
 30
0.0
 11
1380.899424812994
 21
670.2137
 31
0.0
  0
LINE
  5
CD
330
1F
100
AcDbEntity
  8
0
  6
DASHDOT
 62
     7
370
    25
390
F
100
AcDbLine
 10
1367.030875812994
 20
442.255524
 30
0.0
 11
1393.253351812994
 21
442.255524
 31
0.0
  0
LINE
  5
CE
330
1F
100
AcDbEntity
  8
0
  6
DASHDOT
 62
     7
370
    25
390
F
100
AcDbLine
 10
1364.691781812994
 20
492.255524
 30
0.0
 11
1396.084885812994
 21
492.255524
 31
0.0
  0
LINE
  5
CF
330
1F
100
AcDbEntity
  8
0
 62
     7
370
    60
390
F
100
AcDbLine
 10
1426.899424812994
 20
612.255524
 30
0.0
 11
1426.899424812994
 21
658.255524
 31
0.0
  0
LINE
  5
D0
330
1F
100
AcDbEntity
  8
0
 62
     7
370
    60
390
F
100
AcDbLine
 10
1334.899424812994
 20
612.255524
 30
0.0
 11
1334.899424812994
 21
658.255524
 31
0.0
  0
LINE
  5
D1
330
1F
100
AcDbEntity
  8
0
 62
     7
370
    60
390
F
100
AcDbLine
 10
1334.899424812994
 20
662.255524
 30
0.0
 11
1426.899424812994
 21
662.255524
 31
0.0
  0
ARC
  5
D2
330
1F
100
AcDbEntity
  8
0
 62
     7
370
    60
390
F
100
AcDbCircle
 10
1426.899424812994
 20
658.255524
 30
0.0
 40
4.0
100
AcDbArc
 50
0.0
 51
90.00000299999999
  0
ARC
  5
D3
330
1F
100
AcDbEntity
  8
0
 62
     7
370
    60
390
F
100
AcDbCircle
 10
1334.899424812994
 20
658.255524
 30
0.0
 40
4.0
100
AcDbArc
 50
90.00000299999999
 51
180.000005
  0
LINE
  5
D4
330
1F
100
AcDbEntity
  8
0
 62
     7
 48
0.1
370
    60
390
F
100
AcDbLine
 10
1330.899424812994
 20
612.255524
 30
0.0
 11
1334.899424812994
 21
612.255524
 31
0.0
  0
LINE
  5
D5
330
1F
100
AcDbEntity
  8
0
 62
     7
 48
0.1
370
    60
390
F
100
AcDbLine
 10
1426.899424812994
 20
612.255524
 30
0.0
 11
1430.899424812994
 21
612.255524
 31
0.0
  0
LINE
  5
D6
330
1F
100
AcDbEntity
  8
0
 62
     7
370
    60
390
F
100
AcDbLine
 10
1345.899424812994
 20
412.255524
 30
0.0
 11
1415.899424812994
 21
412.255524
 31
0.0
  0
LINE
  5
D7
330
1F
100
AcDbEntity
  8
0
 62
     7
 48
0.4375
370
    60
390
F
100
AcDbLine
 10
1345.899424812994
 20
653.255524
 30
0.0
 11
1363.399424812994
 21
653.255524
 31
0.0
  0
LINE
  5
D8
330
1F
100
AcDbEntity
  8
0
 62
     7
 48
0.4375
370
    60
390
F
100
AcDbLine
 10
1398.399424812994
 20
653.255524
 30
0.0
 11
1415.899424812994
 21
653.255524
 31
0.0
  0
LINE
  5
D9
330
1F
100
AcDbEntity
  8
0
  6
DASHSPACE
 62
     7
 48
0.125
370
    25
390
F
100
AcDbLine
 10
1345.899424812994
 20
653.255524
 30
0.0
 11
1345.899424812994
 21
658.255524
 31
0.0
  0
LINE
  5
DA
330
1F
100
AcDbEntity
  8
0
  6
DASHSPACE
 62
     7
 48
0.125
370
    25
390
F
100
AcDbLine
 10
1415.899424812994
 20
653.255524
 30
0.0
 11
1415.899424812994
 21
658.255524
 31
0.0
  0
LINE
  5
DB
330
1F
100
AcDbEntity
  8
0
  6
DASHSPACE
 62
     7
370
    25
390
F
100
AcDbLine
 10
1412.899424812994
 20
412.255524
 30
0.0
 11
1412.899424812994
 21
653.255524
 31
0.0
  0
LINE
  5
DC
330
1F
100
AcDbEntity
  8
0
  6
DASHSPACE
 62
     7
370
    25
390
F
100
AcDbLine
 10
1348.899424812994
 20
412.255524
 30
0.0
 11
1348.899424812994
 21
653.255524
 31
0.0
  0
LINE
  5
DF
330
1F
100
AcDbEntity
  8
0
 62
     7
 48
0.23094
370
    60
390
F
100
AcDbLine
 10
1380.899424812994
 20
451.493129
 30
0.0
 11
1388.899424812994
 21
446.8743260000001
 31
0.0
  0
LINE
  5
E0
330
1F
100
AcDbEntity
  8
0
 62
     7
 48
0.23094
370
    60
390
F
100
AcDbLine
 10
1372.899424812994
 20
446.8743260000001
 30
0.0
 11
1380.899424812994
 21
451.493129
 31
0.0
  0
LINE
  5
E1
330
1F
100
AcDbEntity
  8
0
 62
     7
 48
0.23094
370
    60
390
F
100
AcDbLine
 10
1372.899424812994
 20
437.636721
 30
0.0
 11
1372.899424812994
 21
446.8743260000001
 31
0.0
  0
LINE
  5
E2
330
1F
100
AcDbEntity
  8
0
 62
     7
 48
0.23094
370
    60
390
F
100
AcDbLine
 10
1372.899424812994
 20
437.636721
 30
0.0
 11
1380.899424812994
 21
433.0179200000001
 31
0.0
  0
LINE
  5
E3
330
1F
100
AcDbEntity
  8
0
 62
     7
 48
0.23094
370
    60
390
F
100
AcDbLine
 10
1380.899424812994
 20
433.0179200000001
 30
0.0
 11
1388.899424812994
 21
437.636721
 31
0.0
  0
CIRCLE
  5
E4
330
1F
100
AcDbEntity
  8
0
 62
     7
370
    60
390
F
100
AcDbCircle
 10
1380.899424812994
 20
442.255524
 30
0.0
 40
4.5
  0
LINE
  5
E5
330
1F
100
AcDbEntity
  8
0
 62
     7
 48
0.23094
370
    60
390
F
100
AcDbLine
 10
1388.899424812994
 20
437.636721
 30
0.0
 11
1388.899424812994
 21
446.8743260000001
 31
0.0
  0
LINE
  5
E6
330
1F
100
AcDbEntity
  8
0
 62
     7
 48
0.23094
370
    60
390
F
100
AcDbLine
 10
1372.899424812994
 20
487.636721
 30
0.0
 11
1372.899424812994
 21
496.8743260000001
 31
0.0
  0
LINE
  5
E7
330
1F
100
AcDbEntity
  8
0
 62
     7
 48
0.23094
370
    60
390
F
100
AcDbLine
 10
1388.899424812994
 20
487.636721
 30
0.0
 11
1388.899424812994
 21
496.8743260000001
 31
0.0
  0
LINE
  5
E8
330
1F
100
AcDbEntity
  8
0
 62
     7
 48
0.23094
370
    60
390
F
100
AcDbLine
 10
1380.899424812994
 20
501.49313
 30
0.0
 11
1388.899424812994
 21
496.8743260000001
 31
0.0
  0
LINE
  5
E9
330
1F
100
AcDbEntity
  8
0
 62
     7
 48
0.23094
370
    60
390
F
100
AcDbLine
 10
1372.899424812994
 20
487.636721
 30
0.0
 11
1380.899424812994
 21
483.0179200000001
 31
0.0
  0
LINE
  5
EA
330
1F
100
AcDbEntity
  8
0
 62
     7
 48
0.23094
370
    60
390
F
100
AcDbLine
 10
1372.899424812994
 20
496.8743260000001
 30
0.0
 11
1380.899424812994
 21
501.49313
 31
0.0
  0
LINE
  5
EB
330
1F
100
AcDbEntity
  8
0
 62
     7
 48
0.23094
370
    60
390
F
100
AcDbLine
 10
1380.899424812994
 20
483.0179200000001
 30
0.0
 11
1388.899424812994
 21
487.636721
 31
0.0
  0
CIRCLE
  5
EC
330
1F
100
AcDbEntity
  8
0
 62
     7
370
    60
390
F
100
AcDbCircle
 10
1380.899424812994
 20
492.255524
 30
0.0
 40
4.5
  0
LINE
  5
ED
330
1F
100
AcDbEntity
  8
0
 62
     7
370
    60
390
F
100
AcDbLine
 10
1345.899424812994
 20
653.255524
 30
0.0
 11
1415.899424812994
 21
653.255524
 31
0.0
  0
CIRCLE
  5
EE
330
1F
100
AcDbEntity
  8
0
 62
     7
370
    60
390
F
100
AcDbCircle
 10
1380.899424812994
 20
635.255524
 30
0.0
 40
15.0
  0
POINT
  5
135
330
1F
100
AcDbEntity
  8
0
 62
     7
370
    60
390
F
100
AcDbPoint
 10
599.667786
 20
111.96245
 30
0.0
  0
POINT
  5
136
330
1F
100
AcDbEntity
  8
0
 62
     7
370
    60
390
F
100
AcDbPoint
 10
1052.167786
 20
111.96245
 30
0.0
  0
POINT
  5
137
330
1F
100
AcDbEntity
  8
0
 62
     7
370
    60
390
F
100
AcDbPoint
 10
774.667786
 20
111.96245
 30
0.0
  0
POINT
  5
138
330
1F
100
AcDbEntity
  8
0
 62
     7
370
    60
390
F
100
AcDbPoint
 10
924.667786
 20
111.96245
 30
0.0
  0
CIRCLE
  5
139
330
1F
100
AcDbEntity
  8
0
  6
DASHSPACE
 62
     7
370
    25
390
F
100
AcDbCircle
 10
599.667786
 20
111.96245
 30
0.0
 40
35.0
  0
LINE
  5
13A
330
1F
100
AcDbEntity
  8
0
  6
DASHDOT
 62
     7
370
    25
390
F
100
AcDbLine
 10
1074.667786
 20
94.391783
 30
0.0
 11
1074.667786
 21
130.351435
 31
0.0
  0
LINE
  5
13B
330
1F
100
AcDbEntity
  8
0
  6
DASHDOT
 62
     7
370
    25
390
F
100
AcDbLine
 10
774.667786
 20
90.215965
 30
0.0
 11
774.667786
 21
131.186598
 31
0.0
  0
LINE
  5
13C
330
1F
100
AcDbEntity
  8
0
  6
DASHDOT
 62
     7
370
    25
390
F
100
AcDbLine
 10
72.68689
 20
111.96245
 30
0.0
 11
1113.021179
 21
111.96245
 31
0.0
  0
ARC
  5
13D
330
1F
100
AcDbEntity
  8
0
 62
     7
370
    60
390
F
100
AcDbCircle
 10
804.667786
 20
111.96245
 30
0.0
 40
6.5
100
AcDbArc
 50
90.00000299999999
 51
270.000001
  0
LINE
  5
13E
330
1F
100
AcDbEntity
  8
0
 62
     7
 48
0.125
370
    60
390
F
100
AcDbLine
 10
804.667786
 20
105.46245
 30
0.0
 11
809.667786
 21
105.46245
 31
0.0
  0
ARC
  5
13F
330
1F
100
AcDbEntity
  8
0
 62
     7
370
    60
390
F
100
AcDbCircle
 10
809.667786
 20
111.96245
 30
0.0
 40
6.5
100
AcDbArc
 50
270.000001
 51
90.00000299999999
  0
LINE
  5
140
330
1F
100
AcDbEntity
  8
0
 62
     7
 48
0.125
370
    60
390
F
100
AcDbLine
 10
804.667786
 20
118.46245
 30
0.0
 11
809.667786
 21
118.46245
 31
0.0
  0
LINE
  5
141
330
1F
100
AcDbEntity
  8
0
  6
DASHDOT
 62
     7
 48
0.360164
370
    25
390
F
100
AcDbLine
 10
804.667786
 20
105.817616
 30
0.0
 11
804.667786
 21
120.224185
 31
0.0
  0
LINE
  5
142
330
1F
100
AcDbEntity
  8
0
  6
DASHDOT
 62
     7
 48
0.468039
370
    25
390
F
100
AcDbLine
 10
809.667786
 20
103.451321
 30
0.0
 11
809.667786
 21
122.172899
 31
0.0
  0
ARC
  5
143
330
1F
100
AcDbEntity
  8
0
 62
     7
370
    60
390
F
100
AcDbCircle
 10
864.667786
 20
111.96245
 30
0.0
 40
6.5
100
AcDbArc
 50
90.00000299999999
 51
270.000001
  0
LINE
  5
144
330
1F
100
AcDbEntity
  8
0
 62
     7
 48
0.125
370
    60
390
F
100
AcDbLine
 10
864.667786
 20
105.46245
 30
0.0
 11
869.667786
 21
105.46245
 31
0.0
  0
ARC
  5
145
330
1F
100
AcDbEntity
  8
0
 62
     7
370
    60
390
F
100
AcDbCircle
 10
869.667786
 20
111.96245
 30
0.0
 40
6.5
100
AcDbArc
 50
270.000001
 51
90.00000299999999
  0
LINE
  5
146
330
1F
100
AcDbEntity
  8
0
 62
     7
 48
0.125
370
    60
390
F
100
AcDbLine
 10
864.667786
 20
118.46245
 30
0.0
 11
869.667786
 21
118.46245
 31
0.0
  0
LINE
  5
147
330
1F
100
AcDbEntity
  8
0
  6
DASHDOT
 62
     7
370
    25
390
F
100
AcDbLine
 10
864.667786
 20
98.833199
 30
0.0
 11
864.667786
 21
126.340919
 31
0.0
  0
LINE
  5
148
330
1F
100
AcDbEntity
  8
0
  6
DASHDOT
 62
     7
370
    25
390
F
100
AcDbLine
 10
869.667786
 20
99.979354
 30
0.0
 11
869.667786
 21
131.744221
 31
0.0
  0
ARC
  5
149
330
1F
100
AcDbEntity
  8
0
 62
     7
370
    60
390
F
100
AcDbCircle
 10
979.667786
 20
111.96245
 30
0.0
 40
6.5
100
AcDbArc
 50
90.00000299999999
 51
270.000001
  0
LINE
  5
14A
330
1F
100
AcDbEntity
  8
0
 62
     7
 48
0.125
370
    60
390
F
100
AcDbLine
 10
979.667786
 20
105.46245
 30
0.0
 11
984.667786
 21
105.46245
 31
0.0
  0
ARC
  5
14B
330
1F
100
AcDbEntity
  8
0
 62
     7
370
    60
390
F
100
AcDbCircle
 10
984.667786
 20
111.96245
 30
0.0
 40
6.5
100
AcDbArc
 50
270.000001
 51
90.00000299999999
  0
LINE
  5
14C
330
1F
100
AcDbEntity
  8
0
 62
     7
 48
0.125
370
    60
390
F
100
AcDbLine
 10
979.667786
 20
118.46245
 30
0.0
 11
984.667786
 21
118.46245
 31
0.0
  0
LINE
  5
14D
330
1F
100
AcDbEntity
  8
0
  6
DASHDOT
 62
     7
370
    25
390
F
100
AcDbLine
 10
979.667786
 20
97.687043
 30
0.0
 11
979.667786
 21
122.738718
 31
0.0
  0
LINE
  5
14E
330
1F
100
AcDbEntity
  8
0
  6
DASHDOT
 62
     7
370
    25
390
F
100
AcDbLine
 10
984.667786
 20
98.34199
 30
0.0
 11
984.667786
 21
124.867291
 31
0.0
  0
ARC
  5
14F
330
1F
100
AcDbEntity
  8
0
 62
     7
370
    60
390
F
100
AcDbCircle
 10
1039.667786
 20
111.96245
 30
0.0
 40
6.5
100
AcDbArc
 50
90.00000299999999
 51
270.000001
  0
LINE
  5
150
330
1F
100
AcDbEntity
  8
0
  6
DASHDOT
 62
     7
370
    25
390
F
100
AcDbLine
 10
1039.667786
 20
99.13631
 30
0.0
 11
1039.667786
 21
121.755318
 31
0.0
  0
LINE
  5
151
330
1F
100
AcDbEntity
  8
0
  6
DASHDOT
 62
     7
370
    25
390
F
100
AcDbLine
 10
1044.667786
 20
99.13631
 30
0.0
 11
1044.667786
 21
121.755318
 31
0.0
  0
LINE
  5
152
330
1F
100
AcDbEntity
  8
0
 62
     7
 48
0.125
370
    60
390
F
100
AcDbLine
 10
1039.667786
 20
105.46245
 30
0.0
 11
1044.667786
 21
105.46245
 31
0.0
  0
ARC
  5
153
330
1F
100
AcDbEntity
  8
0
 62
     7
370
    60
390
F
100
AcDbCircle
 10
1044.667786
 20
111.96245
 30
0.0
 40
6.5
100
AcDbArc
 50
270.000001
 51
90.00000299999999
  0
LINE
  5
154
330
1F
100
AcDbEntity
  8
0
 62
     7
 48
0.125
370
    60
390
F
100
AcDbLine
 10
1039.667786
 20
118.46245
 30
0.0
 11
1044.667786
 21
118.46245
 31
0.0
  0
CIRCLE
  5
155
330
1F
100
AcDbEntity
  8
0
 62
     7
370
    60
390
F
100
AcDbCircle
 10
1074.667786
 20
111.96245
 30
0.0
 40
6.5
  0
CIRCLE
  5
156
330
1F
100
AcDbEntity
  8
0
 62
     7
370
    60
390
F
100
AcDbCircle
 10
774.667786
 20
111.96245
 30
0.0
 40
6.5
  0
LINE
  5
157
330
1F
100
AcDbEntity
  8
0
  6
DASHDOT
 62
     7
370
    25
390
F
100
AcDbLine
 10
599.667786
 20
51.169378
 30
0.0
 11
599.667786
 21
174.081331
 31
0.0
  0
LINE
  5
158
330
1F
100
AcDbEntity
  8
0
 62
     7
370
    60
390
F
100
AcDbLine
 10
49.667786
 20
161.96245
 30
0.0
 11
1149.667786
 21
161.96245
 31
0.0
  0
LINE
  5
159
330
1F
100
AcDbEntity
  8
0
 62
     7
370
    60
390
F
100
AcDbLine
 10
49.667786
 20
61.96245
 30
0.0
 11
1149.667786
 21
61.96245
 31
0.0
  0
LINE
  5
15A
330
1F
100
AcDbEntity
  8
0
 62
     7
370
    60
390
F
100
AcDbLine
 10
1149.667786
 20
61.96245
 30
0.0
 11
1149.667786
 21
161.96245
 31
0.0
  0
LINE
  5
15B
330
1F
100
AcDbEntity
  8
0
 62
     7
370
    60
390
F
100
AcDbLine
 10
49.667786
 20
61.96245
 30
0.0
 11
49.667786
 21
161.96245
 31
0.0
  0
CIRCLE
  5
15C
330
1F
100
AcDbEntity
  8
0
 62
     7
370
    60
390
F
100
AcDbCircle
 10
124.667786
 20
111.96245
 30
0.0
 40
6.5
  0
LINE
  5
15D
330
1F
100
AcDbEntity
  8
0
  6
DASHDOT
 62
     7
370
    25
390
F
100
AcDbLine
 10
124.667786
 20
90.215965
 30
0.0
 11
124.667786
 21
131.186598
 31
0.0
  0
ARC
  5
15E
330
1F
100
AcDbEntity
  8
0
 62
     7
370
    60
390
F
100
AcDbCircle
 10
154.667786
 20
111.96245
 30
0.0
 40
6.5
100
AcDbArc
 50
90.00000299999999
 51
270.000001
  0
LINE
  5
15F
330
1F
100
AcDbEntity
  8
0
 62
     7
 48
0.125
370
    60
390
F
100
AcDbLine
 10
154.667786
 20
105.46245
 30
0.0
 11
159.667786
 21
105.46245
 31
0.0
  0
ARC
  5
160
330
1F
100
AcDbEntity
  8
0
 62
     7
370
    60
390
F
100
AcDbCircle
 10
159.667786
 20
111.96245
 30
0.0
 40
6.5
100
AcDbArc
 50
270.000001
 51
90.00000299999999
  0
LINE
  5
161
330
1F
100
AcDbEntity
  8
0
 62
     7
 48
0.125
370
    60
390
F
100
AcDbLine
 10
154.667786
 20
118.46245
 30
0.0
 11
159.667786
 21
118.46245
 31
0.0
  0
LINE
  5
162
330
1F
100
AcDbEntity
  8
0
  6
DASHDOT
 62
     7
 48
0.468039
370
    25
390
F
100
AcDbLine
 10
159.667786
 20
103.451321
 30
0.0
 11
159.667786
 21
122.172899
 31
0.0
  0
LINE
  5
163
330
1F
100
AcDbEntity
  8
0
  6
DASHDOT
 62
     7
 48
0.360164
370
    25
390
F
100
AcDbLine
 10
154.667786
 20
105.817616
 30
0.0
 11
154.667786
 21
120.224185
 31
0.0
  0
ARC
  5
164
330
1F
100
AcDbEntity
  8
0
 62
     7
370
    60
390
F
100
AcDbCircle
 10
214.667786
 20
111.96245
 30
0.0
 40
6.5
100
AcDbArc
 50
90.00000299999999
 51
270.000001
  0
LINE
  5
165
330
1F
100
AcDbEntity
  8
0
 62
     7
 48
0.125
370
    60
390
F
100
AcDbLine
 10
214.667786
 20
105.46245
 30
0.0
 11
219.667786
 21
105.46245
 31
0.0
  0
ARC
  5
166
330
1F
100
AcDbEntity
  8
0
 62
     7
370
    60
390
F
100
AcDbCircle
 10
219.667786
 20
111.96245
 30
0.0
 40
6.5
100
AcDbArc
 50
270.000001
 51
90.00000299999999
  0
LINE
  5
167
330
1F
100
AcDbEntity
  8
0
 62
     7
 48
0.125
370
    60
390
F
100
AcDbLine
 10
214.667786
 20
118.46245
 30
0.0
 11
219.667786
 21
118.46245
 31
0.0
  0
LINE
  5
168
330
1F
100
AcDbEntity
  8
0
  6
DASHDOT
 62
     7
370
    25
390
F
100
AcDbLine
 10
219.667786
 20
99.979354
 30
0.0
 11
219.667786
 21
131.744221
 31
0.0
  0
LINE
  5
169
330
1F
100
AcDbEntity
  8
0
  6
DASHDOT
 62
     7
370
    25
390
F
100
AcDbLine
 10
214.667786
 20
98.833199
 30
0.0
 11
214.667786
 21
126.340919
 31
0.0
  0
ARC
  5
16A
330
1F
100
AcDbEntity
  8
0
 62
     7
370
    60
390
F
100
AcDbCircle
 10
329.667786
 20
111.96245
 30
0.0
 40
6.5
100
AcDbArc
 50
90.00000299999999
 51
270.000001
  0
LINE
  5
16B
330
1F
100
AcDbEntity
  8
0
 62
     7
 48
0.125
370
    60
390
F
100
AcDbLine
 10
329.667786
 20
118.46245
 30
0.0
 11
334.667786
 21
118.46245
 31
0.0
  0
ARC
  5
16C
330
1F
100
AcDbEntity
  8
0
 62
     7
370
    60
390
F
100
AcDbCircle
 10
334.667786
 20
111.96245
 30
0.0
 40
6.5
100
AcDbArc
 50
270.000001
 51
90.00000299999999
  0
LINE
  5
16D
330
1F
100
AcDbEntity
  8
0
 62
     7
 48
0.125
370
    60
390
F
100
AcDbLine
 10
329.667786
 20
105.46245
 30
0.0
 11
334.667786
 21
105.46245
 31
0.0
  0
LINE
  5
16E
330
1F
100
AcDbEntity
  8
0
  6
DASHDOT
 62
     7
370
    25
390
F
100
AcDbLine
 10
329.667786
 20
97.687043
 30
0.0
 11
329.667786
 21
122.738718
 31
0.0
  0
LINE
  5
16F
330
1F
100
AcDbEntity
  8
0
  6
DASHDOT
 62
     7
370
    25
390
F
100
AcDbLine
 10
334.667786
 20
98.34199
 30
0.0
 11
334.667786
 21
124.867291
 31
0.0
  0
LINE
  5
171
330
1F
100
AcDbEntity
  8
0
  6
DASHDOT
 62
     7
370
    25
390
F
100
AcDbLine
 10
389.667786
 20
99.13631
 30
0.0
 11
389.667786
 21
121.755318
 31
0.0
  0
LINE
  5
172
330
1F
100
AcDbEntity
  8
0
  6
DASHDOT
 62
     7
370
    25
390
F
100
AcDbLine
 10
394.667786
 20
99.13631
 30
0.0
 11
394.667786
 21
121.755318
 31
0.0
  0
LINE
  5
173
330
1F
100
AcDbEntity
  8
0
 62
     7
 48
0.125
370
    60
390
F
100
AcDbLine
 10
389.667786
 20
105.46245
 30
0.0
 11
394.667786
 21
105.46245
 31
0.0
  0
ARC
  5
175
330
1F
100
AcDbEntity
  8
0
 62
     7
370
    60
390
F
100
AcDbCircle
 10
394.667786
 20
111.96245
 30
0.0
 40
6.5
100
AcDbArc
 50
270.000001
 51
90.00000299999999
  0
LINE
  5
176
330
1F
100
AcDbEntity
  8
0
 62
     7
 48
0.125
370
    60
390
F
100
AcDbLine
 10
389.667786
 20
118.46245
 30
0.0
 11
394.667786
 21
118.46245
 31
0.0
  0
ARC
  5
177
330
1F
100
AcDbEntity
  8
0
 62
     7
370
    60
390
F
100
AcDbCircle
 10
389.667786
 20
111.96245
 30
0.0
 40
6.5
100
AcDbArc
 50
90.00000299999999
 51
270.000001
  0
CIRCLE
  5
178
330
1F
100
AcDbEntity
  8
0
 62
     7
370
    60
390
F
100
AcDbCircle
 10
424.667786
 20
111.96245
 30
0.0
 40
6.5
  0
LINE
  5
179
330
1F
100
AcDbEntity
  8
0
  6
DASHDOT
 62
     7
370
    25
390
F
100
AcDbLine
 10
424.667786
 20
94.391783
 30
0.0
 11
424.667786
 21
130.351435
 31
0.0
  0
LINE
  5
17A
330
1F
100
AcDbEntity
  8
0
  6
DASHDOT
 62
     7
370
    25
390
F
100
AcDbLine
 10
599.667786
 20
126.96245
 30
0.0
 11
599.667786
 21
146.96245
 31
0.0
  0
LINE
  5
17B
330
1F
100
AcDbEntity
  8
0
  6
DASHDOT
 62
     7
370
    60
390
F
100
AcDbLine
 10
599.667786
 20
76.96245
 30
0.0
 11
599.667786
 21
96.96245
 31
0.0
  0
LINE
  5
5B0
330
1F
100
AcDbEntity
  8
0
 62
     7
 48
0.209653
370
    60
390
F
100
AcDbLine
 10
631.667786
 20
412.255524
 30
0.0
 11
631.667786
 21
403.869415
 31
0.0
  0
DIMENSION
  5
68F
330
1F
100
AcDbEntity
  8
0
370
    25
100
AcDbDimension
  2
*D75
 10
1199.596302549755
 20
61.96244999999999
 30
0.0
 11
1188.290790738732
 21
111.96245
 31
0.0
 70
    32
 71
     5
 41
2.5
 42
100.0
  3
Standard
100
AcDbAlignedDimension
 13
1049.698814337626
 23
161.96245
 33
0.0
 14
1049.698814337626
 24
61.96245
 34
0.0
 50
90.0
100
AcDbRotatedDimension
1001
ACAD
1000
DSTYLE
1002
{
1070
    41
1040
10.0
1070
   140
1040
14.0
1070
   147
1040
5.0
1070
   176
1070
     7
1070
   177
1070
     7
1070
   340
1005
11
1002
}
  0
DIMENSION
  5
6B2
330
1F
100
AcDbEntity
  8
0
370
    25
100
AcDbDimension
  2
*D67
 10
1149.667786
 20
691.2738153686848
 30
0.0
 11
599.667786
 21
702.5793271797085
 31
0.0
 70
    32
 71
     5
 41
2.5
 42
1100.0
  3
Standard
100
AcDbAlignedDimension
 13
49.667786
 23
642.255524
 33
0.0
 14
1149.667786
 24
642.255524
 34
0.0
100
AcDbRotatedDimension
1001
ACAD
1000
DSTYLE
1002
{
1070
    41
1040
10.0
1070
   140
1040
14.0
1070
   147
1040
5.0
1070
   176
1070
     7
1070
   177
1070
     7
1070
   340
1005
11
1002
}
  0
DIMENSION
  5
6D4
330
1F
100
AcDbEntity
  8
0
370
    25
100
AcDbDimension
  2
*D74
 10
634.667786
 20
381.5951128596797
 30
0.0
 11
599.667786
 21
392.9006246707033
 31
0.0
 70
   160
  1
Ø70
 71
     5
 41
2.5
 42
70.0
  3
Standard
100
AcDbAlignedDimension
 13
564.667786
 23
418.1430439125629
 33
0.0
 14
634.667786
 24
418.1430439125629
 34
0.0
100
AcDbRotatedDimension
1001
ACAD
1000
DSTYLE
1002
{
1070
    41
1040
10.0
1070
   140
1040
14.0
1070
   147
1040
5.0
1070
   176
1070
     7
1070
   177
1070
     7
1070
   340
1005
11
1002
}
  0
DIMENSION
  5
72E
330
1F
100
AcDbEntity
  8
0
370
    25
100
AcDbDimension
  2
*D78
 10
1465.902952716661
 20
412.255524
 30
0.0
 11
1454.597440905637
 21
537.255524
 31
0.0
 70
    32
 71
     5
 41
2.5
 42
250.0
  3
Standard
100
AcDbAlignedDimension
 13
1392.135721557073
 23
662.255524
 33
0.0
 14
1392.135721557073
 24
412.255524
 34
0.0
 50
90.0
100
AcDbRotatedDimension
1001
ACAD
1000
DSTYLE
1002
{
1070
    41
1040
10.0
1070
   140
1040
14.0
1070
   147
1040
5.0
1070
   176
1070
     7
1070
   177
1070
     7
1070
   340
1005
11
1002
}
  0
VIEWPORT
  5
17C
330
73
100
AcDbEntity
 67
     1
  8
0
 62
     0
370
     0
390
F
100
AcDbViewport
 10
0.0
 20
0.0
 30
0.0
 40
1000.0
 41
1000.0
 68
     1
 69
     1
 12
0.0
 22
0.0
 13
0.0
 23
0.0
 14
1.0
 24
1.0
 15
1.0
 25
1.0
 16
0.0
 26
0.0
 36
1.0
 17
0.0
 27
0.0
 37
0.0
 42
50.0
 43
0.0
 44
0.0
 45
1000.0
 50
0.0
 51
0.0
 72
   100
 90
   557056
  1

281
     0
 71
     0
 74
     0
110
0.0
120
0.0
130
0.0
111
1.0
121
0.0
131
0.0
112
0.0
122
1.0
132
0.0
 79
     0
146
0.0
  0
ENDSEC
  0
SECTION
  2
OBJECTS
  0
DICTIONARY
  5
C
330
0
100
AcDbDictionary
281
     1
  3
ACAD_COLOR
350
6C
  3
ACAD_GROUP
350
D
  3
ACAD_LAYOUT
350
1A
  3
ACAD_MATERIAL
350
6B
  3
ACAD_MLEADERSTYLE
350
822
  3
ACAD_MLINESTYLE
350
17
  3
ACAD_PLOTSETTINGS
350
19
  3
ACAD_PLOTSTYLENAME
350
E
  3
ACAD_SCALELIST
350
99
  3
ACAD_TABLESTYLE
350
92
  3
ACAD_WIPEOUT_VARS
350
759
  3
ACDBHEADERROUNDTRIPXREC
350
823
  3
AcDbVariableDictionary
350
59
  3
DWGPROPS
350
826
  0
DICTIONARY
  5
6C
102
{ACAD_REACTORS
330
C
102
}
330
C
100
AcDbDictionary
281
     1
  0
DICTIONARY
  5
D
102
{ACAD_REACTORS
330
C
102
}
330
C
100
AcDbDictionary
281
     1
  0
DICTIONARY
  5
1A
102
{ACAD_REACTORS
330
C
102
}
330
C
100
AcDbDictionary
281
     1
  3
Layout1
350
74
  3
Model
350
22
  0
DICTIONARY
  5
6B
102
{ACAD_REACTORS
330
C
102
}
330
C
100
AcDbDictionary
281
     1
  0
DICTIONARY
  5
822
102
{ACAD_REACTORS
330
C
102
}
330
C
100
AcDbDictionary
281
     1
  0
DICTIONARY
  5
17
102
{ACAD_REACTORS
330
C
102
}
330
C
100
AcDbDictionary
281
     1
  3
Standard
350
18
  0
DICTIONARY
  5
19
102
{ACAD_REACTORS
330
C
102
}
330
C
100
AcDbDictionary
281
     1
  0
ACDBDICTIONARYWDFLT
  5
E
102
{ACAD_REACTORS
330
C
102
}
330
C
100
AcDbDictionary
281
     1
  3
Normal
350
F
100
AcDbDictionaryWithDefault
340
F
  0
DICTIONARY
  5
99
102
{ACAD_REACTORS
330
C
102
}
330
C
100
AcDbDictionary
281
     1
  3
A0
350
515
  3
A1
350
516
  3
A2
350
517
  3
A3
350
518
  3
A4
350
519
  3
A5
350
51A
  3
A6
350
51B
  3
A7
350
51C
  3
A8
350
51D
  3
A9
350
51E
  3
B0
350
51F
  3
B1
350
520
  3
B2
350
521
  3
B3
350
522
  3
B4
350
523
  3
B5
350
524
  3
B6
350
525
  3
B7
350
526
  3
B8
350
527
  3
B9
350
528
  3
C0
350
529
  3
C1
350
52A
  3
C2
350
52B
  3
C3
350
52C
  3
C4
350
52D
  3
C5
350
52E
  3
C6
350
52F
  3
C7
350
530
  3
C8
350
531
  3
C9
350
532
  3
D0
350
533
  3
D1
350
534
  3
D2
350
535
  0
DICTIONARY
  5
92
102
{ACAD_REACTORS
330
C
102
}
330
C
100
AcDbDictionary
281
     1
  0
WIPEOUTVARIABLES
  5
759
102
{ACAD_REACTORS
330
C
102
}
330
C
100
AcDbWipeoutVariables
 70
     1
  0
DICTIONARY
  5
823
102
{ACAD_REACTORS
330
C
102
}
330
C
100
AcDbDictionary
281
     1
  3
COLORDICT
350
824
  3
MATERIALDICT
350
825
  0
DICTIONARY
  5
59
102
{ACAD_REACTORS
330
C
102
}
330
C
100
AcDbDictionary
281
     1
  3
CTABLESTYLE
350
98
  3
DIMASSOC
350
5A
  3
HIDETEXT
350
5E
  0
XRECORD
  5
826
102
{ACAD_REACTORS
330
C
102
}
330
C
100
AcDbXrecord
280
     1
  1
DWGPROPS COOKIE
  2

  3

  4

  6

  7

  8
BelottiMc
  9

300
=
301
=
302
=
303
=
304
=
305
=
306
=
307
=
308
=
309
=
 40
0.0
 41
2447893.0
 42
2447893.0
  1

 90
        0
  0
LAYOUT
  5
74
330
1A
100
AcDbPlotSettings
  1

  2
none_device
  4
none_user_media
  6

 40
0.0
 41
0.0
 42
0.0
 43
0.0
 44
0.0
 45
0.0
 46
0.0
 47
0.0
 48
0.0
 49
0.0
140
0.0
141
0.0
142
1.0
143
1.0
 70
   544
 72
     0
 73
     0
 74
     0
  7

 75
    16
147
1.0
148
0.0
149
0.0
100
AcDbLayout
  1
Layout1
 70
     1
 71
     0
 10
0.0
 20
0.0
 11
420.0
 21
297.0
 12
0.0
 22
0.0
 32
0.0
 14
0.0
 24
0.0
 34
0.0
 15
562.349609
 25
434.477661
 35
2.0
146
0.0
 13
0.0
 23
0.0
 33
0.0
 16
1.0
 26
0.0
 36
0.0
 17
0.0
 27
1.0
 37
0.0
 76
     0
330
73
331
17C
  0
LAYOUT
  5
22
330
1A
100
AcDbPlotSettings
  1

  2
none_device
  4
none_user_media
  6

 40
6.349999904632568
 41
6.349999904632568
 42
6.350006103515625
 43
6.350006103515625
 44
215.8999938964844
 45
279.3999938964844
 46
0.0
 47
0.0
 48
0.0
 49
0.0
140
0.0
141
0.0
142
1.0
143
1.0
 70
 11936
 72
     0
 73
     0
 74
     0
  7

 75
     0
147
0.2301375331575168
148
0.0
149
0.0
100
AcDbLayout
  1
Model
 70
     1
 71
     0
 10
0.0
 20
0.0
 11
420.0
 21
297.0
 12
0.0
 22
0.0
 32
0.0
 14
15.687012
 24
-47.7091026856085
 34
0.0
 15
1567.181074583212
 25
757.8070368110236
 35
0.0
146
0.0
 13
0.0
 23
0.0
 33
0.0
 16
1.0
 26
0.0
 36
0.0
 17
0.0
 27
1.0
 37
0.0
 76
     0
330
1F
331
97
  0
MLINESTYLE
  5
18
102
{ACAD_REACTORS
330
17
102
}
330
17
100
AcDbMlineStyle
  2
Standard
 70
     0
  3

 62
     0
 51
90.0
 52
90.0
 71
     2
 49
0.5
 62
   256
  6
BYLAYER
 49
-0.5
 62
   256
  6
BYLAYER
  0
ACDBPLACEHOLDER
  5
F
102
{ACAD_REACTORS
330
E
102
}
330
E
  0
SCALE
  5
515
102
{ACAD_REACTORS
330
99
102
}
330
99
100
AcDbScale
 70
     0
300
1:1
140
1.0
141
1.0
290
     1
  0
SCALE
  5
516
102
{ACAD_REACTORS
330
99
102
}
330
99
100
AcDbScale
 70
     0
300
1:2
140
1.0
141
2.0
290
     0
  0
SCALE
  5
517
102
{ACAD_REACTORS
330
99
102
}
330
99
100
AcDbScale
 70
     0
300
1:4
140
1.0
141
4.0
290
     0
  0
SCALE
  5
518
102
{ACAD_REACTORS
330
99
102
}
330
99
100
AcDbScale
 70
     0
300
1:5
140
1.0
141
5.0
290
     0
  0
SCALE
  5
519
102
{ACAD_REACTORS
330
99
102
}
330
99
100
AcDbScale
 70
     0
300
1:8
140
1.0
141
8.0
290
     0
  0
SCALE
  5
51A
102
{ACAD_REACTORS
330
99
102
}
330
99
100
AcDbScale
 70
     0
300
1:10
140
1.0
141
10.0
290
     0
  0
SCALE
  5
51B
102
{ACAD_REACTORS
330
99
102
}
330
99
100
AcDbScale
 70
     0
300
1:16
140
1.0
141
16.0
290
     0
  0
SCALE
  5
51C
102
{ACAD_REACTORS
330
99
102
}
330
99
100
AcDbScale
 70
     0
300
1:20
140
1.0
141
20.0
290
     0
  0
SCALE
  5
51D
102
{ACAD_REACTORS
330
99
102
}
330
99
100
AcDbScale
 70
     0
300
1:30
140
1.0
141
30.0
290
     0
  0
SCALE
  5
51E
102
{ACAD_REACTORS
330
99
102
}
330
99
100
AcDbScale
 70
     0
300
1:40
140
1.0
141
40.0
290
     0
  0
SCALE
  5
51F
102
{ACAD_REACTORS
330
99
102
}
330
99
100
AcDbScale
 70
     0
300
1:50
140
1.0
141
50.0
290
     0
  0
SCALE
  5
520
102
{ACAD_REACTORS
330
99
102
}
330
99
100
AcDbScale
 70
     0
300
1:100
140
1.0
141
100.0
290
     0
  0
SCALE
  5
521
102
{ACAD_REACTORS
330
99
102
}
330
99
100
AcDbScale
 70
     0
300
2:1
140
2.0
141
1.0
290
     0
  0
SCALE
  5
522
102
{ACAD_REACTORS
330
99
102
}
330
99
100
AcDbScale
 70
     0
300
4:1
140
4.0
141
1.0
290
     0
  0
SCALE
  5
523
102
{ACAD_REACTORS
330
99
102
}
330
99
100
AcDbScale
 70
     0
300
8:1
140
8.0
141
1.0
290
     0
  0
SCALE
  5
524
102
{ACAD_REACTORS
330
99
102
}
330
99
100
AcDbScale
 70
     0
300
10:1
140
10.0
141
1.0
290
     0
  0
SCALE
  5
525
102
{ACAD_REACTORS
330
99
102
}
330
99
100
AcDbScale
 70
     0
300
100:1
140
100.0
141
1.0
290
     0
  0
SCALE
  5
526
102
{ACAD_REACTORS
330
99
102
}
330
99
100
AcDbScale
 70
     0
300
1/128" = 1'-0"
140
0.0078125
141
12.0
290
     0
  0
SCALE
  5
527
102
{ACAD_REACTORS
330
99
102
}
330
99
100
AcDbScale
 70
     0
300
1/64" = 1'-0"
140
0.015625
141
12.0
290
     0
  0
SCALE
  5
528
102
{ACAD_REACTORS
330
99
102
}
330
99
100
AcDbScale
 70
     0
300
1/32" = 1'-0"
140
0.03125
141
12.0
290
     0
  0
SCALE
  5
529
102
{ACAD_REACTORS
330
99
102
}
330
99
100
AcDbScale
 70
     0
300
1/16" = 1'-0"
140
0.0625
141
12.0
290
     0
  0
SCALE
  5
52A
102
{ACAD_REACTORS
330
99
102
}
330
99
100
AcDbScale
 70
     0
300
3/32" = 1'-0"
140
0.09375
141
12.0
290
     0
  0
SCALE
  5
52B
102
{ACAD_REACTORS
330
99
102
}
330
99
100
AcDbScale
 70
     0
300
1/8" = 1'-0"
140
0.125
141
12.0
290
     0
  0
SCALE
  5
52C
102
{ACAD_REACTORS
330
99
102
}
330
99
100
AcDbScale
 70
     0
300
3/16" = 1'-0"
140
0.1875
141
12.0
290
     0
  0
SCALE
  5
52D
102
{ACAD_REACTORS
330
99
102
}
330
99
100
AcDbScale
 70
     0
300
1/4" = 1'-0"
140
0.25
141
12.0
290
     0
  0
SCALE
  5
52E
102
{ACAD_REACTORS
330
99
102
}
330
99
100
AcDbScale
 70
     0
300
3/8" = 1'-0"
140
0.375
141
12.0
290
     0
  0
SCALE
  5
52F
102
{ACAD_REACTORS
330
99
102
}
330
99
100
AcDbScale
 70
     0
300
1/2" = 1'-0"
140
0.5
141
12.0
290
     0
  0
SCALE
  5
530
102
{ACAD_REACTORS
330
99
102
}
330
99
100
AcDbScale
 70
     0
300
3/4" = 1'-0"
140
0.75
141
12.0
290
     0
  0
SCALE
  5
531
102
{ACAD_REACTORS
330
99
102
}
330
99
100
AcDbScale
 70
     0
300
1" = 1'-0"
140
1.0
141
12.0
290
     0
  0
SCALE
  5
532
102
{ACAD_REACTORS
330
99
102
}
330
99
100
AcDbScale
 70
     0
300
1-1/2" = 1'-0"
140
1.5
141
12.0
290
     0
  0
SCALE
  5
533
102
{ACAD_REACTORS
330
99
102
}
330
99
100
AcDbScale
 70
     0
300
3" = 1'-0"
140
3.0
141
12.0
290
     0
  0
SCALE
  5
534
102
{ACAD_REACTORS
330
99
102
}
330
99
100
AcDbScale
 70
     0
300
6" = 1'-0"
140
6.0
141
12.0
290
     0
  0
SCALE
  5
535
102
{ACAD_REACTORS
330
99
102
}
330
99
100
AcDbScale
 70
     0
300
1'-0" = 1'-0"
140
12.0
141
12.0
290
     0
  0
XRECORD
  5
824
102
{ACAD_REACTORS
330
823
102
}
330
823
100
AcDbXrecord
280
     1
340
6C
  0
XRECORD
  5
825
102
{ACAD_REACTORS
330
823
102
}
330
823
100
AcDbXrecord
280
     1
340
6B
  0
DICTIONARYVAR
  5
98
102
{ACAD_REACTORS
330
59
102
}
330
59
100
DictionaryVariables
280
     0
  1
Standard
  0
DICTIONARYVAR
  5
5A
102
{ACAD_REACTORS
330
59
102
}
330
59
100
DictionaryVariables
280
     0
  1
2
  0
DICTIONARYVAR
  5
5E
102
{ACAD_REACTORS
330
59
102
}
330
59
100
DictionaryVariables
280
     0
  1
1
  0
ENDSEC
  0
EOF
