  0
SECTION
  2
HEADER
  9
$ACADVER
  1
AC1015
  9
$ACADMAINTVER
 70
     6
  9
$DWGCODEPAGE
  3
ANSI_1252
  9
$INSBASE
 10
0.0
 20
0.0
 30
0.0
  9
$EXTMIN
 10
92.414063
 20
36.871218
 30
0.0
  9
$EXTMAX
 10
769.1434915102109
 20
521.8385416169319
 30
0.0
  9
$LIMMIN
 10
0.0
 20
0.0
  9
$LIMMAX
 10
420.0
 20
297.0
  9
$ORTHOMODE
 70
     0
  9
$REGENMODE
 70
     1
  9
$FILLMODE
 70
     1
  9
$QTEXTMODE
 70
     0
  9
$MIRRTEXT
 70
     1
  9
$LTSCALE
 40
1.0
  9
$ATTMODE
 70
     1
  9
$TEXTSIZE
 40
2.5
  9
$TRACEWID
 40
1.0
  9
$TEXTSTYLE
  7
Standard
  9
$CLAYER
  8
0
  9
$CELTYPE
  6
ByLayer
  9
$CECOLOR
 62
   256
  9
$CELTSCALE
 40
1.0
  9
$DISPSILH
 70
     0
  9
$DIMSCALE
 40
1.0
  9
$DIMASZ
 40
2.5
  9
$DIMEXO
 40
0.625
  9
$DIMDLI
 40
3.75
  9
$DIMRND
 40
0.0
  9
$DIMDLE
 40
0.0
  9
$DIMEXE
 40
1.25
  9
$DIMTP
 40
0.0
  9
$DIMTM
 40
0.0
  9
$DIMTXT
 40
2.5
  9
$DIMCEN
 40
2.5
  9
$DIMTSZ
 40
0.0
  9
$DIMTOL
 70
     0
  9
$DIMLIM
 70
     0
  9
$DIMTIH
 70
     0
  9
$DIMTOH
 70
     0
  9
$DIMSE1
 70
     0
  9
$DIMSE2
 70
     0
  9
$DIMTAD
 70
     1
  9
$DIMZIN
 70
     8
  9
$DIMBLK
  1

  9
$DIMASO
 70
     1
  9
$DIMSHO
 70
     1
  9
$DIMPOST
  1

  9
$DIMAPOST
  1

  9
$DIMALT
 70
     0
  9
$DIMALTD
 70
     3
  9
$DIMALTF
 40
0.03937
  9
$DIMLFAC
 40
1.0
  9
$DIMTOFL
 70
     1
  9
$DIMTVP
 40
0.0
  9
$DIMTIX
 70
     0
  9
$DIMSOXD
 70
     0
  9
$DIMSAH
 70
     0
  9
$DIMBLK1
  1

  9
$DIMBLK2
  1

  9
$DIMSTYLE
  2
Standard
  9
$DIMCLRD
 70
     0
  9
$DIMCLRE
 70
     0
  9
$DIMCLRT
 70
     0
  9
$DIMTFAC
 40
1.0
  9
$DIMGAP
 40
0.625
  9
$DIMJUST
 70
     0
  9
$DIMSD1
 70
     0
  9
$DIMSD2
 70
     0
  9
$DIMTOLJ
 70
     0
  9
$DIMTZIN
 70
     8
  9
$DIMALTZ
 70
     0
  9
$DIMALTTZ
 70
     0
  9
$DIMUPT
 70
     0
  9
$DIMDEC
 70
     2
  9
$DIMTDEC
 70
     2
  9
$DIMALTU
 70
     2
  9
$DIMALTTD
 70
     3
  9
$DIMTXSTY
  7
Standard
  9
$DIMAUNIT
 70
     0
  9
$DIMADEC
 70
     0
  9
$DIMALTRND
 40
0.0
  9
$DIMAZIN
 70
     0
  9
$DIMDSEP
 70
    44
  9
$DIMATFIT
 70
     0
  9
$DIMFRAC
 70
     0
  9
$DIMLDRBLK
  1

  9
$DIMLUNIT
 70
     2
  9
$DIMLWD
 70
    -2
  9
$DIMLWE
 70
    -2
  9
$DIMTMOVE
 70
     0
  9
$LUNITS
 70
     2
  9
$LUPREC
 70
     4
  9
$SKETCHINC
 40
1.0
  9
$FILLETRAD
 40
2.5
  9
$AUNITS
 70
     0
  9
$AUPREC
 70
     0
  9
$MENU
  1
.
  9
$ELEVATION
 40
0.0
  9
$PELEVATION
 40
0.0
  9
$THICKNESS
 40
0.0
  9
$LIMCHECK
 70
     0
  9
$CHAMFERA
 40
2.5
  9
$CHAMFERB
 40
2.5
  9
$CHAMFERC
 40
0.0
  9
$CHAMFERD
 40
0.0
  9
$SKPOLY
 70
     0
  9
$TDCREATE
 40
2447893.083333333
  9
$TDUCREATE
 40
2447893.0
  9
$TDUPDATE
 40
2447893.083333333
  9
$TDUUPDATE
 40
2447893.0
  9
$TDINDWG
 40
0.00942125
  9
$TDUSRTIMER
 40
0.00942125
  9
$USRTIMER
 70
     1
  9
$ANGBASE
 50
0.0
  9
$ANGDIR
 70
     0
  9
$PDMODE
 70
     0
  9
$PDSIZE
 40
0.0
  9
$PLINEWID
 40
0.0
  9
$SPLFRAME
 70
     0
  9
$SPLINETYPE
 70
     6
  9
$SPLINESEGS
 70
     8
  9
$HANDSEED
  5
56C
  9
$SURFTAB1
 70
     6
  9
$SURFTAB2
 70
     6
  9
$SURFTYPE
 70
     6
  9
$SURFU
 70
     6
  9
$SURFV
 70
     6
  9
$UCSBASE
  2

  9
$UCSNAME
  2

  9
$UCSORG
 10
0.0
 20
0.0
 30
0.0
  9
$UCSXDIR
 10
1.0
 20
0.0
 30
0.0
  9
$UCSYDIR
 10
0.0
 20
1.0
 30
0.0
  9
$UCSORTHOREF
  2

  9
$UCSORTHOVIEW
 70
     0
  9
$UCSORGTOP
 10
0.0
 20
0.0
 30
0.0
  9
$UCSORGBOTTOM
 10
0.0
 20
0.0
 30
0.0
  9
$UCSORGLEFT
 10
0.0
 20
0.0
 30
0.0
  9
$UCSORGRIGHT
 10
0.0
 20
0.0
 30
0.0
  9
$UCSORGFRONT
 10
0.0
 20
0.0
 30
0.0
  9
$UCSORGBACK
 10
0.0
 20
0.0
 30
0.0
  9
$PUCSBASE
  2

  9
$PUCSNAME
  2

  9
$PUCSORG
 10
0.0
 20
0.0
 30
0.0
  9
$PUCSXDIR
 10
1.0
 20
0.0
 30
0.0
  9
$PUCSYDIR
 10
0.0
 20
1.0
 30
0.0
  9
$PUCSORTHOREF
  2

  9
$PUCSORTHOVIEW
 70
     0
  9
$PUCSORGTOP
 10
0.0
 20
0.0
 30
0.0
  9
$PUCSORGBOTTOM
 10
0.0
 20
0.0
 30
0.0
  9
$PUCSORGLEFT
 10
0.0
 20
0.0
 30
0.0
  9
$PUCSORGRIGHT
 10
0.0
 20
0.0
 30
0.0
  9
$PUCSORGFRONT
 10
0.0
 20
0.0
 30
0.0
  9
$PUCSORGBACK
 10
0.0
 20
0.0
 30
0.0
  9
$USERI1
 70
     0
  9
$USERI2
 70
     0
  9
$USERI3
 70
     0
  9
$USERI4
 70
     0
  9
$USERI5
 70
     0
  9
$USERR1
 40
0.0
  9
$USERR2
 40
0.0
  9
$USERR3
 40
0.0
  9
$USERR4
 40
0.0
  9
$USERR5
 40
0.0
  9
$WORLDVIEW
 70
     1
  9
$SHADEDGE
 70
     3
  9
$SHADEDIF
 70
    70
  9
$TILEMODE
 70
     1
  9
$MAXACTVP
 70
    48
  9
$PINSBASE
 10
0.0
 20
0.0
 30
0.0
  9
$PLIMCHECK
 70
     0
  9
$PEXTMIN
 10
0.0
 20
0.0
 30
0.0
  9
$PEXTMAX
 10
200.0
 20
251.557587
 30
2.0
  9
$PLIMMIN
 10
0.0
 20
0.0
  9
$PLIMMAX
 10
420.0
 20
297.0
  9
$UNITMODE
 70
     0
  9
$VISRETAIN
 70
     0
  9
$PLINEGEN
 70
     0
  9
$PSLTSCALE
 70
     1
  9
$TREEDEPTH
 70
  3020
  9
$CMLSTYLE
  2
Standard
  9
$CMLJUST
 70
     0
  9
$CMLSCALE
 40
20.0
  9
$PROXYGRAPHICS
 70
     1
  9
$MEASUREMENT
 70
     1
  9
$CELWEIGHT
370
    -1
  9
$ENDCAPS
280
     0
  9
$JOINSTYLE
280
     0
  9
$LWDISPLAY
290
     0
  9
$INSUNITS
 70
     0
  9
$HYPERLINKBASE
  1

  9
$STYLESHEET
  1

  9
$XEDIT
290
     1
  9
$CEPSNTYPE
380
     0
  9
$PSTYLEMODE
290
     0
  9
$FINGERPRINTGUID
  2

  9
$VERSIONGUID
  2

  9
$EXTNAMES
290
     0
  9
$PSVPSCALE
 40
0.0
  9
$OLESTARTUP
290
     0
  0
ENDSEC
  0
SECTION
  2
CLASSES
  0
CLASS
  1
ACDBDICTIONARYWDFLT
  2
AcDbDictionaryWithDefault
  3
ObjectDBX Classes
 90
        0
280
     0
281
     0
  0
CLASS
  1
ACDBPLACEHOLDER
  2
AcDbPlaceHolder
  3
ObjectDBX Classes
 90
        0
280
     0
281
     0
  0
CLASS
  1
LAYOUT
  2
AcDbLayout
  3
ObjectDBX Classes
 90
        0
280
     0
281
     0
  0
CLASS
  1
DICTIONARYVAR
  2
AcDbDictionaryVar
  3
ObjectDBX Classes
 90
        0
280
     0
281
     0
  0
CLASS
  1
TABLESTYLE
  2
AcDbTableStyle
  3
ObjectDBX Classes
 90
     4095
280
     0
281
     0
  0
CLASS
  1
SCALE
  2
AcDbScale
  3
ObjectDBX Classes
 90
     1153
280
     0
281
     0
  0
CLASS
  1
WIPEOUTVARIABLES
  2
AcDbWipeoutVariables
  3
WipeOut|AutoCAD Express Tool|expresstools@autodesk.com
 90
        0
280
     0
281
     0
  0
ENDSEC
  0
SECTION
  2
TABLES
  0
TABLE
  2
VPORT
  5
8
330
0
100
AcDbSymbolTable
 70
     2
  0
VPORT
  5
97
330
8
100
AcDbSymbolTableRecord
100
AcDbViewportTableRecord
  2
*ACTIVE
 70
     0
 10
0.0
 20
0.0
 11
1.0
 21
1.0
 12
525.2947855953885
 22
276.5699174900082
 13
0.0
 23
0.0
 14
1.0
 24
1.0
 15
0.5
 25
0.5
 16
0.0
 26
0.0
 36
1.0
 17
0.0
 27
0.0
 37
0.0
 40
1244.178078846484
 41
0.688564
 42
50.0
 43
0.0
 44
0.0
 50
0.0
 51
0.0
 71
     0
 72
   100
 73
     1
 74
     1
 75
     0
 76
     0
 77
     0
 78
     0
281
     0
 65
     1
110
0.0
120
0.0
130
0.0
111
1.0
121
0.0
131
0.0
112
0.0
122
1.0
132
0.0
 79
     0
146
0.0
  0
ENDTAB
  0
TABLE
  2
LTYPE
  5
5
330
0
100
AcDbSymbolTable
 70
     8
  0
LTYPE
  5
14
330
5
100
AcDbSymbolTableRecord
100
AcDbLinetypeTableRecord
  2
ByBlock
 70
     0
  3

 72
    65
 73
     0
 40
0.0
  0
LTYPE
  5
15
330
5
100
AcDbSymbolTableRecord
100
AcDbLinetypeTableRecord
  2
ByLayer
 70
     0
  3

 72
    65
 73
     0
 40
0.0
  0
LTYPE
  5
16
330
5
100
AcDbSymbolTableRecord
100
AcDbLinetypeTableRecord
  2
Continuous
 70
     0
  3
Solid line
 72
    65
 73
     0
 40
0.0
  0
LTYPE
  5
500
330
5
100
AcDbSymbolTableRecord
100
AcDbLinetypeTableRecord
  2
DASHED
 70
     0
  3
__ __ __ __ __ __ __ __ __ __ __ __ __ __ __ __
 72
    65
 73
     2
 40
15.0
 49
12.0
 74
     0
 49
-3.0
 74
     0
  0
LTYPE
  5
501
330
5
100
AcDbSymbolTableRecord
100
AcDbLinetypeTableRecord
  2
DASHDOT
 70
     0
  3
 __ . __ . __ . __ . __ . __ . __ . 
 72
    65
 73
     4
 40
18.5
 49
12.0
 74
     0
 49
-3.0
 74
     0
 49
0.5
 74
     0
 49
-3.0
 74
     0
  0
LTYPE
  5
502
330
5
100
AcDbSymbolTableRecord
100
AcDbLinetypeTableRecord
  2
DOT
 70
     0
  3
 . . . . . . . . . . . . . . . .
 72
    65
 73
     2
 40
3.5
 49
0.5
 74
     0
 49
-3.0
 74
     0
  0
LTYPE
  5
503
330
5
100
AcDbSymbolTableRecord
100
AcDbLinetypeTableRecord
  2
DASHSPACE
 70
     0
  3
__    __    __    __    __   
 72
    65
 73
     2
 40
30.0
 49
12.0
 74
     0
 49
-18.0
 74
     0
  0
LTYPE
  5
504
330
5
100
AcDbSymbolTableRecord
100
AcDbLinetypeTableRecord
  2
DASHDOT2
 70
     0
  3
__ . . __ . . __ . . __ 
 72
    65
 73
     6
 40
22.0
 49
12.0
 74
     0
 49
-3.0
 74
     0
 49
0.5
 74
     0
 49
-3.0
 74
     0
 49
0.5
 74
     0
 49
-3.0
 74
     0
  0
LTYPE
  5
505
330
5
100
AcDbSymbolTableRecord
100
AcDbLinetypeTableRecord
  2
PHANTOM
 70
     0
  3
____________    ____    ____   _
 72
    65
 73
     6
 40
20.0
 49
10.0
 74
     0
 49
-2.0
 74
     0
 49
2.0
 74
     0
 49
-2.0
 74
     0
 49
2.0
 74
     0
 49
-2.0
 74
     0
  0
LTYPE
  5
506
330
5
100
AcDbSymbolTableRecord
100
AcDbLinetypeTableRecord
  2
AXES
 70
     0
  3
________  __  ________  __  _____
 72
    65
 73
     4
 40
24.0
 49
15.0
 74
     0
 49
-3.0
 74
     0
 49
3.0
 74
     0
 49
-3.0
 74
     0
  0
ENDTAB
  0
TABLE
  2
LAYER
  5
2
330
0
100
AcDbSymbolTable
 70
     2
  0
LAYER
  5
10
330
2
100
AcDbSymbolTableRecord
100
AcDbLayerTableRecord
  2
0
 70
     0
 62
     7
  6
Continuous
370
    13
390
F
  0
LAYER
  5
3AD
330
2
100
AcDbSymbolTableRecord
100
AcDbLayerTableRecord
  2
DEFPOINTS
 70
     0
 62
     7
  6
Continuous
290
     0
370
    -3
390
F
  0
ENDTAB
  0
TABLE
  2
STYLE
  5
3
330
0
100
AcDbSymbolTable
 70
     2
  0
STYLE
  5
11
330
3
100
AcDbSymbolTableRecord
100
AcDbTextStyleTableRecord
  2
Standard
 70
     0
 40
0.0
 41
1.0
 50
0.0
 71
     0
 42
0.2
  3
isocp.shx
  4

  0
STYLE
  5
2B
330
3
100
AcDbSymbolTableRecord
100
AcDbTextStyleTableRecord
  2
GDT
 70
     0
 40
0.0
 41
1.0
 50
0.0
 71
     0
 42
0.2
  3
amgdt.shx
  4

  0
ENDTAB
  0
TABLE
  2
VIEW
  5
6
330
0
100
AcDbSymbolTable
 70
     0
  0
ENDTAB
  0
TABLE
  2
UCS
  5
7
330
0
100
AcDbSymbolTable
 70
     0
  0
ENDTAB
  0
TABLE
  2
APPID
  5
9
330
0
100
AcDbSymbolTable
 70
     2
  0
APPID
  5
12
330
9
100
AcDbSymbolTableRecord
100
AcDbRegAppTableRecord
  2
ACAD
 70
     0
  0
APPID
  5
4FF
330
9
100
AcDbSymbolTableRecord
100
AcDbRegAppTableRecord
  2
Conv5506CA
 70
     0
  0
ENDTAB
  0
TABLE
  2
DIMSTYLE
  5
A
330
0
100
AcDbSymbolTable
 70
     1
100
AcDbDimStyleTable
  0
DIMSTYLE
105
27
102
{ACAD_REACTORS
330
3AE
330
3D0
330
48B
330
4DC
102
}
330
A
100
AcDbSymbolTableRecord
100
AcDbDimStyleTableRecord
  2
Standard
 70
     0
 41
2.5
 42
0.625
 43
3.75
 44
1.25
 73
     0
 74
     0
 77
     1
 78
     8
140
2.5
141
2.5
143
0.03937
147
0.625
171
     3
172
     1
271
     2
272
     2
274
     3
278
    44
283
     0
284
     8
289
     0
340
11
  0
ENDTAB
  0
TABLE
  2
BLOCK_RECORD
  5
1
330
0
100
AcDbSymbolTable
 70
    48
  0
BLOCK_RECORD
  5
1F
330
1
100
AcDbSymbolTableRecord
100
AcDbBlockTableRecord
  2
*Model_Space
340
22
  0
BLOCK_RECORD
  5
73
330
1
100
AcDbSymbolTableRecord
100
AcDbBlockTableRecord
  2
*Paper_Space
340
74
  0
BLOCK_RECORD
  5
2C
330
1
100
AcDbSymbolTableRecord
100
AcDbBlockTableRecord
  2
*D0
340
0
  0
BLOCK_RECORD
  5
2E
330
1
100
AcDbSymbolTableRecord
100
AcDbBlockTableRecord
  2
*D1
340
0
  0
BLOCK_RECORD
  5
30
330
1
100
AcDbSymbolTableRecord
100
AcDbBlockTableRecord
  2
*D2
340
0
  0
BLOCK_RECORD
  5
32
330
1
100
AcDbSymbolTableRecord
100
AcDbBlockTableRecord
  2
*D3
340
0
  0
BLOCK_RECORD
  5
34
330
1
100
AcDbSymbolTableRecord
100
AcDbBlockTableRecord
  2
*D4
340
0
  0
BLOCK_RECORD
  5
36
330
1
100
AcDbSymbolTableRecord
100
AcDbBlockTableRecord
  2
*D5
340
0
  0
BLOCK_RECORD
  5
38
330
1
100
AcDbSymbolTableRecord
100
AcDbBlockTableRecord
  2
*D6
340
0
  0
BLOCK_RECORD
  5
3A
330
1
100
AcDbSymbolTableRecord
100
AcDbBlockTableRecord
  2
*D7
340
0
  0
BLOCK_RECORD
  5
3C
330
1
100
AcDbSymbolTableRecord
100
AcDbBlockTableRecord
  2
*D8
340
0
  0
BLOCK_RECORD
  5
3E
330
1
100
AcDbSymbolTableRecord
100
AcDbBlockTableRecord
  2
*D9
340
0
  0
BLOCK_RECORD
  5
40
330
1
100
AcDbSymbolTableRecord
100
AcDbBlockTableRecord
  2
*D10
340
0
  0
BLOCK_RECORD
  5
42
330
1
100
AcDbSymbolTableRecord
100
AcDbBlockTableRecord
  2
*D11
340
0
  0
BLOCK_RECORD
  5
10C
330
1
100
AcDbSymbolTableRecord
100
AcDbBlockTableRecord
  2
Block0
340
0
  0
BLOCK_RECORD
  5
84
330
1
100
AcDbSymbolTableRecord
100
AcDbBlockTableRecord
  2
*D13
340
0
  0
BLOCK_RECORD
  5
86
330
1
100
AcDbSymbolTableRecord
100
AcDbBlockTableRecord
  2
*D14
340
0
  0
BLOCK_RECORD
  5
88
330
1
100
AcDbSymbolTableRecord
100
AcDbBlockTableRecord
  2
*D15
340
0
  0
BLOCK_RECORD
  5
8A
330
1
100
AcDbSymbolTableRecord
100
AcDbBlockTableRecord
  2
*D16
340
0
  0
BLOCK_RECORD
  5
10D
330
1
100
AcDbSymbolTableRecord
100
AcDbBlockTableRecord
  2
Block1
340
0
  0
BLOCK_RECORD
  5
C8
330
1
100
AcDbSymbolTableRecord
100
AcDbBlockTableRecord
  2
*D18
340
0
  0
BLOCK_RECORD
  5
CA
330
1
100
AcDbSymbolTableRecord
100
AcDbBlockTableRecord
  2
*D19
340
0
  0
BLOCK_RECORD
  5
CC
330
1
100
AcDbSymbolTableRecord
100
AcDbBlockTableRecord
  2
*D20
340
0
  0
BLOCK_RECORD
  5
CE
330
1
100
AcDbSymbolTableRecord
100
AcDbBlockTableRecord
  2
*D21
340
0
  0
BLOCK_RECORD
  5
D0
330
1
100
AcDbSymbolTableRecord
100
AcDbBlockTableRecord
  2
*D22
340
0
  0
BLOCK_RECORD
  5
D2
330
1
100
AcDbSymbolTableRecord
100
AcDbBlockTableRecord
  2
*D23
340
0
  0
BLOCK_RECORD
  5
D4
330
1
100
AcDbSymbolTableRecord
100
AcDbBlockTableRecord
  2
*D24
340
0
  0
BLOCK_RECORD
  5
D6
330
1
100
AcDbSymbolTableRecord
100
AcDbBlockTableRecord
  2
*D25
340
0
  0
BLOCK_RECORD
  5
D8
330
1
100
AcDbSymbolTableRecord
100
AcDbBlockTableRecord
  2
*D26
340
0
  0
BLOCK_RECORD
  5
DA
330
1
100
AcDbSymbolTableRecord
100
AcDbBlockTableRecord
  2
*D27
340
0
  0
BLOCK_RECORD
  5
DC
330
1
100
AcDbSymbolTableRecord
100
AcDbBlockTableRecord
  2
*D28
340
0
  0
BLOCK_RECORD
  5
DE
330
1
100
AcDbSymbolTableRecord
100
AcDbBlockTableRecord
  2
*D29
340
0
  0
BLOCK_RECORD
  5
E0
330
1
100
AcDbSymbolTableRecord
100
AcDbBlockTableRecord
  2
*D30
340
0
  0
BLOCK_RECORD
  5
10E
330
1
100
AcDbSymbolTableRecord
100
AcDbBlockTableRecord
  2
Block2
340
0
  0
BLOCK_RECORD
  5
3B9
330
1
100
AcDbSymbolTableRecord
100
AcDbBlockTableRecord
  2
*D32
340
0
  0
BLOCK_RECORD
  5
3C4
330
1
100
AcDbSymbolTableRecord
100
AcDbBlockTableRecord
  2
*D33
340
0
  0
BLOCK_RECORD
  5
3CF
330
1
100
AcDbSymbolTableRecord
100
AcDbBlockTableRecord
  2
*D34
340
0
  0
BLOCK_RECORD
  5
3DB
330
1
100
AcDbSymbolTableRecord
100
AcDbBlockTableRecord
  2
*D35
340
0
  0
BLOCK_RECORD
  5
3E6
330
1
100
AcDbSymbolTableRecord
100
AcDbBlockTableRecord
  2
*D36
340
0
  0
BLOCK_RECORD
  5
3F1
330
1
100
AcDbSymbolTableRecord
100
AcDbBlockTableRecord
  2
*D37
340
0
  0
BLOCK_RECORD
  5
3FC
330
1
100
AcDbSymbolTableRecord
100
AcDbBlockTableRecord
  2
*D38
340
0
  0
BLOCK_RECORD
  5
496
330
1
100
AcDbSymbolTableRecord
100
AcDbBlockTableRecord
  2
*D39
340
0
  0
BLOCK_RECORD
  5
4A1
330
1
100
AcDbSymbolTableRecord
100
AcDbBlockTableRecord
  2
*D40
340
0
  0
BLOCK_RECORD
  5
4AC
330
1
100
AcDbSymbolTableRecord
100
AcDbBlockTableRecord
  2
*D41
340
0
  0
BLOCK_RECORD
  5
4B7
330
1
100
AcDbSymbolTableRecord
100
AcDbBlockTableRecord
  2
*D42
340
0
  0
BLOCK_RECORD
  5
4C2
330
1
100
AcDbSymbolTableRecord
100
AcDbBlockTableRecord
  2
*D43
340
0
  0
BLOCK_RECORD
  5
4CD
330
1
100
AcDbSymbolTableRecord
100
AcDbBlockTableRecord
  2
*D44
340
0
  0
BLOCK_RECORD
  5
4E7
330
1
100
AcDbSymbolTableRecord
100
AcDbBlockTableRecord
  2
*D45
340
0
  0
BLOCK_RECORD
  5
4F2
330
1
100
AcDbSymbolTableRecord
100
AcDbBlockTableRecord
  2
*D46
340
0
  0
BLOCK_RECORD
  5
4FD
330
1
100
AcDbSymbolTableRecord
100
AcDbBlockTableRecord
  2
*D47
340
0
  0
ENDTAB
  0
ENDSEC
  0
SECTION
  2
BLOCKS
  0
BLOCK
  5
20
330
1F
100
AcDbEntity
  8
0
100
AcDbBlockBegin
  2
*Model_Space
 70
     0
 10
0.0
 20
0.0
 30
0.0
  3
*Model_Space
  1

  0
ENDBLK
  5
21
330
1F
100
AcDbEntity
  8
0
100
AcDbBlockEnd
  0
BLOCK
  5
75
330
73
100
AcDbEntity
 67
     1
  8
0
100
AcDbBlockBegin
  2
*Paper_Space
 70
     0
 10
0.0
 20
0.0
 30
0.0
  3
*Paper_Space
  1

  0
ENDBLK
  5
76
330
73
100
AcDbEntity
 67
     1
  8
0
100
AcDbBlockEnd
  0
BLOCK
  5
508
102
{ACAD_REACTORS
330
3AE
330
3D0
102
}
330
2C
100
AcDbEntity
  8
0
100
AcDbBlockBegin
  2
*D0
 70
     1
 10
0.0
 20
0.0
 30
0.0
  3
*D0
  1

  0
TEXT
  5
110
330
2C
100
AcDbEntity
  8
0
 62
     7
370
    13
390
F
100
AcDbText
 10
297.815515
 20
210.488716
 30
0.0
 40
3.0
  1
70
 41
1.332493967054873
 72
     5
 11
302.815515
 21
210.488716
 31
0.0
100
AcDbText
  0
TEXT
  5
111
330
2C
100
AcDbEntity
  8
0
 62
     7
370
    13
390
F
100
AcDbText
 10
294.615515
 20
210.488716
 30
0.0
 40
3.0
  1
%%c
 41
0.9777777777777727
 72
     5
 11
296.815515
 21
210.488716
 31
0.0
100
AcDbText
  0
LINE
  5
112
330
2C
100
AcDbEntity
  8
0
 62
     7
 48
0.33928
370
    13
390
F
100
AcDbLine
 10
263.715515
 20
222.059906
 30
0.0
 11
263.715515
 21
208.488716
 31
0.0
  0
LINE
  5
113
330
2C
100
AcDbEntity
  8
0
 62
     7
 48
0.33928
370
    13
390
F
100
AcDbLine
 10
333.715515
 20
222.059906
 30
0.0
 11
333.715515
 21
208.488716
 31
0.0
  0
LWPOLYLINE
  5
114
330
2C
100
AcDbEntity
  8
0
 62
     7
370
    35
390
F
100
AcDbPolyline
 90
        3
 70
     0
 43
0.0
 10
265.647366
 20
210.006355
 10
263.715515
 20
209.488716
 10
265.647366
 20
208.971077
  0
LWPOLYLINE
  5
119
330
2C
100
AcDbEntity
  8
0
 62
     7
370
    35
390
F
100
AcDbPolyline
 90
        3
 70
     0
 43
0.0
 10
331.783665
 20
208.971077
 10
333.715515
 20
209.488716
 10
331.783665
 20
210.006355
  0
LINE
  5
11E
330
2C
100
AcDbEntity
  8
0
 62
     7
370
    13
390
F
100
AcDbLine
 10
263.715515
 20
209.488716
 30
0.0
 11
333.715515
 21
209.488716
 31
0.0
  0
ENDBLK
  5
509
330
2C
100
AcDbEntity
  8
0
100
AcDbBlockEnd
  0
BLOCK
  5
50A
330
2E
100
AcDbEntity
  8
0
100
AcDbBlockBegin
  2
*D1
 70
     1
 10
0.0
 20
0.0
 30
0.0
  3
*D1
  1

  0
TEXT
  5
121
330
2E
100
AcDbEntity
  8
0
 62
     7
370
    13
390
F
100
AcDbText
 10
429.102554
 20
457.25647
 30
0.0
 40
3.0
  1
6,5
 50
40.53017012172865
 41
1.62499992408511
 72
     5
 11
435.031052
 21
462.325287
 31
0.0
100
AcDbText
  0
TEXT
  5
122
330
2E
100
AcDbEntity
  8
0
 62
     7
370
    13
390
F
100
AcDbText
 10
426.670357
 20
455.176956
 30
0.0
 40
3.0
  1
R
 50
40.52995933277816
 41
1.128202564777127
 72
     5
 11
428.342499
 21
456.606613
 31
0.0
100
AcDbText
  0
LWPOLYLINE
  5
123
330
2E
100
AcDbEntity
  8
0
 62
     7
370
    35
390
F
100
AcDbPolyline
 90
        3
 70
     0
 43
0.0
 10
424.787865
 20
452.932785
 10
423.655922
 20
451.283936
 10
425.460632
 20
452.145905
  0
LINE
  5
128
330
2E
100
AcDbEntity
  8
0
 62
     7
370
    13
390
F
100
AcDbLine
 10
416.055298
 20
444.785431
 30
0.0
 11
435.680893
 21
461.565231
 31
0.0
  0
ENDBLK
  5
50B
330
2E
100
AcDbEntity
  8
0
100
AcDbBlockEnd
  0
BLOCK
  5
50C
330
30
100
AcDbEntity
  8
0
100
AcDbBlockBegin
  2
*D2
 70
     1
 10
0.0
 20
0.0
 30
0.0
  3
*D2
  1

  0
TEXT
  5
12B
330
30
100
AcDbEntity
  8
0
 62
     7
370
    13
390
F
100
AcDbText
 10
84.024323
 20
457.722748
 30
0.0
 40
3.0
  1
25
 50
90.0
 41
1.333333333333333
 72
     5
 11
84.024323
 21
462.722748
 31
0.0
100
AcDbText
  0
LINE
  5
12C
330
30
100
AcDbEntity
  8
0
 62
     7
 48
0.36728
370
    13
390
F
100
AcDbLine
 10
98.715515
 20
447.059906
 30
0.0
 11
84.024323
 21
447.059906
 31
0.0
  0
LINE
  5
12D
330
30
100
AcDbEntity
  8
0
 62
     7
 48
0.36728
370
    13
390
F
100
AcDbLine
 10
98.715515
 20
472.059906
 30
0.0
 11
84.024323
 21
472.059906
 31
0.0
  0
LWPOLYLINE
  5
12E
330
30
100
AcDbEntity
  8
0
 62
     7
370
    35
390
F
100
AcDbPolyline
 90
        3
 70
     0
 43
0.0
 10
85.541946
 20
470.128052
 10
85.024323
 20
472.059906
 10
84.506683
 20
470.128052
  0
LWPOLYLINE
  5
133
330
30
100
AcDbEntity
  8
0
 62
     7
370
    35
390
F
100
AcDbPolyline
 90
        3
 70
     0
 43
0.0
 10
84.506683
 20
448.99176
 10
85.024323
 20
447.059906
 10
85.541946
 20
448.99176
  0
LINE
  5
138
330
30
100
AcDbEntity
  8
0
 62
     7
370
    13
390
F
100
AcDbLine
 10
85.024323
 20
447.059906
 30
0.0
 11
85.024323
 21
472.059906
 31
0.0
  0
ENDBLK
  5
50D
330
30
100
AcDbEntity
  8
0
100
AcDbBlockEnd
  0
BLOCK
  5
50E
330
32
100
AcDbEntity
  8
0
100
AcDbBlockBegin
  2
*D3
 70
     1
 10
0.0
 20
0.0
 30
0.0
  3
*D3
  1

  0
TEXT
  5
13B
330
32
100
AcDbEntity
  8
0
 62
     7
370
    13
390
F
100
AcDbText
 10
268.715515
 20
492.245178
 30
0.0
 40
3.0
  1
55
 41
1.333333333333333
 72
     5
 11
273.715515
 21
492.245178
 31
0.0
100
AcDbText
  0
LINE
  5
13C
330
32
100
AcDbEntity
  8
0
 62
     7
370
    13
390
F
100
AcDbLine
 10
243.715515
 20
466.841675
 30
0.0
 11
243.715515
 21
492.245178
 31
0.0
  0
LINE
  5
13D
330
32
100
AcDbEntity
  8
0
 62
     7
 48
0.15
370
    13
390
F
100
AcDbLine
 10
298.715515
 20
486.245178
 30
0.0
 11
298.715515
 21
492.245178
 31
0.0
  0
LWPOLYLINE
  5
13E
330
32
100
AcDbEntity
  8
0
 62
     7
370
    35
390
F
100
AcDbPolyline
 90
        3
 70
     0
 43
0.0
 10
296.783664
 20
490.727539
 10
298.715515
 20
491.245178
 10
296.783664
 20
491.762817
  0
LWPOLYLINE
  5
143
330
32
100
AcDbEntity
  8
0
 62
     7
370
    35
390
F
100
AcDbPolyline
 90
        3
 70
     0
 43
0.0
 10
245.647366
 20
491.762817
 10
243.715515
 20
491.245178
 10
245.647366
 20
490.727539
  0
LINE
  5
148
330
32
100
AcDbEntity
  8
0
 62
     7
370
    13
390
F
100
AcDbLine
 10
243.715515
 20
491.245178
 30
0.0
 11
298.715515
 21
491.245178
 31
0.0
  0
ENDBLK
  5
50F
330
32
100
AcDbEntity
  8
0
100
AcDbBlockEnd
  0
BLOCK
  5
510
330
34
100
AcDbEntity
  8
0
100
AcDbBlockBegin
  2
*D4
 70
     1
 10
0.0
 20
0.0
 30
0.0
  3
*D4
  1

  0
TEXT
  5
14B
330
34
100
AcDbEntity
  8
0
 62
     7
370
    13
390
F
100
AcDbText
 10
240.450581
 20
492.245178
 30
0.0
 40
3.0
  1
5
 41
1.333331515151513
 72
     5
 11
242.650578
 21
492.245178
 31
0.0
100
AcDbText
  0
LINE
  5
14C
330
34
100
AcDbEntity
  8
0
 62
     7
370
    13
390
F
100
AcDbLine
 10
238.715515
 20
458.681503
 30
0.0
 11
238.715515
 21
492.245178
 31
0.0
  0
LINE
  5
14D
330
34
100
AcDbEntity
  8
0
 62
     7
370
    13
390
F
100
AcDbLine
 10
243.715515
 20
466.841675
 30
0.0
 11
243.715515
 21
492.245178
 31
0.0
  0
LWPOLYLINE
  5
14E
330
34
100
AcDbEntity
  8
0
 62
     7
370
    35
390
F
100
AcDbPolyline
 90
        3
 70
     0
 43
0.0
 10
245.647366
 20
491.762817
 10
243.715515
 20
491.245178
 10
245.647366
 20
490.727539
  0
LWPOLYLINE
  5
153
330
34
100
AcDbEntity
  8
0
 62
     7
370
    35
390
F
100
AcDbPolyline
 90
        3
 70
     0
 43
0.0
 10
236.783665
 20
490.727539
 10
238.715515
 20
491.245178
 10
236.783665
 20
491.762817
  0
LINE
  5
158
330
34
100
AcDbEntity
  8
0
 62
     7
 48
0.375
370
    13
390
F
100
AcDbLine
 10
233.715515
 20
491.245178
 30
0.0
 11
248.715515
 21
491.245178
 31
0.0
  0
ENDBLK
  5
511
330
34
100
AcDbEntity
  8
0
100
AcDbBlockEnd
  0
BLOCK
  5
512
330
36
100
AcDbEntity
  8
0
100
AcDbBlockBegin
  2
*D5
 70
     1
 10
0.0
 20
0.0
 30
0.0
  3
*D5
  1

  0
TEXT
  5
15B
330
36
100
AcDbEntity
  8
0
 62
     7
370
    13
390
F
100
AcDbText
 10
208.715515
 20
492.245178
 30
0.0
 40
3.0
  1
55
 41
1.333333333333333
 72
     5
 11
213.715515
 21
492.245178
 31
0.0
100
AcDbText
  0
LINE
  5
15C
330
36
100
AcDbEntity
  8
0
 62
     7
370
    13
390
F
100
AcDbLine
 10
183.715515
 20
457.270355
 30
0.0
 11
183.715515
 21
492.245178
 31
0.0
  0
LINE
  5
15D
330
36
100
AcDbEntity
  8
0
 62
     7
370
    13
390
F
100
AcDbLine
 10
238.715515
 20
458.681503
 30
0.0
 11
238.715515
 21
492.245178
 31
0.0
  0
LWPOLYLINE
  5
15E
330
36
100
AcDbEntity
  8
0
 62
     7
370
    35
390
F
100
AcDbPolyline
 90
        3
 70
     0
 43
0.0
 10
236.783665
 20
490.727539
 10
238.715515
 20
491.245178
 10
236.783665
 20
491.762817
  0
LWPOLYLINE
  5
163
330
36
100
AcDbEntity
  8
0
 62
     7
370
    35
390
F
100
AcDbPolyline
 90
        3
 70
     0
 43
0.0
 10
185.647369
 20
491.762817
 10
183.715515
 20
491.245178
 10
185.647369
 20
490.727539
  0
LINE
  5
168
330
36
100
AcDbEntity
  8
0
 62
     7
370
    13
390
F
100
AcDbLine
 10
183.715515
 20
491.245178
 30
0.0
 11
238.715515
 21
491.245178
 31
0.0
  0
ENDBLK
  5
513
330
36
100
AcDbEntity
  8
0
100
AcDbBlockEnd
  0
BLOCK
  5
514
330
38
100
AcDbEntity
  8
0
100
AcDbBlockBegin
  2
*D6
 70
     1
 10
0.0
 20
0.0
 30
0.0
  3
*D6
  1

  0
TEXT
  5
16B
330
38
100
AcDbEntity
  8
0
 62
     7
370
    13
390
F
100
AcDbText
 10
180.359367
 20
492.245178
 30
0.0
 40
3.0
  1
5
 41
1.333331515151513
 72
     5
 11
182.559364
 21
492.245178
 31
0.0
100
AcDbText
  0
LINE
  5
16C
330
38
100
AcDbEntity
  8
0
 62
     7
370
    13
390
F
100
AcDbLine
 10
178.715515
 20
457.291122
 30
0.0
 11
178.715515
 21
492.245178
 31
0.0
  0
LINE
  5
16D
330
38
100
AcDbEntity
  8
0
 62
     7
370
    13
390
F
100
AcDbLine
 10
183.715515
 20
457.270355
 30
0.0
 11
183.715515
 21
492.245178
 31
0.0
  0
LWPOLYLINE
  5
16E
330
38
100
AcDbEntity
  8
0
 62
     7
370
    35
390
F
100
AcDbPolyline
 90
        3
 70
     0
 43
0.0
 10
185.647369
 20
491.762817
 10
183.715515
 20
491.245178
 10
185.647369
 20
490.727539
  0
LWPOLYLINE
  5
173
330
38
100
AcDbEntity
  8
0
 62
     7
370
    35
390
F
100
AcDbPolyline
 90
        3
 70
     0
 43
0.0
 10
176.783661
 20
490.727539
 10
178.715515
 20
491.245178
 10
176.783661
 20
491.762817
  0
LINE
  5
178
330
38
100
AcDbEntity
  8
0
 62
     7
 48
0.375
370
    13
390
F
100
AcDbLine
 10
173.715515
 20
491.245178
 30
0.0
 11
188.715515
 21
491.245178
 31
0.0
  0
ENDBLK
  5
515
330
38
100
AcDbEntity
  8
0
100
AcDbBlockEnd
  0
BLOCK
  5
516
330
3A
100
AcDbEntity
  8
0
100
AcDbBlockBegin
  2
*D7
 70
     1
 10
0.0
 20
0.0
 30
0.0
  3
*D7
  1

  0
TEXT
  5
17B
330
3A
100
AcDbEntity
  8
0
 62
     7
370
    13
390
F
100
AcDbText
 10
323.715515
 20
492.245178
 30
0.0
 40
3.0
  1
55
 41
1.333333333333333
 72
     5
 11
328.715515
 21
492.245178
 31
0.0
100
AcDbText
  0
LINE
  5
17C
330
3A
100
AcDbEntity
  8
0
 62
     7
 48
0.15
370
    13
390
F
100
AcDbLine
 10
298.715515
 20
486.245178
 30
0.0
 11
298.715515
 21
492.245178
 31
0.0
  0
LINE
  5
17D
330
3A
100
AcDbEntity
  8
0
 62
     7
370
    13
390
F
100
AcDbLine
 10
353.715515
 20
457.836166
 30
0.0
 11
353.715515
 21
492.245178
 31
0.0
  0
LWPOLYLINE
  5
17E
330
3A
100
AcDbEntity
  8
0
 62
     7
370
    35
390
F
100
AcDbPolyline
 90
        3
 70
     0
 43
0.0
 10
300.647367
 20
491.762817
 10
298.715515
 20
491.245178
 10
300.647367
 20
490.727539
  0
LWPOLYLINE
  5
183
330
3A
100
AcDbEntity
  8
0
 62
     7
370
    35
390
F
100
AcDbPolyline
 90
        3
 70
     0
 43
0.0
 10
351.783665
 20
490.727539
 10
353.715515
 20
491.245178
 10
351.783665
 20
491.762817
  0
LINE
  5
188
330
3A
100
AcDbEntity
  8
0
 62
     7
370
    13
390
F
100
AcDbLine
 10
298.715515
 20
491.245178
 30
0.0
 11
353.715515
 21
491.245178
 31
0.0
  0
ENDBLK
  5
517
330
3A
100
AcDbEntity
  8
0
100
AcDbBlockEnd
  0
BLOCK
  5
518
330
3C
100
AcDbEntity
  8
0
100
AcDbBlockBegin
  2
*D8
 70
     1
 10
0.0
 20
0.0
 30
0.0
  3
*D8
  1

  0
TEXT
  5
18B
330
3C
100
AcDbEntity
  8
0
 62
     7
370
    13
390
F
100
AcDbText
 10
354.738506
 20
492.245178
 30
0.0
 40
3.0
  1
5
 41
1.333331515151547
 72
     5
 11
356.938503
 21
492.245178
 31
0.0
100
AcDbText
  0
LINE
  5
18C
330
3C
100
AcDbEntity
  8
0
 62
     7
370
    13
390
F
100
AcDbLine
 10
353.715515
 20
457.836166
 30
0.0
 11
353.715515
 21
492.245178
 31
0.0
  0
LINE
  5
18D
330
3C
100
AcDbEntity
  8
0
 62
     7
370
    13
390
F
100
AcDbLine
 10
358.715515
 20
459.964752
 30
0.0
 11
358.715515
 21
492.245178
 31
0.0
  0
LWPOLYLINE
  5
18E
330
3C
100
AcDbEntity
  8
0
 62
     7
370
    35
390
F
100
AcDbPolyline
 90
        3
 70
     0
 43
0.0
 10
351.783665
 20
490.727539
 10
353.715515
 20
491.245178
 10
351.783665
 20
491.762817
  0
LWPOLYLINE
  5
193
330
3C
100
AcDbEntity
  8
0
 62
     7
370
    35
390
F
100
AcDbPolyline
 90
        3
 70
     0
 43
0.0
 10
360.647366
 20
491.762817
 10
358.715515
 20
491.245178
 10
360.647366
 20
490.727539
  0
LINE
  5
198
330
3C
100
AcDbEntity
  8
0
 62
     7
 48
0.375
370
    13
390
F
100
AcDbLine
 10
348.715515
 20
491.245178
 30
0.0
 11
363.715515
 21
491.245178
 31
0.0
  0
ENDBLK
  5
519
330
3C
100
AcDbEntity
  8
0
100
AcDbBlockEnd
  0
BLOCK
  5
51A
330
3E
100
AcDbEntity
  8
0
100
AcDbBlockBegin
  2
*D9
 70
     1
 10
0.0
 20
0.0
 30
0.0
  3
*D9
  1

  0
TEXT
  5
19B
330
3E
100
AcDbEntity
  8
0
 62
     7
370
    13
390
F
100
AcDbText
 10
383.715515
 20
492.245178
 30
0.0
 40
3.0
  1
55
 41
1.333333333333333
 72
     5
 11
388.715515
 21
492.245178
 31
0.0
100
AcDbText
  0
LINE
  5
19C
330
3E
100
AcDbEntity
  8
0
 62
     7
370
    13
390
F
100
AcDbLine
 10
358.715515
 20
459.964752
 30
0.0
 11
358.715515
 21
492.245178
 31
0.0
  0
LINE
  5
19D
330
3E
100
AcDbEntity
  8
0
 62
     7
370
    13
390
F
100
AcDbLine
 10
413.715515
 20
462.852768
 30
0.0
 11
413.715515
 21
492.245178
 31
0.0
  0
LWPOLYLINE
  5
19E
330
3E
100
AcDbEntity
  8
0
 62
     7
370
    35
390
F
100
AcDbPolyline
 90
        3
 70
     0
 43
0.0
 10
360.647366
 20
491.762817
 10
358.715515
 20
491.245178
 10
360.647366
 20
490.727539
  0
LWPOLYLINE
  5
1A3
330
3E
100
AcDbEntity
  8
0
 62
     7
370
    35
390
F
100
AcDbPolyline
 90
        3
 70
     0
 43
0.0
 10
411.783661
 20
490.727539
 10
413.715515
 20
491.245178
 10
411.783661
 20
491.762817
  0
LINE
  5
1A8
330
3E
100
AcDbEntity
  8
0
 62
     7
370
    13
390
F
100
AcDbLine
 10
358.715515
 20
491.245178
 30
0.0
 11
413.715515
 21
491.245178
 31
0.0
  0
ENDBLK
  5
51B
330
3E
100
AcDbEntity
  8
0
100
AcDbBlockEnd
  0
BLOCK
  5
51C
330
40
100
AcDbEntity
  8
0
100
AcDbBlockBegin
  2
*D10
 70
     1
 10
0.0
 20
0.0
 30
0.0
  3
*D10
  1

  0
TEXT
  5
1AB
330
40
100
AcDbEntity
  8
0
 62
     7
370
    13
390
F
100
AcDbText
 10
415.157196
 20
492.245178
 30
0.0
 40
3.0
  1
5
 41
1.333331515151513
 72
     5
 11
417.357193
 21
492.245178
 31
0.0
100
AcDbText
  0
LINE
  5
1AC
330
40
100
AcDbEntity
  8
0
 62
     7
370
    13
390
F
100
AcDbLine
 10
413.715515
 20
462.852768
 30
0.0
 11
413.715515
 21
492.245178
 31
0.0
  0
LINE
  5
1AD
330
40
100
AcDbEntity
  8
0
 62
     7
370
    13
390
F
100
AcDbLine
 10
418.715515
 20
462.852768
 30
0.0
 11
418.715515
 21
492.245178
 31
0.0
  0
LWPOLYLINE
  5
1AE
330
40
100
AcDbEntity
  8
0
 62
     7
370
    35
390
F
100
AcDbPolyline
 90
        3
 70
     0
 43
0.0
 10
411.783661
 20
490.727539
 10
413.715515
 20
491.245178
 10
411.783661
 20
491.762817
  0
LWPOLYLINE
  5
1B3
330
40
100
AcDbEntity
  8
0
 62
     7
370
    35
390
F
100
AcDbPolyline
 90
        3
 70
     0
 43
0.0
 10
420.647369
 20
491.762817
 10
418.715515
 20
491.245178
 10
420.647369
 20
490.727539
  0
LINE
  5
1B8
330
40
100
AcDbEntity
  8
0
 62
     7
 48
0.375
370
    13
390
F
100
AcDbLine
 10
408.715515
 20
491.245178
 30
0.0
 11
423.715515
 21
491.245178
 31
0.0
  0
ENDBLK
  5
51D
330
40
100
AcDbEntity
  8
0
100
AcDbBlockEnd
  0
BLOCK
  5
51E
330
42
100
AcDbEntity
  8
0
100
AcDbBlockBegin
  2
*D11
 70
     1
 10
0.0
 20
0.0
 30
0.0
  3
*D11
  1

  0
TEXT
  5
1BB
330
42
100
AcDbEntity
  8
0
 62
     7
370
    13
390
F
100
AcDbText
 10
294.899359
 20
503.726196
 30
0.0
 40
3.0
  1
400
 41
1.267805720867731
 72
     5
 11
302.699359
 21
503.726196
 31
0.0
100
AcDbText
  0
LINE
  5
1BC
330
42
100
AcDbEntity
  8
0
 62
     7
370
    13
390
F
100
AcDbLine
 10
98.715515
 20
472.059906
 30
0.0
 11
98.715515
 21
503.726196
 31
0.0
  0
LINE
  5
1BD
330
42
100
AcDbEntity
  8
0
 62
     7
370
    13
390
F
100
AcDbLine
 10
498.715515
 20
472.059906
 30
0.0
 11
498.715515
 21
503.726196
 31
0.0
  0
LWPOLYLINE
  5
1BE
330
42
100
AcDbEntity
  8
0
 62
     7
370
    35
390
F
100
AcDbPolyline
 90
        3
 70
     0
 43
0.0
 10
100.647369
 20
503.243835
 10
98.715515
 20
502.726196
 10
100.647369
 20
502.208557
  0
LWPOLYLINE
  5
1C3
330
42
100
AcDbEntity
  8
0
 62
     7
370
    35
390
F
100
AcDbPolyline
 90
        3
 70
     0
 43
0.0
 10
496.783661
 20
502.208557
 10
498.715515
 20
502.726196
 10
496.783661
 20
503.243835
  0
LINE
  5
1C8
330
42
100
AcDbEntity
  8
0
 62
     7
370
    13
390
F
100
AcDbLine
 10
98.715515
 20
502.726196
 30
0.0
 11
498.715515
 21
502.726196
 31
0.0
  0
ENDBLK
  5
51F
330
42
100
AcDbEntity
  8
0
100
AcDbBlockEnd
  0
BLOCK
  5
520
330
10C
100
AcDbEntity
  8
0
100
AcDbBlockBegin
  2
Block0
 70
     0
 10
0.0
 20
0.0
 30
0.0
  3
Block0
  1

  0
TEXT
  5
1CB
330
10C
100
AcDbEntity
  8
0
 62
     7
370
    70
390
F
100
AcDbText
 10
66.009872
 20
205.62558
 30
0.0
 40
3.0
  1
A
 41
0.9777764444444428
 72
     5
 11
68.209869
 21
205.62558
 31
0.0
100
AcDbText
  0
ENDBLK
  5
521
330
10C
100
AcDbEntity
  8
0
100
AcDbBlockEnd
  0
BLOCK
  5
522
330
84
100
AcDbEntity
  8
0
100
AcDbBlockBegin
  2
*D13
 70
     1
 10
0.0
 20
0.0
 30
0.0
  3
*D13
  1

  0
TEXT
  5
1CE
330
84
100
AcDbEntity
  8
0
 62
     7
370
    13
390
F
100
AcDbText
 10
673.474469
 20
495.649445
 30
0.0
 40
3.0
  1
100
 41
1.485046098493358
 72
     5
 11
681.274469
 21
495.649445
 31
0.0
100
AcDbText
  0
LINE
  5
1CF
330
84
100
AcDbEntity
  8
0
 62
     7
370
    13
390
F
100
AcDbLine
 10
628.110291
 20
466.798035
 30
0.0
 11
628.110291
 21
495.649445
 31
0.0
  0
LINE
  5
1D0
330
84
100
AcDbEntity
  8
0
 62
     7
370
    13
390
F
100
AcDbLine
 10
728.110291
 20
466.798035
 30
0.0
 11
728.110291
 21
495.649445
 31
0.0
  0
LWPOLYLINE
  5
1D1
330
84
100
AcDbEntity
  8
0
 62
     7
370
    35
390
F
100
AcDbPolyline
 90
        3
 70
     0
 43
0.0
 10
630.042141
 20
495.167084
 10
628.110291
 20
494.649445
 10
630.042141
 20
494.131821
  0
LWPOLYLINE
  5
1D6
330
84
100
AcDbEntity
  8
0
 62
     7
370
    35
390
F
100
AcDbPolyline
 90
        3
 70
     0
 43
0.0
 10
726.17844
 20
494.131821
 10
728.110291
 20
494.649445
 10
726.17844
 20
495.167084
  0
LINE
  5
1DB
330
84
100
AcDbEntity
  8
0
 62
     7
370
    13
390
F
100
AcDbLine
 10
628.110291
 20
494.649445
 30
0.0
 11
728.110291
 21
494.649445
 31
0.0
  0
ENDBLK
  5
523
330
84
100
AcDbEntity
  8
0
100
AcDbBlockEnd
  0
BLOCK
  5
524
330
86
100
AcDbEntity
  8
0
100
AcDbBlockBegin
  2
*D14
 70
     1
 10
0.0
 20
0.0
 30
0.0
  3
*D14
  1

  0
TEXT
  5
1DE
330
86
100
AcDbEntity
  8
0
 62
     7
370
    13
390
F
100
AcDbText
 10
765.440048
 20
317.050217
 30
0.0
 40
3.0
  1
200
 50
90.0
 41
1.332795669021191
 72
     5
 11
765.440048
 21
324.85022
 31
0.0
100
AcDbText
  0
LINE
  5
1DF
330
86
100
AcDbEntity
  8
0
 62
     7
370
    13
390
F
100
AcDbLine
 10
713.110291
 20
220.798035
 30
0.0
 11
767.440048
 21
220.798035
 31
0.0
  0
LINE
  5
1E0
330
86
100
AcDbEntity
  8
0
 62
     7
370
    13
390
F
100
AcDbLine
 10
728.110291
 20
420.798035
 30
0.0
 11
767.440048
 21
420.798035
 31
0.0
  0
LWPOLYLINE
  5
1E1
330
86
100
AcDbEntity
  8
0
 62
     7
370
    35
390
F
100
AcDbPolyline
 90
        3
 70
     0
 43
0.0
 10
765.922409
 20
222.729885
 10
766.440048
 20
220.798035
 10
766.957687
 20
222.729885
  0
LWPOLYLINE
  5
1E6
330
86
100
AcDbEntity
  8
0
 62
     7
370
    35
390
F
100
AcDbPolyline
 90
        3
 70
     0
 43
0.0
 10
766.957687
 20
418.86618
 10
766.440048
 20
420.798035
 10
765.922409
 20
418.86618
  0
LINE
  5
1EB
330
86
100
AcDbEntity
  8
0
 62
     7
370
    13
390
F
100
AcDbLine
 10
766.440048
 20
220.798035
 30
0.0
 11
766.440048
 21
420.798035
 31
0.0
  0
ENDBLK
  5
525
330
86
100
AcDbEntity
  8
0
100
AcDbBlockEnd
  0
BLOCK
  5
526
330
88
100
AcDbEntity
  8
0
100
AcDbBlockBegin
  2
*D15
 70
     1
 10
0.0
 20
0.0
 30
0.0
  3
*D15
  1

  0
TEXT
  5
1EE
330
88
100
AcDbEntity
  8
0
 62
     7
370
    13
390
F
100
AcDbText
 10
765.440048
 20
443.298035
 30
0.0
 40
3.0
  1
50
 50
90.0
 41
1.332493967054873
 72
     5
 11
765.440048
 21
448.298035
 31
0.0
100
AcDbText
  0
LINE
  5
1EF
330
88
100
AcDbEntity
  8
0
 62
     7
370
    13
390
F
100
AcDbLine
 10
728.110291
 20
420.798035
 30
0.0
 11
767.440048
 21
420.798035
 31
0.0
  0
LINE
  5
1F0
330
88
100
AcDbEntity
  8
0
 62
     7
370
    13
390
F
100
AcDbLine
 10
724.110291
 20
470.798035
 30
0.0
 11
767.440048
 21
470.798035
 31
0.0
  0
LWPOLYLINE
  5
1F1
330
88
100
AcDbEntity
  8
0
 62
     7
370
    35
390
F
100
AcDbPolyline
 90
        3
 70
     0
 43
0.0
 10
766.957687
 20
468.86618
 10
766.440048
 20
470.798035
 10
765.922409
 20
468.86618
  0
LWPOLYLINE
  5
1F6
330
88
100
AcDbEntity
  8
0
 62
     7
370
    35
390
F
100
AcDbPolyline
 90
        3
 70
     0
 43
0.0
 10
765.922409
 20
422.729889
 10
766.440048
 20
420.798035
 10
766.957687
 20
422.729889
  0
LINE
  5
1FB
330
88
100
AcDbEntity
  8
0
 62
     7
370
    13
390
F
100
AcDbLine
 10
766.440048
 20
420.798035
 30
0.0
 11
766.440048
 21
470.798035
 31
0.0
  0
ENDBLK
  5
527
330
88
100
AcDbEntity
  8
0
100
AcDbBlockEnd
  0
BLOCK
  5
528
330
8A
100
AcDbEntity
  8
0
100
AcDbBlockBegin
  2
*D16
 70
     1
 10
0.0
 20
0.0
 30
0.0
  3
*D16
  1

  0
TEXT
  5
1FE
330
8A
100
AcDbEntity
  8
0
 62
     7
370
    13
390
F
100
AcDbText
 10
676.766959
 20
443.724136
 30
0.0
 40
3.0
  1
30
 50
51.16114528834168
 41
1.332493181845916
 72
     5
 11
679.902618
 21
447.618698
 31
0.0
100
AcDbText
  0
TEXT
  5
1FF
330
8A
100
AcDbEntity
  8
0
 62
     7
370
    13
390
F
100
AcDbText
 10
674.760137
 20
441.231613
 30
0.0
 40
3.0
  1
%%c
 50
51.16140122630172
 41
0.9777826547584526
 72
     5
 11
676.139827
 21
442.945236
 31
0.0
100
AcDbText
  0
LWPOLYLINE
  5
200
330
8A
100
AcDbEntity
  8
0
 62
     7
370
    35
390
F
100
AcDbPolyline
 90
        3
 70
     0
 43
0.0
 10
686.708939
 20
453.652359
 10
687.517269
 20
455.481735
 10
685.902548
 20
454.30162
  0
LWPOLYLINE
  5
205
330
8A
100
AcDbEntity
  8
0
 62
     7
370
    35
390
F
100
AcDbPolyline
 90
        3
 70
     0
 43
0.0
 10
669.511642
 20
433.94371
 10
668.703312
 20
432.114334
 10
670.318033
 20
433.294449
  0
LINE
  5
20A
330
8A
100
AcDbEntity
  8
0
 62
     7
370
    13
390
F
100
AcDbLine
 10
668.703312
 20
432.114334
 30
0.0
 11
687.517269
 21
455.481735
 31
0.0
  0
ENDBLK
  5
529
330
8A
100
AcDbEntity
  8
0
100
AcDbBlockEnd
  0
BLOCK
  5
52A
330
10D
100
AcDbEntity
  8
0
100
AcDbBlockBegin
  2
Block1
 70
     0
 10
0.0
 20
0.0
 30
0.0
  3
Block1
  1

  0
LINE
  5
20D
330
10D
100
AcDbEntity
  8
0
 62
     7
370
    13
390
F
100
AcDbLine
 10
60.330032
 20
186.151581
 30
0.0
 11
60.330032
 21
212.125031
 31
0.0
  0
LWPOLYLINE
  5
20E
330
10D
100
AcDbEntity
  8
0
 62
     7
370
    13
390
F
100
AcDbPolyline
 90
        3
 70
     0
 43
0.0
 10
60.847672
 20
210.193176
 10
60.330032
 20
212.125031
 10
59.812393
 20
210.193176
  0
ENDBLK
  5
52B
330
10D
100
AcDbEntity
  8
0
100
AcDbBlockEnd
  0
BLOCK
  5
52C
330
C8
100
AcDbEntity
  8
0
100
AcDbBlockBegin
  2
*D18
 70
     1
 10
0.0
 20
0.0
 30
0.0
  3
*D18
  1

  0
TEXT
  5
215
330
C8
100
AcDbEntity
  8
0
 62
     7
370
    13
390
F
100
AcDbText
 10
452.782211
 20
98.235209
 30
0.0
 40
3.0
  1
13
 50
43.89646921062166
 41
1.587300617120778
 72
     5
 11
456.385178
 21
101.701994
 31
0.0
100
AcDbText
  0
TEXT
  5
216
330
C8
100
AcDbEntity
  8
0
 62
     7
370
    13
390
F
100
AcDbText
 10
450.476318
 20
96.016466
 30
0.0
 40
3.0
  1
%%c
 50
43.89661483183114
 41
0.9777743410479077
 72
     5
 11
452.061615
 21
97.541851
 31
0.0
100
AcDbText
  0
LWPOLYLINE
  5
217
330
C8
100
AcDbEntity
  8
0
 62
     7
370
    35
390
F
100
AcDbPolyline
 90
        3
 70
     0
 43
0.0
 10
438.763367
 20
84.076867
 10
437.730194
 20
82.364397
 10
439.481186
 20
83.330853
  0
LWPOLYLINE
  5
21C
330
C8
100
AcDbEntity
  8
0
 62
     7
370
    35
390
F
100
AcDbPolyline
 90
        3
 70
     0
 43
0.0
 10
446.064758
 20
89.665569
 10
447.097931
 20
91.378039
 10
445.346939
 20
90.411583
  0
LINE
  5
221
330
C8
100
AcDbEntity
  8
0
 62
     7
370
    13
390
F
100
AcDbLine
 10
437.730194
 20
82.364397
 30
0.0
 11
457.078537
 21
100.9814
 31
0.0
  0
ENDBLK
  5
52D
330
C8
100
AcDbEntity
  8
0
100
AcDbBlockEnd
  0
BLOCK
  5
52E
330
CA
100
AcDbEntity
  8
0
100
AcDbBlockBegin
  2
*D19
 70
     1
 10
0.0
 20
0.0
 30
0.0
  3
*D19
  1

  0
TEXT
  5
224
330
CA
100
AcDbEntity
  8
0
 62
     7
370
    13
390
F
100
AcDbText
 10
154.914063
 20
151.79088
 30
0.0
 40
3.0
  1
30
 41
1.332493967054873
 72
     5
 11
159.914063
 21
151.79088
 31
0.0
100
AcDbText
  0
LINE
  5
225
330
CA
100
AcDbEntity
  8
0
 62
     7
370
    13
390
F
100
AcDbLine
 10
142.414063
 20
106.095366
 30
0.0
 11
142.414063
 21
151.79088
 31
0.0
  0
LINE
  5
226
330
CA
100
AcDbEntity
  8
0
 62
     7
370
    13
390
F
100
AcDbLine
 10
172.414063
 20
95.132953
 30
0.0
 11
172.414063
 21
151.79088
 31
0.0
  0
LWPOLYLINE
  5
227
330
CA
100
AcDbEntity
  8
0
 62
     7
370
    35
390
F
100
AcDbPolyline
 90
        3
 70
     0
 43
0.0
 10
170.482208
 20
150.273241
 10
172.414063
 20
150.79088
 10
170.482208
 20
151.308519
  0
LWPOLYLINE
  5
22C
330
CA
100
AcDbEntity
  8
0
 62
     7
370
    35
390
F
100
AcDbPolyline
 90
        3
 70
     0
 43
0.0
 10
144.345917
 20
151.308519
 10
142.414063
 20
150.79088
 10
144.345917
 20
150.273241
  0
LINE
  5
231
330
CA
100
AcDbEntity
  8
0
 62
     7
370
    13
390
F
100
AcDbLine
 10
142.414063
 20
150.79088
 30
0.0
 11
172.414063
 21
150.79088
 31
0.0
  0
ENDBLK
  5
52F
330
CA
100
AcDbEntity
  8
0
100
AcDbBlockEnd
  0
BLOCK
  5
530
330
CC
100
AcDbEntity
  8
0
100
AcDbBlockBegin
  2
*D20
 70
     1
 10
0.0
 20
0.0
 30
0.0
  3
*D20
  1

  0
TEXT
  5
234
330
CC
100
AcDbEntity
  8
0
 62
     7
370
    13
390
F
100
AcDbText
 10
424.914063
 20
151.687502
 30
0.0
 40
3.0
  1
30
 41
1.332493967054873
 72
     5
 11
429.914063
 21
151.687502
 31
0.0
100
AcDbText
  0
LINE
  5
235
330
CC
100
AcDbEntity
  8
0
 62
     7
370
    13
390
F
100
AcDbLine
 10
412.414063
 20
96.664085
 30
0.0
 11
412.414063
 21
151.687502
 31
0.0
  0
LINE
  5
236
330
CC
100
AcDbEntity
  8
0
 62
     7
370
    13
390
F
100
AcDbLine
 10
442.414063
 20
105.260202
 30
0.0
 11
442.414063
 21
151.687502
 31
0.0
  0
LWPOLYLINE
  5
237
330
CC
100
AcDbEntity
  8
0
 62
     7
370
    35
390
F
100
AcDbPolyline
 90
        3
 70
     0
 43
0.0
 10
440.482208
 20
150.169863
 10
442.414063
 20
150.687502
 10
440.482208
 20
151.205141
  0
LWPOLYLINE
  5
23C
330
CC
100
AcDbEntity
  8
0
 62
     7
370
    35
390
F
100
AcDbPolyline
 90
        3
 70
     0
 43
0.0
 10
414.345917
 20
151.205141
 10
412.414063
 20
150.687502
 10
414.345917
 20
150.169863
  0
LINE
  5
241
330
CC
100
AcDbEntity
  8
0
 62
     7
370
    13
390
F
100
AcDbLine
 10
412.414063
 20
150.687502
 30
0.0
 11
442.414063
 21
150.687502
 31
0.0
  0
ENDBLK
  5
531
330
CC
100
AcDbEntity
  8
0
100
AcDbBlockEnd
  0
BLOCK
  5
532
330
CE
100
AcDbEntity
  8
0
100
AcDbBlockBegin
  2
*D21
 70
     1
 10
0.0
 20
0.0
 30
0.0
  3
*D21
  1

  0
TEXT
  5
244
330
CE
100
AcDbEntity
  8
0
 62
     7
370
    13
390
F
100
AcDbText
 10
316.394861
 20
152.706484
 30
0.0
 40
3.5
  1
55
 41
1.547895999999998
 72
     5
 11
323.166906
 21
152.706484
 31
0.0
100
AcDbText
  0
LINE
  5
245
330
CE
100
AcDbEntity
  8
0
 62
     7
370
    13
390
F
100
AcDbLine
 10
292.147705
 20
88.871218
 30
0.0
 11
292.147705
 21
152.706484
 31
0.0
  0
LINE
  5
246
330
CE
100
AcDbEntity
  8
0
 62
     7
370
    13
390
F
100
AcDbLine
 10
347.414063
 20
99.647486
 30
0.0
 11
347.414063
 21
152.706484
 31
0.0
  0
LWPOLYLINE
  5
247
330
CE
100
AcDbEntity
  8
0
 62
     7
370
    13
390
F
100
AcDbPolyline
 90
        3
 70
     0
 43
0.0
 10
345.482212
 20
150.188845
 10
347.414063
 20
150.706484
 10
345.482212
 20
151.224123
  0
LWPOLYLINE
  5
24C
330
CE
100
AcDbEntity
  8
0
 62
     7
370
    13
390
F
100
AcDbPolyline
 90
        3
 70
     0
 43
0.0
 10
294.079557
 20
151.224123
 10
292.147705
 20
150.706484
 10
294.079557
 20
150.188845
  0
LINE
  5
251
330
CE
100
AcDbEntity
  8
0
 62
     7
370
    13
390
F
100
AcDbLine
 10
292.147705
 20
150.706484
 30
0.0
 11
347.414063
 21
150.706484
 31
0.0
  0
ENDBLK
  5
533
330
CE
100
AcDbEntity
  8
0
100
AcDbBlockEnd
  0
BLOCK
  5
534
330
D0
100
AcDbEntity
  8
0
100
AcDbBlockBegin
  2
*D22
 70
     1
 10
0.0
 20
0.0
 30
0.0
  3
*D22
  1

  0
TEXT
  5
254
330
D0
100
AcDbEntity
  8
0
 62
     7
370
    13
390
F
100
AcDbText
 10
376.528038
 20
152.800631
 30
0.0
 40
3.5
  1
55
 41
1.547896914285723
 72
     5
 11
383.300087
 21
152.800631
 31
0.0
100
AcDbText
  0
LINE
  5
255
330
D0
100
AcDbEntity
  8
0
 62
     7
370
    13
390
F
100
AcDbLine
 10
352.414063
 20
101.776059
 30
0.0
 11
352.414063
 21
152.800631
 31
0.0
  0
LINE
  5
256
330
D0
100
AcDbEntity
  8
0
 62
     7
370
    13
390
F
100
AcDbLine
 10
407.414063
 20
98.664085
 30
0.0
 11
407.414063
 21
152.800631
 31
0.0
  0
LWPOLYLINE
  5
257
330
D0
100
AcDbEntity
  8
0
 62
     7
370
    13
390
F
100
AcDbPolyline
 90
        3
 70
     0
 43
0.0
 10
354.345913
 20
151.31827
 10
352.414063
 20
150.800631
 10
354.345913
 20
150.282991
  0
LWPOLYLINE
  5
25C
330
D0
100
AcDbEntity
  8
0
 62
     7
370
    13
390
F
100
AcDbPolyline
 90
        3
 70
     0
 43
0.0
 10
405.482208
 20
150.282991
 10
407.414063
 20
150.800631
 10
405.482208
 20
151.31827
  0
LINE
  5
261
330
D0
100
AcDbEntity
  8
0
 62
     7
370
    13
390
F
100
AcDbLine
 10
352.414063
 20
150.800631
 30
0.0
 11
407.414063
 21
150.800631
 31
0.0
  0
ENDBLK
  5
535
330
D0
100
AcDbEntity
  8
0
100
AcDbBlockEnd
  0
BLOCK
  5
536
330
D2
100
AcDbEntity
  8
0
100
AcDbBlockBegin
  2
*D23
 70
     1
 10
0.0
 20
0.0
 30
0.0
  3
*D23
  1

  0
TEXT
  5
264
330
D2
100
AcDbEntity
  8
0
 62
     7
370
    13
390
F
100
AcDbText
 10
348.566093
 20
156.894472
 30
0.0
 40
3.5
  1
5
 41
1.577156363636359
 72
     5
 11
351.602119
 21
156.894472
 31
0.0
100
AcDbText
  0
LINE
  5
265
330
D2
100
AcDbEntity
  8
0
 62
     7
370
    13
390
F
100
AcDbLine
 10
347.414063
 20
99.647486
 30
0.0
 11
347.414063
 21
156.894472
 31
0.0
  0
LINE
  5
266
330
D2
100
AcDbEntity
  8
0
 62
     7
370
    13
390
F
100
AcDbLine
 10
352.414063
 20
101.776059
 30
0.0
 11
352.414063
 21
156.894472
 31
0.0
  0
LWPOLYLINE
  5
267
330
D2
100
AcDbEntity
  8
0
 62
     7
370
    13
390
F
100
AcDbPolyline
 90
        3
 70
     0
 43
0.0
 10
345.482212
 20
154.376833
 10
347.414063
 20
154.894472
 10
345.482212
 20
155.412111
  0
LWPOLYLINE
  5
26C
330
D2
100
AcDbEntity
  8
0
 62
     7
370
    13
390
F
100
AcDbPolyline
 90
        3
 70
     0
 43
0.0
 10
354.345913
 20
155.412111
 10
352.414063
 20
154.894472
 10
354.345913
 20
154.376833
  0
LINE
  5
271
330
D2
100
AcDbEntity
  8
0
 62
     7
 48
0.375
370
    13
390
F
100
AcDbLine
 10
342.414063
 20
154.894472
 30
0.0
 11
357.414063
 21
154.894472
 31
0.0
  0
ENDBLK
  5
537
330
D2
100
AcDbEntity
  8
0
100
AcDbBlockEnd
  0
BLOCK
  5
538
330
D4
100
AcDbEntity
  8
0
100
AcDbBlockBegin
  2
*D24
 70
     1
 10
0.0
 20
0.0
 30
0.0
  3
*D24
  1

  0
TEXT
  5
274
330
D4
100
AcDbEntity
  8
0
 62
     7
370
    13
390
F
100
AcDbText
 10
408.283104
 20
157.09833
 30
0.0
 40
3.5
  1
5
 41
1.577156363636359
 72
     5
 11
411.31913
 21
157.09833
 31
0.0
100
AcDbText
  0
LINE
  5
275
330
D4
100
AcDbEntity
  8
0
 62
     7
370
    13
390
F
100
AcDbLine
 10
407.414063
 20
98.664085
 30
0.0
 11
407.414063
 21
157.09833
 31
0.0
  0
LINE
  5
276
330
D4
100
AcDbEntity
  8
0
 62
     7
370
    13
390
F
100
AcDbLine
 10
412.414063
 20
98.664085
 30
0.0
 11
412.414063
 21
157.09833
 31
0.0
  0
LWPOLYLINE
  5
277
330
D4
100
AcDbEntity
  8
0
 62
     7
370
    13
390
F
100
AcDbPolyline
 90
        3
 70
     0
 43
0.0
 10
405.482208
 20
154.58069
 10
407.414063
 20
155.09833
 10
405.482208
 20
155.615969
  0
LWPOLYLINE
  5
27C
330
D4
100
AcDbEntity
  8
0
 62
     7
370
    13
390
F
100
AcDbPolyline
 90
        3
 70
     0
 43
0.0
 10
414.345917
 20
155.615969
 10
412.414063
 20
155.09833
 10
414.345917
 20
154.58069
  0
LINE
  5
281
330
D4
100
AcDbEntity
  8
0
 62
     7
 48
0.375
370
    13
390
F
100
AcDbLine
 10
402.414063
 20
155.09833
 30
0.0
 11
417.414063
 21
155.09833
 31
0.0
  0
ENDBLK
  5
539
330
D4
100
AcDbEntity
  8
0
100
AcDbBlockEnd
  0
BLOCK
  5
53A
330
D6
100
AcDbEntity
  8
0
100
AcDbBlockBegin
  2
*D25
 70
     1
 10
0.0
 20
0.0
 30
0.0
  3
*D25
  1

  0
TEXT
  5
284
330
D6
100
AcDbEntity
  8
0
 62
     7
370
    13
390
F
100
AcDbText
 10
424.751892
 20
77.219979
 30
0.0
 40
3.5
  1
6.5
 50
314.630154802505
 41
1.936969276807586
 72
     5
 11
432.134094
 21
69.741852
 31
0.0
100
AcDbText
  0
TEXT
  5
285
330
D6
100
AcDbEntity
  8
0
 62
     7
370
    13
390
F
100
AcDbText
 10
421.916458
 20
80.092237
 30
0.0
 40
3.5
  1
R
 50
314.6303556268855
 41
1.334519474512475
 72
     5
 11
424.049362
 21
77.931633
 31
0.0
100
AcDbText
  0
LWPOLYLINE
  5
286
330
D6
100
AcDbEntity
  8
0
 62
     7
370
    13
390
F
100
AcDbPolyline
 90
        3
 70
     0
 43
0.0
 10
418.706062
 20
81.234299
 10
416.980499
 20
82.245456
 10
417.969299
 20
80.506988
  0
LINE
  5
28B
330
D6
100
AcDbEntity
  8
0
 62
     7
370
    13
390
F
100
AcDbLine
 10
412.414063
 20
86.871218
 30
0.0
 11
430.710785
 21
68.336794
 31
0.0
  0
ENDBLK
  5
53B
330
D6
100
AcDbEntity
  8
0
100
AcDbBlockEnd
  0
BLOCK
  5
53C
330
D8
100
AcDbEntity
  8
0
100
AcDbBlockBegin
  2
*D26
 70
     1
 10
0.0
 20
0.0
 30
0.0
  3
*D26
  1

  0
TEXT
  5
28E
330
D8
100
AcDbEntity
  8
0
 62
     7
370
    13
390
F
100
AcDbText
 10
363.913101
 20
76.234477
 30
0.0
 40
3.5
  1
6.5
 50
309.8952777518473
 41
1.936970797938567
 72
     5
 11
370.652832
 21
68.172499
 31
0.0
100
AcDbText
  0
TEXT
  5
28F
330
D8
100
AcDbEntity
  8
0
 62
     7
370
    13
390
F
100
AcDbText
 10
361.324448
 20
79.330986
 30
0.0
 40
3.5
  1
R
 50
309.8953128971627
 41
1.334515403713434
 72
     5
 11
363.271713
 21
77.001696
 31
0.0
100
AcDbText
  0
LWPOLYLINE
  5
290
330
D8
100
AcDbEntity
  8
0
 62
     7
370
    13
390
F
100
AcDbPolyline
 90
        3
 70
     0
 43
0.0
 10
358.219284
 20
80.734157
 10
356.583076
 20
81.884302
 10
357.424995
 20
80.070145
  0
LINE
  5
295
330
D8
100
AcDbEntity
  8
0
 62
     7
370
    13
390
F
100
AcDbLine
 10
352.414063
 20
86.871218
 30
0.0
 11
369.118393
 21
66.889727
 31
0.0
  0
ENDBLK
  5
53D
330
D8
100
AcDbEntity
  8
0
100
AcDbBlockEnd
  0
BLOCK
  5
53E
330
DA
100
AcDbEntity
  8
0
100
AcDbBlockBegin
  2
*D27
 70
     1
 10
0.0
 20
0.0
 30
0.0
  3
*D27
  1

  0
TEXT
  5
298
330
DA
100
AcDbEntity
  8
0
 62
     7
370
    13
390
F
100
AcDbText
 10
261.394861
 20
152.734575
 30
0.0
 40
3.5
  1
55
 41
1.547895999999998
 72
     5
 11
268.166906
 21
152.734575
 31
0.0
100
AcDbText
  0
LINE
  5
299
330
DA
100
AcDbEntity
  8
0
 62
     7
370
    13
390
F
100
AcDbLine
 10
237.414063
 20
108.652988
 30
0.0
 11
237.414063
 21
152.734575
 31
0.0
  0
LINE
  5
29A
330
DA
100
AcDbEntity
  8
0
 62
     7
370
    13
390
F
100
AcDbLine
 10
292.147705
 20
88.871218
 30
0.0
 11
292.147705
 21
152.734575
 31
0.0
  0
LWPOLYLINE
  5
29B
330
DA
100
AcDbEntity
  8
0
 62
     7
370
    13
390
F
100
AcDbPolyline
 90
        3
 70
     0
 43
0.0
 10
290.215853
 20
150.216936
 10
292.147705
 20
150.734575
 10
290.215853
 20
151.252214
  0
LWPOLYLINE
  5
2A0
330
DA
100
AcDbEntity
  8
0
 62
     7
370
    13
390
F
100
AcDbPolyline
 90
        3
 70
     0
 43
0.0
 10
239.345913
 20
151.252214
 10
237.414063
 20
150.734575
 10
239.345913
 20
150.216936
  0
LINE
  5
2A5
330
DA
100
AcDbEntity
  8
0
 62
     7
370
    13
390
F
100
AcDbLine
 10
237.414063
 20
150.734575
 30
0.0
 11
292.147705
 21
150.734575
 31
0.0
  0
ENDBLK
  5
53F
330
DA
100
AcDbEntity
  8
0
100
AcDbBlockEnd
  0
BLOCK
  5
540
330
DC
100
AcDbEntity
  8
0
100
AcDbBlockBegin
  2
*D28
 70
     1
 10
0.0
 20
0.0
 30
0.0
  3
*D28
  1

  0
TEXT
  5
2A8
330
DC
100
AcDbEntity
  8
0
 62
     7
370
    13
390
F
100
AcDbText
 10
232.881966
 20
159.894869
 30
0.0
 40
3.5
  1
5
 41
1.577156363636359
 72
     5
 11
235.917992
 21
159.894869
 31
0.0
100
AcDbText
  0
LINE
  5
2A9
330
DC
100
AcDbEntity
  8
0
 62
     7
370
    13
390
F
100
AcDbLine
 10
232.414063
 20
103.249687
 30
0.0
 11
232.414063
 21
159.894869
 31
0.0
  0
LINE
  5
2AA
330
DC
100
AcDbEntity
  8
0
 62
     7
370
    13
390
F
100
AcDbLine
 10
237.414063
 20
108.652988
 30
0.0
 11
237.414063
 21
159.894869
 31
0.0
  0
LWPOLYLINE
  5
2AB
330
DC
100
AcDbEntity
  8
0
 62
     7
370
    13
390
F
100
AcDbPolyline
 90
        3
 70
     0
 43
0.0
 10
239.345913
 20
158.412508
 10
237.414063
 20
157.894869
 10
239.345913
 20
157.37723
  0
LWPOLYLINE
  5
2B0
330
DC
100
AcDbEntity
  8
0
 62
     7
370
    13
390
F
100
AcDbPolyline
 90
        3
 70
     0
 43
0.0
 10
230.482212
 20
157.37723
 10
232.414063
 20
157.894869
 10
230.482212
 20
158.412508
  0
LINE
  5
2B5
330
DC
100
AcDbEntity
  8
0
 62
     7
 48
0.375
370
    13
390
F
100
AcDbLine
 10
227.414063
 20
157.894869
 30
0.0
 11
242.414063
 21
157.894869
 31
0.0
  0
ENDBLK
  5
541
330
DC
100
AcDbEntity
  8
0
100
AcDbBlockEnd
  0
BLOCK
  5
542
330
DE
100
AcDbEntity
  8
0
100
AcDbBlockBegin
  2
*D29
 70
     1
 10
0.0
 20
0.0
 30
0.0
  3
*D29
  1

  0
TEXT
  5
2B8
330
DE
100
AcDbEntity
  8
0
 62
     7
370
    13
390
F
100
AcDbText
 10
201.528038
 20
152.79088
 30
0.0
 40
3.5
  1
55
 41
1.54789691428571
 72
     5
 11
208.300087
 21
152.79088
 31
0.0
100
AcDbText
  0
LINE
  5
2B9
330
DE
100
AcDbEntity
  8
0
 62
     7
370
    13
390
F
100
AcDbLine
 10
177.414063
 20
99.081667
 30
0.0
 11
177.414063
 21
152.79088
 31
0.0
  0
LINE
  5
2BA
330
DE
100
AcDbEntity
  8
0
 62
     7
370
    13
390
F
100
AcDbLine
 10
232.414063
 20
103.249687
 30
0.0
 11
232.414063
 21
152.79088
 31
0.0
  0
LWPOLYLINE
  5
2BB
330
DE
100
AcDbEntity
  8
0
 62
     7
370
    13
390
F
100
AcDbPolyline
 90
        3
 70
     0
 43
0.0
 10
230.482212
 20
150.273241
 10
232.414063
 20
150.79088
 10
230.482212
 20
151.308519
  0
LWPOLYLINE
  5
2C0
330
DE
100
AcDbEntity
  8
0
 62
     7
370
    13
390
F
100
AcDbPolyline
 90
        3
 70
     0
 43
0.0
 10
179.345917
 20
151.308519
 10
177.414063
 20
150.79088
 10
179.345917
 20
150.273241
  0
LINE
  5
2C5
330
DE
100
AcDbEntity
  8
0
 62
     7
370
    13
390
F
100
AcDbLine
 10
177.414063
 20
150.79088
 30
0.0
 11
232.414063
 21
150.79088
 31
0.0
  0
ENDBLK
  5
543
330
DE
100
AcDbEntity
  8
0
100
AcDbBlockEnd
  0
BLOCK
  5
544
330
E0
100
AcDbEntity
  8
0
100
AcDbBlockBegin
  2
*D30
 70
     1
 10
0.0
 20
0.0
 30
0.0
  3
*D30
  1

  0
TEXT
  5
2C8
330
E0
100
AcDbEntity
  8
0
 62
     7
370
    13
390
F
100
AcDbText
 10
172.96862
 20
161.136507
 30
0.0
 40
3.5
  1
5
 41
1.577156363636374
 72
     5
 11
176.004646
 21
161.136507
 31
0.0
100
AcDbText
  0
LINE
  5
2C9
330
E0
100
AcDbEntity
  8
0
 62
     7
370
    13
390
F
100
AcDbLine
 10
172.414063
 20
97.132953
 30
0.0
 11
172.414063
 21
161.136507
 31
0.0
  0
LINE
  5
2CA
330
E0
100
AcDbEntity
  8
0
 62
     7
370
    13
390
F
100
AcDbLine
 10
177.414063
 20
99.081667
 30
0.0
 11
177.414063
 21
161.136507
 31
0.0
  0
LWPOLYLINE
  5
2CB
330
E0
100
AcDbEntity
  8
0
 62
     7
370
    13
390
F
100
AcDbPolyline
 90
        3
 70
     0
 43
0.0
 10
179.345917
 20
159.654146
 10
177.414063
 20
159.136507
 10
179.345917
 20
158.618868
  0
LWPOLYLINE
  5
2D0
330
E0
100
AcDbEntity
  8
0
 62
     7
370
    13
390
F
100
AcDbPolyline
 90
        3
 70
     0
 43
0.0
 10
170.482208
 20
158.618868
 10
172.414063
 20
159.136507
 10
170.482208
 20
159.654146
  0
LINE
  5
2D5
330
E0
100
AcDbEntity
  8
0
 62
     7
 48
0.375
370
    13
390
F
100
AcDbLine
 10
167.414063
 20
159.136507
 30
0.0
 11
182.414063
 21
159.136507
 31
0.0
  0
ENDBLK
  5
545
330
E0
100
AcDbEntity
  8
0
100
AcDbBlockEnd
  0
BLOCK
  5
546
330
10E
100
AcDbEntity
  8
0
100
AcDbBlockBegin
  2
Block2
 70
     0
 10
0.0
 20
0.0
 30
0.0
  3
Block2
  1

  0
TEXT
  5
2D8
330
10E
100
AcDbEntity
  8
0
 62
     7
370
    13
390
F
100
AcDbText
 10
-409.081787
 20
232.131073
 30
0.0
 40
14.0
  1
GW85080 TESTA PALO SINGOLO
 41
1.209325408953897
 72
     5
 11
-93.335388
 21
232.131073
 31
0.0
100
AcDbText
  0
ENDBLK
  5
547
330
10E
100
AcDbEntity
  8
0
100
AcDbBlockEnd
  0
BLOCK
  5
548
330
3B9
100
AcDbEntity
  8
0
100
AcDbBlockBegin
  2
*D32
 70
     1
 10
0.0
 20
0.0
 30
0.0
  3
*D32
  1

  0
POINT
  5
3B0
330
3B9
100
AcDbEntity
  8
DEFPOINTS
  6
ByBlock
 62
     0
380
     1
100
AcDbPoint
 10
442.4577025098201
 20
136.871218
 30
0.0
  0
POINT
  5
3B1
330
3B9
100
AcDbEntity
  8
DEFPOINTS
  6
ByBlock
 62
     0
380
     1
100
AcDbPoint
 10
442.4577025098201
 20
36.871218
 30
0.0
  0
LINE
  5
3B2
330
3B9
100
AcDbEntity
  8
0
  6
ByBlock
 62
     0
370
    -2
380
     1
100
AcDbLine
 10
443.0827025098201
 20
136.871218
 30
0.0
 11
526.11098437028
 21
136.871218
 31
0.0
  0
LINE
  5
3B3
330
3B9
100
AcDbEntity
  8
0
  6
ByBlock
 62
     0
370
    -2
380
     1
100
AcDbLine
 10
443.0827025098201
 20
36.871218
 30
0.0
 11
526.11098437028
 21
36.871218
 31
0.0
  0
LINE
  5
3B4
330
3B9
100
AcDbEntity
  8
0
  6
ByBlock
 62
     0
370
    -2
380
     1
100
AcDbLine
 10
524.86098437028
 20
134.371218
 30
0.0
 11
524.86098437028
 21
39.371218
 31
0.0
  0
SOLID
  5
3B5
330
3B9
100
AcDbEntity
  8
0
  6
ByBlock
 62
     0
380
     1
100
AcDbTrace
 10
524.86098437028
 20
136.871218
 30
0.0
 11
524.4443177036134
 21
134.371218
 31
0.0
 12
525.2776510369466
 22
134.371218
 32
0.0
 13
525.2776510369466
 23
134.371218
 33
0.0
  0
SOLID
  5
3B6
330
3B9
100
AcDbEntity
  8
0
  6
ByBlock
 62
     0
380
     1
100
AcDbTrace
 10
524.86098437028
 20
36.871218
 30
0.0
 11
524.4443177036134
 21
39.371218
 31
0.0
 12
525.2776510369466
 22
39.371218
 32
0.0
 13
525.2776510369466
 23
39.371218
 33
0.0
  0
MTEXT
  5
3B7
330
3B9
100
AcDbEntity
  8
0
  6
ByBlock
 62
     0
370
    -2
380
     1
100
AcDbMText
 10
523.1100001183115
 20
86.871218
 30
0.0
 40
2.5
 41
0.0
 71
     5
 72
     1
  1
\A1;100
 11
6.123031769111886E-17
 21
1.0
 31
0.0
 73
     1
 44
1.0
  0
ENDBLK
  5
549
330
3B9
100
AcDbEntity
  8
0
100
AcDbBlockEnd
  0
BLOCK
  5
54A
330
3C4
100
AcDbEntity
  8
0
100
AcDbBlockBegin
  2
*D33
 70
     1
 10
0.0
 20
0.0
 30
0.0
  3
*D33
  1

  0
POINT
  5
3BB
330
3C4
100
AcDbEntity
  8
DEFPOINTS
  6
ByBlock
 62
     0
380
     1
100
AcDbPoint
 10
442.4577025098201
 20
136.871218
 30
0.0
  0
POINT
  5
3BC
330
3C4
100
AcDbEntity
  8
DEFPOINTS
  6
ByBlock
 62
     0
380
     1
100
AcDbPoint
 10
442.4577025098201
 20
36.871218
 30
0.0
  0
LINE
  5
3BD
330
3C4
100
AcDbEntity
  8
0
  6
ByBlock
 62
     0
370
    -2
380
     1
100
AcDbLine
 10
443.0827025098201
 20
136.871218
 30
0.0
 11
526.11098437028
 21
136.871218
 31
0.0
  0
LINE
  5
3BE
330
3C4
100
AcDbEntity
  8
0
  6
ByBlock
 62
     0
370
    -2
380
     1
100
AcDbLine
 10
443.0827025098201
 20
36.871218
 30
0.0
 11
526.11098437028
 21
36.871218
 31
0.0
  0
LINE
  5
3BF
330
3C4
100
AcDbEntity
  8
0
  6
ByBlock
 62
     0
370
    -2
380
     1
100
AcDbLine
 10
524.86098437028
 20
134.371218
 30
0.0
 11
524.86098437028
 21
39.371218
 31
0.0
  0
SOLID
  5
3C0
330
3C4
100
AcDbEntity
  8
0
  6
ByBlock
 62
     0
380
     1
100
AcDbTrace
 10
524.86098437028
 20
136.871218
 30
0.0
 11
524.4443177036134
 21
134.371218
 31
0.0
 12
525.2776510369466
 22
134.371218
 32
0.0
 13
525.2776510369466
 23
134.371218
 33
0.0
  0
SOLID
  5
3C1
330
3C4
100
AcDbEntity
  8
0
  6
ByBlock
 62
     0
380
     1
100
AcDbTrace
 10
524.86098437028
 20
36.871218
 30
0.0
 11
524.4443177036134
 21
39.371218
 31
0.0
 12
525.2776510369466
 22
39.371218
 32
0.0
 13
525.2776510369466
 23
39.371218
 33
0.0
  0
MTEXT
  5
3C2
330
3C4
100
AcDbEntity
  8
0
  6
ByBlock
 62
     0
370
    -2
380
     1
100
AcDbMText
 10
523.1100001183115
 20
86.871218
 30
0.0
 40
2.5
 41
0.0
 71
     5
 72
     1
  1
\A1;100
 11
6.123031769111886E-17
 21
1.0
 31
0.0
 73
     1
 44
1.0
  0
ENDBLK
  5
54B
330
3C4
100
AcDbEntity
  8
0
100
AcDbBlockEnd
  0
BLOCK
  5
54C
330
3CF
100
AcDbEntity
  8
0
100
AcDbBlockBegin
  2
*D34
 70
     1
 10
0.0
 20
0.0
 30
0.0
  3
*D34
  1

  0
POINT
  5
3C6
330
3CF
100
AcDbEntity
  8
DEFPOINTS
  6
ByBlock
 62
     7
380
     1
100
AcDbPoint
 10
442.4577025098201
 20
136.871218
 30
0.0
  0
POINT
  5
3C7
330
3CF
100
AcDbEntity
  8
DEFPOINTS
  6
ByBlock
 62
     7
380
     1
100
AcDbPoint
 10
442.4577025098201
 20
36.871218
 30
0.0
  0
LINE
  5
3C8
330
3CF
100
AcDbEntity
  8
0
  6
ByBlock
 62
     7
370
    -2
380
     1
100
AcDbLine
 10
443.0827025098201
 20
136.871218
 30
0.0
 11
526.11098437028
 21
136.871218
 31
0.0
  0
LINE
  5
3C9
330
3CF
100
AcDbEntity
  8
0
  6
ByBlock
 62
     7
370
    -2
380
     1
100
AcDbLine
 10
443.0827025098201
 20
36.871218
 30
0.0
 11
526.11098437028
 21
36.871218
 31
0.0
  0
LINE
  5
3CA
330
3CF
100
AcDbEntity
  8
0
  6
ByBlock
 62
     7
370
    -2
380
     1
100
AcDbLine
 10
524.86098437028
 20
126.871218
 30
0.0
 11
524.86098437028
 21
46.871218
 31
0.0
  0
SOLID
  5
3CB
330
3CF
100
AcDbEntity
  8
0
  6
ByBlock
 62
     7
380
     1
100
AcDbTrace
 10
524.86098437028
 20
136.871218
 30
0.0
 11
523.1943177036134
 21
126.871218
 31
0.0
 12
526.5276510369466
 22
126.871218
 32
0.0
 13
526.5276510369466
 23
126.871218
 33
0.0
  0
SOLID
  5
3CC
330
3CF
100
AcDbEntity
  8
0
  6
ByBlock
 62
     7
380
     1
100
AcDbTrace
 10
524.86098437028
 20
36.871218
 30
0.0
 11
523.1943177036134
 21
46.871218
 31
0.0
 12
526.5276510369466
 22
46.871218
 32
0.0
 13
526.5276510369466
 23
46.871218
 33
0.0
  0
MTEXT
  5
3CD
330
3CF
100
AcDbEntity
  8
0
  6
ByBlock
 62
     0
370
    -2
380
     1
100
AcDbMText
 10
513.5554725592564
 20
86.871218
 30
0.0
 40
14.0
 41
0.0
 71
     5
 72
     1
  1
\A1;100
 11
6.123031769111886E-17
 21
1.0
 31
0.0
 73
     1
 44
1.0
  0
ENDBLK
  5
54D
330
3CF
100
AcDbEntity
  8
0
100
AcDbBlockEnd
  0
BLOCK
  5
54E
330
3DB
100
AcDbEntity
  8
0
100
AcDbBlockBegin
  2
*D35
 70
     1
 10
0.0
 20
0.0
 30
0.0
  3
*D35
  1

  0
POINT
  5
3D2
330
3DB
100
AcDbEntity
  8
DEFPOINTS
  6
ByBlock
 62
     0
380
     1
100
AcDbPoint
 10
98.715515
 20
447.059906
 30
0.0
  0
POINT
  5
3D3
330
3DB
100
AcDbEntity
  8
DEFPOINTS
  6
ByBlock
 62
     0
380
     1
100
AcDbPoint
 10
498.715515
 20
452.059906
 30
0.0
  0
LINE
  5
3D4
330
3DB
100
AcDbEntity
  8
0
  6
ByBlock
 62
     0
370
    -2
380
     1
100
AcDbLine
 10
98.715515
 20
447.684906
 30
0.0
 11
98.715515
 21
505.8275179948847
 31
0.0
  0
LINE
  5
3D5
330
3DB
100
AcDbEntity
  8
0
  6
ByBlock
 62
     0
370
    -2
380
     1
100
AcDbLine
 10
498.715515
 20
452.684906
 30
0.0
 11
498.715515
 21
505.8275179948847
 31
0.0
  0
LINE
  5
3D6
330
3DB
100
AcDbEntity
  8
0
  6
ByBlock
 62
     0
370
    -2
380
     1
100
AcDbLine
 10
101.215515
 20
504.5775179948847
 30
0.0
 11
496.215515
 21
504.5775179948847
 31
0.0
  0
SOLID
  5
3D7
330
3DB
100
AcDbEntity
  8
0
  6
ByBlock
 62
     0
380
     1
100
AcDbTrace
 10
98.715515
 20
504.5775179948847
 30
0.0
 11
101.215515
 21
504.160851328218
 31
0.0
 12
101.215515
 22
504.9941846615513
 32
0.0
 13
101.215515
 23
504.9941846615513
 33
0.0
  0
SOLID
  5
3D8
330
3DB
100
AcDbEntity
  8
0
  6
ByBlock
 62
     0
380
     1
100
AcDbTrace
 10
498.715515
 20
504.5775179948847
 30
0.0
 11
496.215515
 21
504.160851328218
 31
0.0
 12
496.215515
 22
504.9941846615513
 32
0.0
 13
496.215515
 23
504.9941846615513
 33
0.0
  0
MTEXT
  5
3D9
330
3DB
100
AcDbEntity
  8
0
  6
ByBlock
 62
     0
370
    -2
380
     1
100
AcDbMText
 10
298.715515
 20
506.3285022468532
 30
0.0
 40
2.5
 41
0.0
 71
     5
 72
     1
  1
\A1;400
 73
     1
 44
1.0
  0
ENDBLK
  5
54F
330
3DB
100
AcDbEntity
  8
0
100
AcDbBlockEnd
  0
BLOCK
  5
550
330
3E6
100
AcDbEntity
  8
0
100
AcDbBlockBegin
  2
*D36
 70
     1
 10
0.0
 20
0.0
 30
0.0
  3
*D36
  1

  0
POINT
  5
3DD
330
3E6
100
AcDbEntity
  8
DEFPOINTS
  6
ByBlock
 62
     0
380
     1
100
AcDbPoint
 10
98.715515
 20
447.059906
 30
0.0
  0
POINT
  5
3DE
330
3E6
100
AcDbEntity
  8
DEFPOINTS
  6
ByBlock
 62
     0
380
     1
100
AcDbPoint
 10
498.715515
 20
452.059906
 30
0.0
  0
LINE
  5
3DF
330
3E6
100
AcDbEntity
  8
0
  6
ByBlock
 62
     0
370
    -2
380
     1
100
AcDbLine
 10
98.715515
 20
447.684906
 30
0.0
 11
98.715515
 21
505.8275179948847
 31
0.0
  0
LINE
  5
3E0
330
3E6
100
AcDbEntity
  8
0
  6
ByBlock
 62
     0
370
    -2
380
     1
100
AcDbLine
 10
498.715515
 20
452.684906
 30
0.0
 11
498.715515
 21
505.8275179948847
 31
0.0
  0
LINE
  5
3E1
330
3E6
100
AcDbEntity
  8
0
  6
ByBlock
 62
     0
370
    -2
380
     1
100
AcDbLine
 10
101.215515
 20
504.5775179948847
 30
0.0
 11
496.215515
 21
504.5775179948847
 31
0.0
  0
SOLID
  5
3E2
330
3E6
100
AcDbEntity
  8
0
  6
ByBlock
 62
     0
380
     1
100
AcDbTrace
 10
98.715515
 20
504.5775179948847
 30
0.0
 11
101.215515
 21
504.160851328218
 31
0.0
 12
101.215515
 22
504.9941846615513
 32
0.0
 13
101.215515
 23
504.9941846615513
 33
0.0
  0
SOLID
  5
3E3
330
3E6
100
AcDbEntity
  8
0
  6
ByBlock
 62
     0
380
     1
100
AcDbTrace
 10
498.715515
 20
504.5775179948847
 30
0.0
 11
496.215515
 21
504.160851328218
 31
0.0
 12
496.215515
 22
504.9941846615513
 32
0.0
 13
496.215515
 23
504.9941846615513
 33
0.0
  0
MTEXT
  5
3E4
330
3E6
100
AcDbEntity
  8
0
  6
ByBlock
 62
     0
370
    -2
380
     1
100
AcDbMText
 10
298.715515
 20
506.3285022468532
 30
0.0
 40
2.5
 41
0.0
 71
     5
 72
     1
  1
\A1;400
 73
     1
 44
1.0
  0
ENDBLK
  5
551
330
3E6
100
AcDbEntity
  8
0
100
AcDbBlockEnd
  0
BLOCK
  5
552
330
3F1
100
AcDbEntity
  8
0
100
AcDbBlockBegin
  2
*D37
 70
     1
 10
0.0
 20
0.0
 30
0.0
  3
*D37
  1

  0
POINT
  5
3E8
330
3F1
100
AcDbEntity
  8
DEFPOINTS
  6
ByBlock
 62
     0
380
     1
100
AcDbPoint
 10
98.715515
 20
447.059906
 30
0.0
  0
POINT
  5
3E9
330
3F1
100
AcDbEntity
  8
DEFPOINTS
  6
ByBlock
 62
     0
380
     1
100
AcDbPoint
 10
498.715515
 20
452.059906
 30
0.0
  0
LINE
  5
3EA
330
3F1
100
AcDbEntity
  8
0
  6
ByBlock
 62
     0
370
    -2
380
     1
100
AcDbLine
 10
98.715515
 20
447.684906
 30
0.0
 11
98.715515
 21
505.8275179948847
 31
0.0
  0
LINE
  5
3EB
330
3F1
100
AcDbEntity
  8
0
  6
ByBlock
 62
     0
370
    -2
380
     1
100
AcDbLine
 10
498.715515
 20
452.684906
 30
0.0
 11
498.715515
 21
505.8275179948847
 31
0.0
  0
LINE
  5
3EC
330
3F1
100
AcDbEntity
  8
0
  6
ByBlock
 62
     0
370
    -2
380
     1
100
AcDbLine
 10
101.215515
 20
504.5775179948847
 30
0.0
 11
496.215515
 21
504.5775179948847
 31
0.0
  0
SOLID
  5
3ED
330
3F1
100
AcDbEntity
  8
0
  6
ByBlock
 62
     0
380
     1
100
AcDbTrace
 10
98.715515
 20
504.5775179948847
 30
0.0
 11
101.215515
 21
504.160851328218
 31
0.0
 12
101.215515
 22
504.9941846615513
 32
0.0
 13
101.215515
 23
504.9941846615513
 33
0.0
  0
SOLID
  5
3EE
330
3F1
100
AcDbEntity
  8
0
  6
ByBlock
 62
     0
380
     1
100
AcDbTrace
 10
498.715515
 20
504.5775179948847
 30
0.0
 11
496.215515
 21
504.160851328218
 31
0.0
 12
496.215515
 22
504.9941846615513
 32
0.0
 13
496.215515
 23
504.9941846615513
 33
0.0
  0
MTEXT
  5
3EF
330
3F1
100
AcDbEntity
  8
0
  6
ByBlock
 62
     0
370
    -2
380
     1
100
AcDbMText
 10
298.715515
 20
506.3285022468532
 30
0.0
 40
2.5
 41
0.0
 71
     5
 72
     1
  1
\A1;400
 73
     1
 44
1.0
  0
ENDBLK
  5
553
330
3F1
100
AcDbEntity
  8
0
100
AcDbBlockEnd
  0
BLOCK
  5
554
330
3FC
100
AcDbEntity
  8
0
100
AcDbBlockBegin
  2
*D38
 70
     1
 10
0.0
 20
0.0
 30
0.0
  3
*D38
  1

  0
POINT
  5
3F3
330
3FC
100
AcDbEntity
  8
DEFPOINTS
  6
ByBlock
 62
     7
380
     1
100
AcDbPoint
 10
98.715515
 20
447.059906
 30
0.0
  0
POINT
  5
3F4
330
3FC
100
AcDbEntity
  8
DEFPOINTS
  6
ByBlock
 62
     7
380
     1
100
AcDbPoint
 10
498.715515
 20
452.059906
 30
0.0
  0
LINE
  5
3F5
330
3FC
100
AcDbEntity
  8
0
  6
ByBlock
 62
     7
370
    -2
380
     1
100
AcDbLine
 10
98.715515
 20
447.684906
 30
0.0
 11
98.715515
 21
505.8275179948847
 31
0.0
  0
LINE
  5
3F6
330
3FC
100
AcDbEntity
  8
0
  6
ByBlock
 62
     7
370
    -2
380
     1
100
AcDbLine
 10
498.715515
 20
452.684906
 30
0.0
 11
498.715515
 21
505.8275179948847
 31
0.0
  0
LINE
  5
3F7
330
3FC
100
AcDbEntity
  8
0
  6
ByBlock
 62
     7
370
    -2
380
     1
100
AcDbLine
 10
108.715515
 20
504.5775179948847
 30
0.0
 11
488.715515
 21
504.5775179948847
 31
0.0
  0
SOLID
  5
3F8
330
3FC
100
AcDbEntity
  8
0
  6
ByBlock
 62
     7
380
     1
100
AcDbTrace
 10
98.715515
 20
504.5775179948847
 30
0.0
 11
108.715515
 21
502.910851328218
 31
0.0
 12
108.715515
 22
506.2441846615513
 32
0.0
 13
108.715515
 23
506.2441846615513
 33
0.0
  0
SOLID
  5
3F9
330
3FC
100
AcDbEntity
  8
0
  6
ByBlock
 62
     7
380
     1
100
AcDbTrace
 10
498.715515
 20
504.5775179948847
 30
0.0
 11
488.715515
 21
502.910851328218
 31
0.0
 12
488.715515
 22
506.2441846615513
 32
0.0
 13
488.715515
 23
506.2441846615513
 33
0.0
  0
MTEXT
  5
3FA
330
3FC
100
AcDbEntity
  8
0
  6
ByBlock
 62
     0
370
    -2
380
     1
100
AcDbMText
 10
298.715515
 20
515.8830298059083
 30
0.0
 40
14.0
 41
0.0
 71
     5
 72
     1
  1
\A1;400
 73
     1
 44
1.0
  0
ENDBLK
  5
555
330
3FC
100
AcDbEntity
  8
0
100
AcDbBlockEnd
  0
BLOCK
  5
556
330
496
100
AcDbEntity
  8
0
100
AcDbBlockBegin
  2
*D39
 70
     1
 10
0.0
 20
0.0
 30
0.0
  3
*D39
  1

  0
POINT
  5
48D
330
496
100
AcDbEntity
  8
DEFPOINTS
  6
ByBlock
 62
     0
380
     1
100
AcDbPoint
 10
263.715515
 20
229.6253705578611
 30
0.0
  0
POINT
  5
48E
330
496
100
AcDbEntity
  8
DEFPOINTS
  6
ByBlock
 62
     0
380
     1
100
AcDbPoint
 10
333.715515
 20
229.6253705578611
 30
0.0
  0
LINE
  5
48F
330
496
100
AcDbEntity
  8
0
  6
ByBlock
 62
     0
370
    -2
380
     1
100
AcDbLine
 10
263.715515
 20
229.0003705578611
 30
0.0
 11
263.715515
 21
209.5195606886622
 31
0.0
  0
LINE
  5
490
330
496
100
AcDbEntity
  8
0
  6
ByBlock
 62
     0
370
    -2
380
     1
100
AcDbLine
 10
333.715515
 20
229.0003705578611
 30
0.0
 11
333.715515
 21
209.5195606886622
 31
0.0
  0
LINE
  5
491
330
496
100
AcDbEntity
  8
0
  6
ByBlock
 62
     0
370
    -2
380
     1
100
AcDbLine
 10
266.215515
 20
210.7695606886622
 30
0.0
 11
331.215515
 21
210.7695606886622
 31
0.0
  0
SOLID
  5
492
330
496
100
AcDbEntity
  8
0
  6
ByBlock
 62
     0
380
     1
100
AcDbTrace
 10
263.715515
 20
210.7695606886622
 30
0.0
 11
266.215515
 21
210.3528940219956
 31
0.0
 12
266.215515
 22
211.1862273553289
 32
0.0
 13
266.215515
 23
211.1862273553289
 33
0.0
  0
SOLID
  5
493
330
496
100
AcDbEntity
  8
0
  6
ByBlock
 62
     0
380
     1
100
AcDbTrace
 10
333.715515
 20
210.7695606886622
 30
0.0
 11
331.215515
 21
210.3528940219956
 31
0.0
 12
331.215515
 22
211.1862273553289
 32
0.0
 13
331.215515
 23
211.1862273553289
 33
0.0
  0
MTEXT
  5
494
330
496
100
AcDbEntity
  8
0
  6
ByBlock
 62
     0
370
    -2
380
     1
100
AcDbMText
 10
298.715515
 20
212.5205449406307
 30
0.0
 40
2.5
 41
0.0
 71
     5
 72
     1
  1
\A1;70
 73
     1
 44
1.0
  0
ENDBLK
  5
557
330
496
100
AcDbEntity
  8
0
100
AcDbBlockEnd
  0
BLOCK
  5
558
330
4A1
100
AcDbEntity
  8
0
100
AcDbBlockBegin
  2
*D40
 70
     1
 10
0.0
 20
0.0
 30
0.0
  3
*D40
  1

  0
POINT
  5
498
330
4A1
100
AcDbEntity
  8
DEFPOINTS
  6
ByBlock
 62
     0
380
     1
100
AcDbPoint
 10
263.715515
 20
229.6253705578611
 30
0.0
  0
POINT
  5
499
330
4A1
100
AcDbEntity
  8
DEFPOINTS
  6
ByBlock
 62
     0
380
     1
100
AcDbPoint
 10
333.715515
 20
229.6253705578611
 30
0.0
  0
LINE
  5
49A
330
4A1
100
AcDbEntity
  8
0
  6
ByBlock
 62
     0
370
    -2
380
     1
100
AcDbLine
 10
263.715515
 20
229.0003705578611
 30
0.0
 11
263.715515
 21
209.5195606886622
 31
0.0
  0
LINE
  5
49B
330
4A1
100
AcDbEntity
  8
0
  6
ByBlock
 62
     0
370
    -2
380
     1
100
AcDbLine
 10
333.715515
 20
229.0003705578611
 30
0.0
 11
333.715515
 21
209.5195606886622
 31
0.0
  0
LINE
  5
49C
330
4A1
100
AcDbEntity
  8
0
  6
ByBlock
 62
     0
370
    -2
380
     1
100
AcDbLine
 10
266.215515
 20
210.7695606886622
 30
0.0
 11
331.215515
 21
210.7695606886622
 31
0.0
  0
SOLID
  5
49D
330
4A1
100
AcDbEntity
  8
0
  6
ByBlock
 62
     0
380
     1
100
AcDbTrace
 10
263.715515
 20
210.7695606886622
 30
0.0
 11
266.215515
 21
210.3528940219956
 31
0.0
 12
266.215515
 22
211.1862273553289
 32
0.0
 13
266.215515
 23
211.1862273553289
 33
0.0
  0
SOLID
  5
49E
330
4A1
100
AcDbEntity
  8
0
  6
ByBlock
 62
     0
380
     1
100
AcDbTrace
 10
333.715515
 20
210.7695606886622
 30
0.0
 11
331.215515
 21
210.3528940219956
 31
0.0
 12
331.215515
 22
211.1862273553289
 32
0.0
 13
331.215515
 23
211.1862273553289
 33
0.0
  0
MTEXT
  5
49F
330
4A1
100
AcDbEntity
  8
0
  6
ByBlock
 62
     0
370
    -2
380
     1
100
AcDbMText
 10
298.715515
 20
212.5205449406307
 30
0.0
 40
2.5
 41
0.0
 71
     5
 72
     1
  1
Ø70
 73
     1
 44
1.0
  0
ENDBLK
  5
559
330
4A1
100
AcDbEntity
  8
0
100
AcDbBlockEnd
  0
BLOCK
  5
55A
330
4AC
100
AcDbEntity
  8
0
100
AcDbBlockBegin
  2
*D41
 70
     1
 10
0.0
 20
0.0
 30
0.0
  3
*D41
  1

  0
POINT
  5
4A3
330
4AC
100
AcDbEntity
  8
DEFPOINTS
  6
ByBlock
 62
     0
380
     1
100
AcDbPoint
 10
263.715515
 20
229.6253705578611
 30
0.0
  0
POINT
  5
4A4
330
4AC
100
AcDbEntity
  8
DEFPOINTS
  6
ByBlock
 62
     0
380
     1
100
AcDbPoint
 10
333.715515
 20
229.6253705578611
 30
0.0
  0
LINE
  5
4A5
330
4AC
100
AcDbEntity
  8
0
  6
ByBlock
 62
     0
370
    -2
380
     1
100
AcDbLine
 10
263.715515
 20
229.0003705578611
 30
0.0
 11
263.715515
 21
209.5195606886622
 31
0.0
  0
LINE
  5
4A6
330
4AC
100
AcDbEntity
  8
0
  6
ByBlock
 62
     0
370
    -2
380
     1
100
AcDbLine
 10
333.715515
 20
229.0003705578611
 30
0.0
 11
333.715515
 21
209.5195606886622
 31
0.0
  0
LINE
  5
4A7
330
4AC
100
AcDbEntity
  8
0
  6
ByBlock
 62
     0
370
    -2
380
     1
100
AcDbLine
 10
266.215515
 20
210.7695606886622
 30
0.0
 11
331.215515
 21
210.7695606886622
 31
0.0
  0
SOLID
  5
4A8
330
4AC
100
AcDbEntity
  8
0
  6
ByBlock
 62
     0
380
     1
100
AcDbTrace
 10
263.715515
 20
210.7695606886622
 30
0.0
 11
266.215515
 21
210.3528940219956
 31
0.0
 12
266.215515
 22
211.1862273553289
 32
0.0
 13
266.215515
 23
211.1862273553289
 33
0.0
  0
SOLID
  5
4A9
330
4AC
100
AcDbEntity
  8
0
  6
ByBlock
 62
     0
380
     1
100
AcDbTrace
 10
333.715515
 20
210.7695606886622
 30
0.0
 11
331.215515
 21
210.3528940219956
 31
0.0
 12
331.215515
 22
211.1862273553289
 32
0.0
 13
331.215515
 23
211.1862273553289
 33
0.0
  0
MTEXT
  5
4AA
330
4AC
100
AcDbEntity
  8
0
  6
ByBlock
 62
     0
370
    -2
380
     1
100
AcDbMText
 10
298.715515
 20
212.5205449406307
 30
0.0
 40
2.5
 41
0.0
 71
     5
 72
     1
  1
Ø70
 73
     1
 44
1.0
  0
ENDBLK
  5
55B
330
4AC
100
AcDbEntity
  8
0
100
AcDbBlockEnd
  0
BLOCK
  5
55C
330
4B7
100
AcDbEntity
  8
0
100
AcDbBlockBegin
  2
*D42
 70
     1
 10
0.0
 20
0.0
 30
0.0
  3
*D42
  1

  0
POINT
  5
4AE
330
4B7
100
AcDbEntity
  8
DEFPOINTS
  6
ByBlock
 62
     7
380
     1
100
AcDbPoint
 10
263.715515
 20
229.6253705578611
 30
0.0
  0
POINT
  5
4AF
330
4B7
100
AcDbEntity
  8
DEFPOINTS
  6
ByBlock
 62
     7
380
     1
100
AcDbPoint
 10
333.715515
 20
229.6253705578611
 30
0.0
  0
LINE
  5
4B0
330
4B7
100
AcDbEntity
  8
0
  6
ByBlock
 62
     7
370
    -2
380
     1
100
AcDbLine
 10
263.715515
 20
229.0003705578611
 30
0.0
 11
263.715515
 21
209.5195606886622
 31
0.0
  0
LINE
  5
4B1
330
4B7
100
AcDbEntity
  8
0
  6
ByBlock
 62
     7
370
    -2
380
     1
100
AcDbLine
 10
333.715515
 20
229.0003705578611
 30
0.0
 11
333.715515
 21
209.5195606886622
 31
0.0
  0
LINE
  5
4B2
330
4B7
100
AcDbEntity
  8
0
  6
ByBlock
 62
     7
370
    -2
380
     1
100
AcDbLine
 10
273.715515
 20
210.7695606886622
 30
0.0
 11
323.715515
 21
210.7695606886622
 31
0.0
  0
SOLID
  5
4B3
330
4B7
100
AcDbEntity
  8
0
  6
ByBlock
 62
     7
380
     1
100
AcDbTrace
 10
263.715515
 20
210.7695606886622
 30
0.0
 11
273.715515
 21
209.1028940219956
 31
0.0
 12
273.715515
 22
212.4362273553289
 32
0.0
 13
273.715515
 23
212.4362273553289
 33
0.0
  0
SOLID
  5
4B4
330
4B7
100
AcDbEntity
  8
0
  6
ByBlock
 62
     7
380
     1
100
AcDbTrace
 10
333.715515
 20
210.7695606886622
 30
0.0
 11
323.715515
 21
209.1028940219956
 31
0.0
 12
323.715515
 22
212.4362273553289
 32
0.0
 13
323.715515
 23
212.4362273553289
 33
0.0
  0
MTEXT
  5
4B5
330
4B7
100
AcDbEntity
  8
0
  6
ByBlock
 62
     0
370
    -2
380
     1
100
AcDbMText
 10
298.715515
 20
222.0695606886622
 30
0.0
 40
14.0
 41
0.0
 71
     5
 72
     1
  1
Ø70
 73
     1
 44
1.0
  0
ENDBLK
  5
55D
330
4B7
100
AcDbEntity
  8
0
100
AcDbBlockEnd
  0
BLOCK
  5
55E
330
4C2
100
AcDbEntity
  8
0
100
AcDbBlockBegin
  2
*D43
 70
     1
 10
0.0
 20
0.0
 30
0.0
  3
*D43
  1

  0
POINT
  5
4B9
330
4C2
100
AcDbEntity
  8
DEFPOINTS
  6
ByBlock
 62
     7
380
     1
100
AcDbPoint
 10
263.715515
 20
229.6253705578611
 30
0.0
  0
POINT
  5
4BA
330
4C2
100
AcDbEntity
  8
DEFPOINTS
  6
ByBlock
 62
     7
380
     1
100
AcDbPoint
 10
333.715515
 20
229.6253705578611
 30
0.0
  0
LINE
  5
4BB
330
4C2
100
AcDbEntity
  8
0
  6
ByBlock
 62
     7
370
    -2
380
     1
100
AcDbLine
 10
263.715515
 20
229.0003705578611
 30
0.0
 11
263.715515
 21
198.3485164080173
 31
0.0
  0
LINE
  5
4BC
330
4C2
100
AcDbEntity
  8
0
  6
ByBlock
 62
     7
370
    -2
380
     1
100
AcDbLine
 10
333.715515
 20
229.0003705578611
 30
0.0
 11
333.715515
 21
198.3485164080173
 31
0.0
  0
LINE
  5
4BD
330
4C2
100
AcDbEntity
  8
0
  6
ByBlock
 62
     7
370
    -2
380
     1
100
AcDbLine
 10
273.715515
 20
199.5985164080173
 30
0.0
 11
323.715515
 21
199.5985164080173
 31
0.0
  0
SOLID
  5
4BE
330
4C2
100
AcDbEntity
  8
0
  6
ByBlock
 62
     7
380
     1
100
AcDbTrace
 10
263.715515
 20
199.5985164080173
 30
0.0
 11
273.715515
 21
197.9318497413506
 31
0.0
 12
273.715515
 22
201.2651830746839
 32
0.0
 13
273.715515
 23
201.2651830746839
 33
0.0
  0
SOLID
  5
4BF
330
4C2
100
AcDbEntity
  8
0
  6
ByBlock
 62
     7
380
     1
100
AcDbTrace
 10
333.715515
 20
199.5985164080173
 30
0.0
 11
323.715515
 21
197.9318497413506
 31
0.0
 12
323.715515
 22
201.2651830746839
 32
0.0
 13
323.715515
 23
201.2651830746839
 33
0.0
  0
MTEXT
  5
4C0
330
4C2
100
AcDbEntity
  8
0
  6
ByBlock
 62
     0
370
    -2
380
     1
100
AcDbMText
 10
298.715515
 20
210.8985164080173
 30
0.0
 40
14.0
 41
0.0
 71
     5
 72
     1
  1
Ø70
 73
     1
 44
1.0
  0
ENDBLK
  5
55F
330
4C2
100
AcDbEntity
  8
0
100
AcDbBlockEnd
  0
BLOCK
  5
560
330
4CD
100
AcDbEntity
  8
0
100
AcDbBlockBegin
  2
*D44
 70
     1
 10
0.0
 20
0.0
 30
0.0
  3
*D44
  1

  0
POINT
  5
4C4
330
4CD
100
AcDbEntity
  8
DEFPOINTS
  6
ByBlock
 62
     7
380
     1
100
AcDbPoint
 10
263.715515
 20
229.6253705578611
 30
0.0
  0
POINT
  5
4C5
330
4CD
100
AcDbEntity
  8
DEFPOINTS
  6
ByBlock
 62
     7
380
     1
100
AcDbPoint
 10
333.715515
 20
229.6253705578611
 30
0.0
  0
LINE
  5
4C6
330
4CD
100
AcDbEntity
  8
0
  6
ByBlock
 62
     7
370
    -2
380
     1
100
AcDbLine
 10
263.715515
 20
229.0003705578611
 30
0.0
 11
263.715515
 21
191.9889251630205
 31
0.0
  0
LINE
  5
4C7
330
4CD
100
AcDbEntity
  8
0
  6
ByBlock
 62
     7
370
    -2
380
     1
100
AcDbLine
 10
333.715515
 20
229.0003705578611
 30
0.0
 11
333.715515
 21
191.9889251630205
 31
0.0
  0
LINE
  5
4C8
330
4CD
100
AcDbEntity
  8
0
  6
ByBlock
 62
     7
370
    -2
380
     1
100
AcDbLine
 10
273.715515
 20
193.2389251630205
 30
0.0
 11
323.715515
 21
193.2389251630205
 31
0.0
  0
SOLID
  5
4C9
330
4CD
100
AcDbEntity
  8
0
  6
ByBlock
 62
     7
380
     1
100
AcDbTrace
 10
263.715515
 20
193.2389251630205
 30
0.0
 11
273.715515
 21
191.5722584963538
 31
0.0
 12
273.715515
 22
194.9055918296871
 32
0.0
 13
273.715515
 23
194.9055918296871
 33
0.0
  0
SOLID
  5
4CA
330
4CD
100
AcDbEntity
  8
0
  6
ByBlock
 62
     7
380
     1
100
AcDbTrace
 10
333.715515
 20
193.2389251630205
 30
0.0
 11
323.715515
 21
191.5722584963538
 31
0.0
 12
323.715515
 22
194.9055918296871
 32
0.0
 13
323.715515
 23
194.9055918296871
 33
0.0
  0
MTEXT
  5
4CB
330
4CD
100
AcDbEntity
  8
0
  6
ByBlock
 62
     0
370
    -2
380
     1
100
AcDbMText
 10
298.715515
 20
204.5389251630205
 30
0.0
 40
14.0
 41
0.0
 71
     5
 72
     1
  1
Ø70
 73
     1
 44
1.0
  0
ENDBLK
  5
561
330
4CD
100
AcDbEntity
  8
0
100
AcDbBlockEnd
  0
BLOCK
  5
562
330
4E7
100
AcDbEntity
  8
0
100
AcDbBlockBegin
  2
*D45
 70
     1
 10
0.0
 20
0.0
 30
0.0
  3
*D45
  1

  0
POINT
  5
4DE
330
4E7
100
AcDbEntity
  8
DEFPOINTS
  6
ByBlock
 62
     0
380
     1
100
AcDbPoint
 10
690.4338389243723
 20
470.798035
 30
0.0
  0
POINT
  5
4DF
330
4E7
100
AcDbEntity
  8
DEFPOINTS
  6
ByBlock
 62
     0
380
     1
100
AcDbPoint
 10
690.4338389243723
 20
220.798035
 30
0.0
  0
LINE
  5
4E0
330
4E7
100
AcDbEntity
  8
0
  6
ByBlock
 62
     0
370
    -2
380
     1
100
AcDbLine
 10
691.0588389243723
 20
470.798035
 30
0.0
 11
769.1434915102109
 21
470.798035
 31
0.0
  0
LINE
  5
4E1
330
4E7
100
AcDbEntity
  8
0
  6
ByBlock
 62
     0
370
    -2
380
     1
100
AcDbLine
 10
691.0588389243723
 20
220.798035
 30
0.0
 11
769.1434915102109
 21
220.798035
 31
0.0
  0
LINE
  5
4E2
330
4E7
100
AcDbEntity
  8
0
  6
ByBlock
 62
     0
370
    -2
380
     1
100
AcDbLine
 10
767.8934915102109
 20
468.298035
 30
0.0
 11
767.8934915102109
 21
223.298035
 31
0.0
  0
SOLID
  5
4E3
330
4E7
100
AcDbEntity
  8
0
  6
ByBlock
 62
     0
380
     1
100
AcDbTrace
 10
767.8934915102109
 20
470.798035
 30
0.0
 11
767.4768248435443
 21
468.298035
 31
0.0
 12
768.3101581768775
 22
468.298035
 32
0.0
 13
768.3101581768775
 23
468.298035
 33
0.0
  0
SOLID
  5
4E4
330
4E7
100
AcDbEntity
  8
0
  6
ByBlock
 62
     0
380
     1
100
AcDbTrace
 10
767.8934915102109
 20
220.798035
 30
0.0
 11
767.4768248435443
 21
223.298035
 31
0.0
 12
768.3101581768775
 22
223.298035
 32
0.0
 13
768.3101581768775
 23
223.298035
 33
0.0
  0
MTEXT
  5
4E5
330
4E7
100
AcDbEntity
  8
0
  6
ByBlock
 62
     0
370
    -2
380
     1
100
AcDbMText
 10
766.1425072582424
 20
345.798035
 30
0.0
 40
2.5
 41
0.0
 71
     5
 72
     1
  1
\A1;250
 11
6.123031769111886E-17
 21
1.0
 31
0.0
 73
     1
 44
1.0
  0
ENDBLK
  5
563
330
4E7
100
AcDbEntity
  8
0
100
AcDbBlockEnd
  0
BLOCK
  5
564
330
4F2
100
AcDbEntity
  8
0
100
AcDbBlockBegin
  2
*D46
 70
     1
 10
0.0
 20
0.0
 30
0.0
  3
*D46
  1

  0
POINT
  5
4E9
330
4F2
100
AcDbEntity
  8
DEFPOINTS
  6
ByBlock
 62
     0
380
     1
100
AcDbPoint
 10
690.4338389243723
 20
470.798035
 30
0.0
  0
POINT
  5
4EA
330
4F2
100
AcDbEntity
  8
DEFPOINTS
  6
ByBlock
 62
     0
380
     1
100
AcDbPoint
 10
690.4338389243723
 20
220.798035
 30
0.0
  0
LINE
  5
4EB
330
4F2
100
AcDbEntity
  8
0
  6
ByBlock
 62
     0
370
    -2
380
     1
100
AcDbLine
 10
691.0588389243723
 20
470.798035
 30
0.0
 11
769.1434915102109
 21
470.798035
 31
0.0
  0
LINE
  5
4EC
330
4F2
100
AcDbEntity
  8
0
  6
ByBlock
 62
     0
370
    -2
380
     1
100
AcDbLine
 10
691.0588389243723
 20
220.798035
 30
0.0
 11
769.1434915102109
 21
220.798035
 31
0.0
  0
LINE
  5
4ED
330
4F2
100
AcDbEntity
  8
0
  6
ByBlock
 62
     0
370
    -2
380
     1
100
AcDbLine
 10
767.8934915102109
 20
468.298035
 30
0.0
 11
767.8934915102109
 21
223.298035
 31
0.0
  0
SOLID
  5
4EE
330
4F2
100
AcDbEntity
  8
0
  6
ByBlock
 62
     0
380
     1
100
AcDbTrace
 10
767.8934915102109
 20
470.798035
 30
0.0
 11
767.4768248435443
 21
468.298035
 31
0.0
 12
768.3101581768775
 22
468.298035
 32
0.0
 13
768.3101581768775
 23
468.298035
 33
0.0
  0
SOLID
  5
4EF
330
4F2
100
AcDbEntity
  8
0
  6
ByBlock
 62
     0
380
     1
100
AcDbTrace
 10
767.8934915102109
 20
220.798035
 30
0.0
 11
767.4768248435443
 21
223.298035
 31
0.0
 12
768.3101581768775
 22
223.298035
 32
0.0
 13
768.3101581768775
 23
223.298035
 33
0.0
  0
MTEXT
  5
4F0
330
4F2
100
AcDbEntity
  8
0
  6
ByBlock
 62
     0
370
    -2
380
     1
100
AcDbMText
 10
766.1425072582424
 20
345.798035
 30
0.0
 40
2.5
 41
0.0
 71
     5
 72
     1
  1
\A1;250
 11
6.123031769111886E-17
 21
1.0
 31
0.0
 73
     1
 44
1.0
  0
ENDBLK
  5
565
330
4F2
100
AcDbEntity
  8
0
100
AcDbBlockEnd
  0
BLOCK
  5
566
330
4FD
100
AcDbEntity
  8
0
100
AcDbBlockBegin
  2
*D47
 70
     1
 10
0.0
 20
0.0
 30
0.0
  3
*D47
  1

  0
POINT
  5
4F4
330
4FD
100
AcDbEntity
  8
DEFPOINTS
  6
ByBlock
 62
     7
380
     1
100
AcDbPoint
 10
690.4338389243723
 20
470.798035
 30
0.0
  0
POINT
  5
4F5
330
4FD
100
AcDbEntity
  8
DEFPOINTS
  6
ByBlock
 62
     7
380
     1
100
AcDbPoint
 10
690.4338389243723
 20
220.798035
 30
0.0
  0
LINE
  5
4F6
330
4FD
100
AcDbEntity
  8
0
  6
ByBlock
 62
     7
370
    -2
380
     1
100
AcDbLine
 10
691.0588389243723
 20
470.798035
 30
0.0
 11
769.1434915102109
 21
470.798035
 31
0.0
  0
LINE
  5
4F7
330
4FD
100
AcDbEntity
  8
0
  6
ByBlock
 62
     7
370
    -2
380
     1
100
AcDbLine
 10
691.0588389243723
 20
220.798035
 30
0.0
 11
769.1434915102109
 21
220.798035
 31
0.0
  0
LINE
  5
4F8
330
4FD
100
AcDbEntity
  8
0
  6
ByBlock
 62
     7
370
    -2
380
     1
100
AcDbLine
 10
767.8934915102109
 20
460.798035
 30
0.0
 11
767.8934915102109
 21
230.798035
 31
0.0
  0
SOLID
  5
4F9
330
4FD
100
AcDbEntity
  8
0
  6
ByBlock
 62
     7
380
     1
100
AcDbTrace
 10
767.8934915102109
 20
470.798035
 30
0.0
 11
766.2268248435443
 21
460.798035
 31
0.0
 12
769.5601581768775
 22
460.798035
 32
0.0
 13
769.5601581768775
 23
460.798035
 33
0.0
  0
SOLID
  5
4FA
330
4FD
100
AcDbEntity
  8
0
  6
ByBlock
 62
     7
380
     1
100
AcDbTrace
 10
767.8934915102109
 20
220.798035
 30
0.0
 11
766.2268248435443
 21
230.798035
 31
0.0
 12
769.5601581768775
 22
230.798035
 32
0.0
 13
769.5601581768775
 23
230.798035
 33
0.0
  0
MTEXT
  5
4FB
330
4FD
100
AcDbEntity
  8
0
  6
ByBlock
 62
     0
370
    -2
380
     1
100
AcDbMText
 10
756.5879796991873
 20
345.798035
 30
0.0
 40
14.0
 41
0.0
 71
     5
 72
     1
  1
\A1;250
 11
6.123031769111886E-17
 21
1.0
 31
0.0
 73
     1
 44
1.0
  0
ENDBLK
  5
567
330
4FD
100
AcDbEntity
  8
0
100
AcDbBlockEnd
  0
ENDSEC
  0
SECTION
  2
ENTITIES
  0
POINT
  5
44
330
1F
100
AcDbEntity
  8
0
 62
     7
370
    60
390
F
100
AcDbPoint
 10
358.715515
 20
447.059906
 30
0.0
  0
POINT
  5
45
330
1F
100
AcDbEntity
  8
0
 62
     7
370
    60
390
F
100
AcDbPoint
 10
353.715515
 20
447.059906
 30
0.0
  0
POINT
  5
46
330
1F
100
AcDbEntity
  8
0
 62
     7
370
    60
390
F
100
AcDbPoint
 10
243.715515
 20
447.059906
 30
0.0
  0
POINT
  5
47
330
1F
100
AcDbEntity
  8
0
 62
     7
370
    60
390
F
100
AcDbPoint
 10
238.715515
 20
447.059906
 30
0.0
  0
POINT
  5
48
330
1F
100
AcDbEntity
  8
0
 62
     7
370
    60
390
F
100
AcDbPoint
 10
178.715515
 20
453.059906
 30
0.0
  0
POINT
  5
49
330
1F
100
AcDbEntity
  8
0
 62
     7
370
    60
390
F
100
AcDbPoint
 10
418.715515
 20
447.059906
 30
0.0
  0
POINT
  5
4A
330
1F
100
AcDbEntity
  8
0
 62
     7
370
    60
390
F
100
AcDbPoint
 10
418.715515
 20
447.059906
 30
0.0
  0
POINT
  5
4B
330
1F
100
AcDbEntity
  8
0
 62
     7
370
    60
390
F
100
AcDbPoint
 10
333.715515
 20
302.059906
 30
0.0
  0
POINT
  5
4C
330
1F
100
AcDbEntity
  8
0
 62
     7
370
    60
390
F
100
AcDbPoint
 10
333.715515
 20
252.059906
 30
0.0
  0
POINT
  5
4D
330
1F
100
AcDbEntity
  8
0
 62
     7
370
    60
390
F
100
AcDbPoint
 10
298.715515
 20
412.059906
 30
0.0
  0
POINT
  5
4E
330
1F
100
AcDbEntity
  8
0
 62
     7
370
    60
390
F
100
AcDbPoint
 10
298.715515
 20
412.059906
 30
0.0
  0
LINE
  5
4F
330
1F
100
AcDbEntity
  8
0
  6
DASHDOT
 62
     7
370
    25
390
F
100
AcDbLine
 10
298.715515
 20
217.57077
 30
0.0
 11
298.715515
 21
486.245178
 31
0.0
  0
LINE
  5
50
330
1F
100
AcDbEntity
  8
0
 62
     7
370
    60
390
F
100
AcDbLine
 10
333.715515
 20
222.059906
 30
0.0
 11
333.715515
 21
422.059906
 31
0.0
  0
LINE
  5
51
330
1F
100
AcDbEntity
  8
0
  6
DASHSPACE
 62
     7
370
    25
390
F
100
AcDbLine
 10
298.715515
 20
468.059906
 30
0.0
 11
498.715515
 21
468.059906
 31
0.0
  0
LINE
  5
52
330
1F
100
AcDbEntity
  8
0
 62
     7
370
    60
390
F
100
AcDbLine
 10
498.715515
 20
432.059906
 30
0.0
 11
498.715515
 21
472.059906
 31
0.0
  0
LINE
  5
53
330
1F
100
AcDbEntity
  8
0
 62
     7
370
    60
390
F
100
AcDbLine
 10
98.715515
 20
432.059906
 30
0.0
 11
98.715515
 21
472.059906
 31
0.0
  0
LINE
  5
54
330
1F
100
AcDbEntity
  8
0
  6
DASHSPACE
 62
     7
370
    25
390
F
100
AcDbLine
 10
98.715515
 20
468.059906
 30
0.0
 11
298.715515
 21
468.059906
 31
0.0
  0
LINE
  5
55
330
1F
100
AcDbEntity
  8
0
 62
     7
370
    60
390
F
100
AcDbLine
 10
263.715515
 20
222.059906
 30
0.0
 11
263.715515
 21
422.059906
 31
0.0
  0
LINE
  5
56
330
1F
100
AcDbEntity
  8
0
  6
DASHDOT
 62
     7
370
    25
390
F
100
AcDbLine
 10
98.715515
 20
447.059906
 30
0.0
 11
484.99646
 21
447.059906
 31
0.0
  0
LINE
  5
57
330
1F
100
AcDbEntity
  8
0
  6
DASHDOT
 62
     7
370
    25
390
F
100
AcDbLine
 10
353.715515
 20
432.7845
 30
0.0
 11
353.715515
 21
457.836166
 31
0.0
  0
LINE
  5
58
330
1F
100
AcDbEntity
  8
0
  6
DASHDOT
 62
     7
370
    25
390
F
100
AcDbLine
 10
243.715515
 20
435.076813
 30
0.0
 11
243.715515
 21
466.841675
 31
0.0
  0
LINE
  5
455
330
1F
100
AcDbEntity
  8
0
  6
DASHDOT
 62
     7
370
    25
390
F
100
AcDbLine
 10
358.715515
 20
433.439438
 30
0.0
 11
358.715515
 21
459.964752
 31
0.0
  0
LINE
  5
456
330
1F
100
AcDbEntity
  8
0
  6
DASHDOT
 62
     7
370
    25
390
F
100
AcDbLine
 10
238.715515
 20
434.778839
 30
0.0
 11
238.715515
 21
458.681503
 31
0.0
  0
ARC
  5
5B
330
1F
100
AcDbEntity
  8
0
 62
     7
370
    60
390
F
100
AcDbCircle
 10
358.715515
 20
447.059906
 30
0.0
 40
6.5
100
AcDbArc
 50
270.000001
 51
90.000003
  0
ARC
  5
5C
330
1F
100
AcDbEntity
  8
0
 62
     7
370
    60
390
F
100
AcDbCircle
 10
353.715515
 20
447.059906
 30
0.0
 40
6.5
100
AcDbArc
 50
90.000003
 51
270.000001
  0
ARC
  5
5D
330
1F
100
AcDbEntity
  8
0
 62
     7
370
    60
390
F
100
AcDbCircle
 10
238.715515
 20
447.059906
 30
0.0
 40
6.5
100
AcDbArc
 50
90.000003
 51
270.000001
  0
ARC
  5
457
330
1F
100
AcDbEntity
  8
0
 62
     7
370
    60
390
F
100
AcDbCircle
 10
243.715515
 20
447.059906
 30
0.0
 40
6.5
100
AcDbArc
 50
270.000001
 51
90.000003
  0
LINE
  5
5F
330
1F
100
AcDbEntity
  8
0
 62
     7
 48
0.125
370
    60
390
F
100
AcDbLine
 10
353.715515
 20
453.559906
 30
0.0
 11
358.715515
 21
453.559906
 31
0.0
  0
LINE
  5
60
330
1F
100
AcDbEntity
  8
0
 62
     7
 48
0.125
370
    60
390
F
100
AcDbLine
 10
353.715515
 20
440.559906
 30
0.0
 11
358.715515
 21
440.559906
 31
0.0
  0
LINE
  5
61
330
1F
100
AcDbEntity
  8
0
 62
     7
 48
0.125
370
    60
390
F
100
AcDbLine
 10
238.715515
 20
453.559906
 30
0.0
 11
243.715515
 21
453.559906
 31
0.0
  0
LINE
  5
62
330
1F
100
AcDbEntity
  8
0
 62
     7
 48
0.125
370
    60
390
F
100
AcDbLine
 10
238.715515
 20
440.559906
 30
0.0
 11
243.715515
 21
440.559906
 31
0.0
  0
LINE
  5
63
330
1F
100
AcDbEntity
  8
0
  6
DASHDOT
 62
     7
370
    25
390
F
100
AcDbLine
 10
183.715515
 20
435.784653
 30
0.0
 11
183.715515
 21
457.270355
 31
0.0
  0
LINE
  5
64
330
1F
100
AcDbEntity
  8
0
  6
DASHDOT
 62
     7
370
    25
390
F
100
AcDbLine
 10
413.715515
 20
434.897171
 30
0.0
 11
413.715515
 21
462.852768
 31
0.0
  0
LINE
  5
65
330
1F
100
AcDbEntity
  8
0
  6
DASHDOT
 62
     7
370
    25
390
F
100
AcDbLine
 10
178.715515
 20
436.16922
 30
0.0
 11
178.715515
 21
457.291122
 31
0.0
  0
LINE
  5
66
330
1F
100
AcDbEntity
  8
0
  6
DASHDOT
 62
     7
370
    25
390
F
100
AcDbLine
 10
418.715515
 20
434.27594
 30
0.0
 11
418.715515
 21
462.852768
 31
0.0
  0
LINE
  5
67
330
1F
100
AcDbEntity
  8
0
 62
     7
 48
0.125
370
    60
390
F
100
AcDbLine
 10
413.715515
 20
453.559906
 30
0.0
 11
418.715515
 21
453.559906
 31
0.0
  0
ARC
  5
68
330
1F
100
AcDbEntity
  8
0
 62
     7
370
    60
390
F
100
AcDbCircle
 10
418.715515
 20
447.059906
 30
0.0
 40
6.5
100
AcDbArc
 50
270.000001
 51
90.000003
  0
LINE
  5
69
330
1F
100
AcDbEntity
  8
0
 62
     7
 48
0.125
370
    60
390
F
100
AcDbLine
 10
413.715515
 20
440.559906
 30
0.0
 11
418.715515
 21
440.559906
 31
0.0
  0
ARC
  5
6A
330
1F
100
AcDbEntity
  8
0
 62
     7
370
    60
390
F
100
AcDbCircle
 10
413.715515
 20
447.059906
 30
0.0
 40
6.5
100
AcDbArc
 50
90.000003
 51
270.000001
  0
ARC
  5
458
330
1F
100
AcDbEntity
  8
0
 62
     7
370
    60
390
F
100
AcDbCircle
 10
178.715515
 20
447.059906
 30
0.0
 40
6.5
100
AcDbArc
 50
90.000003
 51
270.000001
  0
LINE
  5
459
330
1F
100
AcDbEntity
  8
0
 62
     7
 48
0.125
370
    60
390
F
100
AcDbLine
 10
178.715515
 20
453.559906
 30
0.0
 11
183.715515
 21
453.559906
 31
0.0
  0
ARC
  5
6D
330
1F
100
AcDbEntity
  8
0
 62
     7
370
    60
390
F
100
AcDbCircle
 10
183.715515
 20
447.059906
 30
0.0
 40
6.5
100
AcDbArc
 50
270.000001
 51
90.000003
  0
LINE
  5
6E
330
1F
100
AcDbEntity
  8
0
 62
     7
 48
0.125
370
    60
390
F
100
AcDbLine
 10
178.715515
 20
440.559906
 30
0.0
 11
183.715515
 21
440.559906
 31
0.0
  0
LINE
  5
6F
330
1F
100
AcDbEntity
  8
0
 62
     7
370
    60
390
F
100
AcDbLine
 10
98.715515
 20
472.059906
 30
0.0
 11
498.715515
 21
472.059906
 31
0.0
  0
LINE
  5
70
330
1F
100
AcDbEntity
  8
0
 62
     7
370
    60
390
F
100
AcDbLine
 10
108.715515
 20
422.059906
 30
0.0
 11
488.715515
 21
422.059906
 31
0.0
  0
LINE
  5
71
330
1F
100
AcDbEntity
  8
0
 62
     7
370
    60
390
F
100
AcDbLine
 10
263.715515
 20
222.059906
 30
0.0
 11
333.715515
 21
222.059906
 31
0.0
  0
ARC
  5
72
330
1F
100
AcDbEntity
  8
0
 62
     7
370
    60
390
F
100
AcDbCircle
 10
488.715515
 20
432.059906
 30
0.0
 40
10.0
100
AcDbArc
 50
270.000001
 51
0.0
  0
ARC
  5
45A
330
1F
100
AcDbEntity
  8
0
 62
     7
370
    60
390
F
100
AcDbCircle
 10
108.715515
 20
432.059906
 30
0.0
 40
10.0
100
AcDbArc
 50
180.000005
 51
270.000001
  0
LINE
  5
45B
330
1F
100
AcDbEntity
  8
0
 62
     7
 48
0.21
370
    60
390
F
100
AcDbLine
 10
333.715515
 20
261.309906
 30
0.0
 11
342.115517
 21
261.309906
 31
0.0
  0
LINE
  5
45C
330
1F
100
AcDbEntity
  8
0
 62
     7
 48
0.46219
370
    60
390
F
100
AcDbLine
 10
342.115517
 20
242.822302
 30
0.0
 11
342.115517
 21
261.309906
 31
0.0
  0
LINE
  5
45D
330
1F
100
AcDbEntity
  8
0
 62
     7
 48
0.21
370
    60
390
F
100
AcDbLine
 10
333.715515
 20
256.678708
 30
0.0
 11
342.115517
 21
256.678708
 31
0.0
  0
LINE
  5
77
330
1F
100
AcDbEntity
  8
0
 62
     7
 48
0.21
370
    60
390
F
100
AcDbLine
 10
333.715515
 20
247.441103
 30
0.0
 11
342.115517
 21
247.441103
 31
0.0
  0
LINE
  5
78
330
1F
100
AcDbEntity
  8
0
 62
     7
 48
0.2
370
    60
390
F
100
AcDbLine
 10
333.715515
 20
242.809906
 30
0.0
 11
341.715515
 21
242.809906
 31
0.0
  0
CIRCLE
  5
79
330
1F
100
AcDbEntity
  8
0
 62
     7
370
    60
390
F
100
AcDbCircle
 10
298.715515
 20
412.059906
 30
0.0
 40
2.25
  0
LINE
  5
7A
330
1F
100
AcDbEntity
  8
0
  6
DASHDOT
 62
     7
370
    60
390
F
100
AcDbLine
 10
298.715515
 20
402.059906
 30
0.0
 11
298.715515
 21
422.059906
 31
0.0
  0
LINE
  5
7B
330
1F
100
AcDbEntity
  8
0
  6
DASHDOT
 62
     7
370
    25
390
F
100
AcDbLine
 10
288.715515
 20
412.059906
 30
0.0
 11
308.715515
 21
412.059906
 31
0.0
  0
LINE
  5
7C
330
1F
100
AcDbEntity
  8
0
  6
DASHSPACE
 62
     7
370
    25
390
F
100
AcDbLine
 10
330.715515
 20
222.059906
 30
0.0
 11
330.715515
 21
422.059906
 31
0.0
  0
LINE
  5
7D
330
1F
100
AcDbEntity
  8
0
  6
DASHSPACE
 62
     7
370
    25
390
F
100
AcDbLine
 10
266.715515
 20
222.059906
 30
0.0
 11
266.715515
 21
422.059906
 31
0.0
  0
LINE
  5
7E
330
1F
100
AcDbEntity
  8
0
 62
     7
 48
0.21
370
    60
390
F
100
AcDbLine
 10
333.715515
 20
297.441103
 30
0.0
 11
342.115517
 21
297.441103
 31
0.0
  0
LINE
  5
7F
330
1F
100
AcDbEntity
  8
0
 62
     7
 48
0.21
370
    60
390
F
100
AcDbLine
 10
333.715515
 20
292.822302
 30
0.0
 11
342.115517
 21
292.822302
 31
0.0
  0
LINE
  5
80
330
1F
100
AcDbEntity
  8
0
 62
     7
 48
0.46219
370
    60
390
F
100
AcDbLine
 10
342.115517
 20
292.822302
 30
0.0
 11
342.115517
 21
311.309906
 31
0.0
  0
LINE
  5
81
330
1F
100
AcDbEntity
  8
0
 62
     7
 48
0.21
370
    60
390
F
100
AcDbLine
 10
333.715515
 20
306.678707
 30
0.0
 11
342.115517
 21
306.678707
 31
0.0
  0
LINE
  5
82
330
1F
100
AcDbEntity
  8
0
 62
     7
 48
0.2
370
    60
390
F
100
AcDbLine
 10
333.715515
 20
292.809906
 30
0.0
 11
341.715515
 21
292.809906
 31
0.0
  0
LINE
  5
83
330
1F
100
AcDbEntity
  8
0
 62
     7
 48
0.21
370
    60
390
F
100
AcDbLine
 10
333.715515
 20
311.309906
 30
0.0
 11
342.115517
 21
311.309906
 31
0.0
  0
POINT
  5
8C
330
1F
100
AcDbEntity
  8
0
 62
     7
370
    60
390
F
100
AcDbPoint
 10
678.110291
 20
266.798035
 30
0.0
  0
POINT
  5
8D
330
1F
100
AcDbEntity
  8
0
 62
     7
370
    60
390
F
100
AcDbPoint
 10
678.110291
 20
300.798035
 30
0.0
  0
POINT
  5
8E
330
1F
100
AcDbEntity
  8
0
 62
     7
370
    60
390
F
100
AcDbPoint
 10
678.110291
 20
251.798035
 30
0.0
  0
POINT
  5
8F
330
1F
100
AcDbEntity
  8
0
 62
     7
370
    60
390
F
100
AcDbPoint
 10
683.110291
 20
300.798035
 30
0.0
  0
POINT
  5
90
330
1F
100
AcDbEntity
  8
0
 62
     7
370
    60
390
F
100
AcDbPoint
 10
673.110291
 20
300.798035
 30
0.0
  0
POINT
  5
91
330
1F
100
AcDbEntity
  8
0
 62
     7
370
    60
390
F
100
AcDbPoint
 10
678.110291
 20
251.798035
 30
0.0
  0
POINT
  5
45E
330
1F
100
AcDbEntity
  8
0
 62
     7
370
    60
390
F
100
AcDbPoint
 10
678.110291
 20
452.949615
 30
0.0
  0
POINT
  5
45F
330
1F
100
AcDbEntity
  8
0
 62
     7
370
    60
390
F
100
AcDbPoint
 10
695.610291
 20
452.949615
 30
0.0
  0
POINT
  5
94
330
1F
100
AcDbEntity
  8
0
 62
     7
370
    60
390
F
100
AcDbPoint
 10
660.610291
 20
452.949615
 30
0.0
  0
POINT
  5
95
330
1F
100
AcDbEntity
  8
0
 62
     7
370
    60
390
F
100
AcDbPoint
 10
678.110291
 20
250.798035
 30
0.0
  0
POINT
  5
96
330
1F
100
AcDbEntity
  8
0
 62
     7
370
    60
390
F
100
AcDbPoint
 10
713.110291
 20
461.798035
 30
0.0
  0
POINT
  5
460
330
1F
100
AcDbEntity
  8
0
 62
     7
370
    60
390
F
100
AcDbPoint
 10
643.110291
 20
461.798035
 30
0.0
  0
POINT
  5
461
330
1F
100
AcDbEntity
  8
0
 62
     7
370
    60
390
F
100
AcDbPoint
 10
678.110291
 20
443.798035
 30
0.0
  0
LINE
  5
463
330
1F
100
AcDbEntity
  8
0
 62
     7
370
    60
390
F
100
AcDbLine
 10
643.110291
 20
220.798035
 30
0.0
 11
643.110291
 21
461.798035
 31
0.0
  0
LINE
  5
464
330
1F
100
AcDbEntity
  8
0
 62
     7
370
    60
390
F
100
AcDbLine
 10
713.110291
 20
220.798035
 30
0.0
 11
713.110291
 21
461.798035
 31
0.0
  0
LINE
  5
465
330
1F
100
AcDbEntity
  8
0
 62
     7
370
    60
390
F
100
AcDbLine
 10
628.110291
 20
420.798035
 30
0.0
 11
628.110291
 21
466.798035
 31
0.0
  0
LINE
  5
466
330
1F
100
AcDbEntity
  8
0
 62
     7
370
    60
390
F
100
AcDbLine
 10
728.110291
 20
420.798035
 30
0.0
 11
728.110291
 21
466.798035
 31
0.0
  0
LINE
  5
467
330
1F
100
AcDbEntity
  8
0
 62
     7
 48
0.176777
370
    60
390
F
100
AcDbLine
 10
713.110291
 20
461.798035
 30
0.0
 11
718.110291
 21
466.798035
 31
0.0
  0
LINE
  5
468
330
1F
100
AcDbEntity
  8
0
 62
     7
 48
0.176777
370
    60
390
F
100
AcDbLine
 10
638.110291
 20
466.798035
 30
0.0
 11
643.110291
 21
461.798035
 31
0.0
  0
LINE
  5
469
330
1F
100
AcDbEntity
  8
0
 62
     7
370
    60
390
F
100
AcDbLine
 10
632.110291
 20
466.798035
 30
0.0
 11
724.110291
 21
466.798035
 31
0.0
  0
LINE
  5
46A
330
1F
100
AcDbEntity
  8
0
  6
DASHDOT
 62
     7
370
    25
390
F
100
AcDbLine
 10
678.110291
 20
216.415665
 30
0.0
 11
678.110291
 21
478.75621
 31
0.0
  0
LINE
  5
46B
330
1F
100
AcDbEntity
  8
0
  6
DASHDOT
 62
     7
370
    25
390
F
100
AcDbLine
 10
664.241741
 20
250.798035
 30
0.0
 11
690.464217
 21
250.798035
 31
0.0
  0
LINE
  5
46C
330
1F
100
AcDbEntity
  8
0
  6
DASHDOT
 62
     7
370
    25
390
F
100
AcDbLine
 10
661.902647
 20
300.798035
 30
0.0
 11
693.295752
 21
300.798035
 31
0.0
  0
ARC
  5
46D
330
1F
100
AcDbEntity
  8
0
 62
     7
370
    60
390
F
100
AcDbCircle
 10
678.110291
 20
300.7980350000001
 30
0.0
 40
4.999999999999948
100
AcDbArc
 50
359.9999999999993
 51
257.7576239999999
  0
ARC
  5
46E
330
1F
100
AcDbEntity
  8
0
 62
     7
370
    60
390
F
100
AcDbCircle
 10
678.110291
 20
250.798035
 30
0.0
 40
5.0
100
AcDbArc
 50
0.0
 51
193.758697
  0
ARC
  5
46F
330
1F
100
AcDbEntity
  8
0
 62
     7
370
    60
390
F
100
AcDbCircle
 10
678.110291
 20
300.798035
 30
0.0
 40
5.0
100
AcDbArc
 50
257.757624
 51
0.0
  0
ARC
  5
470
330
1F
100
AcDbEntity
  8
0
 62
     7
370
    60
390
F
100
AcDbCircle
 10
678.1102909999998
 20
250.7980350000001
 30
0.0
 40
5.000000000000123
100
AcDbArc
 50
193.7586970000007
 51
359.9999999999993
  0
LINE
  5
471
330
1F
100
AcDbEntity
  8
0
 62
     7
370
    60
390
F
100
AcDbLine
 10
724.110291
 20
420.798035
 30
0.0
 11
724.110291
 21
466.798035
 31
0.0
  0
LINE
  5
472
330
1F
100
AcDbEntity
  8
0
 62
     7
370
    60
390
F
100
AcDbLine
 10
632.110291
 20
420.798035
 30
0.0
 11
632.110291
 21
466.798035
 31
0.0
  0
LINE
  5
473
330
1F
100
AcDbEntity
  8
0
 62
     7
370
    60
390
F
100
AcDbLine
 10
632.110291
 20
470.798035
 30
0.0
 11
724.110291
 21
470.798035
 31
0.0
  0
ARC
  5
474
330
1F
100
AcDbEntity
  8
0
 62
     7
370
    60
390
F
100
AcDbCircle
 10
724.110291
 20
466.798035
 30
0.0
 40
4.0
100
AcDbArc
 50
0.0
 51
90.000003
  0
ARC
  5
475
330
1F
100
AcDbEntity
  8
0
 62
     7
370
    60
390
F
100
AcDbCircle
 10
632.110291
 20
466.798035
 30
0.0
 40
4.0
100
AcDbArc
 50
90.000003
 51
180.000005
  0
LINE
  5
476
330
1F
100
AcDbEntity
  8
0
  6
DASHDOT
 62
     7
370
    25
390
F
100
AcDbLine
 10
606.413551
 20
452.949615
 30
0.0
 11
743.85392
 21
452.949615
 31
0.0
  0
LINE
  5
477
330
1F
100
AcDbEntity
  8
0
 62
     7
 48
0.1
370
    60
390
F
100
AcDbLine
 10
628.110291
 20
420.798035
 30
0.0
 11
632.110291
 21
420.798035
 31
0.0
  0
LINE
  5
478
330
1F
100
AcDbEntity
  8
0
 62
     7
 48
0.1
370
    60
390
F
100
AcDbLine
 10
724.110291
 20
420.798035
 30
0.0
 11
728.110291
 21
420.798035
 31
0.0
  0
LINE
  5
479
330
1F
100
AcDbEntity
  8
0
 62
     7
370
    60
390
F
100
AcDbLine
 10
643.110291
 20
220.798035
 30
0.0
 11
713.110291
 21
220.798035
 31
0.0
  0
LINE
  5
47A
330
1F
100
AcDbEntity
  8
0
 62
     7
 48
0.4375
370
    60
390
F
100
AcDbLine
 10
695.610291
 20
461.798035
 30
0.0
 11
713.110291
 21
461.798035
 31
0.0
  0
LINE
  5
47B
330
1F
100
AcDbEntity
  8
0
 62
     7
370
    60
390
F
100
AcDbLine
 10
643.110291
 20
461.798035
 30
0.0
 11
713.110291
 21
461.798035
 31
0.0
  0
LINE
  5
47C
330
1F
100
AcDbEntity
  8
0
  6
DASHSPACE
 62
     7
 48
0.125
370
    60
390
F
100
AcDbLine
 10
643.110291
 20
461.798035
 30
0.0
 11
643.110291
 21
466.798035
 31
0.0
  0
LINE
  5
47D
330
1F
100
AcDbEntity
  8
0
  6
DASHSPACE
 62
     7
 48
0.125
370
    60
390
F
100
AcDbLine
 10
713.110291
 20
461.798035
 30
0.0
 11
713.110291
 21
466.798035
 31
0.0
  0
LINE
  5
47E
330
1F
100
AcDbEntity
  8
0
  6
DASHDOT
 62
     7
370
    25
390
F
100
AcDbLine
 10
658.159201
 20
443.798035
 30
0.0
 11
698.106674
 21
443.798035
 31
0.0
  0
CIRCLE
  5
47F
330
1F
100
AcDbEntity
  8
0
 62
     7
370
    60
390
F
100
AcDbCircle
 10
678.110291
 20
443.798035
 30
0.0
 40
15.0
  0
LINE
  5
480
330
1F
100
AcDbEntity
  8
0
 62
     7
 48
0.23094
370
    60
390
F
100
AcDbLine
 10
678.110291
 20
260.035639
 30
0.0
 11
686.110291
 21
255.416837
 31
0.0
  0
LINE
  5
481
330
1F
100
AcDbEntity
  8
0
 62
     7
 48
0.23094
370
    60
390
F
100
AcDbLine
 10
670.110291
 20
255.416837
 30
0.0
 11
678.110291
 21
260.035639
 31
0.0
  0
LINE
  5
482
330
1F
100
AcDbEntity
  8
0
 62
     7
 48
0.23094
370
    60
390
F
100
AcDbLine
 10
670.110291
 20
246.179232
 30
0.0
 11
670.110291
 21
255.416837
 31
0.0
  0
LINE
  5
483
330
1F
100
AcDbEntity
  8
0
 62
     7
 48
0.23094
370
    60
390
F
100
AcDbLine
 10
670.110291
 20
246.179232
 30
0.0
 11
678.110291
 21
241.560431
 31
0.0
  0
LINE
  5
BB
330
1F
100
AcDbEntity
  8
0
 62
     7
 48
0.23094
370
    60
390
F
100
AcDbLine
 10
678.110291
 20
241.560431
 30
0.0
 11
686.110291
 21
246.179232
 31
0.0
  0
LINE
  5
BE
330
1F
100
AcDbEntity
  8
0
 62
     7
 48
0.23094
370
    60
390
F
100
AcDbLine
 10
686.110291
 20
246.179232
 30
0.0
 11
686.110291
 21
255.416837
 31
0.0
  0
LINE
  5
BF
330
1F
100
AcDbEntity
  8
0
  6
DASHSPACE
 62
     7
370
    25
390
F
100
AcDbLine
 10
710.110291
 20
220.798035
 30
0.0
 11
710.110291
 21
461.798035
 31
0.0
  0
LINE
  5
C0
330
1F
100
AcDbEntity
  8
0
  6
DASHSPACE
 62
     7
370
    25
390
F
100
AcDbLine
 10
646.110291
 20
220.798035
 30
0.0
 11
646.110291
 21
461.798035
 31
0.0
  0
LINE
  5
C1
330
1F
100
AcDbEntity
  8
0
 62
     7
 48
0.23094
370
    60
390
F
100
AcDbLine
 10
670.110291
 20
296.179232
 30
0.0
 11
670.110291
 21
305.416836
 31
0.0
  0
LINE
  5
C2
330
1F
100
AcDbEntity
  8
0
 62
     7
 48
0.23094
370
    60
390
F
100
AcDbLine
 10
686.110291
 20
296.179232
 30
0.0
 11
686.110291
 21
305.416836
 31
0.0
  0
LINE
  5
C3
330
1F
100
AcDbEntity
  8
0
 62
     7
 48
0.23094
370
    60
390
F
100
AcDbLine
 10
678.110291
 20
310.035641
 30
0.0
 11
686.110291
 21
305.416836
 31
0.0
  0
LINE
  5
C4
330
1F
100
AcDbEntity
  8
0
 62
     7
 48
0.23094
370
    60
390
F
100
AcDbLine
 10
670.110291
 20
296.179232
 30
0.0
 11
678.110291
 21
291.560431
 31
0.0
  0
LINE
  5
C5
330
1F
100
AcDbEntity
  8
0
 62
     7
 48
0.23094
370
    60
390
F
100
AcDbLine
 10
670.110291
 20
305.416836
 30
0.0
 11
678.110291
 21
310.035641
 31
0.0
  0
LINE
  5
C6
330
1F
100
AcDbEntity
  8
0
 62
     7
 48
0.23094
370
    60
390
F
100
AcDbLine
 10
678.110291
 20
291.560431
 30
0.0
 11
686.110291
 21
296.179232
 31
0.0
  0
POINT
  5
E2
330
1F
100
AcDbEntity
  8
0
 62
     7
370
    60
390
F
100
AcDbPoint
 10
292.414063
 20
86.871218
 30
0.0
  0
POINT
  5
E3
330
1F
100
AcDbEntity
  8
0
 62
     7
370
    60
390
F
100
AcDbPoint
 10
292.414063
 20
121.871218
 30
0.0
  0
POINT
  5
E4
330
1F
100
AcDbEntity
  8
0
 62
     7
370
    60
390
F
100
AcDbPoint
 10
172.414063
 20
86.871218
 30
0.0
  0
POINT
  5
E5
330
1F
100
AcDbEntity
  8
0
 62
     7
370
    60
390
F
100
AcDbPoint
 10
442.414063
 20
86.871218
 30
0.0
  0
POINT
  5
E6
330
1F
100
AcDbEntity
  8
0
 62
     7
370
    60
390
F
100
AcDbPoint
 10
142.414063
 20
86.871218
 30
0.0
  0
POINT
  5
E7
330
1F
100
AcDbEntity
  8
0
 62
     7
370
    60
390
F
100
AcDbPoint
 10
292.147705
 20
86.871218
 30
0.0
  0
LINE
  5
E8
330
1F
100
AcDbEntity
  8
0
 62
     7
370
    60
390
F
100
AcDbLine
 10
92.414063
 20
36.871218
 30
0.0
 11
92.414063
 21
136.871218
 31
0.0
  0
LINE
  5
E9
330
1F
100
AcDbEntity
  8
0
 62
     7
370
    60
390
F
100
AcDbLine
 10
492.414063
 20
36.871218
 30
0.0
 11
492.414063
 21
136.871218
 31
0.0
  0
LINE
  5
EA
330
1F
100
AcDbEntity
  8
0
 62
     7
370
    60
390
F
100
AcDbLine
 10
92.414063
 20
136.871218
 30
0.0
 11
492.414063
 21
136.871218
 31
0.0
  0
LINE
  5
EB
330
1F
100
AcDbEntity
  8
0
 62
     7
370
    60
390
F
100
AcDbLine
 10
92.414063
 20
36.871218
 30
0.0
 11
492.414063
 21
36.871218
 31
0.0
  0
CIRCLE
  5
EC
330
1F
100
AcDbEntity
  8
0
  6
DASHSPACE
 62
     7
370
    60
390
F
100
AcDbCircle
 10
292.414063
 20
86.871218
 30
0.0
 40
35.0
  0
LINE
  5
ED
330
1F
100
AcDbEntity
  8
0
  6
DASHDOT
 62
     7
370
    25
390
F
100
AcDbLine
 10
442.414063
 20
69.30055
 30
0.0
 11
442.414063
 21
105.260202
 31
0.0
  0
LINE
  5
EE
330
1F
100
AcDbEntity
  8
0
  6
DASHDOT
 62
     7
370
    25
390
F
100
AcDbLine
 10
142.414063
 20
65.124733
 30
0.0
 11
142.414063
 21
106.095366
 31
0.0
  0
LINE
  5
EF
330
1F
100
AcDbEntity
  8
0
  6
DASHDOT
 62
     7
370
    25
390
F
100
AcDbLine
 10
122.587051
 20
86.871218
 30
0.0
 11
456.513199
 21
86.871218
 31
0.0
  0
ARC
  5
F0
330
1F
100
AcDbEntity
  8
0
 62
     7
370
    60
390
F
100
AcDbCircle
 10
172.414063
 20
86.871218
 30
0.0
 40
6.5
100
AcDbArc
 50
90.000003
 51
270.000001
  0
LINE
  5
F1
330
1F
100
AcDbEntity
  8
0
 62
     7
 48
0.125
370
    60
390
F
100
AcDbLine
 10
172.414063
 20
80.371218
 30
0.0
 11
177.414063
 21
80.371218
 31
0.0
  0
ARC
  5
F2
330
1F
100
AcDbEntity
  8
0
 62
     7
370
    60
390
F
100
AcDbCircle
 10
177.414063
 20
86.871218
 30
0.0
 40
6.5
100
AcDbArc
 50
270.000001
 51
90.000003
  0
LINE
  5
F3
330
1F
100
AcDbEntity
  8
0
 62
     7
 48
0.125
370
    60
390
F
100
AcDbLine
 10
172.414063
 20
93.371218
 30
0.0
 11
177.414063
 21
93.371218
 31
0.0
  0
LINE
  5
F4
330
1F
100
AcDbEntity
  8
0
  6
DASHDOT
 62
     7
 48
0.360164
370
    25
390
F
100
AcDbLine
 10
172.414063
 20
80.726384
 30
0.0
 11
172.414063
 21
95.132953
 31
0.0
  0
LINE
  5
F5
330
1F
100
AcDbEntity
  8
0
  6
DASHDOT
 62
     7
 48
0.468039
370
    25
390
F
100
AcDbLine
 10
177.414063
 20
78.360088
 30
0.0
 11
177.414063
 21
97.081667
 31
0.0
  0
ARC
  5
F6
330
1F
100
AcDbEntity
  8
0
 62
     7
370
    60
390
F
100
AcDbCircle
 10
232.414063
 20
86.871218
 30
0.0
 40
6.5
100
AcDbArc
 50
90.000003
 51
270.000001
  0
LINE
  5
F7
330
1F
100
AcDbEntity
  8
0
 62
     7
 48
0.125
370
    60
390
F
100
AcDbLine
 10
232.414063
 20
80.371218
 30
0.0
 11
237.414063
 21
80.371218
 31
0.0
  0
ARC
  5
F8
330
1F
100
AcDbEntity
  8
0
 62
     7
370
    60
390
F
100
AcDbCircle
 10
237.414063
 20
86.871218
 30
0.0
 40
6.5
100
AcDbArc
 50
270.000001
 51
90.000003
  0
LINE
  5
F9
330
1F
100
AcDbEntity
  8
0
 62
     7
 48
0.125
370
    60
390
F
100
AcDbLine
 10
232.414063
 20
93.371218
 30
0.0
 11
237.414063
 21
93.371218
 31
0.0
  0
LINE
  5
FA
330
1F
100
AcDbEntity
  8
0
  6
DASHDOT
 62
     7
370
    25
390
F
100
AcDbLine
 10
232.414063
 20
73.741966
 30
0.0
 11
232.414063
 21
101.249687
 31
0.0
  0
LINE
  5
FB
330
1F
100
AcDbEntity
  8
0
  6
DASHDOT
 62
     7
370
    25
390
F
100
AcDbLine
 10
237.414063
 20
74.888122
 30
0.0
 11
237.414063
 21
106.652988
 31
0.0
  0
ARC
  5
FC
330
1F
100
AcDbEntity
  8
0
 62
     7
370
    60
390
F
100
AcDbCircle
 10
347.414063
 20
86.871218
 30
0.0
 40
6.5
100
AcDbArc
 50
90.000003
 51
270.000001
  0
LINE
  5
FD
330
1F
100
AcDbEntity
  8
0
 62
     7
 48
0.125
370
    60
390
F
100
AcDbLine
 10
347.414063
 20
80.371218
 30
0.0
 11
352.414063
 21
80.371218
 31
0.0
  0
ARC
  5
FE
330
1F
100
AcDbEntity
  8
0
 62
     7
370
    60
390
F
100
AcDbCircle
 10
352.414063
 20
86.871218
 30
0.0
 40
6.5
100
AcDbArc
 50
270.000001
 51
90.000003
  0
LINE
  5
FF
330
1F
100
AcDbEntity
  8
0
 62
     7
 48
0.125
370
    60
390
F
100
AcDbLine
 10
347.414063
 20
93.371218
 30
0.0
 11
352.414063
 21
93.371218
 31
0.0
  0
LINE
  5
100
330
1F
100
AcDbEntity
  8
0
  6
DASHDOT
 62
     7
370
    25
390
F
100
AcDbLine
 10
347.414063
 20
72.595811
 30
0.0
 11
347.414063
 21
97.647486
 31
0.0
  0
LINE
  5
101
330
1F
100
AcDbEntity
  8
0
  6
DASHDOT
 62
     7
370
    25
390
F
100
AcDbLine
 10
352.414063
 20
73.250757
 30
0.0
 11
352.414063
 21
99.776059
 31
0.0
  0
ARC
  5
102
330
1F
100
AcDbEntity
  8
0
 62
     7
370
    60
390
F
100
AcDbCircle
 10
407.414063
 20
86.871218
 30
0.0
 40
6.5
100
AcDbArc
 50
90.000003
 51
270.000001
  0
LINE
  5
103
330
1F
100
AcDbEntity
  8
0
  6
DASHDOT
 62
     7
370
    25
390
F
100
AcDbLine
 10
407.414063
 20
74.045077
 30
0.0
 11
407.414063
 21
96.664085
 31
0.0
  0
LINE
  5
104
330
1F
100
AcDbEntity
  8
0
  6
DASHDOT
 62
     7
370
    25
390
F
100
AcDbLine
 10
412.414063
 20
74.045077
 30
0.0
 11
412.414063
 21
96.664085
 31
0.0
  0
LINE
  5
105
330
1F
100
AcDbEntity
  8
0
 62
     7
 48
0.125
370
    60
390
F
100
AcDbLine
 10
407.414063
 20
80.371218
 30
0.0
 11
412.414063
 21
80.371218
 31
0.0
  0
ARC
  5
106
330
1F
100
AcDbEntity
  8
0
 62
     7
370
    60
390
F
100
AcDbCircle
 10
412.414063
 20
86.871218
 30
0.0
 40
6.5
100
AcDbArc
 50
270.000001
 51
90.000003
  0
LINE
  5
107
330
1F
100
AcDbEntity
  8
0
 62
     7
 48
0.125
370
    60
390
F
100
AcDbLine
 10
407.414063
 20
93.371218
 30
0.0
 11
412.414063
 21
93.371218
 31
0.0
  0
CIRCLE
  5
108
330
1F
100
AcDbEntity
  8
0
 62
     7
370
    60
390
F
100
AcDbCircle
 10
442.414063
 20
86.871218
 30
0.0
 40
6.5
  0
CIRCLE
  5
109
330
1F
100
AcDbEntity
  8
0
 62
     7
370
    60
390
F
100
AcDbCircle
 10
142.414063
 20
86.871218
 30
0.0
 40
6.5
  0
DIMENSION
  5
3AE
330
1F
100
AcDbEntity
  8
0
370
    25
100
AcDbDimension
  2
*D34
 10
524.86098437028
 20
36.87121799999999
 30
0.0
 11
513.5554725592564
 21
86.871218
 31
0.0
 70
    32
 71
     5
 41
2.5
 42
100.0
  3
Standard
100
AcDbAlignedDimension
 13
442.4577025098201
 23
136.871218
 33
0.0
 14
442.4577025098201
 24
36.871218
 34
0.0
 50
90.0
100
AcDbRotatedDimension
1001
ACAD
1000
DSTYLE
1002
{
1070
    41
1040
10.0
1070
   140
1040
14.0
1070
   147
1040
5.0
1070
   176
1070
     7
1070
   177
1070
     7
1070
   340
1005
11
1002
}
  0
DIMENSION
  5
3D0
330
1F
100
AcDbEntity
  8
0
370
    25
100
AcDbDimension
  2
*D38
 10
498.715515
 20
504.5775179948847
 30
0.0
 11
298.715515
 21
515.8830298059083
 31
0.0
 70
    32
 71
     5
 41
2.5
 42
400.0
  3
Standard
100
AcDbAlignedDimension
 13
98.715515
 23
447.059906
 33
0.0
 14
498.715515
 24
452.059906
 34
0.0
100
AcDbRotatedDimension
1001
ACAD
1000
DSTYLE
1002
{
1070
    41
1040
10.0
1070
   140
1040
14.0
1070
   147
1040
5.0
1070
   176
1070
     7
1070
   177
1070
     7
1070
   340
1005
11
1002
}
  0
DIMENSION
  5
48B
330
1F
100
AcDbEntity
  8
0
370
    25
100
AcDbDimension
  2
*D44
 10
333.715515
 20
193.2389251630205
 30
0.0
 11
298.715515
 21
204.5389251630205
 31
0.0
 70
   160
  1
Ø70
 71
     5
 41
2.5
 42
70.0
  3
Standard
100
AcDbAlignedDimension
 13
263.715515
 23
229.6253705578611
 33
0.0
 14
333.715515
 24
229.6253705578611
 34
0.0
100
AcDbRotatedDimension
1001
ACAD
1000
DSTYLE
1002
{
1070
    41
1040
10.0
1070
   140
1040
14.0
1070
   147
1040
5.0
1070
   176
1070
     7
1070
   177
1070
     7
1002
}
  0
DIMENSION
  5
4DC
330
1F
100
AcDbEntity
  8
0
370
    25
100
AcDbDimension
  2
*D47
 10
767.8934915102109
 20
220.798035
 30
0.0
 11
756.5879796991873
 21
345.798035
 31
0.0
 70
    32
 71
     5
 41
2.5
 42
250.0
  3
Standard
100
AcDbAlignedDimension
 13
690.4338389243723
 23
470.798035
 33
0.0
 14
690.4338389243723
 24
220.798035
 34
0.0
 50
90.0
100
AcDbRotatedDimension
1001
ACAD
1000
DSTYLE
1002
{
1070
    41
1040
10.0
1070
   140
1040
14.0
1070
   147
1040
5.0
1070
   176
1070
     7
1070
   177
1070
     7
1002
}
  0
VIEWPORT
  5
10B
330
73
100
AcDbEntity
 67
     1
  8
0
 62
     0
370
     0
390
F
100
AcDbViewport
 10
0.0
 20
0.0
 30
0.0
 40
1000.0
 41
1000.0
 68
     1
 69
     1
 12
0.0
 22
0.0
 13
0.0
 23
0.0
 14
1.0
 24
1.0
 15
1.0
 25
1.0
 16
0.0
 26
0.0
 36
1.0
 17
0.0
 27
0.0
 37
0.0
 42
50.0
 43
0.0
 44
0.0
 45
1000.0
 50
0.0
 51
0.0
 72
   100
 90
   557056
  1

281
     0
 71
     0
 74
     0
110
0.0
120
0.0
130
0.0
111
1.0
121
0.0
131
0.0
112
0.0
122
1.0
132
0.0
 79
     0
146
0.0
  0
ENDSEC
  0
SECTION
  2
OBJECTS
  0
DICTIONARY
  5
C
330
0
100
AcDbDictionary
281
     1
  3
ACAD_COLOR
350
6C
  3
ACAD_GROUP
350
D
  3
ACAD_LAYOUT
350
1A
  3
ACAD_MATERIAL
350
6B
  3
ACAD_MLEADERSTYLE
350
484
  3
ACAD_MLINESTYLE
350
17
  3
ACAD_PLOTSETTINGS
350
19
  3
ACAD_PLOTSTYLENAME
350
E
  3
ACAD_SCALELIST
350
99
  3
ACAD_TABLESTYLE
350
92
  3
ACAD_WIPEOUT_VARS
350
507
  3
ACDBHEADERROUNDTRIPXREC
350
568
  3
AcDbVariableDictionary
350
59
  3
DWGPROPS
350
56B
  0
DICTIONARY
  5
6C
102
{ACAD_REACTORS
330
C
102
}
330
C
100
AcDbDictionary
281
     1
  0
DICTIONARY
  5
D
102
{ACAD_REACTORS
330
C
102
}
330
C
100
AcDbDictionary
281
     1
  0
DICTIONARY
  5
1A
102
{ACAD_REACTORS
330
C
102
}
330
C
100
AcDbDictionary
281
     1
  3
Layout1
350
74
  3
Model
350
22
  0
DICTIONARY
  5
6B
102
{ACAD_REACTORS
330
C
102
}
330
C
100
AcDbDictionary
281
     1
  0
DICTIONARY
  5
484
102
{ACAD_REACTORS
330
C
102
}
330
C
100
AcDbDictionary
281
     1
  0
DICTIONARY
  5
17
102
{ACAD_REACTORS
330
C
102
}
330
C
100
AcDbDictionary
281
     1
  3
Standard
350
18
  0
DICTIONARY
  5
19
102
{ACAD_REACTORS
330
C
102
}
330
C
100
AcDbDictionary
281
     1
  0
ACDBDICTIONARYWDFLT
  5
E
102
{ACAD_REACTORS
330
C
102
}
330
C
100
AcDbDictionary
281
     1
  3
Normal
350
F
100
AcDbDictionaryWithDefault
340
F
  0
DICTIONARY
  5
99
102
{ACAD_REACTORS
330
C
102
}
330
C
100
AcDbDictionary
281
     1
  3
A0
350
2DE
  3
A1
350
2DF
  3
A2
350
2E0
  3
A3
350
2E1
  3
A4
350
2E2
  3
A5
350
2E3
  3
A6
350
2E4
  3
A7
350
2E5
  3
A8
350
2E6
  3
A9
350
2E7
  3
B0
350
2E8
  3
B1
350
2E9
  3
B2
350
2EA
  3
B3
350
2EB
  3
B4
350
2EC
  3
B5
350
2ED
  3
B6
350
2EE
  3
B7
350
2EF
  3
B8
350
2F0
  3
B9
350
2F1
  3
C0
350
2F2
  3
C1
350
2F3
  3
C2
350
2F4
  3
C3
350
2F5
  3
C4
350
2F6
  3
C5
350
2F7
  3
C6
350
2F8
  3
C7
350
2F9
  3
C8
350
2FA
  3
C9
350
2FB
  3
D0
350
2FC
  3
D1
350
2FD
  3
D2
350
2FE
  0
DICTIONARY
  5
92
102
{ACAD_REACTORS
330
C
102
}
330
C
100
AcDbDictionary
281
     1
  0
WIPEOUTVARIABLES
  5
507
102
{ACAD_REACTORS
330
C
102
}
330
C
100
AcDbWipeoutVariables
 70
     1
  0
DICTIONARY
  5
568
102
{ACAD_REACTORS
330
C
102
}
330
C
100
AcDbDictionary
281
     1
  3
COLORDICT
350
569
  3
MATERIALDICT
350
56A
  0
DICTIONARY
  5
59
102
{ACAD_REACTORS
330
C
102
}
330
C
100
AcDbDictionary
281
     1
  3
CTABLESTYLE
350
98
  3
DIMASSOC
350
5A
  3
HIDETEXT
350
5E
  0
XRECORD
  5
56B
102
{ACAD_REACTORS
330
C
102
}
330
C
100
AcDbXrecord
280
     1
  1
DWGPROPS COOKIE
  2

  3

  4

  6

  7

  8
BelottiMc
  9

300
=
301
=
302
=
303
=
304
=
305
=
306
=
307
=
308
=
309
=
 40
0.0
 41
2447893.0
 42
2447893.0
  1

 90
        0
  0
LAYOUT
  5
74
102
{ACAD_REACTORS
330
1A
102
}
330
1A
100
AcDbPlotSettings
  1

  2
none_device
  4
none_user_media
  6

 40
0.0
 41
0.0
 42
0.0
 43
0.0
 44
0.0
 45
0.0
 46
0.0
 47
0.0
 48
0.0
 49
0.0
140
0.0
141
0.0
142
1.0
143
1.0
 70
   544
 72
     0
 73
     0
 74
     0
  7

 75
    16
147
1.0
148
0.0
149
0.0
100
AcDbLayout
  1
Layout1
 70
     1
 71
     0
 10
0.0
 20
0.0
 11
420.0
 21
297.0
 12
0.0
 22
0.0
 32
0.0
 14
0.0
 24
0.0
 34
0.0
 15
200.0
 25
251.557587
 35
2.0
146
0.0
 13
0.0
 23
0.0
 33
0.0
 16
1.0
 26
0.0
 36
0.0
 17
0.0
 27
1.0
 37
0.0
 76
     0
330
73
331
10B
  0
LAYOUT
  5
22
102
{ACAD_REACTORS
330
1A
102
}
330
1A
100
AcDbPlotSettings
  1

  2
none_device
  4
none_user_media
  6

 40
6.349999904632568
 41
6.349999904632568
 42
6.350006103515625
 43
6.350006103515625
 44
215.8999938964844
 45
279.3999938964844
 46
0.0
 47
0.0
 48
0.0
 49
0.0
140
0.0
141
0.0
142
1.0
143
1.0
 70
 11936
 72
     0
 73
     0
 74
     0
  7

 75
     0
147
0.2143583723445778
148
0.0
149
0.0
100
AcDbLayout
  1
Model
 70
     1
 71
     0
 10
0.0
 20
0.0
 11
420.0
 21
297.0
 12
0.0
 22
0.0
 32
0.0
 14
92.414063
 24
36.871218
 34
0.0
 15
769.1434915102109
 25
521.8385416169319
 35
0.0
146
0.0
 13
0.0
 23
0.0
 33
0.0
 16
1.0
 26
0.0
 36
0.0
 17
0.0
 27
1.0
 37
0.0
 76
     0
330
1F
331
97
  0
MLINESTYLE
  5
18
102
{ACAD_REACTORS
330
17
102
}
330
17
100
AcDbMlineStyle
  2
Standard
 70
     0
  3

 62
     0
 51
90.0
 52
90.0
 71
     2
 49
0.5
 62
   256
  6
BYLAYER
 49
-0.5
 62
   256
  6
BYLAYER
  0
ACDBPLACEHOLDER
  5
F
102
{ACAD_REACTORS
330
E
102
}
330
E
  0
SCALE
  5
2DE
102
{ACAD_REACTORS
330
99
102
}
330
99
100
AcDbScale
 70
     0
300
1:1
140
1.0
141
1.0
290
     1
  0
SCALE
  5
2DF
102
{ACAD_REACTORS
330
99
102
}
330
99
100
AcDbScale
 70
     0
300
1:2
140
1.0
141
2.0
290
     0
  0
SCALE
  5
2E0
102
{ACAD_REACTORS
330
99
102
}
330
99
100
AcDbScale
 70
     0
300
1:4
140
1.0
141
4.0
290
     0
  0
SCALE
  5
2E1
102
{ACAD_REACTORS
330
99
102
}
330
99
100
AcDbScale
 70
     0
300
1:5
140
1.0
141
5.0
290
     0
  0
SCALE
  5
2E2
102
{ACAD_REACTORS
330
99
102
}
330
99
100
AcDbScale
 70
     0
300
1:8
140
1.0
141
8.0
290
     0
  0
SCALE
  5
2E3
102
{ACAD_REACTORS
330
99
102
}
330
99
100
AcDbScale
 70
     0
300
1:10
140
1.0
141
10.0
290
     0
  0
SCALE
  5
2E4
102
{ACAD_REACTORS
330
99
102
}
330
99
100
AcDbScale
 70
     0
300
1:16
140
1.0
141
16.0
290
     0
  0
SCALE
  5
2E5
102
{ACAD_REACTORS
330
99
102
}
330
99
100
AcDbScale
 70
     0
300
1:20
140
1.0
141
20.0
290
     0
  0
SCALE
  5
2E6
102
{ACAD_REACTORS
330
99
102
}
330
99
100
AcDbScale
 70
     0
300
1:30
140
1.0
141
30.0
290
     0
  0
SCALE
  5
2E7
102
{ACAD_REACTORS
330
99
102
}
330
99
100
AcDbScale
 70
     0
300
1:40
140
1.0
141
40.0
290
     0
  0
SCALE
  5
2E8
102
{ACAD_REACTORS
330
99
102
}
330
99
100
AcDbScale
 70
     0
300
1:50
140
1.0
141
50.0
290
     0
  0
SCALE
  5
2E9
102
{ACAD_REACTORS
330
99
102
}
330
99
100
AcDbScale
 70
     0
300
1:100
140
1.0
141
100.0
290
     0
  0
SCALE
  5
2EA
102
{ACAD_REACTORS
330
99
102
}
330
99
100
AcDbScale
 70
     0
300
2:1
140
2.0
141
1.0
290
     0
  0
SCALE
  5
2EB
102
{ACAD_REACTORS
330
99
102
}
330
99
100
AcDbScale
 70
     0
300
4:1
140
4.0
141
1.0
290
     0
  0
SCALE
  5
2EC
102
{ACAD_REACTORS
330
99
102
}
330
99
100
AcDbScale
 70
     0
300
8:1
140
8.0
141
1.0
290
     0
  0
SCALE
  5
2ED
102
{ACAD_REACTORS
330
99
102
}
330
99
100
AcDbScale
 70
     0
300
10:1
140
10.0
141
1.0
290
     0
  0
SCALE
  5
2EE
102
{ACAD_REACTORS
330
99
102
}
330
99
100
AcDbScale
 70
     0
300
100:1
140
100.0
141
1.0
290
     0
  0
SCALE
  5
2EF
102
{ACAD_REACTORS
330
99
102
}
330
99
100
AcDbScale
 70
     0
300
1/128" = 1'-0"
140
0.0078125
141
12.0
290
     0
  0
SCALE
  5
2F0
102
{ACAD_REACTORS
330
99
102
}
330
99
100
AcDbScale
 70
     0
300
1/64" = 1'-0"
140
0.015625
141
12.0
290
     0
  0
SCALE
  5
2F1
102
{ACAD_REACTORS
330
99
102
}
330
99
100
AcDbScale
 70
     0
300
1/32" = 1'-0"
140
0.03125
141
12.0
290
     0
  0
SCALE
  5
2F2
102
{ACAD_REACTORS
330
99
102
}
330
99
100
AcDbScale
 70
     0
300
1/16" = 1'-0"
140
0.0625
141
12.0
290
     0
  0
SCALE
  5
2F3
102
{ACAD_REACTORS
330
99
102
}
330
99
100
AcDbScale
 70
     0
300
3/32" = 1'-0"
140
0.09375
141
12.0
290
     0
  0
SCALE
  5
2F4
102
{ACAD_REACTORS
330
99
102
}
330
99
100
AcDbScale
 70
     0
300
1/8" = 1'-0"
140
0.125
141
12.0
290
     0
  0
SCALE
  5
2F5
102
{ACAD_REACTORS
330
99
102
}
330
99
100
AcDbScale
 70
     0
300
3/16" = 1'-0"
140
0.1875
141
12.0
290
     0
  0
SCALE
  5
2F6
102
{ACAD_REACTORS
330
99
102
}
330
99
100
AcDbScale
 70
     0
300
1/4" = 1'-0"
140
0.25
141
12.0
290
     0
  0
SCALE
  5
2F7
102
{ACAD_REACTORS
330
99
102
}
330
99
100
AcDbScale
 70
     0
300
3/8" = 1'-0"
140
0.375
141
12.0
290
     0
  0
SCALE
  5
2F8
102
{ACAD_REACTORS
330
99
102
}
330
99
100
AcDbScale
 70
     0
300
1/2" = 1'-0"
140
0.5
141
12.0
290
     0
  0
SCALE
  5
2F9
102
{ACAD_REACTORS
330
99
102
}
330
99
100
AcDbScale
 70
     0
300
3/4" = 1'-0"
140
0.75
141
12.0
290
     0
  0
SCALE
  5
2FA
102
{ACAD_REACTORS
330
99
102
}
330
99
100
AcDbScale
 70
     0
300
1" = 1'-0"
140
1.0
141
12.0
290
     0
  0
SCALE
  5
2FB
102
{ACAD_REACTORS
330
99
102
}
330
99
100
AcDbScale
 70
     0
300
1-1/2" = 1'-0"
140
1.5
141
12.0
290
     0
  0
SCALE
  5
2FC
102
{ACAD_REACTORS
330
99
102
}
330
99
100
AcDbScale
 70
     0
300
3" = 1'-0"
140
3.0
141
12.0
290
     0
  0
SCALE
  5
2FD
102
{ACAD_REACTORS
330
99
102
}
330
99
100
AcDbScale
 70
     0
300
6" = 1'-0"
140
6.0
141
12.0
290
     0
  0
SCALE
  5
2FE
102
{ACAD_REACTORS
330
99
102
}
330
99
100
AcDbScale
 70
     0
300
1'-0" = 1'-0"
140
12.0
141
12.0
290
     0
  0
XRECORD
  5
569
102
{ACAD_REACTORS
330
568
102
}
330
568
100
AcDbXrecord
280
     1
340
6C
  0
XRECORD
  5
56A
102
{ACAD_REACTORS
330
568
102
}
330
568
100
AcDbXrecord
280
     1
340
6B
  0
DICTIONARYVAR
  5
98
102
{ACAD_REACTORS
330
59
102
}
330
59
100
DictionaryVariables
280
     0
  1
Standard
  0
DICTIONARYVAR
  5
5A
102
{ACAD_REACTORS
330
59
102
}
330
59
100
DictionaryVariables
280
     0
  1
2
  0
DICTIONARYVAR
  5
5E
102
{ACAD_REACTORS
330
59
102
}
330
59
100
DictionaryVariables
280
     0
  1
1
  0
ENDSEC
  0
EOF
