  0
SECTION
  2
HEADER
  9
$ACADVER
  1
AC1015
  9
$ACADMAINTVER
 70
     6
  9
$DWGCODEPAGE
  3
ANSI_1252
  9
$INSBASE
 10
0.0
 20
0.0
 30
0.0
  9
$EXTMIN
 10
40.76198490302426
 20
202.44307
 30
0.0
  9
$EXTMAX
 10
948.0865453333333
 20
818.8740762895974
 30
0.0
  9
$LIMMIN
 10
0.0
 20
0.0
  9
$LIMMAX
 10
0.0
 20
0.0
  9
$ORTHOMODE
 70
     0
  9
$REGENMODE
 70
     1
  9
$FILLMODE
 70
     1
  9
$QTEXTMODE
 70
     0
  9
$MIRRTEXT
 70
     0
  9
$LTSCALE
 40
1.0
  9
$ATTMODE
 70
     1
  9
$TEXTSIZE
 40
2.5
  9
$TRACEWID
 40
1.0
  9
$TEXTSTYLE
  7
Standard
  9
$CLAYER
  8
0
  9
$CELTYPE
  6
ByLayer
  9
$CECOLOR
 62
   256
  9
$CELTSCALE
 40
1.0
  9
$DISPSILH
 70
     0
  9
$DIMSCALE
 40
1.0
  9
$DIMASZ
 40
2.5
  9
$DIMEXO
 40
0.625
  9
$DIMDLI
 40
3.75
  9
$DIMRND
 40
0.0
  9
$DIMDLE
 40
0.0
  9
$DIMEXE
 40
1.25
  9
$DIMTP
 40
0.0
  9
$DIMTM
 40
0.0
  9
$DIMTXT
 40
2.5
  9
$DIMCEN
 40
2.5
  9
$DIMTSZ
 40
0.0
  9
$DIMTOL
 70
     0
  9
$DIMLIM
 70
     0
  9
$DIMTIH
 70
     0
  9
$DIMTOH
 70
     0
  9
$DIMSE1
 70
     0
  9
$DIMSE2
 70
     0
  9
$DIMTAD
 70
     1
  9
$DIMZIN
 70
     8
  9
$DIMBLK
  1

  9
$DIMASO
 70
     1
  9
$DIMSHO
 70
     1
  9
$DIMPOST
  1

  9
$DIMAPOST
  1

  9
$DIMALT
 70
     0
  9
$DIMALTD
 70
     3
  9
$DIMALTF
 40
0.03937007874016
  9
$DIMLFAC
 40
1.0
  9
$DIMTOFL
 70
     1
  9
$DIMTVP
 40
0.0
  9
$DIMTIX
 70
     0
  9
$DIMSOXD
 70
     0
  9
$DIMSAH
 70
     0
  9
$DIMBLK1
  1

  9
$DIMBLK2
  1

  9
$DIMSTYLE
  2
ISO-25
  9
$DIMCLRD
 70
     0
  9
$DIMCLRE
 70
     0
  9
$DIMCLRT
 70
     0
  9
$DIMTFAC
 40
1.0
  9
$DIMGAP
 40
0.625
  9
$DIMJUST
 70
     0
  9
$DIMSD1
 70
     0
  9
$DIMSD2
 70
     0
  9
$DIMTOLJ
 70
     0
  9
$DIMTZIN
 70
     8
  9
$DIMALTZ
 70
     0
  9
$DIMALTTZ
 70
     0
  9
$DIMUPT
 70
     0
  9
$DIMDEC
 70
     2
  9
$DIMTDEC
 70
     2
  9
$DIMALTU
 70
     2
  9
$DIMALTTD
 70
     3
  9
$DIMTXSTY
  7
Standard
  9
$DIMAUNIT
 70
     0
  9
$DIMADEC
 70
     0
  9
$DIMALTRND
 40
0.0
  9
$DIMAZIN
 70
     0
  9
$DIMDSEP
 70
    44
  9
$DIMATFIT
 70
     3
  9
$DIMFRAC
 70
     0
  9
$DIMLDRBLK
  1

  9
$DIMLUNIT
 70
     2
  9
$DIMLWD
 70
    -2
  9
$DIMLWE
 70
    -2
  9
$DIMTMOVE
 70
     0
  9
$LUNITS
 70
     2
  9
$LUPREC
 70
     4
  9
$SKETCHINC
 40
1.0
  9
$FILLETRAD
 40
0.0
  9
$AUNITS
 70
     0
  9
$AUPREC
 70
     0
  9
$MENU
  1
.
  9
$ELEVATION
 40
0.0
  9
$PELEVATION
 40
0.0
  9
$THICKNESS
 40
0.0
  9
$LIMCHECK
 70
     0
  9
$CHAMFERA
 40
0.0
  9
$CHAMFERB
 40
0.0
  9
$CHAMFERC
 40
0.0
  9
$CHAMFERD
 40
0.0
  9
$SKPOLY
 70
     0
  9
$TDCREATE
 40
2455100.589514514
  9
$TDUCREATE
 40
2455100.50618118
  9
$TDUPDATE
 40
2455100.63118118
  9
$TDUUPDATE
 40
2455100.547847847
  9
$TDINDWG
 40
0.0337085648
  9
$TDUSRTIMER
 40
0.0337062037
  9
$USRTIMER
 70
     1
  9
$ANGBASE
 50
0.0
  9
$ANGDIR
 70
     0
  9
$PDMODE
 70
     0
  9
$PDSIZE
 40
0.0
  9
$PLINEWID
 40
0.0
  9
$SPLFRAME
 70
     0
  9
$SPLINETYPE
 70
     6
  9
$SPLINESEGS
 70
     8
  9
$HANDSEED
  5
626
  9
$SURFTAB1
 70
     6
  9
$SURFTAB2
 70
     6
  9
$SURFTYPE
 70
     6
  9
$SURFU
 70
     6
  9
$SURFV
 70
     6
  9
$UCSBASE
  2

  9
$UCSNAME
  2

  9
$UCSORG
 10
0.0
 20
0.0
 30
0.0
  9
$UCSXDIR
 10
1.0
 20
0.0
 30
0.0
  9
$UCSYDIR
 10
0.0
 20
1.0
 30
0.0
  9
$UCSORTHOREF
  2

  9
$UCSORTHOVIEW
 70
     0
  9
$UCSORGTOP
 10
0.0
 20
0.0
 30
0.0
  9
$UCSORGBOTTOM
 10
0.0
 20
0.0
 30
0.0
  9
$UCSORGLEFT
 10
0.0
 20
0.0
 30
0.0
  9
$UCSORGRIGHT
 10
0.0
 20
0.0
 30
0.0
  9
$UCSORGFRONT
 10
0.0
 20
0.0
 30
0.0
  9
$UCSORGBACK
 10
0.0
 20
0.0
 30
0.0
  9
$PUCSBASE
  2

  9
$PUCSNAME
  2

  9
$PUCSORG
 10
0.0
 20
0.0
 30
0.0
  9
$PUCSXDIR
 10
1.0
 20
0.0
 30
0.0
  9
$PUCSYDIR
 10
0.0
 20
1.0
 30
0.0
  9
$PUCSORTHOREF
  2

  9
$PUCSORTHOVIEW
 70
     0
  9
$PUCSORGTOP
 10
0.0
 20
0.0
 30
0.0
  9
$PUCSORGBOTTOM
 10
0.0
 20
0.0
 30
0.0
  9
$PUCSORGLEFT
 10
0.0
 20
0.0
 30
0.0
  9
$PUCSORGRIGHT
 10
0.0
 20
0.0
 30
0.0
  9
$PUCSORGFRONT
 10
0.0
 20
0.0
 30
0.0
  9
$PUCSORGBACK
 10
0.0
 20
0.0
 30
0.0
  9
$USERI1
 70
     0
  9
$USERI2
 70
     0
  9
$USERI3
 70
     0
  9
$USERI4
 70
     0
  9
$USERI5
 70
     0
  9
$USERR1
 40
0.0
  9
$USERR2
 40
0.0
  9
$USERR3
 40
0.0
  9
$USERR4
 40
0.0
  9
$USERR5
 40
0.0
  9
$WORLDVIEW
 70
     1
  9
$SHADEDGE
 70
     3
  9
$SHADEDIF
 70
    70
  9
$TILEMODE
 70
     1
  9
$MAXACTVP
 70
    64
  9
$PINSBASE
 10
0.0
 20
0.0
 30
0.0
  9
$PLIMCHECK
 70
     0
  9
$PEXTMIN
 10
0.0
 20
0.0
 30
0.0
  9
$PEXTMAX
 10
12.0
 20
9.0
 30
0.0
  9
$PLIMMIN
 10
0.0
 20
0.0
  9
$PLIMMAX
 10
12.0
 20
9.0
  9
$UNITMODE
 70
     0
  9
$VISRETAIN
 70
     1
  9
$PLINEGEN
 70
     0
  9
$PSLTSCALE
 70
     1
  9
$TREEDEPTH
 70
  3020
  9
$CMLSTYLE
  2
Standard
  9
$CMLJUST
 70
     0
  9
$CMLSCALE
 40
20.0
  9
$PROXYGRAPHICS
 70
     1
  9
$MEASUREMENT
 70
     1
  9
$CELWEIGHT
370
    -1
  9
$ENDCAPS
280
     0
  9
$JOINSTYLE
280
     0
  9
$LWDISPLAY
290
     0
  9
$INSUNITS
 70
     4
  9
$HYPERLINKBASE
  1

  9
$STYLESHEET
  1

  9
$XEDIT
290
     1
  9
$CEPSNTYPE
380
     0
  9
$PSTYLEMODE
290
     1
  9
$FINGERPRINTGUID
  2
{5559452E-1E62-4159-8551-BF76FFF3E7E8}
  9
$VERSIONGUID
  2
{3CEB9EF8-4431-4551-B596-6734A9F966A9}
  9
$EXTNAMES
290
     1
  9
$PSVPSCALE
 40
0.0
  9
$OLESTARTUP
290
     0
  0
ENDSEC
  0
SECTION
  2
CLASSES
  0
CLASS
  1
ACDBDICTIONARYWDFLT
  2
AcDbDictionaryWithDefault
  3
ObjectDBX Classes
 90
        0
280
     0
281
     0
  0
CLASS
  1
ACDBPLACEHOLDER
  2
AcDbPlaceHolder
  3
ObjectDBX Classes
 90
        0
280
     0
281
     0
  0
CLASS
  1
LAYOUT
  2
AcDbLayout
  3
ObjectDBX Classes
 90
        0
280
     0
281
     0
  0
CLASS
  1
DICTIONARYVAR
  2
AcDbDictionaryVar
  3
ObjectDBX Classes
 90
        0
280
     0
281
     0
  0
CLASS
  1
TABLESTYLE
  2
AcDbTableStyle
  3
ObjectDBX Classes
 90
     4095
280
     0
281
     0
  0
CLASS
  1
SCALE
  2
AcDbScale
  3
ObjectDBX Classes
 90
     1153
280
     0
281
     0
  0
ENDSEC
  0
SECTION
  2
TABLES
  0
TABLE
  2
VPORT
  5
8
330
0
100
AcDbSymbolTable
 70
     2
  0
VPORT
  5
97
330
8
100
AcDbSymbolTableRecord
100
AcDbViewportTableRecord
  2
*Active
 70
     0
 10
0.0
 20
0.0
 11
1.0
 21
1.0
 12
562.1498390761467
 22
510.3778368744139
 13
0.0
 23
0.0
 14
10.0
 24
10.0
 15
10.0
 25
10.0
 16
0.0
 26
0.0
 36
1.0
 17
0.0
 27
0.0
 37
0.0
 40
1200.565133307203
 41
1.664827586206897
 42
50.0
 43
0.0
 44
0.0
 50
0.0
 51
0.0
 71
     0
 72
  1000
 73
     1
 74
     3
 75
     0
 76
     0
 77
     0
 78
     0
281
     0
 65
     1
110
0.0
120
0.0
130
0.0
111
1.0
121
0.0
131
0.0
112
0.0
122
1.0
132
0.0
 79
     0
146
0.0
  0
ENDTAB
  0
TABLE
  2
LTYPE
  5
5
330
0
100
AcDbSymbolTable
 70
     2
  0
LTYPE
  5
14
330
5
100
AcDbSymbolTableRecord
100
AcDbLinetypeTableRecord
  2
ByBlock
 70
     0
  3

 72
    65
 73
     0
 40
0.0
  0
LTYPE
  5
15
330
5
100
AcDbSymbolTableRecord
100
AcDbLinetypeTableRecord
  2
ByLayer
 70
     0
  3

 72
    65
 73
     0
 40
0.0
  0
LTYPE
  5
16
330
5
100
AcDbSymbolTableRecord
100
AcDbLinetypeTableRecord
  2
Continuous
 70
     0
  3
Solid line
 72
    65
 73
     0
 40
0.0
  0
LTYPE
  5
509
330
5
100
AcDbSymbolTableRecord
100
AcDbLinetypeTableRecord
  2
SOLID
 70
     0
  3

 72
    65
 73
     0
 40
0.0
  0
ENDTAB
  0
TABLE
  2
LAYER
  5
2
330
0
100
AcDbSymbolTable
 70
     3
  0
LAYER
  5
10
330
2
100
AcDbSymbolTableRecord
100
AcDbLayerTableRecord
  2
0
 70
     0
 62
     7
  6
Continuous
370
    -3
390
F
  0
LAYER
  5
FA
330
2
100
AcDbSymbolTableRecord
100
AcDbLayerTableRecord
  2
DEFPOINTS
 70
     0
 62
     7
  6
Continuous
290
     0
370
    -3
390
F
  0
LAYER
  5
500
330
2
100
AcDbSymbolTableRecord
100
AcDbLayerTableRecord
  2
STANDARD_LAYER
 70
     0
 62
     7
  6
SOLID
370
    -3
390
F
  0
ENDTAB
  0
TABLE
  2
STYLE
  5
3
330
0
100
AcDbSymbolTable
 70
     2
  0
STYLE
  5
11
330
3
100
AcDbSymbolTableRecord
100
AcDbTextStyleTableRecord
  2
Standard
 70
     0
 40
0.0
 41
1.0
 50
0.0
 71
     0
 42
2.5
  3
txt
  4

  0
STYLE
  5
F9
330
3
100
AcDbSymbolTableRecord
100
AcDbTextStyleTableRecord
  2
GDT
 70
     0
 40
0.0
 41
1.0
 50
0.0
 71
     0
 42
0.2
  3
gdt.shx
  4

  0
ENDTAB
  0
TABLE
  2
VIEW
  5
6
330
0
100
AcDbSymbolTable
 70
     0
  0
ENDTAB
  0
TABLE
  2
UCS
  5
7
330
0
100
AcDbSymbolTable
 70
     0
  0
ENDTAB
  0
TABLE
  2
APPID
  5
9
330
0
100
AcDbSymbolTable
 70
     3
  0
APPID
  5
12
330
9
100
AcDbSymbolTableRecord
100
AcDbRegAppTableRecord
  2
ACAD
 70
     0
  0
APPID
  5
507
330
9
100
AcDbSymbolTableRecord
100
AcDbRegAppTableRecord
  2
PROGE_PRINT_SETTINGS
 70
     0
  0
APPID
  5
508
330
9
100
AcDbSymbolTableRecord
100
AcDbRegAppTableRecord
  2
Conv5506CA
 70
     0
  0
ENDTAB
  0
TABLE
  2
DIMSTYLE
  5
A
330
0
100
AcDbSymbolTable
 70
     2
100
AcDbDimStyleTable
  0
DIMSTYLE
105
27
330
A
100
AcDbSymbolTableRecord
100
AcDbDimStyleTableRecord
  2
Standard
 70
     0
278
     0
340
11
  0
DIMSTYLE
105
29
102
{ACAD_REACTORS
330
36F
330
391
330
3B4
102
}
330
A
100
AcDbSymbolTableRecord
100
AcDbDimStyleTableRecord
  2
ISO-25
 70
     0
 41
2.5
 42
0.625
 43
3.75
 44
1.25
 73
     0
 74
     0
 77
     1
 78
     8
140
2.5
141
2.5
143
0.03937007874016
147
0.625
171
     3
172
     1
271
     2
272
     2
274
     3
278
    44
283
     0
284
     8
340
11
  0
ENDTAB
  0
TABLE
  2
BLOCK_RECORD
  5
1
330
0
100
AcDbSymbolTable
 70
   140
  0
BLOCK_RECORD
  5
1F
330
1
100
AcDbSymbolTableRecord
100
AcDbBlockTableRecord
  2
*Model_Space
340
22
  0
BLOCK_RECORD
  5
73
330
1
100
AcDbSymbolTableRecord
100
AcDbBlockTableRecord
  2
*Paper_Space
340
3DE
  0
BLOCK_RECORD
  5
D1
330
1
100
AcDbSymbolTableRecord
100
AcDbBlockTableRecord
  2
*Paper_Space0
340
74
  0
BLOCK_RECORD
  5
FE
330
1
100
AcDbSymbolTableRecord
100
AcDbBlockTableRecord
  2
BLOCK342
340
0
  0
BLOCK_RECORD
  5
102
330
1
100
AcDbSymbolTableRecord
100
AcDbBlockTableRecord
  2
BLOCK343
340
0
  0
BLOCK_RECORD
  5
106
330
1
100
AcDbSymbolTableRecord
100
AcDbBlockTableRecord
  2
BLOCK344
340
0
  0
BLOCK_RECORD
  5
10A
330
1
100
AcDbSymbolTableRecord
100
AcDbBlockTableRecord
  2
BLOCK345
340
0
  0
BLOCK_RECORD
  5
10E
330
1
100
AcDbSymbolTableRecord
100
AcDbBlockTableRecord
  2
BLOCK346
340
0
  0
BLOCK_RECORD
  5
112
330
1
100
AcDbSymbolTableRecord
100
AcDbBlockTableRecord
  2
BLOCK347
340
0
  0
BLOCK_RECORD
  5
116
330
1
100
AcDbSymbolTableRecord
100
AcDbBlockTableRecord
  2
BLOCK348
340
0
  0
BLOCK_RECORD
  5
11A
330
1
100
AcDbSymbolTableRecord
100
AcDbBlockTableRecord
  2
BLOCK349
340
0
  0
BLOCK_RECORD
  5
11E
330
1
100
AcDbSymbolTableRecord
100
AcDbBlockTableRecord
  2
BLOCK350
340
0
  0
BLOCK_RECORD
  5
122
330
1
100
AcDbSymbolTableRecord
100
AcDbBlockTableRecord
  2
BLOCK351
340
0
  0
BLOCK_RECORD
  5
126
330
1
100
AcDbSymbolTableRecord
100
AcDbBlockTableRecord
  2
BLOCK352
340
0
  0
BLOCK_RECORD
  5
12A
330
1
100
AcDbSymbolTableRecord
100
AcDbBlockTableRecord
  2
BLOCK353
340
0
  0
BLOCK_RECORD
  5
12E
330
1
100
AcDbSymbolTableRecord
100
AcDbBlockTableRecord
  2
BLOCK354
340
0
  0
BLOCK_RECORD
  5
132
330
1
100
AcDbSymbolTableRecord
100
AcDbBlockTableRecord
  2
BLOCK355
340
0
  0
BLOCK_RECORD
  5
136
330
1
100
AcDbSymbolTableRecord
100
AcDbBlockTableRecord
  2
BLOCK356
340
0
  0
BLOCK_RECORD
  5
13A
330
1
100
AcDbSymbolTableRecord
100
AcDbBlockTableRecord
  2
BLOCK357
340
0
  0
BLOCK_RECORD
  5
13E
330
1
100
AcDbSymbolTableRecord
100
AcDbBlockTableRecord
  2
BLOCK358
340
0
  0
BLOCK_RECORD
  5
142
330
1
100
AcDbSymbolTableRecord
100
AcDbBlockTableRecord
  2
BLOCK359
340
0
  0
BLOCK_RECORD
  5
146
330
1
100
AcDbSymbolTableRecord
100
AcDbBlockTableRecord
  2
BLOCK360
340
0
  0
BLOCK_RECORD
  5
14A
330
1
100
AcDbSymbolTableRecord
100
AcDbBlockTableRecord
  2
BLOCK361
340
0
  0
BLOCK_RECORD
  5
14E
330
1
100
AcDbSymbolTableRecord
100
AcDbBlockTableRecord
  2
BLOCK362
340
0
  0
BLOCK_RECORD
  5
152
330
1
100
AcDbSymbolTableRecord
100
AcDbBlockTableRecord
  2
BLOCK363
340
0
  0
BLOCK_RECORD
  5
156
330
1
100
AcDbSymbolTableRecord
100
AcDbBlockTableRecord
  2
BLOCK364
340
0
  0
BLOCK_RECORD
  5
15A
330
1
100
AcDbSymbolTableRecord
100
AcDbBlockTableRecord
  2
BLOCK365
340
0
  0
BLOCK_RECORD
  5
15E
330
1
100
AcDbSymbolTableRecord
100
AcDbBlockTableRecord
  2
BLOCK366
340
0
  0
BLOCK_RECORD
  5
162
330
1
100
AcDbSymbolTableRecord
100
AcDbBlockTableRecord
  2
BLOCK367
340
0
  0
BLOCK_RECORD
  5
166
330
1
100
AcDbSymbolTableRecord
100
AcDbBlockTableRecord
  2
BLOCK368
340
0
  0
BLOCK_RECORD
  5
16A
330
1
100
AcDbSymbolTableRecord
100
AcDbBlockTableRecord
  2
BLOCK369
340
0
  0
BLOCK_RECORD
  5
16E
330
1
100
AcDbSymbolTableRecord
100
AcDbBlockTableRecord
  2
BLOCK370
340
0
  0
BLOCK_RECORD
  5
172
330
1
100
AcDbSymbolTableRecord
100
AcDbBlockTableRecord
  2
BLOCK371
340
0
  0
BLOCK_RECORD
  5
176
330
1
100
AcDbSymbolTableRecord
100
AcDbBlockTableRecord
  2
BLOCK372
340
0
  0
BLOCK_RECORD
  5
17A
330
1
100
AcDbSymbolTableRecord
100
AcDbBlockTableRecord
  2
BLOCK373
340
0
  0
BLOCK_RECORD
  5
17E
330
1
100
AcDbSymbolTableRecord
100
AcDbBlockTableRecord
  2
BLOCK374
340
0
  0
BLOCK_RECORD
  5
182
330
1
100
AcDbSymbolTableRecord
100
AcDbBlockTableRecord
  2
BLOCK375
340
0
  0
BLOCK_RECORD
  5
186
330
1
100
AcDbSymbolTableRecord
100
AcDbBlockTableRecord
  2
BLOCK376
340
0
  0
BLOCK_RECORD
  5
18A
330
1
100
AcDbSymbolTableRecord
100
AcDbBlockTableRecord
  2
BLOCK377
340
0
  0
BLOCK_RECORD
  5
18E
330
1
100
AcDbSymbolTableRecord
100
AcDbBlockTableRecord
  2
BLOCK378
340
0
  0
BLOCK_RECORD
  5
192
330
1
100
AcDbSymbolTableRecord
100
AcDbBlockTableRecord
  2
BLOCK379
340
0
  0
BLOCK_RECORD
  5
196
330
1
100
AcDbSymbolTableRecord
100
AcDbBlockTableRecord
  2
BLOCK380
340
0
  0
BLOCK_RECORD
  5
19A
330
1
100
AcDbSymbolTableRecord
100
AcDbBlockTableRecord
  2
BLOCK381
340
0
  0
BLOCK_RECORD
  5
19E
330
1
100
AcDbSymbolTableRecord
100
AcDbBlockTableRecord
  2
BLOCK382
340
0
  0
BLOCK_RECORD
  5
1A2
330
1
100
AcDbSymbolTableRecord
100
AcDbBlockTableRecord
  2
BLOCK383
340
0
  0
BLOCK_RECORD
  5
1A6
330
1
100
AcDbSymbolTableRecord
100
AcDbBlockTableRecord
  2
BLOCK384
340
0
  0
BLOCK_RECORD
  5
1AA
330
1
100
AcDbSymbolTableRecord
100
AcDbBlockTableRecord
  2
BLOCK385
340
0
  0
BLOCK_RECORD
  5
1AE
330
1
100
AcDbSymbolTableRecord
100
AcDbBlockTableRecord
  2
BLOCK386
340
0
  0
BLOCK_RECORD
  5
1B2
330
1
100
AcDbSymbolTableRecord
100
AcDbBlockTableRecord
  2
BLOCK387
340
0
  0
BLOCK_RECORD
  5
1B6
330
1
100
AcDbSymbolTableRecord
100
AcDbBlockTableRecord
  2
BLOCK388
340
0
  0
BLOCK_RECORD
  5
1BA
330
1
100
AcDbSymbolTableRecord
100
AcDbBlockTableRecord
  2
BLOCK389
340
0
  0
BLOCK_RECORD
  5
1BE
330
1
100
AcDbSymbolTableRecord
100
AcDbBlockTableRecord
  2
BLOCK390
340
0
  0
BLOCK_RECORD
  5
1C2
330
1
100
AcDbSymbolTableRecord
100
AcDbBlockTableRecord
  2
BLOCK391
340
0
  0
BLOCK_RECORD
  5
1C6
330
1
100
AcDbSymbolTableRecord
100
AcDbBlockTableRecord
  2
BLOCK392
340
0
  0
BLOCK_RECORD
  5
1CA
330
1
100
AcDbSymbolTableRecord
100
AcDbBlockTableRecord
  2
BLOCK393
340
0
  0
BLOCK_RECORD
  5
1CE
330
1
100
AcDbSymbolTableRecord
100
AcDbBlockTableRecord
  2
BLOCK394
340
0
  0
BLOCK_RECORD
  5
1D2
330
1
100
AcDbSymbolTableRecord
100
AcDbBlockTableRecord
  2
BLOCK395
340
0
  0
BLOCK_RECORD
  5
1D6
330
1
100
AcDbSymbolTableRecord
100
AcDbBlockTableRecord
  2
BLOCK396
340
0
  0
BLOCK_RECORD
  5
1DA
330
1
100
AcDbSymbolTableRecord
100
AcDbBlockTableRecord
  2
BLOCK397
340
0
  0
BLOCK_RECORD
  5
1DE
330
1
100
AcDbSymbolTableRecord
100
AcDbBlockTableRecord
  2
BLOCK398
340
0
  0
BLOCK_RECORD
  5
1E2
330
1
100
AcDbSymbolTableRecord
100
AcDbBlockTableRecord
  2
BLOCK399
340
0
  0
BLOCK_RECORD
  5
1E6
330
1
100
AcDbSymbolTableRecord
100
AcDbBlockTableRecord
  2
BLOCK400
340
0
  0
BLOCK_RECORD
  5
1EA
330
1
100
AcDbSymbolTableRecord
100
AcDbBlockTableRecord
  2
BLOCK401
340
0
  0
BLOCK_RECORD
  5
1EE
330
1
100
AcDbSymbolTableRecord
100
AcDbBlockTableRecord
  2
BLOCK402
340
0
  0
BLOCK_RECORD
  5
1F2
330
1
100
AcDbSymbolTableRecord
100
AcDbBlockTableRecord
  2
BLOCK403
340
0
  0
BLOCK_RECORD
  5
1F6
330
1
100
AcDbSymbolTableRecord
100
AcDbBlockTableRecord
  2
BLOCK404
340
0
  0
BLOCK_RECORD
  5
1FA
330
1
100
AcDbSymbolTableRecord
100
AcDbBlockTableRecord
  2
BLOCK405
340
0
  0
BLOCK_RECORD
  5
1FE
330
1
100
AcDbSymbolTableRecord
100
AcDbBlockTableRecord
  2
BLOCK406
340
0
  0
BLOCK_RECORD
  5
202
330
1
100
AcDbSymbolTableRecord
100
AcDbBlockTableRecord
  2
BLOCK407
340
0
  0
BLOCK_RECORD
  5
206
330
1
100
AcDbSymbolTableRecord
100
AcDbBlockTableRecord
  2
BLOCK408
340
0
  0
BLOCK_RECORD
  5
20A
330
1
100
AcDbSymbolTableRecord
100
AcDbBlockTableRecord
  2
BLOCK409
340
0
  0
BLOCK_RECORD
  5
20E
330
1
100
AcDbSymbolTableRecord
100
AcDbBlockTableRecord
  2
BLOCK410
340
0
  0
BLOCK_RECORD
  5
212
330
1
100
AcDbSymbolTableRecord
100
AcDbBlockTableRecord
  2
BLOCK411
340
0
  0
BLOCK_RECORD
  5
216
330
1
100
AcDbSymbolTableRecord
100
AcDbBlockTableRecord
  2
BLOCK412
340
0
  0
BLOCK_RECORD
  5
21A
330
1
100
AcDbSymbolTableRecord
100
AcDbBlockTableRecord
  2
BLOCK413
340
0
  0
BLOCK_RECORD
  5
21E
330
1
100
AcDbSymbolTableRecord
100
AcDbBlockTableRecord
  2
BLOCK414
340
0
  0
BLOCK_RECORD
  5
222
330
1
100
AcDbSymbolTableRecord
100
AcDbBlockTableRecord
  2
BLOCK415
340
0
  0
BLOCK_RECORD
  5
226
330
1
100
AcDbSymbolTableRecord
100
AcDbBlockTableRecord
  2
BLOCK416
340
0
  0
BLOCK_RECORD
  5
22A
330
1
100
AcDbSymbolTableRecord
100
AcDbBlockTableRecord
  2
BLOCK417
340
0
  0
BLOCK_RECORD
  5
22E
330
1
100
AcDbSymbolTableRecord
100
AcDbBlockTableRecord
  2
BLOCK418
340
0
  0
BLOCK_RECORD
  5
232
330
1
100
AcDbSymbolTableRecord
100
AcDbBlockTableRecord
  2
BLOCK419
340
0
  0
BLOCK_RECORD
  5
236
330
1
100
AcDbSymbolTableRecord
100
AcDbBlockTableRecord
  2
BLOCK420
340
0
  0
BLOCK_RECORD
  5
23A
330
1
100
AcDbSymbolTableRecord
100
AcDbBlockTableRecord
  2
BLOCK421
340
0
  0
BLOCK_RECORD
  5
23E
330
1
100
AcDbSymbolTableRecord
100
AcDbBlockTableRecord
  2
BLOCK422
340
0
  0
BLOCK_RECORD
  5
242
330
1
100
AcDbSymbolTableRecord
100
AcDbBlockTableRecord
  2
BLOCK423
340
0
  0
BLOCK_RECORD
  5
246
330
1
100
AcDbSymbolTableRecord
100
AcDbBlockTableRecord
  2
BLOCK424
340
0
  0
BLOCK_RECORD
  5
24A
330
1
100
AcDbSymbolTableRecord
100
AcDbBlockTableRecord
  2
BLOCK425
340
0
  0
BLOCK_RECORD
  5
24E
330
1
100
AcDbSymbolTableRecord
100
AcDbBlockTableRecord
  2
BLOCK426
340
0
  0
BLOCK_RECORD
  5
252
330
1
100
AcDbSymbolTableRecord
100
AcDbBlockTableRecord
  2
BLOCK427
340
0
  0
BLOCK_RECORD
  5
256
330
1
100
AcDbSymbolTableRecord
100
AcDbBlockTableRecord
  2
BLOCK428
340
0
  0
BLOCK_RECORD
  5
25A
330
1
100
AcDbSymbolTableRecord
100
AcDbBlockTableRecord
  2
BLOCK429
340
0
  0
BLOCK_RECORD
  5
25E
330
1
100
AcDbSymbolTableRecord
100
AcDbBlockTableRecord
  2
BLOCK430
340
0
  0
BLOCK_RECORD
  5
262
330
1
100
AcDbSymbolTableRecord
100
AcDbBlockTableRecord
  2
BLOCK431
340
0
  0
BLOCK_RECORD
  5
266
330
1
100
AcDbSymbolTableRecord
100
AcDbBlockTableRecord
  2
BLOCK432
340
0
  0
BLOCK_RECORD
  5
26A
330
1
100
AcDbSymbolTableRecord
100
AcDbBlockTableRecord
  2
BLOCK433
340
0
  0
BLOCK_RECORD
  5
26E
330
1
100
AcDbSymbolTableRecord
100
AcDbBlockTableRecord
  2
BLOCK434
340
0
  0
BLOCK_RECORD
  5
272
330
1
100
AcDbSymbolTableRecord
100
AcDbBlockTableRecord
  2
BLOCK435
340
0
  0
BLOCK_RECORD
  5
276
330
1
100
AcDbSymbolTableRecord
100
AcDbBlockTableRecord
  2
BLOCK436
340
0
  0
BLOCK_RECORD
  5
27A
330
1
100
AcDbSymbolTableRecord
100
AcDbBlockTableRecord
  2
BLOCK437
340
0
  0
BLOCK_RECORD
  5
27E
330
1
100
AcDbSymbolTableRecord
100
AcDbBlockTableRecord
  2
BLOCK438
340
0
  0
BLOCK_RECORD
  5
282
330
1
100
AcDbSymbolTableRecord
100
AcDbBlockTableRecord
  2
BLOCK439
340
0
  0
BLOCK_RECORD
  5
286
330
1
100
AcDbSymbolTableRecord
100
AcDbBlockTableRecord
  2
BLOCK440
340
0
  0
BLOCK_RECORD
  5
28A
330
1
100
AcDbSymbolTableRecord
100
AcDbBlockTableRecord
  2
BLOCK441
340
0
  0
BLOCK_RECORD
  5
28E
330
1
100
AcDbSymbolTableRecord
100
AcDbBlockTableRecord
  2
BLOCK442
340
0
  0
BLOCK_RECORD
  5
292
330
1
100
AcDbSymbolTableRecord
100
AcDbBlockTableRecord
  2
BLOCK443
340
0
  0
BLOCK_RECORD
  5
296
330
1
100
AcDbSymbolTableRecord
100
AcDbBlockTableRecord
  2
BLOCK444
340
0
  0
BLOCK_RECORD
  5
29A
330
1
100
AcDbSymbolTableRecord
100
AcDbBlockTableRecord
  2
BLOCK445
340
0
  0
BLOCK_RECORD
  5
29E
330
1
100
AcDbSymbolTableRecord
100
AcDbBlockTableRecord
  2
BLOCK446
340
0
  0
BLOCK_RECORD
  5
2A2
330
1
100
AcDbSymbolTableRecord
100
AcDbBlockTableRecord
  2
BLOCK447
340
0
  0
BLOCK_RECORD
  5
2A6
330
1
100
AcDbSymbolTableRecord
100
AcDbBlockTableRecord
  2
BLOCK448
340
0
  0
BLOCK_RECORD
  5
2AA
330
1
100
AcDbSymbolTableRecord
100
AcDbBlockTableRecord
  2
BLOCK449
340
0
  0
BLOCK_RECORD
  5
2AE
330
1
100
AcDbSymbolTableRecord
100
AcDbBlockTableRecord
  2
BLOCK450
340
0
  0
BLOCK_RECORD
  5
2B2
330
1
100
AcDbSymbolTableRecord
100
AcDbBlockTableRecord
  2
BLOCK451
340
0
  0
BLOCK_RECORD
  5
2B6
330
1
100
AcDbSymbolTableRecord
100
AcDbBlockTableRecord
  2
BLOCK452
340
0
  0
BLOCK_RECORD
  5
2BA
330
1
100
AcDbSymbolTableRecord
100
AcDbBlockTableRecord
  2
BLOCK453
340
0
  0
BLOCK_RECORD
  5
2BE
330
1
100
AcDbSymbolTableRecord
100
AcDbBlockTableRecord
  2
BLOCK454
340
0
  0
BLOCK_RECORD
  5
2C2
330
1
100
AcDbSymbolTableRecord
100
AcDbBlockTableRecord
  2
BLOCK455
340
0
  0
BLOCK_RECORD
  5
2C6
330
1
100
AcDbSymbolTableRecord
100
AcDbBlockTableRecord
  2
BLOCK456
340
0
  0
BLOCK_RECORD
  5
2E2
330
1
100
AcDbSymbolTableRecord
100
AcDbBlockTableRecord
  2
BLOCK457
340
0
  0
BLOCK_RECORD
  5
2E6
330
1
100
AcDbSymbolTableRecord
100
AcDbBlockTableRecord
  2
BLOCK458
340
0
  0
BLOCK_RECORD
  5
2EA
330
1
100
AcDbSymbolTableRecord
100
AcDbBlockTableRecord
  2
BLOCK459
340
0
  0
BLOCK_RECORD
  5
2EE
330
1
100
AcDbSymbolTableRecord
100
AcDbBlockTableRecord
  2
BLOCK460
340
0
  0
BLOCK_RECORD
  5
2F2
330
1
100
AcDbSymbolTableRecord
100
AcDbBlockTableRecord
  2
BLOCK461
340
0
  0
BLOCK_RECORD
  5
2F6
330
1
100
AcDbSymbolTableRecord
100
AcDbBlockTableRecord
  2
BLOCK462
340
0
  0
BLOCK_RECORD
  5
2FA
330
1
100
AcDbSymbolTableRecord
100
AcDbBlockTableRecord
  2
BLOCK463
340
0
  0
BLOCK_RECORD
  5
2FE
330
1
100
AcDbSymbolTableRecord
100
AcDbBlockTableRecord
  2
BLOCK464
340
0
  0
BLOCK_RECORD
  5
302
330
1
100
AcDbSymbolTableRecord
100
AcDbBlockTableRecord
  2
BLOCK465
340
0
  0
BLOCK_RECORD
  5
306
330
1
100
AcDbSymbolTableRecord
100
AcDbBlockTableRecord
  2
BLOCK466
340
0
  0
BLOCK_RECORD
  5
30A
330
1
100
AcDbSymbolTableRecord
100
AcDbBlockTableRecord
  2
BLOCK467
340
0
  0
BLOCK_RECORD
  5
30E
330
1
100
AcDbSymbolTableRecord
100
AcDbBlockTableRecord
  2
BLOCK468
340
0
  0
BLOCK_RECORD
  5
319
330
1
100
AcDbSymbolTableRecord
100
AcDbBlockTableRecord
  2
*D128
340
0
  0
BLOCK_RECORD
  5
362
330
1
100
AcDbSymbolTableRecord
100
AcDbBlockTableRecord
  2
*D129
340
0
  0
BLOCK_RECORD
  5
36E
330
1
100
AcDbSymbolTableRecord
100
AcDbBlockTableRecord
  2
*D130
340
0
  0
BLOCK_RECORD
  5
37A
330
1
100
AcDbSymbolTableRecord
100
AcDbBlockTableRecord
  2
*D131
340
0
  0
BLOCK_RECORD
  5
385
330
1
100
AcDbSymbolTableRecord
100
AcDbBlockTableRecord
  2
*D132
340
0
  0
BLOCK_RECORD
  5
390
330
1
100
AcDbSymbolTableRecord
100
AcDbBlockTableRecord
  2
*D133
340
0
  0
BLOCK_RECORD
  5
39C
330
1
100
AcDbSymbolTableRecord
100
AcDbBlockTableRecord
  2
*D134
340
0
  0
BLOCK_RECORD
  5
3A7
330
1
100
AcDbSymbolTableRecord
100
AcDbBlockTableRecord
  2
*D135
340
0
  0
BLOCK_RECORD
  5
3B2
330
1
100
AcDbSymbolTableRecord
100
AcDbBlockTableRecord
  2
*D136
340
0
  0
BLOCK_RECORD
  5
3C0
330
1
100
AcDbSymbolTableRecord
100
AcDbBlockTableRecord
  2
*D137
340
0
  0
BLOCK_RECORD
  5
3CC
330
1
100
AcDbSymbolTableRecord
100
AcDbBlockTableRecord
  2
*D138
340
0
  0
BLOCK_RECORD
  5
3D9
330
1
100
AcDbSymbolTableRecord
100
AcDbBlockTableRecord
  2
*D139
340
0
  0
ENDTAB
  0
ENDSEC
  0
SECTION
  2
BLOCKS
  0
BLOCK
  5
20
330
1F
100
AcDbEntity
  8
0
100
AcDbBlockBegin
  2
*Model_Space
 70
     0
 10
0.0
 20
0.0
 30
0.0
  3
*Model_Space
  1

  0
ENDBLK
  5
21
330
1F
100
AcDbEntity
  8
0
100
AcDbBlockEnd
  0
BLOCK
  5
75
330
73
100
AcDbEntity
 67
     1
  8
0
100
AcDbBlockBegin
  2
*Paper_Space
 70
     0
 10
0.0
 20
0.0
 30
0.0
  3
*Paper_Space
  1

  0
ENDBLK
  5
76
330
73
100
AcDbEntity
 67
     1
  8
0
100
AcDbBlockEnd
  0
BLOCK
  5
50A
330
D1
100
AcDbEntity
  8
0
100
AcDbBlockBegin
  2
*Paper_Space0
 70
     0
 10
0.0
 20
0.0
 30
0.0
  3
*Paper_Space0
  1

  0
VIEWPORT
  5
4F7
330
D1
100
AcDbEntity
  8
0
100
AcDbViewport
 10
7.8
 20
4.5
 30
0.0
 40
15.64
 41
9.0
 68
     1
 69
     1
 12
6.0
 22
4.5
 13
0.0
 23
0.0
 14
0.5
 24
0.5
 15
0.5
 25
0.5
 16
0.0
 26
0.0
 36
1.0
 17
0.0
 27
0.0
 37
0.0
 42
50.0
 43
0.0
 44
0.0
 45
12.0
 50
0.0
 51
0.0
 72
   100
 90
   557152
  1

281
     0
 71
     1
 74
     0
110
0.0
120
0.0
130
0.0
111
1.0
121
0.0
131
0.0
112
0.0
122
1.0
132
0.0
 79
     0
146
0.0
  0
ENDBLK
  5
50B
330
D1
100
AcDbEntity
  8
0
100
AcDbBlockEnd
  0
BLOCK
  5
50C
330
FE
100
AcDbEntity
  8
0
100
AcDbBlockBegin
  2
BLOCK342
 70
     0
 10
0.0
 20
0.0
 30
0.0
  3
BLOCK342
  1

  0
TEXT
  5
FC
330
FE
100
AcDbEntity
  8
0
 62
     7
370
    13
390
F
100
AcDbText
 10
17.784241
 20
-133.225677
 30
0.0
 40
2.0
  1
TOLLERANZE GENERALI
 41
0.9399966818181819
 72
     5
 11
52.250786
 21
-133.225677
 31
0.0
100
AcDbText
  0
ENDBLK
  5
50D
330
FE
100
AcDbEntity
  8
0
100
AcDbBlockEnd
  0
BLOCK
  5
50E
330
102
100
AcDbEntity
  8
0
100
AcDbBlockBegin
  2
BLOCK343
 70
     0
 10
0.0
 20
0.0
 30
0.0
  3
BLOCK343
  1

  0
TEXT
  5
100
330
102
100
AcDbEntity
  8
0
 62
     7
370
    13
390
F
100
AcDbText
 10
9.71851
 20
-136.947968
 30
0.0
 40
2.0
  1
quote indicate in millimetri
 41
1.124261007352941
 72
     5
 11
60.685009
 21
-136.947968
 31
0.0
100
AcDbText
  0
ENDBLK
  5
50F
330
102
100
AcDbEntity
  8
0
100
AcDbBlockEnd
  0
BLOCK
  5
510
330
106
100
AcDbEntity
  8
0
100
AcDbBlockBegin
  2
BLOCK344
 70
     0
 10
0.0
 20
0.0
 30
0.0
  3
BLOCK344
  1

  0
TEXT
  5
104
330
106
100
AcDbEntity
  8
0
 62
     7
370
    13
390
F
100
AcDbText
 10
0.986623
 20
-141.517914
 30
0.0
 40
2.0
  1
OLTRE
 41
0.9428542500000001
 72
     5
 11
9.786596
 21
-141.517914
 31
0.0
100
AcDbText
  0
ENDBLK
  5
511
330
106
100
AcDbEntity
  8
0
100
AcDbBlockEnd
  0
BLOCK
  5
512
330
10A
100
AcDbEntity
  8
0
100
AcDbBlockBegin
  2
BLOCK345
 70
     0
 10
0.0
 20
0.0
 30
0.0
  3
BLOCK345
  1

  0
TEXT
  5
108
330
10A
100
AcDbEntity
  8
0
 62
     7
370
    13
390
F
100
AcDbText
 10
1.682163
 20
-145.79303
 30
0.0
 40
2.0
  1
FINO
 41
1.04499705
 72
     5
 11
8.64881
 21
-145.79303
 31
0.0
100
AcDbText
  0
ENDBLK
  5
513
330
10A
100
AcDbEntity
  8
0
100
AcDbBlockEnd
  0
BLOCK
  5
514
330
10E
100
AcDbEntity
  8
0
100
AcDbBlockBegin
  2
BLOCK346
 70
     0
 10
0.0
 20
0.0
 30
0.0
  3
BLOCK346
  1

  0
TEXT
  5
10C
330
10E
100
AcDbEntity
  8
0
 62
     7
370
    13
390
F
100
AcDbText
 10
1.860743
 20
-165.214035
 30
0.0
 40
2.0
  1
DENOMINAZIONE
 41
0.9777743750000001
 72
     5
 11
25.327328
 21
-165.214035
 31
0.0
100
AcDbText
  0
ENDBLK
  5
515
330
10E
100
AcDbEntity
  8
0
100
AcDbBlockEnd
  0
BLOCK
  5
516
330
112
100
AcDbEntity
  8
0
100
AcDbBlockBegin
  2
BLOCK347
 70
     0
 10
0.0
 20
0.0
 30
0.0
  3
BLOCK347
  1

  0
TEXT
  5
110
330
112
100
AcDbEntity
  8
0
 62
     7
370
    13
390
F
100
AcDbText
 10
50.905434
 20
-181.138184
 30
0.0
 40
2.0
  1
MATERIALE
 41
0.9679966800000002
 72
     5
 11
67.038712
 21
-181.138184
 31
0.0
100
AcDbText
  0
ENDBLK
  5
517
330
112
100
AcDbEntity
  8
0
100
AcDbBlockEnd
  0
BLOCK
  5
518
330
116
100
AcDbEntity
  8
0
100
AcDbBlockBegin
  2
BLOCK348
 70
     0
 10
0.0
 20
0.0
 30
0.0
  3
BLOCK348
  1

  0
TEXT
  5
114
330
116
100
AcDbEntity
  8
0
 62
     7
370
    13
390
F
100
AcDbText
 10
51.101448
 20
-193.94725
 30
0.0
 40
2.0
  1
FINITURA
 41
1.021425
 72
     5
 11
65.401398
 21
-193.94725
 31
0.0
100
AcDbText
  0
ENDBLK
  5
519
330
116
100
AcDbEntity
  8
0
100
AcDbBlockEnd
  0
BLOCK
  5
51A
330
11A
100
AcDbEntity
  8
0
100
AcDbBlockBegin
  2
BLOCK349
 70
     0
 10
0.0
 20
0.0
 30
0.0
  3
BLOCK349
  1

  0
TEXT
  5
118
330
11A
100
AcDbEntity
  8
0
 62
     7
370
    13
390
F
100
AcDbText
 10
75.899582
 20
-160.611145
 30
0.0
 40
2.0
  1
IND.
 41
1.30624575
 72
     5
 11
82.866226
 21
-160.611145
 31
0.0
100
AcDbText
  0
ENDBLK
  5
51B
330
11A
100
AcDbEntity
  8
0
100
AcDbBlockEnd
  0
BLOCK
  5
51C
330
11E
100
AcDbEntity
  8
0
100
AcDbBlockBegin
  2
BLOCK350
 70
     0
 10
0.0
 20
0.0
 30
0.0
  3
BLOCK350
  1

  0
TEXT
  5
11C
330
11E
100
AcDbEntity
  8
0
 62
     7
370
    13
390
F
100
AcDbText
 10
84.036011
 20
-160.657639
 30
0.0
 40
2.0
  1
RIF.
 41
1.30624575
 72
     5
 11
91.002655
 21
-160.657639
 31
0.0
100
AcDbText
  0
ENDBLK
  5
51D
330
11E
100
AcDbEntity
  8
0
100
AcDbBlockEnd
  0
BLOCK
  5
51E
330
122
100
AcDbEntity
  8
0
100
AcDbBlockBegin
  2
BLOCK351
 70
     0
 10
0.0
 20
0.0
 30
0.0
  3
BLOCK351
  1

  0
TEXT
  5
120
330
122
100
AcDbEntity
  8
0
 62
     7
370
    13
390
F
100
AcDbText
 10
107.328926
 20
-160.541397
 30
0.0
 40
2.0
  1
DESCRIZIONE
 41
0.9899967000000003
 72
     5
 11
127.12886
 21
-160.541397
 31
0.0
100
AcDbText
  0
ENDBLK
  5
51F
330
122
100
AcDbEntity
  8
0
100
AcDbBlockEnd
  0
BLOCK
  5
520
330
126
100
AcDbEntity
  8
0
100
AcDbBlockBegin
  2
BLOCK352
 70
     0
 10
0.0
 20
0.0
 30
0.0
  3
BLOCK352
  1

  0
TEXT
  5
124
330
126
100
AcDbEntity
  8
0
 62
     7
370
    13
390
F
100
AcDbText
 10
151.103424
 20
-160.587891
 30
0.0
 40
2.0
  1
DATA
 41
0.9499969090909094
 72
     5
 11
158.070068
 21
-160.587891
 31
0.0
100
AcDbText
  0
ENDBLK
  5
521
330
126
100
AcDbEntity
  8
0
100
AcDbBlockEnd
  0
BLOCK
  5
522
330
12A
100
AcDbEntity
  8
0
100
AcDbBlockBegin
  2
BLOCK353
 70
     0
 10
0.0
 20
0.0
 30
0.0
  3
BLOCK353
  1

  0
TEXT
  5
128
330
12A
100
AcDbEntity
  8
0
 62
     7
370
    13
390
F
100
AcDbText
 10
168.017166
 20
-160.401917
 30
0.0
 40
2.0
  1
FIRMA
 41
1.015381499999999
 72
     5
 11
176.817139
 21
-160.401917
 31
0.0
100
AcDbText
  0
ENDBLK
  5
523
330
12A
100
AcDbEntity
  8
0
100
AcDbBlockEnd
  0
BLOCK
  5
524
330
12E
100
AcDbEntity
  8
0
100
AcDbBlockBegin
  2
BLOCK354
 70
     0
 10
0.0
 20
0.0
 30
0.0
  3
BLOCK354
  1

  0
TEXT
  5
12C
330
12E
100
AcDbEntity
  8
0
 62
     7
370
    13
390
F
100
AcDbText
 10
119.663528
 20
-165.469757
 30
0.0
 40
2.0
  1
SCALA
 41
0.942854250000001
 72
     5
 11
128.463501
 21
-165.469757
 31
0.0
100
AcDbText
  0
ENDBLK
  5
525
330
12E
100
AcDbEntity
  8
0
100
AcDbBlockEnd
  0
BLOCK
  5
526
330
132
100
AcDbEntity
  8
0
100
AcDbBlockBegin
  2
BLOCK355
 70
     0
 10
0.0
 20
0.0
 30
0.0
  3
BLOCK355
  1

  0
TEXT
  5
130
330
132
100
AcDbEntity
  8
0
 62
     7
370
    13
390
F
100
AcDbText
 10
1.36013
 20
-128.064957
 30
0.0
 40
2.0
  1
TOLLERANZE GENERALI GRUPPO..........
 41
1.144763825581395
 72
     5
 11
66.993256
 21
-128.064957
 31
0.0
100
AcDbText
  0
ENDBLK
  5
527
330
132
100
AcDbEntity
  8
0
100
AcDbBlockEnd
  0
BLOCK
  5
528
330
136
100
AcDbEntity
  8
0
100
AcDbBlockBegin
  2
BLOCK356
 70
     0
 10
0.0
 20
0.0
 30
0.0
  3
BLOCK356
  1

  0
TEXT
  5
134
330
136
100
AcDbEntity
  8
0
 62
     7
370
    13
390
F
100
AcDbText
 10
74.402138
 20
-156.957764
 30
0.0
 40
2.5
  1
MODIFICHE
 50
90.0
 41
1.0083298
 72
     5
 11
74.402138
 21
-136.791168
 31
0.0
100
AcDbText
  0
ENDBLK
  5
529
330
136
100
AcDbEntity
  8
0
100
AcDbBlockEnd
  0
BLOCK
  5
52A
330
13A
100
AcDbEntity
  8
0
100
AcDbBlockBegin
  2
BLOCK357
 70
     0
 10
0.0
 20
0.0
 30
0.0
  3
BLOCK357
  1

  0
TEXT
  5
138
330
13A
100
AcDbEntity
  8
0
 62
     7
370
    13
390
F
100
AcDbText
 10
3.669508
 20
-150.931137
 30
0.0
 40
2.5
  1
A
 41
1.0999998
 72
     5
 11
5.502841
 21
-150.931137
 31
0.0
100
AcDbText
  0
ENDBLK
  5
52B
330
13A
100
AcDbEntity
  8
0
100
AcDbBlockEnd
  0
BLOCK
  5
52C
330
13E
100
AcDbEntity
  8
0
100
AcDbBlockBegin
  2
BLOCK358
 70
     0
 10
0.0
 20
0.0
 30
0.0
  3
BLOCK358
  1

  0
TEXT
  5
13C
330
13E
100
AcDbEntity
  8
0
 62
     7
370
    13
390
F
100
AcDbText
 10
3.788562
 20
-155.514709
 30
0.0
 40
2.5
  1
B
 41
1.0999998
 72
     5
 11
5.621895
 21
-155.514709
 31
0.0
100
AcDbText
  0
ENDBLK
  5
52D
330
13E
100
AcDbEntity
  8
0
100
AcDbBlockEnd
  0
BLOCK
  5
52E
330
142
100
AcDbEntity
  8
0
100
AcDbBlockBegin
  2
BLOCK359
 70
     0
 10
0.0
 20
0.0
 30
0.0
  3
BLOCK359
  1

  0
TEXT
  5
140
330
142
100
AcDbEntity
  8
0
 62
     7
370
    13
390
F
100
AcDbText
 10
3.788562
 20
-160.693542
 30
0.0
 40
2.5
  1
C
 41
1.0999998
 72
     5
 11
5.621895
 21
-160.693542
 31
0.0
100
AcDbText
  0
ENDBLK
  5
52F
330
142
100
AcDbEntity
  8
0
100
AcDbBlockEnd
  0
BLOCK
  5
530
330
146
100
AcDbEntity
  8
0
100
AcDbBlockBegin
  2
BLOCK360
 70
     0
 10
0.0
 20
0.0
 30
0.0
  3
BLOCK360
  1

  0
TEXT
  5
144
330
146
100
AcDbEntity
  8
0
 62
     7
370
    13
390
F
100
AcDbText
 10
119.619392
 20
-181.787033
 30
0.0
 40
2.5
  1
CODICE
 41
0.9968714249999998
 72
     5
 11
132.911011
 21
-181.787033
 31
0.0
100
AcDbText
  0
ENDBLK
  5
531
330
146
100
AcDbEntity
  8
0
100
AcDbBlockEnd
  0
BLOCK
  5
532
330
14A
100
AcDbEntity
  8
0
100
AcDbBlockBegin
  2
BLOCK361
 70
     0
 10
0.0
 20
0.0
 30
0.0
  3
BLOCK361
  1

  0
TEXT
  5
148
330
14A
100
AcDbEntity
  8
0
 62
     7
370
    13
390
F
100
AcDbText
 10
34.519463
 20
-189.909302
 30
0.0
 40
2.0
  1
s p a
 41
0.9428541428571425
 72
     5
 11
43.319435
 21
-189.909302
 31
0.0
100
AcDbText
  0
ENDBLK
  5
533
330
14A
100
AcDbEntity
  8
0
100
AcDbBlockEnd
  0
BLOCK
  5
534
330
14E
100
AcDbEntity
  8
0
100
AcDbBlockBegin
  2
BLOCK362
 70
     0
 10
0.0
 20
0.0
 30
0.0
  3
BLOCK362
  1

  0
TEXT
  5
14C
330
14E
100
AcDbEntity
  8
0
 62
     7
370
    13
390
F
100
AcDbText
 10
7.298519
 20
-195.671524
 30
0.0
 40
1.5
  1
24069 Cenate Sotto/Bergamo
 41
0.927447660130719
 72
     5
 11
42.773392
 21
-195.671524
 31
0.0
100
AcDbText
  0
ENDBLK
  5
535
330
14E
100
AcDbEntity
  8
0
100
AcDbBlockEnd
  0
BLOCK
  5
536
330
152
100
AcDbEntity
  8
0
100
AcDbBlockBegin
  2
BLOCK363
 70
     0
 10
0.0
 20
0.0
 30
0.0
  3
BLOCK363
  1

  0
TEXT
  5
150
330
152
100
AcDbEntity
  8
0
 62
     7
370
    13
390
F
100
AcDbText
 10
10.98237
 20
-150.502563
 30
0.0
 40
2.0
  1
+
 41
1.100001
 72
     5
 11
12.449038
 21
-150.502563
 31
0.0
100
AcDbText
  0
ENDBLK
  5
537
330
152
100
AcDbEntity
  8
0
100
AcDbBlockEnd
  0
BLOCK
  5
538
330
156
100
AcDbEntity
  8
0
100
AcDbBlockBegin
  2
BLOCK364
 70
     0
 10
0.0
 20
0.0
 30
0.0
  3
BLOCK364
  1

  0
TEXT
  5
154
330
156
100
AcDbEntity
  8
0
 62
     7
370
    13
390
F
100
AcDbText
 10
10.98237
 20
-151.514511
 30
0.0
 40
2.0
  1
-
 41
1.100001
 72
     5
 11
12.449038
 21
-151.514511
 31
0.0
100
AcDbText
  0
ENDBLK
  5
539
330
156
100
AcDbEntity
  8
0
100
AcDbBlockEnd
  0
BLOCK
  5
53A
330
15A
100
AcDbEntity
  8
0
100
AcDbBlockBegin
  2
BLOCK365
 70
     0
 10
0.0
 20
0.0
 30
0.0
  3
BLOCK365
  1

  0
TEXT
  5
158
330
15A
100
AcDbEntity
  8
0
 62
     7
370
    13
390
F
100
AcDbText
 10
12.756408
 20
-150.800186
 30
0.0
 40
2.0
  1
0,05
 41
1.229408294117647
 72
     5
 11
19.723055
 21
-150.800186
 31
0.0
100
AcDbText
  0
ENDBLK
  5
53B
330
15A
100
AcDbEntity
  8
0
100
AcDbBlockEnd
  0
BLOCK
  5
53C
330
15E
100
AcDbEntity
  8
0
100
AcDbBlockBegin
  2
BLOCK366
 70
     0
 10
0.0
 20
0.0
 30
0.0
  3
BLOCK366
  1

  0
TEXT
  5
15C
330
15E
100
AcDbEntity
  8
0
 62
     7
370
    13
390
F
100
AcDbText
 10
13.673075
 20
-155.800186
 30
0.0
 40
2.0
  1
0,1
 41
1.539995999999999
 72
     5
 11
18.806395
 21
-155.800186
 31
0.0
100
AcDbText
  0
ENDBLK
  5
53D
330
15E
100
AcDbEntity
  8
0
100
AcDbBlockEnd
  0
BLOCK
  5
53E
330
162
100
AcDbEntity
  8
0
100
AcDbBlockBegin
  2
BLOCK367
 70
     0
 10
0.0
 20
0.0
 30
0.0
  3
BLOCK367
  1

  0
TEXT
  5
160
330
162
100
AcDbEntity
  8
0
 62
     7
370
    13
390
F
100
AcDbText
 10
10.98237
 20
-155.502563
 30
0.0
 40
2.0
  1
+
 41
1.100001
 72
     5
 11
12.449038
 21
-155.502563
 31
0.0
100
AcDbText
  0
ENDBLK
  5
53F
330
162
100
AcDbEntity
  8
0
100
AcDbBlockEnd
  0
BLOCK
  5
540
330
166
100
AcDbEntity
  8
0
100
AcDbBlockBegin
  2
BLOCK368
 70
     0
 10
0.0
 20
0.0
 30
0.0
  3
BLOCK368
  1

  0
TEXT
  5
164
330
166
100
AcDbEntity
  8
0
 62
     7
370
    13
390
F
100
AcDbText
 10
10.98237
 20
-155.502563
 30
0.0
 40
2.0
  1
+
 41
1.100001
 72
     5
 11
12.449038
 21
-155.502563
 31
0.0
100
AcDbText
  0
ENDBLK
  5
541
330
166
100
AcDbEntity
  8
0
100
AcDbBlockEnd
  0
BLOCK
  5
542
330
16A
100
AcDbEntity
  8
0
100
AcDbBlockBegin
  2
BLOCK369
 70
     0
 10
0.0
 20
0.0
 30
0.0
  3
BLOCK369
  1

  0
TEXT
  5
168
330
16A
100
AcDbEntity
  8
0
 62
     7
370
    13
390
F
100
AcDbText
 10
10.98237
 20
-155.502563
 30
0.0
 40
2.0
  1
+
 41
1.100001
 72
     5
 11
12.449038
 21
-155.502563
 31
0.0
100
AcDbText
  0
ENDBLK
  5
543
330
16A
100
AcDbEntity
  8
0
100
AcDbBlockEnd
  0
BLOCK
  5
544
330
16E
100
AcDbEntity
  8
0
100
AcDbBlockBegin
  2
BLOCK370
 70
     0
 10
0.0
 20
0.0
 30
0.0
  3
BLOCK370
  1

  0
TEXT
  5
16C
330
16E
100
AcDbEntity
  8
0
 62
     7
370
    13
390
F
100
AcDbText
 10
13.673075
 20
-160.800186
 30
0.0
 40
2.0
  1
0,2
 41
1.283329999999999
 72
     5
 11
18.806395
 21
-160.800186
 31
0.0
100
AcDbText
  0
ENDBLK
  5
545
330
16E
100
AcDbEntity
  8
0
100
AcDbBlockEnd
  0
BLOCK
  5
546
330
172
100
AcDbEntity
  8
0
100
AcDbBlockBegin
  2
BLOCK371
 70
     0
 10
0.0
 20
0.0
 30
0.0
  3
BLOCK371
  1

  0
TEXT
  5
170
330
172
100
AcDbEntity
  8
0
 62
     7
370
    13
390
F
100
AcDbText
 10
10.98237
 20
-160.502563
 30
0.0
 40
2.0
  1
+
 41
1.100001
 72
     5
 11
12.449038
 21
-160.502563
 31
0.0
100
AcDbText
  0
ENDBLK
  5
547
330
172
100
AcDbEntity
  8
0
100
AcDbBlockEnd
  0
BLOCK
  5
548
330
176
100
AcDbEntity
  8
0
100
AcDbBlockBegin
  2
BLOCK372
 70
     0
 10
0.0
 20
0.0
 30
0.0
  3
BLOCK372
  1

  0
TEXT
  5
174
330
176
100
AcDbEntity
  8
0
 62
     7
370
    13
390
F
100
AcDbText
 10
10.98237
 20
-156.514511
 30
0.0
 40
2.0
  1
-
 41
1.100001
 72
     5
 11
12.449038
 21
-156.514511
 31
0.0
100
AcDbText
  0
ENDBLK
  5
549
330
176
100
AcDbEntity
  8
0
100
AcDbBlockEnd
  0
BLOCK
  5
54A
330
17A
100
AcDbEntity
  8
0
100
AcDbBlockBegin
  2
BLOCK373
 70
     0
 10
0.0
 20
0.0
 30
0.0
  3
BLOCK373
  1

  0
TEXT
  5
178
330
17A
100
AcDbEntity
  8
0
 62
     7
370
    13
390
F
100
AcDbText
 10
10.98237
 20
-161.514511
 30
0.0
 40
2.0
  1
-
 41
1.100001
 72
     5
 11
12.449038
 21
-161.514511
 31
0.0
100
AcDbText
  0
ENDBLK
  5
54B
330
17A
100
AcDbEntity
  8
0
100
AcDbBlockEnd
  0
BLOCK
  5
54C
330
17E
100
AcDbEntity
  8
0
100
AcDbBlockBegin
  2
BLOCK374
 70
     0
 10
0.0
 20
0.0
 30
0.0
  3
BLOCK374
  1

  0
TEXT
  5
17C
330
17E
100
AcDbEntity
  8
0
 62
     7
370
    13
390
F
100
AcDbText
 10
23.673075
 20
-150.800186
 30
0.0
 40
2.0
  1
0,1
 41
1.539995999999999
 72
     5
 11
28.806395
 21
-150.800186
 31
0.0
100
AcDbText
  0
ENDBLK
  5
54D
330
17E
100
AcDbEntity
  8
0
100
AcDbBlockEnd
  0
BLOCK
  5
54E
330
182
100
AcDbEntity
  8
0
100
AcDbBlockBegin
  2
BLOCK375
 70
     0
 10
0.0
 20
0.0
 30
0.0
  3
BLOCK375
  1

  0
TEXT
  5
180
330
182
100
AcDbEntity
  8
0
 62
     7
370
    13
390
F
100
AcDbText
 10
22.756409
 20
-155.800186
 30
0.0
 40
2.0
  1
0,15
 41
1.3062465
 72
     5
 11
29.723057
 21
-155.800186
 31
0.0
100
AcDbText
  0
ENDBLK
  5
54F
330
182
100
AcDbEntity
  8
0
100
AcDbBlockEnd
  0
BLOCK
  5
550
330
186
100
AcDbEntity
  8
0
100
AcDbBlockBegin
  2
BLOCK376
 70
     0
 10
0.0
 20
0.0
 30
0.0
  3
BLOCK376
  1

  0
TEXT
  5
184
330
186
100
AcDbEntity
  8
0
 62
     7
370
    13
390
F
100
AcDbText
 10
23.673075
 20
-160.800186
 30
0.0
 40
2.0
  1
0,3
 41
1.283329999999999
 72
     5
 11
28.806395
 21
-160.800186
 31
0.0
100
AcDbText
  0
ENDBLK
  5
551
330
186
100
AcDbEntity
  8
0
100
AcDbBlockEnd
  0
BLOCK
  5
552
330
18A
100
AcDbEntity
  8
0
100
AcDbBlockBegin
  2
BLOCK377
 70
     0
 10
0.0
 20
0.0
 30
0.0
  3
BLOCK377
  1

  0
TEXT
  5
188
330
18A
100
AcDbEntity
  8
0
 62
     7
370
    13
390
F
100
AcDbText
 10
33.673073
 20
-160.800186
 30
0.0
 40
2.0
  1
0,5
 41
1.283329999999999
 72
     5
 11
38.806393
 21
-160.800186
 31
0.0
100
AcDbText
  0
ENDBLK
  5
553
330
18A
100
AcDbEntity
  8
0
100
AcDbBlockEnd
  0
BLOCK
  5
554
330
18E
100
AcDbEntity
  8
0
100
AcDbBlockBegin
  2
BLOCK378
 70
     0
 10
0.0
 20
0.0
 30
0.0
  3
BLOCK378
  1

  0
TEXT
  5
18C
330
18E
100
AcDbEntity
  8
0
 62
     7
370
    13
390
F
100
AcDbText
 10
32.756405
 20
-155.800186
 30
0.0
 40
2.0
  1
0,25
 41
1.161108
 72
     5
 11
39.723053
 21
-155.800186
 31
0.0
100
AcDbText
  0
ENDBLK
  5
555
330
18E
100
AcDbEntity
  8
0
100
AcDbBlockEnd
  0
BLOCK
  5
556
330
192
100
AcDbEntity
  8
0
100
AcDbBlockBegin
  2
BLOCK379
 70
     0
 10
0.0
 20
0.0
 30
0.0
  3
BLOCK379
  1

  0
TEXT
  5
190
330
192
100
AcDbEntity
  8
0
 62
     7
370
    13
390
F
100
AcDbText
 10
32.756405
 20
-150.800186
 30
0.0
 40
2.0
  1
0,15
 41
1.3062465
 72
     5
 11
39.723053
 21
-150.800186
 31
0.0
100
AcDbText
  0
ENDBLK
  5
557
330
192
100
AcDbEntity
  8
0
100
AcDbBlockEnd
  0
BLOCK
  5
558
330
196
100
AcDbEntity
  8
0
100
AcDbBlockBegin
  2
BLOCK380
 70
     0
 10
0.0
 20
0.0
 30
0.0
  3
BLOCK380
  1

  0
TEXT
  5
194
330
196
100
AcDbEntity
  8
0
 62
     7
370
    13
390
F
100
AcDbText
 10
45.506405
 20
-160.800186
 30
0.0
 40
2.0
  1
1
 41
2.200000500000002
 72
     5
 11
46.973072
 21
-160.800186
 31
0.0
100
AcDbText
  0
ENDBLK
  5
559
330
196
100
AcDbEntity
  8
0
100
AcDbBlockEnd
  0
BLOCK
  5
55A
330
19A
100
AcDbEntity
  8
0
100
AcDbBlockBegin
  2
BLOCK381
 70
     0
 10
0.0
 20
0.0
 30
0.0
  3
BLOCK381
  1

  0
TEXT
  5
198
330
19A
100
AcDbEntity
  8
0
 62
     7
370
    13
390
F
100
AcDbText
 10
43.673073
 20
-155.800186
 30
0.0
 40
2.0
  1
0,5
 41
1.283329999999999
 72
     5
 11
48.806393
 21
-155.800186
 31
0.0
100
AcDbText
  0
ENDBLK
  5
55B
330
19A
100
AcDbEntity
  8
0
100
AcDbBlockEnd
  0
BLOCK
  5
55C
330
19E
100
AcDbEntity
  8
0
100
AcDbBlockBegin
  2
BLOCK382
 70
     0
 10
0.0
 20
0.0
 30
0.0
  3
BLOCK382
  1

  0
TEXT
  5
19C
330
19E
100
AcDbEntity
  8
0
 62
     7
370
    13
390
F
100
AcDbText
 10
43.673073
 20
-150.800186
 30
0.0
 40
2.0
  1
0,2
 41
1.283329999999999
 72
     5
 11
48.806393
 21
-150.800186
 31
0.0
100
AcDbText
  0
ENDBLK
  5
55D
330
19E
100
AcDbEntity
  8
0
100
AcDbBlockEnd
  0
BLOCK
  5
55E
330
1A2
100
AcDbEntity
  8
0
100
AcDbBlockBegin
  2
BLOCK383
 70
     0
 10
0.0
 20
0.0
 30
0.0
  3
BLOCK383
  1

  0
TEXT
  5
1A0
330
1A2
100
AcDbEntity
  8
0
 62
     7
370
    13
390
F
100
AcDbText
 10
53.673073
 20
-160.800186
 30
0.0
 40
2.0
  1
1,5
 41
1.399996363636363
 72
     5
 11
58.806393
 21
-160.800186
 31
0.0
100
AcDbText
  0
ENDBLK
  5
55F
330
1A2
100
AcDbEntity
  8
0
100
AcDbBlockEnd
  0
BLOCK
  5
560
330
1A6
100
AcDbEntity
  8
0
100
AcDbBlockBegin
  2
BLOCK384
 70
     0
 10
0.0
 20
0.0
 30
0.0
  3
BLOCK384
  1

  0
TEXT
  5
1A4
330
1A6
100
AcDbEntity
  8
0
 62
     7
370
    13
390
F
100
AcDbText
 10
53.673073
 20
-155.800186
 30
0.0
 40
2.0
  1
0,8
 41
1.283329999999999
 72
     5
 11
58.806393
 21
-155.800186
 31
0.0
100
AcDbText
  0
ENDBLK
  5
561
330
1A6
100
AcDbEntity
  8
0
100
AcDbBlockEnd
  0
BLOCK
  5
562
330
1AA
100
AcDbEntity
  8
0
100
AcDbBlockBegin
  2
BLOCK385
 70
     0
 10
0.0
 20
0.0
 30
0.0
  3
BLOCK385
  1

  0
TEXT
  5
1A8
330
1AA
100
AcDbEntity
  8
0
 62
     7
370
    13
390
F
100
AcDbText
 10
53.673073
 20
-150.800186
 30
0.0
 40
2.0
  1
0,3
 41
1.283329999999999
 72
     5
 11
58.806393
 21
-150.800186
 31
0.0
100
AcDbText
  0
ENDBLK
  5
563
330
1AA
100
AcDbEntity
  8
0
100
AcDbBlockEnd
  0
BLOCK
  5
564
330
1AE
100
AcDbEntity
  8
0
100
AcDbBlockBegin
  2
BLOCK386
 70
     0
 10
0.0
 20
0.0
 30
0.0
  3
BLOCK386
  1

  0
TEXT
  5
1AC
330
1AE
100
AcDbEntity
  8
0
 62
     7
370
    13
390
F
100
AcDbText
 10
65.506409
 20
-160.800186
 30
0.0
 40
2.0
  1
3
 41
1.100000250000001
 72
     5
 11
66.973076
 21
-160.800186
 31
0.0
100
AcDbText
  0
ENDBLK
  5
565
330
1AE
100
AcDbEntity
  8
0
100
AcDbBlockEnd
  0
BLOCK
  5
566
330
1B2
100
AcDbEntity
  8
0
100
AcDbBlockBegin
  2
BLOCK387
 70
     0
 10
0.0
 20
0.0
 30
0.0
  3
BLOCK387
  1

  0
TEXT
  5
1B0
330
1B2
100
AcDbEntity
  8
0
 62
     7
370
    13
390
F
100
AcDbText
 10
63.673073
 20
-155.800186
 30
0.0
 40
2.0
  1
1,5
 41
1.399997181818183
 72
     5
 11
68.806396
 21
-155.800186
 31
0.0
100
AcDbText
  0
ENDBLK
  5
567
330
1B2
100
AcDbEntity
  8
0
100
AcDbBlockEnd
  0
BLOCK
  5
568
330
1B6
100
AcDbEntity
  8
0
100
AcDbBlockBegin
  2
BLOCK388
 70
     0
 10
0.0
 20
0.0
 30
0.0
  3
BLOCK388
  1

  0
TEXT
  5
1B4
330
1B6
100
AcDbEntity
  8
0
 62
     7
370
    13
390
F
100
AcDbText
 10
63.673073
 20
-150.800186
 30
0.0
 40
2.0
  1
0,5
 41
1.283330750000001
 72
     5
 11
68.806396
 21
-150.800186
 31
0.0
100
AcDbText
  0
ENDBLK
  5
569
330
1B6
100
AcDbEntity
  8
0
100
AcDbBlockEnd
  0
BLOCK
  5
56A
330
1BA
100
AcDbEntity
  8
0
100
AcDbBlockBegin
  2
BLOCK389
 70
     0
 10
0.0
 20
0.0
 30
0.0
  3
BLOCK389
  1

  0
TEXT
  5
1B8
330
1BA
100
AcDbEntity
  8
0
 62
     7
370
    13
390
F
100
AcDbText
 10
20.98237
 20
-161.514511
 30
0.0
 40
2.0
  1
-
 41
1.100001000000002
 72
     5
 11
22.449038
 21
-161.514511
 31
0.0
100
AcDbText
  0
ENDBLK
  5
56B
330
1BA
100
AcDbEntity
  8
0
100
AcDbBlockEnd
  0
BLOCK
  5
56C
330
1BE
100
AcDbEntity
  8
0
100
AcDbBlockBegin
  2
BLOCK390
 70
     0
 10
0.0
 20
0.0
 30
0.0
  3
BLOCK390
  1

  0
TEXT
  5
1BC
330
1BE
100
AcDbEntity
  8
0
 62
     7
370
    13
390
F
100
AcDbText
 10
20.98237
 20
-160.502563
 30
0.0
 40
2.0
  1
+
 41
1.100001000000002
 72
     5
 11
22.449038
 21
-160.502563
 31
0.0
100
AcDbText
  0
ENDBLK
  5
56D
330
1BE
100
AcDbEntity
  8
0
100
AcDbBlockEnd
  0
BLOCK
  5
56E
330
1C2
100
AcDbEntity
  8
0
100
AcDbBlockBegin
  2
BLOCK391
 70
     0
 10
0.0
 20
0.0
 30
0.0
  3
BLOCK391
  1

  0
TEXT
  5
1C0
330
1C2
100
AcDbEntity
  8
0
 62
     7
370
    13
390
F
100
AcDbText
 10
20.98237
 20
-156.514511
 30
0.0
 40
2.0
  1
-
 41
1.100001000000002
 72
     5
 11
22.449038
 21
-156.514511
 31
0.0
100
AcDbText
  0
ENDBLK
  5
56F
330
1C2
100
AcDbEntity
  8
0
100
AcDbBlockEnd
  0
BLOCK
  5
570
330
1C6
100
AcDbEntity
  8
0
100
AcDbBlockBegin
  2
BLOCK392
 70
     0
 10
0.0
 20
0.0
 30
0.0
  3
BLOCK392
  1

  0
TEXT
  5
1C4
330
1C6
100
AcDbEntity
  8
0
 62
     7
370
    13
390
F
100
AcDbText
 10
20.98237
 20
-155.502563
 30
0.0
 40
2.0
  1
+
 41
1.100001000000002
 72
     5
 11
22.449038
 21
-155.502563
 31
0.0
100
AcDbText
  0
ENDBLK
  5
571
330
1C6
100
AcDbEntity
  8
0
100
AcDbBlockEnd
  0
BLOCK
  5
572
330
1CA
100
AcDbEntity
  8
0
100
AcDbBlockBegin
  2
BLOCK393
 70
     0
 10
0.0
 20
0.0
 30
0.0
  3
BLOCK393
  1

  0
TEXT
  5
1C8
330
1CA
100
AcDbEntity
  8
0
 62
     7
370
    13
390
F
100
AcDbText
 10
20.98237
 20
-151.514511
 30
0.0
 40
2.0
  1
-
 41
1.100001000000002
 72
     5
 11
22.449038
 21
-151.514511
 31
0.0
100
AcDbText
  0
ENDBLK
  5
573
330
1CA
100
AcDbEntity
  8
0
100
AcDbBlockEnd
  0
BLOCK
  5
574
330
1CE
100
AcDbEntity
  8
0
100
AcDbBlockBegin
  2
BLOCK394
 70
     0
 10
0.0
 20
0.0
 30
0.0
  3
BLOCK394
  1

  0
TEXT
  5
1CC
330
1CE
100
AcDbEntity
  8
0
 62
     7
370
    13
390
F
100
AcDbText
 10
20.98237
 20
-150.502563
 30
0.0
 40
2.0
  1
+
 41
1.100001000000002
 72
     5
 11
22.449038
 21
-150.502563
 31
0.0
100
AcDbText
  0
ENDBLK
  5
575
330
1CE
100
AcDbEntity
  8
0
100
AcDbBlockEnd
  0
BLOCK
  5
576
330
1D2
100
AcDbEntity
  8
0
100
AcDbBlockBegin
  2
BLOCK395
 70
     0
 10
0.0
 20
0.0
 30
0.0
  3
BLOCK395
  1

  0
TEXT
  5
1D0
330
1D2
100
AcDbEntity
  8
0
 62
     7
370
    13
390
F
100
AcDbText
 10
30.98237
 20
-161.514511
 30
0.0
 40
2.0
  1
-
 41
1.0999995
 72
     5
 11
32.449036
 21
-161.514511
 31
0.0
100
AcDbText
  0
ENDBLK
  5
577
330
1D2
100
AcDbEntity
  8
0
100
AcDbBlockEnd
  0
BLOCK
  5
578
330
1D6
100
AcDbEntity
  8
0
100
AcDbBlockBegin
  2
BLOCK396
 70
     0
 10
0.0
 20
0.0
 30
0.0
  3
BLOCK396
  1

  0
TEXT
  5
1D4
330
1D6
100
AcDbEntity
  8
0
 62
     7
370
    13
390
F
100
AcDbText
 10
30.98237
 20
-160.502563
 30
0.0
 40
2.0
  1
+
 41
1.0999995
 72
     5
 11
32.449036
 21
-160.502563
 31
0.0
100
AcDbText
  0
ENDBLK
  5
579
330
1D6
100
AcDbEntity
  8
0
100
AcDbBlockEnd
  0
BLOCK
  5
57A
330
1DA
100
AcDbEntity
  8
0
100
AcDbBlockBegin
  2
BLOCK397
 70
     0
 10
0.0
 20
0.0
 30
0.0
  3
BLOCK397
  1

  0
TEXT
  5
1D8
330
1DA
100
AcDbEntity
  8
0
 62
     7
370
    13
390
F
100
AcDbText
 10
30.98237
 20
-156.514511
 30
0.0
 40
2.0
  1
-
 41
1.0999995
 72
     5
 11
32.449036
 21
-156.514511
 31
0.0
100
AcDbText
  0
ENDBLK
  5
57B
330
1DA
100
AcDbEntity
  8
0
100
AcDbBlockEnd
  0
BLOCK
  5
57C
330
1DE
100
AcDbEntity
  8
0
100
AcDbBlockBegin
  2
BLOCK398
 70
     0
 10
0.0
 20
0.0
 30
0.0
  3
BLOCK398
  1

  0
TEXT
  5
1DC
330
1DE
100
AcDbEntity
  8
0
 62
     7
370
    13
390
F
100
AcDbText
 10
30.98237
 20
-155.502563
 30
0.0
 40
2.0
  1
+
 41
1.0999995
 72
     5
 11
32.449036
 21
-155.502563
 31
0.0
100
AcDbText
  0
ENDBLK
  5
57D
330
1DE
100
AcDbEntity
  8
0
100
AcDbBlockEnd
  0
BLOCK
  5
57E
330
1E2
100
AcDbEntity
  8
0
100
AcDbBlockBegin
  2
BLOCK399
 70
     0
 10
0.0
 20
0.0
 30
0.0
  3
BLOCK399
  1

  0
TEXT
  5
1E0
330
1E2
100
AcDbEntity
  8
0
 62
     7
370
    13
390
F
100
AcDbText
 10
30.98237
 20
-151.514511
 30
0.0
 40
2.0
  1
-
 41
1.0999995
 72
     5
 11
32.449036
 21
-151.514511
 31
0.0
100
AcDbText
  0
ENDBLK
  5
57F
330
1E2
100
AcDbEntity
  8
0
100
AcDbBlockEnd
  0
BLOCK
  5
580
330
1E6
100
AcDbEntity
  8
0
100
AcDbBlockBegin
  2
BLOCK400
 70
     0
 10
0.0
 20
0.0
 30
0.0
  3
BLOCK400
  1

  0
TEXT
  5
1E4
330
1E6
100
AcDbEntity
  8
0
 62
     7
370
    13
390
F
100
AcDbText
 10
30.98237
 20
-150.502563
 30
0.0
 40
2.0
  1
+
 41
1.0999995
 72
     5
 11
32.449036
 21
-150.502563
 31
0.0
100
AcDbText
  0
ENDBLK
  5
581
330
1E6
100
AcDbEntity
  8
0
100
AcDbBlockEnd
  0
BLOCK
  5
582
330
1EA
100
AcDbEntity
  8
0
100
AcDbBlockBegin
  2
BLOCK401
 70
     0
 10
0.0
 20
0.0
 30
0.0
  3
BLOCK401
  1

  0
TEXT
  5
1E8
330
1EA
100
AcDbEntity
  8
0
 62
     7
370
    13
390
F
100
AcDbText
 10
40.982368
 20
-161.514511
 30
0.0
 40
2.0
  1
-
 41
1.100000999999999
 72
     5
 11
42.449036
 21
-161.514511
 31
0.0
100
AcDbText
  0
ENDBLK
  5
583
330
1EA
100
AcDbEntity
  8
0
100
AcDbBlockEnd
  0
BLOCK
  5
584
330
1EE
100
AcDbEntity
  8
0
100
AcDbBlockBegin
  2
BLOCK402
 70
     0
 10
0.0
 20
0.0
 30
0.0
  3
BLOCK402
  1

  0
TEXT
  5
1EC
330
1EE
100
AcDbEntity
  8
0
 62
     7
370
    13
390
F
100
AcDbText
 10
40.982368
 20
-160.502563
 30
0.0
 40
2.0
  1
+
 41
1.100000999999999
 72
     5
 11
42.449036
 21
-160.502563
 31
0.0
100
AcDbText
  0
ENDBLK
  5
585
330
1EE
100
AcDbEntity
  8
0
100
AcDbBlockEnd
  0
BLOCK
  5
586
330
1F2
100
AcDbEntity
  8
0
100
AcDbBlockBegin
  2
BLOCK403
 70
     0
 10
0.0
 20
0.0
 30
0.0
  3
BLOCK403
  1

  0
TEXT
  5
1F0
330
1F2
100
AcDbEntity
  8
0
 62
     7
370
    13
390
F
100
AcDbText
 10
40.982368
 20
-156.514511
 30
0.0
 40
2.0
  1
-
 41
1.100000999999999
 72
     5
 11
42.449036
 21
-156.514511
 31
0.0
100
AcDbText
  0
ENDBLK
  5
587
330
1F2
100
AcDbEntity
  8
0
100
AcDbBlockEnd
  0
BLOCK
  5
588
330
1F6
100
AcDbEntity
  8
0
100
AcDbBlockBegin
  2
BLOCK404
 70
     0
 10
0.0
 20
0.0
 30
0.0
  3
BLOCK404
  1

  0
TEXT
  5
1F4
330
1F6
100
AcDbEntity
  8
0
 62
     7
370
    13
390
F
100
AcDbText
 10
40.982368
 20
-155.502563
 30
0.0
 40
2.0
  1
+
 41
1.100000999999999
 72
     5
 11
42.449036
 21
-155.502563
 31
0.0
100
AcDbText
  0
ENDBLK
  5
589
330
1F6
100
AcDbEntity
  8
0
100
AcDbBlockEnd
  0
BLOCK
  5
58A
330
1FA
100
AcDbEntity
  8
0
100
AcDbBlockBegin
  2
BLOCK405
 70
     0
 10
0.0
 20
0.0
 30
0.0
  3
BLOCK405
  1

  0
TEXT
  5
1F8
330
1FA
100
AcDbEntity
  8
0
 62
     7
370
    13
390
F
100
AcDbText
 10
40.982368
 20
-151.514511
 30
0.0
 40
2.0
  1
-
 41
1.100000999999999
 72
     5
 11
42.449036
 21
-151.514511
 31
0.0
100
AcDbText
  0
ENDBLK
  5
58B
330
1FA
100
AcDbEntity
  8
0
100
AcDbBlockEnd
  0
BLOCK
  5
58C
330
1FE
100
AcDbEntity
  8
0
100
AcDbBlockBegin
  2
BLOCK406
 70
     0
 10
0.0
 20
0.0
 30
0.0
  3
BLOCK406
  1

  0
TEXT
  5
1FC
330
1FE
100
AcDbEntity
  8
0
 62
     7
370
    13
390
F
100
AcDbText
 10
40.982368
 20
-150.502563
 30
0.0
 40
2.0
  1
+
 41
1.100000999999999
 72
     5
 11
42.449036
 21
-150.502563
 31
0.0
100
AcDbText
  0
ENDBLK
  5
58D
330
1FE
100
AcDbEntity
  8
0
100
AcDbBlockEnd
  0
BLOCK
  5
58E
330
202
100
AcDbEntity
  8
0
100
AcDbBlockBegin
  2
BLOCK407
 70
     0
 10
0.0
 20
0.0
 30
0.0
  3
BLOCK407
  1

  0
TEXT
  5
200
330
202
100
AcDbEntity
  8
0
 62
     7
370
    13
390
F
100
AcDbText
 10
50.982368
 20
-161.514511
 30
0.0
 40
2.0
  1
-
 41
1.100000999999999
 72
     5
 11
52.449036
 21
-161.514511
 31
0.0
100
AcDbText
  0
ENDBLK
  5
58F
330
202
100
AcDbEntity
  8
0
100
AcDbBlockEnd
  0
BLOCK
  5
590
330
206
100
AcDbEntity
  8
0
100
AcDbBlockBegin
  2
BLOCK408
 70
     0
 10
0.0
 20
0.0
 30
0.0
  3
BLOCK408
  1

  0
TEXT
  5
204
330
206
100
AcDbEntity
  8
0
 62
     7
370
    13
390
F
100
AcDbText
 10
50.982368
 20
-160.502563
 30
0.0
 40
2.0
  1
+
 41
1.100000999999999
 72
     5
 11
52.449036
 21
-160.502563
 31
0.0
100
AcDbText
  0
ENDBLK
  5
591
330
206
100
AcDbEntity
  8
0
100
AcDbBlockEnd
  0
BLOCK
  5
592
330
20A
100
AcDbEntity
  8
0
100
AcDbBlockBegin
  2
BLOCK409
 70
     0
 10
0.0
 20
0.0
 30
0.0
  3
BLOCK409
  1

  0
TEXT
  5
208
330
20A
100
AcDbEntity
  8
0
 62
     7
370
    13
390
F
100
AcDbText
 10
50.982368
 20
-156.514511
 30
0.0
 40
2.0
  1
-
 41
1.100000999999999
 72
     5
 11
52.449036
 21
-156.514511
 31
0.0
100
AcDbText
  0
ENDBLK
  5
593
330
20A
100
AcDbEntity
  8
0
100
AcDbBlockEnd
  0
BLOCK
  5
594
330
20E
100
AcDbEntity
  8
0
100
AcDbBlockBegin
  2
BLOCK410
 70
     0
 10
0.0
 20
0.0
 30
0.0
  3
BLOCK410
  1

  0
TEXT
  5
20C
330
20E
100
AcDbEntity
  8
0
 62
     7
370
    13
390
F
100
AcDbText
 10
50.982368
 20
-155.502563
 30
0.0
 40
2.0
  1
+
 41
1.100000999999999
 72
     5
 11
52.449036
 21
-155.502563
 31
0.0
100
AcDbText
  0
ENDBLK
  5
595
330
20E
100
AcDbEntity
  8
0
100
AcDbBlockEnd
  0
BLOCK
  5
596
330
212
100
AcDbEntity
  8
0
100
AcDbBlockBegin
  2
BLOCK411
 70
     0
 10
0.0
 20
0.0
 30
0.0
  3
BLOCK411
  1

  0
TEXT
  5
210
330
212
100
AcDbEntity
  8
0
 62
     7
370
    13
390
F
100
AcDbText
 10
50.982368
 20
-151.514511
 30
0.0
 40
2.0
  1
-
 41
1.100000999999999
 72
     5
 11
52.449036
 21
-151.514511
 31
0.0
100
AcDbText
  0
ENDBLK
  5
597
330
212
100
AcDbEntity
  8
0
100
AcDbBlockEnd
  0
BLOCK
  5
598
330
216
100
AcDbEntity
  8
0
100
AcDbBlockBegin
  2
BLOCK412
 70
     0
 10
0.0
 20
0.0
 30
0.0
  3
BLOCK412
  1

  0
TEXT
  5
214
330
216
100
AcDbEntity
  8
0
 62
     7
370
    13
390
F
100
AcDbText
 10
50.982368
 20
-150.502563
 30
0.0
 40
2.0
  1
+
 41
1.100000999999999
 72
     5
 11
52.449036
 21
-150.502563
 31
0.0
100
AcDbText
  0
ENDBLK
  5
599
330
216
100
AcDbEntity
  8
0
100
AcDbBlockEnd
  0
BLOCK
  5
59A
330
21A
100
AcDbEntity
  8
0
100
AcDbBlockBegin
  2
BLOCK413
 70
     0
 10
0.0
 20
0.0
 30
0.0
  3
BLOCK413
  1

  0
TEXT
  5
218
330
21A
100
AcDbEntity
  8
0
 62
     7
370
    13
390
F
100
AcDbText
 10
60.982368
 20
-161.514511
 30
0.0
 40
2.0
  1
-
 41
1.100000999999999
 72
     5
 11
62.449036
 21
-161.514511
 31
0.0
100
AcDbText
  0
ENDBLK
  5
59B
330
21A
100
AcDbEntity
  8
0
100
AcDbBlockEnd
  0
BLOCK
  5
59C
330
21E
100
AcDbEntity
  8
0
100
AcDbBlockBegin
  2
BLOCK414
 70
     0
 10
0.0
 20
0.0
 30
0.0
  3
BLOCK414
  1

  0
TEXT
  5
21C
330
21E
100
AcDbEntity
  8
0
 62
     7
370
    13
390
F
100
AcDbText
 10
60.982368
 20
-160.502563
 30
0.0
 40
2.0
  1
+
 41
1.100000999999999
 72
     5
 11
62.449036
 21
-160.502563
 31
0.0
100
AcDbText
  0
ENDBLK
  5
59D
330
21E
100
AcDbEntity
  8
0
100
AcDbBlockEnd
  0
BLOCK
  5
59E
330
222
100
AcDbEntity
  8
0
100
AcDbBlockBegin
  2
BLOCK415
 70
     0
 10
0.0
 20
0.0
 30
0.0
  3
BLOCK415
  1

  0
TEXT
  5
220
330
222
100
AcDbEntity
  8
0
 62
     7
370
    13
390
F
100
AcDbText
 10
60.982368
 20
-156.514511
 30
0.0
 40
2.0
  1
-
 41
1.100000999999999
 72
     5
 11
62.449036
 21
-156.514511
 31
0.0
100
AcDbText
  0
ENDBLK
  5
59F
330
222
100
AcDbEntity
  8
0
100
AcDbBlockEnd
  0
BLOCK
  5
5A0
330
226
100
AcDbEntity
  8
0
100
AcDbBlockBegin
  2
BLOCK416
 70
     0
 10
0.0
 20
0.0
 30
0.0
  3
BLOCK416
  1

  0
TEXT
  5
224
330
226
100
AcDbEntity
  8
0
 62
     7
370
    13
390
F
100
AcDbText
 10
60.982368
 20
-155.502563
 30
0.0
 40
2.0
  1
+
 41
1.100000999999999
 72
     5
 11
62.449036
 21
-155.502563
 31
0.0
100
AcDbText
  0
ENDBLK
  5
5A1
330
226
100
AcDbEntity
  8
0
100
AcDbBlockEnd
  0
BLOCK
  5
5A2
330
22A
100
AcDbEntity
  8
0
100
AcDbBlockBegin
  2
BLOCK417
 70
     0
 10
0.0
 20
0.0
 30
0.0
  3
BLOCK417
  1

  0
TEXT
  5
228
330
22A
100
AcDbEntity
  8
0
 62
     7
370
    13
390
F
100
AcDbText
 10
60.982368
 20
-151.514511
 30
0.0
 40
2.0
  1
-
 41
1.100000999999999
 72
     5
 11
62.449036
 21
-151.514511
 31
0.0
100
AcDbText
  0
ENDBLK
  5
5A3
330
22A
100
AcDbEntity
  8
0
100
AcDbBlockEnd
  0
BLOCK
  5
5A4
330
22E
100
AcDbEntity
  8
0
100
AcDbBlockBegin
  2
BLOCK418
 70
     0
 10
0.0
 20
0.0
 30
0.0
  3
BLOCK418
  1

  0
TEXT
  5
22C
330
22E
100
AcDbEntity
  8
0
 62
     7
370
    13
390
F
100
AcDbText
 10
60.982368
 20
-150.502563
 30
0.0
 40
2.0
  1
+
 41
1.100000999999999
 72
     5
 11
62.449036
 21
-150.502563
 31
0.0
100
AcDbText
  0
ENDBLK
  5
5A5
330
22E
100
AcDbEntity
  8
0
100
AcDbBlockEnd
  0
BLOCK
  5
5A6
330
232
100
AcDbEntity
  8
0
100
AcDbBlockBegin
  2
BLOCK419
 70
     0
 10
0.0
 20
0.0
 30
0.0
  3
BLOCK419
  1

  0
TEXT
  5
230
330
232
100
AcDbEntity
  8
0
 62
     7
370
    13
390
F
100
AcDbText
 10
14.137292
 20
-141.692581
 30
0.0
 40
2.0
  1
0
 41
1.466666
 72
     5
 11
15.603958
 21
-141.692581
 31
0.0
100
AcDbText
  0
ENDBLK
  5
5A7
330
232
100
AcDbEntity
  8
0
100
AcDbBlockEnd
  0
BLOCK
  5
5A8
330
236
100
AcDbEntity
  8
0
100
AcDbBlockBegin
  2
BLOCK420
 70
     0
 10
0.0
 20
0.0
 30
0.0
  3
BLOCK420
  1

  0
TEXT
  5
234
330
236
100
AcDbEntity
  8
0
 62
     7
370
    13
390
F
100
AcDbText
 10
14.256346
 20
-145.799927
 30
0.0
 40
2.0
  1
6
 41
1.100000249999999
 72
     5
 11
15.723013
 21
-145.799927
 31
0.0
100
AcDbText
  0
ENDBLK
  5
5A9
330
236
100
AcDbEntity
  8
0
100
AcDbBlockEnd
  0
BLOCK
  5
5AA
330
23A
100
AcDbEntity
  8
0
100
AcDbBlockBegin
  2
BLOCK421
 70
     0
 10
0.0
 20
0.0
 30
0.0
  3
BLOCK421
  1

  0
TEXT
  5
238
330
23A
100
AcDbEntity
  8
0
 62
     7
370
    13
390
F
100
AcDbText
 10
24.137293
 20
-141.692581
 30
0.0
 40
2.0
  1
6
 41
1.100000250000001
 72
     5
 11
25.60396
 21
-141.692581
 31
0.0
100
AcDbText
  0
ENDBLK
  5
5AB
330
23A
100
AcDbEntity
  8
0
100
AcDbBlockEnd
  0
BLOCK
  5
5AC
330
23E
100
AcDbEntity
  8
0
100
AcDbBlockBegin
  2
BLOCK422
 70
     0
 10
0.0
 20
0.0
 30
0.0
  3
BLOCK422
  1

  0
TEXT
  5
23C
330
23E
100
AcDbEntity
  8
0
 62
     7
370
    13
390
F
100
AcDbText
 10
33.220627
 20
-141.692581
 30
0.0
 40
2.0
  1
30
 41
1.099998333333334
 72
     5
 11
36.520622
 21
-141.692581
 31
0.0
100
AcDbText
  0
ENDBLK
  5
5AD
330
23E
100
AcDbEntity
  8
0
100
AcDbBlockEnd
  0
BLOCK
  5
5AE
330
242
100
AcDbEntity
  8
0
100
AcDbBlockBegin
  2
BLOCK423
 70
     0
 10
0.0
 20
0.0
 30
0.0
  3
BLOCK423
  1

  0
TEXT
  5
240
330
242
100
AcDbEntity
  8
0
 62
     7
370
    13
390
F
100
AcDbText
 10
42.303959
 20
-141.692581
 30
0.0
 40
2.0
  1
120
 41
1.184612307692307
 72
     5
 11
47.437279
 21
-141.692581
 31
0.0
100
AcDbText
  0
ENDBLK
  5
5AF
330
242
100
AcDbEntity
  8
0
100
AcDbBlockEnd
  0
BLOCK
  5
5B0
330
246
100
AcDbEntity
  8
0
100
AcDbBlockBegin
  2
BLOCK424
 70
     0
 10
0.0
 20
0.0
 30
0.0
  3
BLOCK424
  1

  0
TEXT
  5
244
330
246
100
AcDbEntity
  8
0
 62
     7
370
    13
390
F
100
AcDbText
 10
52.303959
 20
-141.692581
 30
0.0
 40
2.0
  1
315
 41
1.099997142857142
 72
     5
 11
57.437279
 21
-141.692581
 31
0.0
100
AcDbText
  0
ENDBLK
  5
5B1
330
246
100
AcDbEntity
  8
0
100
AcDbBlockEnd
  0
BLOCK
  5
5B2
330
24A
100
AcDbEntity
  8
0
100
AcDbBlockBegin
  2
BLOCK425
 70
     0
 10
0.0
 20
0.0
 30
0.0
  3
BLOCK425
  1

  0
TEXT
  5
248
330
24A
100
AcDbEntity
  8
0
 62
     7
370
    13
390
F
100
AcDbText
 10
62.303955
 20
-141.692581
 30
0.0
 40
2.0
  1
500
 41
1.099998
 72
     5
 11
67.437279
 21
-141.692581
 31
0.0
100
AcDbText
  0
ENDBLK
  5
5B3
330
24A
100
AcDbEntity
  8
0
100
AcDbBlockEnd
  0
BLOCK
  5
5B4
330
24E
100
AcDbEntity
  8
0
100
AcDbBlockBegin
  2
BLOCK426
 70
     0
 10
0.0
 20
0.0
 30
0.0
  3
BLOCK426
  1

  0
TEXT
  5
24C
330
24E
100
AcDbEntity
  8
0
 62
     7
370
    13
390
F
100
AcDbText
 10
23.339678
 20
-145.799927
 30
0.0
 40
2.0
  1
30
 41
1.099997666666667
 72
     5
 11
26.639671
 21
-145.799927
 31
0.0
100
AcDbText
  0
ENDBLK
  5
5B5
330
24E
100
AcDbEntity
  8
0
100
AcDbBlockEnd
  0
BLOCK
  5
5B6
330
252
100
AcDbEntity
  8
0
100
AcDbBlockBegin
  2
BLOCK427
 70
     0
 10
0.0
 20
0.0
 30
0.0
  3
BLOCK427
  1

  0
TEXT
  5
250
330
252
100
AcDbEntity
  8
0
 62
     7
370
    13
390
F
100
AcDbText
 10
32.423012
 20
-145.799927
 30
0.0
 40
2.0
  1
120
 41
1.184612307692307
 72
     5
 11
37.556332
 21
-145.799927
 31
0.0
100
AcDbText
  0
ENDBLK
  5
5B7
330
252
100
AcDbEntity
  8
0
100
AcDbBlockEnd
  0
BLOCK
  5
5B8
330
256
100
AcDbEntity
  8
0
100
AcDbBlockBegin
  2
BLOCK428
 70
     0
 10
0.0
 20
0.0
 30
0.0
  3
BLOCK428
  1

  0
TEXT
  5
254
330
256
100
AcDbEntity
  8
0
 62
     7
370
    13
390
F
100
AcDbText
 10
42.423012
 20
-145.799927
 30
0.0
 40
2.0
  1
315
 41
1.099997142857142
 72
     5
 11
47.556332
 21
-145.799927
 31
0.0
100
AcDbText
  0
ENDBLK
  5
5B9
330
256
100
AcDbEntity
  8
0
100
AcDbBlockEnd
  0
BLOCK
  5
5BA
330
25A
100
AcDbEntity
  8
0
100
AcDbBlockBegin
  2
BLOCK429
 70
     0
 10
0.0
 20
0.0
 30
0.0
  3
BLOCK429
  1

  0
TEXT
  5
258
330
25A
100
AcDbEntity
  8
0
 62
     7
370
    13
390
F
100
AcDbText
 10
52.423012
 20
-145.799927
 30
0.0
 40
2.0
  1
500
 41
1.099997142857142
 72
     5
 11
57.556332
 21
-145.799927
 31
0.0
100
AcDbText
  0
ENDBLK
  5
5BB
330
25A
100
AcDbEntity
  8
0
100
AcDbBlockEnd
  0
BLOCK
  5
5BC
330
25E
100
AcDbEntity
  8
0
100
AcDbBlockBegin
  2
BLOCK430
 70
     0
 10
0.0
 20
0.0
 30
0.0
  3
BLOCK430
  1

  0
TEXT
  5
25C
330
25E
100
AcDbEntity
  8
0
 62
     7
370
    13
390
F
100
AcDbText
 10
-337.916656
 20
-203.5
 30
0.0
 40
2.0
  1
1
 41
2.200011000000018
 72
     5
 11
-336.449982
 21
-203.5
 31
0.0
100
AcDbText
  0
ENDBLK
  5
5BD
330
25E
100
AcDbEntity
  8
0
100
AcDbBlockEnd
  0
BLOCK
  5
5BE
330
262
100
AcDbEntity
  8
0
100
AcDbBlockBegin
  2
BLOCK431
 70
     0
 10
0.0
 20
0.0
 30
0.0
  3
BLOCK431
  1

  0
TEXT
  5
260
330
262
100
AcDbEntity
  8
0
 62
     7
370
    13
390
F
100
AcDbText
 10
-243.916672
 20
-203.5
 30
0.0
 40
2.0
  1
2
 41
1.099995000000014
 72
     5
 11
-242.450012
 21
-203.5
 31
0.0
100
AcDbText
  0
ENDBLK
  5
5BF
330
262
100
AcDbEntity
  8
0
100
AcDbBlockEnd
  0
BLOCK
  5
5C0
330
266
100
AcDbEntity
  8
0
100
AcDbBlockBegin
  2
BLOCK432
 70
     0
 10
0.0
 20
0.0
 30
0.0
  3
BLOCK432
  1

  0
TEXT
  5
264
330
266
100
AcDbEntity
  8
0
 62
     7
370
    13
390
F
100
AcDbText
 10
-149.916672
 20
-203.5
 30
0.0
 40
2.0
  1
3
 41
1.099995000000014
 72
     5
 11
-148.450012
 21
-203.5
 31
0.0
100
AcDbText
  0
ENDBLK
  5
5C1
330
266
100
AcDbEntity
  8
0
100
AcDbBlockEnd
  0
BLOCK
  5
5C2
330
26A
100
AcDbEntity
  8
0
100
AcDbBlockBegin
  2
BLOCK433
 70
     0
 10
0.0
 20
0.0
 30
0.0
  3
BLOCK433
  1

  0
TEXT
  5
268
330
26A
100
AcDbEntity
  8
0
 62
     7
370
    13
390
F
100
AcDbText
 10
-55.916668
 20
-203.5
 30
0.0
 40
2.0
  1
4
 41
1.100000250000001
 72
     5
 11
-54.450001
 21
-203.5
 31
0.0
100
AcDbText
  0
ENDBLK
  5
5C3
330
26A
100
AcDbEntity
  8
0
100
AcDbBlockEnd
  0
BLOCK
  5
5C4
330
26E
100
AcDbEntity
  8
0
100
AcDbBlockBegin
  2
BLOCK434
 70
     0
 10
0.0
 20
0.0
 30
0.0
  3
BLOCK434
  1

  0
TEXT
  5
26C
330
26E
100
AcDbEntity
  8
0
 62
     7
370
    13
390
F
100
AcDbText
 10
38.083332
 20
-203.5
 30
0.0
 40
2.0
  1
5
 41
1.100000250000001
 72
     5
 11
39.549999
 21
-203.5
 31
0.0
100
AcDbText
  0
ENDBLK
  5
5C5
330
26E
100
AcDbEntity
  8
0
100
AcDbBlockEnd
  0
BLOCK
  5
5C6
330
272
100
AcDbEntity
  8
0
100
AcDbBlockBegin
  2
BLOCK435
 70
     0
 10
0.0
 20
0.0
 30
0.0
  3
BLOCK435
  1

  0
TEXT
  5
270
330
272
100
AcDbEntity
  8
0
 62
     7
370
    13
390
F
100
AcDbText
 10
132.083328
 20
-203.5
 30
0.0
 40
2.0
  1
6
 41
1.099995000000014
 72
     5
 11
133.549988
 21
-203.5
 31
0.0
100
AcDbText
  0
ENDBLK
  5
5C7
330
272
100
AcDbEntity
  8
0
100
AcDbBlockEnd
  0
BLOCK
  5
5C8
330
276
100
AcDbEntity
  8
0
100
AcDbBlockBegin
  2
BLOCK436
 70
     0
 10
0.0
 20
0.0
 30
0.0
  3
BLOCK436
  1

  0
TEXT
  5
274
330
276
100
AcDbEntity
  8
0
 62
     7
370
    13
390
F
100
AcDbText
 10
181.583328
 20
-151.0
 30
0.0
 40
2.0
  1
D
 41
1.099995000000014
 72
     5
 11
183.049988
 21
-151.0
 31
0.0
100
AcDbText
  0
ENDBLK
  5
5C9
330
276
100
AcDbEntity
  8
0
100
AcDbBlockEnd
  0
BLOCK
  5
5CA
330
27A
100
AcDbEntity
  8
0
100
AcDbBlockBegin
  2
BLOCK437
 70
     0
 10
0.0
 20
0.0
 30
0.0
  3
BLOCK437
  1

  0
TEXT
  5
278
330
27A
100
AcDbEntity
  8
0
 62
     7
370
    13
390
F
100
AcDbText
 10
181.583328
 20
-51.0
 30
0.0
 40
2.0
  1
C
 41
1.099995000000014
 72
     5
 11
183.049988
 21
-51.0
 31
0.0
100
AcDbText
  0
ENDBLK
  5
5CB
330
27A
100
AcDbEntity
  8
0
100
AcDbBlockEnd
  0
BLOCK
  5
5CC
330
27E
100
AcDbEntity
  8
0
100
AcDbBlockBegin
  2
BLOCK438
 70
     0
 10
0.0
 20
0.0
 30
0.0
  3
BLOCK438
  1

  0
TEXT
  5
27C
330
27E
100
AcDbEntity
  8
0
 62
     7
370
    13
390
F
100
AcDbText
 10
181.583328
 20
49.0
 30
0.0
 40
2.0
  1
B
 41
1.099995000000014
 72
     5
 11
183.049988
 21
49.0
 31
0.0
100
AcDbText
  0
ENDBLK
  5
5CD
330
27E
100
AcDbEntity
  8
0
100
AcDbBlockEnd
  0
BLOCK
  5
5CE
330
282
100
AcDbEntity
  8
0
100
AcDbBlockBegin
  2
BLOCK439
 70
     0
 10
0.0
 20
0.0
 30
0.0
  3
BLOCK439
  1

  0
TEXT
  5
280
330
282
100
AcDbEntity
  8
0
 62
     7
370
    13
390
F
100
AcDbText
 10
181.583328
 20
149.0
 30
0.0
 40
2.0
  1
A
 41
1.099995000000014
 72
     5
 11
183.049988
 21
149.0
 31
0.0
100
AcDbText
  0
ENDBLK
  5
5CF
330
282
100
AcDbEntity
  8
0
100
AcDbBlockEnd
  0
BLOCK
  5
5D0
330
286
100
AcDbEntity
  8
0
100
AcDbBlockBegin
  2
BLOCK440
 70
     0
 10
0.0
 20
0.0
 30
0.0
  3
BLOCK440
  1

  0
TEXT
  5
284
330
286
100
AcDbEntity
  8
0
 62
     7
370
    13
390
F
100
AcDbText
 10
132.083328
 20
201.5
 30
0.0
 40
2.0
  1
6
 41
1.099995000000014
 72
     5
 11
133.549988
 21
201.5
 31
0.0
100
AcDbText
  0
ENDBLK
  5
5D1
330
286
100
AcDbEntity
  8
0
100
AcDbBlockEnd
  0
BLOCK
  5
5D2
330
28A
100
AcDbEntity
  8
0
100
AcDbBlockBegin
  2
BLOCK441
 70
     0
 10
0.0
 20
0.0
 30
0.0
  3
BLOCK441
  1

  0
TEXT
  5
288
330
28A
100
AcDbEntity
  8
0
 62
     7
370
    13
390
F
100
AcDbText
 10
38.083332
 20
201.5
 30
0.0
 40
2.0
  1
5
 41
1.100000250000001
 72
     5
 11
39.549999
 21
201.5
 31
0.0
100
AcDbText
  0
ENDBLK
  5
5D3
330
28A
100
AcDbEntity
  8
0
100
AcDbBlockEnd
  0
BLOCK
  5
5D4
330
28E
100
AcDbEntity
  8
0
100
AcDbBlockBegin
  2
BLOCK442
 70
     0
 10
0.0
 20
0.0
 30
0.0
  3
BLOCK442
  1

  0
TEXT
  5
28C
330
28E
100
AcDbEntity
  8
0
 62
     7
370
    13
390
F
100
AcDbText
 10
-55.916668
 20
201.5
 30
0.0
 40
2.0
  1
4
 41
1.100000250000001
 72
     5
 11
-54.450001
 21
201.5
 31
0.0
100
AcDbText
  0
ENDBLK
  5
5D5
330
28E
100
AcDbEntity
  8
0
100
AcDbBlockEnd
  0
BLOCK
  5
5D6
330
292
100
AcDbEntity
  8
0
100
AcDbBlockBegin
  2
BLOCK443
 70
     0
 10
0.0
 20
0.0
 30
0.0
  3
BLOCK443
  1

  0
TEXT
  5
290
330
292
100
AcDbEntity
  8
0
 62
     7
370
    13
390
F
100
AcDbText
 10
-149.916672
 20
201.5
 30
0.0
 40
2.0
  1
3
 41
1.099995000000014
 72
     5
 11
-148.450012
 21
201.5
 31
0.0
100
AcDbText
  0
ENDBLK
  5
5D7
330
292
100
AcDbEntity
  8
0
100
AcDbBlockEnd
  0
BLOCK
  5
5D8
330
296
100
AcDbEntity
  8
0
100
AcDbBlockBegin
  2
BLOCK444
 70
     0
 10
0.0
 20
0.0
 30
0.0
  3
BLOCK444
  1

  0
TEXT
  5
294
330
296
100
AcDbEntity
  8
0
 62
     7
370
    13
390
F
100
AcDbText
 10
-243.916672
 20
201.5
 30
0.0
 40
2.0
  1
2
 41
1.099995000000014
 72
     5
 11
-242.450012
 21
201.5
 31
0.0
100
AcDbText
  0
ENDBLK
  5
5D9
330
296
100
AcDbEntity
  8
0
100
AcDbBlockEnd
  0
BLOCK
  5
5DA
330
29A
100
AcDbEntity
  8
0
100
AcDbBlockBegin
  2
BLOCK445
 70
     0
 10
0.0
 20
0.0
 30
0.0
  3
BLOCK445
  1

  0
TEXT
  5
298
330
29A
100
AcDbEntity
  8
0
 62
     7
370
    13
390
F
100
AcDbText
 10
-337.916656
 20
201.5
 30
0.0
 40
2.0
  1
1
 41
2.200011000000018
 72
     5
 11
-336.449982
 21
201.5
 31
0.0
100
AcDbText
  0
ENDBLK
  5
5DB
330
29A
100
AcDbEntity
  8
0
100
AcDbBlockEnd
  0
BLOCK
  5
5DC
330
29E
100
AcDbEntity
  8
0
100
AcDbBlockBegin
  2
BLOCK446
 70
     0
 10
0.0
 20
0.0
 30
0.0
  3
BLOCK446
  1

  0
TEXT
  5
29C
330
29E
100
AcDbEntity
  8
0
 62
     7
370
    13
390
F
100
AcDbText
 10
-387.416656
 20
149.0
 30
0.0
 40
2.0
  1
A
 41
1.100005500000009
 72
     5
 11
-385.949982
 21
149.0
 31
0.0
100
AcDbText
  0
ENDBLK
  5
5DD
330
29E
100
AcDbEntity
  8
0
100
AcDbBlockEnd
  0
BLOCK
  5
5DE
330
2A2
100
AcDbEntity
  8
0
100
AcDbBlockBegin
  2
BLOCK447
 70
     0
 10
0.0
 20
0.0
 30
0.0
  3
BLOCK447
  1

  0
TEXT
  5
2A0
330
2A2
100
AcDbEntity
  8
0
 62
     7
370
    13
390
F
100
AcDbText
 10
-387.416656
 20
49.0
 30
0.0
 40
2.0
  1
B
 41
1.100005500000009
 72
     5
 11
-385.949982
 21
49.0
 31
0.0
100
AcDbText
  0
ENDBLK
  5
5DF
330
2A2
100
AcDbEntity
  8
0
100
AcDbBlockEnd
  0
BLOCK
  5
5E0
330
2A6
100
AcDbEntity
  8
0
100
AcDbBlockBegin
  2
BLOCK448
 70
     0
 10
0.0
 20
0.0
 30
0.0
  3
BLOCK448
  1

  0
TEXT
  5
2A4
330
2A6
100
AcDbEntity
  8
0
 62
     7
370
    13
390
F
100
AcDbText
 10
-387.416656
 20
-51.0
 30
0.0
 40
2.0
  1
C
 41
1.100005500000009
 72
     5
 11
-385.949982
 21
-51.0
 31
0.0
100
AcDbText
  0
ENDBLK
  5
5E1
330
2A6
100
AcDbEntity
  8
0
100
AcDbBlockEnd
  0
BLOCK
  5
5E2
330
2AA
100
AcDbEntity
  8
0
100
AcDbBlockBegin
  2
BLOCK449
 70
     0
 10
0.0
 20
0.0
 30
0.0
  3
BLOCK449
  1

  0
TEXT
  5
2A8
330
2AA
100
AcDbEntity
  8
0
 62
     7
370
    13
390
F
100
AcDbText
 10
-387.416656
 20
-151.0
 30
0.0
 40
2.0
  1
D
 41
1.100005500000009
 72
     5
 11
-385.949982
 21
-151.0
 31
0.0
100
AcDbText
  0
ENDBLK
  5
5E3
330
2AA
100
AcDbEntity
  8
0
100
AcDbBlockEnd
  0
BLOCK
  5
5E4
330
2AE
100
AcDbEntity
  8
0
100
AcDbBlockBegin
  2
BLOCK450
 70
     0
 10
0.0
 20
0.0
 30
0.0
  3
BLOCK450
  1

  0
TEXT
  5
2AC
330
2AE
100
AcDbEntity
  8
0
 62
     7
370
    13
390
F
100
AcDbText
 10
56.510597
 20
-126.377403
 30
0.0
 40
3.0
  1
B
 41
1.1000005
 72
     5
 11
58.710598
 21
-126.377403
 31
0.0
100
AcDbText
  0
ENDBLK
  5
5E5
330
2AE
100
AcDbEntity
  8
0
100
AcDbBlockEnd
  0
BLOCK
  5
5E6
330
2B2
100
AcDbEntity
  8
0
100
AcDbBlockBegin
  2
BLOCK451
 70
     0
 10
0.0
 20
0.0
 30
0.0
  3
BLOCK451
  1

  0
TEXT
  5
2B0
330
2B2
100
AcDbEntity
  8
0
 62
     7
370
    13
390
F
100
AcDbText
 10
120.446892
 20
-172.510742
 30
0.0
 40
3.0
  1
1:2
 41
1.539994799999997
 72
     5
 11
128.146866
 21
-172.510742
 31
0.0
100
AcDbText
  0
ENDBLK
  5
5E7
330
2B2
100
AcDbEntity
  8
0
100
AcDbBlockEnd
  0
BLOCK
  5
5E8
330
2B6
100
AcDbEntity
  8
0
100
AcDbBlockBegin
  2
BLOCK452
 70
     0
 10
0.0
 20
0.0
 30
0.0
  3
BLOCK452
  1

  0
TEXT
  5
2B4
330
2B6
100
AcDbEntity
  8
0
 62
     7
370
    13
390
F
100
AcDbText
 10
168.233765
 20
-166.282471
 30
0.0
 40
3.0
  1
P.F.
 41
1.492852285714284
 72
     5
 11
178.683731
 21
-166.282471
 31
0.0
100
AcDbText
  0
ENDBLK
  5
5E9
330
2B6
100
AcDbEntity
  8
0
100
AcDbBlockEnd
  0
BLOCK
  5
5EA
330
2BA
100
AcDbEntity
  8
0
100
AcDbBlockBegin
  2
BLOCK453
 70
     0
 10
0.0
 20
0.0
 30
0.0
  3
BLOCK453
  1

  0
TEXT
  5
2B8
330
2BA
100
AcDbEntity
  8
0
 62
     7
370
    13
390
F
100
AcDbText
 10
147.509583
 20
-166.502945
 30
0.0
 40
2.0
  1
18/05/93
 41
1.020572372093024
 72
     5
 11
162.137787
 21
-166.502945
 31
0.0
100
AcDbText
  0
ENDBLK
  5
5EB
330
2BA
100
AcDbEntity
  8
0
100
AcDbBlockEnd
  0
BLOCK
  5
5EC
330
2BE
100
AcDbEntity
  8
0
100
AcDbBlockBegin
  2
BLOCK454
 70
     0
 10
0.0
 20
0.0
 30
0.0
  3
BLOCK454
  1

  0
TEXT
  5
2BC
330
2BE
100
AcDbEntity
  8
0
 62
     7
370
    13
390
F
100
AcDbText
 10
1.613572
 20
-174.384735
 30
0.0
 40
3.0
  1
VETRO PROTEZIONE STADIUM 2000W
 41
0.93656816
 72
     5
 11
83.563286
 21
-174.384735
 31
0.0
100
AcDbText
  0
ENDBLK
  5
5ED
330
2BE
100
AcDbEntity
  8
0
100
AcDbBlockEnd
  0
BLOCK
  5
5EE
330
2C2
100
AcDbEntity
  8
0
100
AcDbBlockBegin
  2
BLOCK455
 70
     0
 10
0.0
 20
0.0
 30
0.0
  3
BLOCK455
  1

  0
TEXT
  5
2C0
330
2C2
100
AcDbEntity
  8
0
 62
     7
370
    13
390
F
100
AcDbText
 10
67.589218
 20
-196.762451
 30
0.0
 40
3.0
  1
TEMPERATO
 41
0.9307661923076924
 72
     5
 11
91.789139
 21
-196.762451
 31
0.0
100
AcDbText
  0
ENDBLK
  5
5EF
330
2C2
100
AcDbEntity
  8
0
100
AcDbBlockEnd
  0
BLOCK
  5
5F0
330
2C6
100
AcDbEntity
  8
0
100
AcDbBlockBegin
  2
BLOCK456
 70
     0
 10
0.0
 20
0.0
 30
0.0
  3
BLOCK456
  1

  0
TEXT
  5
2C4
330
2C6
100
AcDbEntity
  8
0
 62
     7
370
    13
390
F
100
AcDbText
 10
51.935848
 20
-187.557831
 30
0.0
 40
3.0
  1
VETRO FLOAT SP.5
 41
0.9445619130434781
 72
     5
 11
95.385696
 21
-187.557831
 31
0.0
100
AcDbText
  0
ENDBLK
  5
5F1
330
2C6
100
AcDbEntity
  8
0
100
AcDbBlockEnd
  0
BLOCK
  5
5F2
330
2E2
100
AcDbEntity
  8
0
100
AcDbBlockBegin
  2
BLOCK457
 70
     0
 10
0.0
 20
0.0
 30
0.0
  3
BLOCK457
  1

  0
LINE
  5
2C8
330
2E2
100
AcDbEntity
  8
0
 62
     7
 48
0.034375
370
     5
390
F
100
AcDbLine
 10
9.298031
 20
-189.887589
 30
0.0
 11
7.923031
 21
-189.887589
 31
0.0
  0
LINE
  5
2C9
330
2E2
100
AcDbEntity
  8
0
 62
     7
 48
0.012865
370
     5
390
F
100
AcDbLine
 10
7.923031
 20
-189.887589
 30
0.0
 11
7.410919
 21
-189.837158
 31
0.0
  0
LINE
  5
2CA
330
2E2
100
AcDbEntity
  8
0
 62
     7
 48
0.012865
370
     5
390
F
100
AcDbLine
 10
7.410919
 20
-189.837158
 30
0.0
 11
6.918487
 21
-189.687775
 31
0.0
  0
LINE
  5
2CB
330
2E2
100
AcDbEntity
  8
0
 62
     7
 48
0.012865
370
     5
390
F
100
AcDbLine
 10
6.918487
 20
-189.687775
 30
0.0
 11
6.464659
 21
-189.445206
 31
0.0
  0
LINE
  5
2CC
330
2E2
100
AcDbEntity
  8
0
 62
     7
 48
0.012865
370
     5
390
F
100
AcDbLine
 10
6.464659
 20
-189.445206
 30
0.0
 11
6.066876
 21
-189.118744
 31
0.0
  0
LINE
  5
2CD
330
2E2
100
AcDbEntity
  8
0
 62
     7
 48
0.012865
370
     5
390
F
100
AcDbLine
 10
6.066876
 20
-189.118744
 30
0.0
 11
5.740423
 21
-188.720963
 31
0.0
  0
LINE
  5
2CE
330
2E2
100
AcDbEntity
  8
0
 62
     7
 48
0.012865
370
     5
390
F
100
AcDbLine
 10
5.740423
 20
-188.720963
 30
0.0
 11
5.497848
 21
-188.267136
 31
0.0
  0
LINE
  5
2CF
330
2E2
100
AcDbEntity
  8
0
 62
     7
 48
0.012865
370
     5
390
F
100
AcDbLine
 10
5.497848
 20
-188.267136
 30
0.0
 11
5.34847
 21
-187.774704
 31
0.0
  0
LINE
  5
2D0
330
2E2
100
AcDbEntity
  8
0
 62
     7
 48
0.012865
370
     5
390
F
100
AcDbLine
 10
5.34847
 20
-187.774704
 30
0.0
 11
5.298031
 21
-187.262589
 31
0.0
  0
LINE
  5
2D1
330
2E2
100
AcDbEntity
  8
0
 62
     7
 48
0.012864
370
     5
390
F
100
AcDbLine
 10
5.298031
 20
-187.262589
 30
0.0
 11
5.34847
 21
-186.750488
 31
0.0
  0
LINE
  5
2D2
330
2E2
100
AcDbEntity
  8
0
 62
     7
 48
0.012865
370
     5
390
F
100
AcDbLine
 10
5.34847
 20
-186.750488
 30
0.0
 11
5.497848
 21
-186.258057
 31
0.0
  0
LINE
  5
2D3
330
2E2
100
AcDbEntity
  8
0
 62
     7
 48
0.012865
370
     5
390
F
100
AcDbLine
 10
5.497848
 20
-186.258057
 30
0.0
 11
5.740423
 21
-185.804214
 31
0.0
  0
LINE
  5
2D4
330
2E2
100
AcDbEntity
  8
0
 62
     7
 48
0.012865
370
     5
390
F
100
AcDbLine
 10
5.740423
 20
-185.804214
 30
0.0
 11
6.066876
 21
-185.406433
 31
0.0
  0
LINE
  5
2D5
330
2E2
100
AcDbEntity
  8
0
 62
     7
 48
0.012865
370
     5
390
F
100
AcDbLine
 10
6.066876
 20
-185.406433
 30
0.0
 11
6.464659
 21
-185.079987
 31
0.0
  0
LINE
  5
2D6
330
2E2
100
AcDbEntity
  8
0
 62
     7
 48
0.012865
370
     5
390
F
100
AcDbLine
 10
6.464659
 20
-185.079987
 30
0.0
 11
6.918487
 21
-184.837402
 31
0.0
  0
LINE
  5
2D7
330
2E2
100
AcDbEntity
  8
0
 62
     7
 48
0.012865
370
     5
390
F
100
AcDbLine
 10
6.918487
 20
-184.837402
 30
0.0
 11
7.410919
 21
-184.688034
 31
0.0
  0
LINE
  5
2D8
330
2E2
100
AcDbEntity
  8
0
 62
     7
 48
0.012865
370
     5
390
F
100
AcDbLine
 10
7.410919
 20
-184.688034
 30
0.0
 11
7.923031
 21
-184.637589
 31
0.0
  0
LINE
  5
2D9
330
2E2
100
AcDbEntity
  8
0
 62
     7
 48
0.034375
370
     5
390
F
100
AcDbLine
 10
7.923031
 20
-184.637589
 30
0.0
 11
9.298031
 21
-184.637589
 31
0.0
  0
LINE
  5
2DA
330
2E2
100
AcDbEntity
  8
0
 62
     7
 48
0.0375
370
     5
390
F
100
AcDbLine
 10
9.298031
 20
-184.637589
 30
0.0
 11
9.298031
 21
-186.137589
 31
0.0
  0
LINE
  5
2DB
330
2E2
100
AcDbEntity
  8
0
 62
     7
 48
0.05
370
     5
390
F
100
AcDbLine
 10
9.298031
 20
-186.137589
 30
0.0
 11
7.298031
 21
-186.137589
 31
0.0
  0
LINE
  5
2DC
330
2E2
100
AcDbEntity
  8
0
 62
     7
 48
0.05625
370
     5
390
F
100
AcDbLine
 10
7.298031
 20
-186.137589
 30
0.0
 11
7.298031
 21
-188.387589
 31
0.0
  0
LINE
  5
2DD
330
2E2
100
AcDbEntity
  8
0
 62
     7
 48
0.009375
370
     5
390
F
100
AcDbLine
 10
7.298031
 20
-188.387589
 30
0.0
 11
7.673031
 21
-188.387589
 31
0.0
  0
LINE
  5
2DE
330
2E2
100
AcDbEntity
  8
0
 62
     7
 48
0.046875
370
     5
390
F
100
AcDbLine
 10
7.673031
 20
-188.387589
 30
0.0
 11
7.673031
 21
-186.512589
 31
0.0
  0
LINE
  5
2DF
330
2E2
100
AcDbEntity
  8
0
 62
     7
 48
0.040625
370
     5
390
F
100
AcDbLine
 10
7.673031
 20
-186.512589
 30
0.0
 11
9.298031
 21
-186.512589
 31
0.0
  0
LINE
  5
2E0
330
2E2
100
AcDbEntity
  8
0
 62
     7
 48
0.084375
370
     5
390
F
100
AcDbLine
 10
9.298031
 20
-186.512589
 30
0.0
 11
9.298031
 21
-189.887589
 31
0.0
  0
ENDBLK
  5
5F3
330
2E2
100
AcDbEntity
  8
0
100
AcDbBlockEnd
  0
BLOCK
  5
5F4
330
2E6
100
AcDbEntity
  8
0
100
AcDbBlockBegin
  2
BLOCK458
 70
     0
 10
0.0
 20
0.0
 30
0.0
  3
BLOCK458
  1

  0
TEXT
  5
2E4
330
2E6
100
AcDbEntity
  8
0
 62
     7
370
    13
390
F
100
AcDbText
 10
365.226257
 20
297.738708
 30
0.0
 40
6.0
  1
614
 50
270.0
 41
1.099997357142854
 72
     5
 11
365.226257
 21
282.338745
 31
0.0
100
AcDbText
  0
ENDBLK
  5
5F5
330
2E6
100
AcDbEntity
  8
0
100
AcDbBlockEnd
  0
BLOCK
  5
5F6
330
2EA
100
AcDbEntity
  8
0
100
AcDbBlockBegin
  2
BLOCK459
 70
     0
 10
0.0
 20
0.0
 30
0.0
  3
BLOCK459
  1

  0
TEXT
  5
2E8
330
2EA
100
AcDbEntity
  8
0
 62
     7
370
    13
390
F
100
AcDbText
 10
368.226257
 20
278.488708
 30
0.0
 40
3.75
  1
+
 50
270.0
 41
1.1
 72
     5
 11
368.226257
 21
275.738708
 31
0.0
100
AcDbText
  0
ENDBLK
  5
5F7
330
2EA
100
AcDbEntity
  8
0
100
AcDbBlockEnd
  0
BLOCK
  5
5F8
330
2EE
100
AcDbEntity
  8
0
100
AcDbBlockBegin
  2
BLOCK460
 70
     0
 10
0.0
 20
0.0
 30
0.0
  3
BLOCK460
  1

  0
TEXT
  5
2EC
330
2EE
100
AcDbEntity
  8
0
 62
     7
370
    13
390
F
100
AcDbText
 10
366.351257
 20
278.488708
 30
0.0
 40
3.75
  1
-
 50
270.0
 41
1.1
 72
     5
 11
366.351257
 21
275.738708
 31
0.0
100
AcDbText
  0
ENDBLK
  5
5F9
330
2EE
100
AcDbEntity
  8
0
100
AcDbBlockEnd
  0
BLOCK
  5
5FA
330
2F2
100
AcDbEntity
  8
0
100
AcDbBlockBegin
  2
BLOCK461
 70
     0
 10
0.0
 20
0.0
 30
0.0
  3
BLOCK461
  1

  0
TEXT
  5
2F0
330
2F2
100
AcDbEntity
  8
0
 62
     7
370
    13
390
F
100
AcDbText
 10
367.288757
 20
278.488708
 30
0.0
 40
3.75
  1
 1
 50
270.0
 41
0.7071428571428571
 72
     5
 11
367.288757
 21
272.301208
 31
0.0
100
AcDbText
  0
ENDBLK
  5
5FB
330
2F2
100
AcDbEntity
  8
0
100
AcDbBlockEnd
  0
BLOCK
  5
5FC
330
2F6
100
AcDbEntity
  8
0
100
AcDbBlockBegin
  2
BLOCK462
 70
     0
 10
0.0
 20
0.0
 30
0.0
  3
BLOCK462
  1

  0
TEXT
  5
2F4
330
2F6
100
AcDbEntity
  8
0
 62
     7
370
    13
390
F
100
AcDbText
 10
175.525024
 20
-201.137817
 30
0.0
 40
6.0
  1
5
 50
270.0
 41
1.099998499999998
 72
     5
 11
175.525024
 21
-205.537811
 31
0.0
100
AcDbText
  0
ENDBLK
  5
5FD
330
2F6
100
AcDbEntity
  8
0
100
AcDbBlockEnd
  0
BLOCK
  5
5FE
330
2FA
100
AcDbEntity
  8
0
100
AcDbBlockBegin
  2
BLOCK463
 70
     0
 10
0.0
 20
0.0
 30
0.0
  3
BLOCK463
  1

  0
TEXT
  5
2F8
330
2FA
100
AcDbEntity
  8
0
 62
     7
370
    13
390
F
100
AcDbText
 10
114.190666
 20
-215.769897
 30
0.0
 40
6.0
  1
ELIMINARE SPIGOLI TAGLIENTI
 50
269.9999972790239
 41
0.9959424054054067
 72
     5
 11
114.190659
 21
-363.169373
 31
0.0
100
AcDbText
  0
ENDBLK
  5
5FF
330
2FA
100
AcDbEntity
  8
0
100
AcDbBlockEnd
  0
BLOCK
  5
600
330
2FE
100
AcDbEntity
  8
0
100
AcDbBlockBegin
  2
BLOCK464
 70
     0
 10
0.0
 20
0.0
 30
0.0
  3
BLOCK464
  1

  0
TEXT
  5
2FC
330
2FE
100
AcDbEntity
  8
0
 62
     7
370
    13
390
F
100
AcDbText
 10
50.02536
 20
624.104797
 30
0.0
 40
6.0
  1
548
 41
0.9624976875000004
 72
     5
 11
65.425323
 21
624.104797
 31
0.0
100
AcDbText
  0
ENDBLK
  5
601
330
2FE
100
AcDbEntity
  8
0
100
AcDbBlockEnd
  0
BLOCK
  5
602
330
302
100
AcDbEntity
  8
0
100
AcDbBlockBegin
  2
BLOCK465
 70
     0
 10
0.0
 20
0.0
 30
0.0
  3
BLOCK465
  1

  0
TEXT
  5
300
330
302
100
AcDbEntity
  8
0
 62
     7
370
    13
390
F
100
AcDbText
 10
69.27536
 20
627.104797
 30
0.0
 40
3.75
  1
+
 41
1.1
 72
     5
 11
72.02536
 21
627.104797
 31
0.0
100
AcDbText
  0
ENDBLK
  5
603
330
302
100
AcDbEntity
  8
0
100
AcDbBlockEnd
  0
BLOCK
  5
604
330
306
100
AcDbEntity
  8
0
100
AcDbBlockBegin
  2
BLOCK466
 70
     0
 10
0.0
 20
0.0
 30
0.0
  3
BLOCK466
  1

  0
TEXT
  5
304
330
306
100
AcDbEntity
  8
0
 62
     7
370
    13
390
F
100
AcDbText
 10
69.27536
 20
625.229797
 30
0.0
 40
3.75
  1
-
 41
1.1
 72
     5
 11
72.02536
 21
625.229797
 31
0.0
100
AcDbText
  0
ENDBLK
  5
605
330
306
100
AcDbEntity
  8
0
100
AcDbBlockEnd
  0
BLOCK
  5
606
330
30A
100
AcDbEntity
  8
0
100
AcDbBlockBegin
  2
BLOCK467
 70
     0
 10
0.0
 20
0.0
 30
0.0
  3
BLOCK467
  1

  0
TEXT
  5
308
330
30A
100
AcDbEntity
  8
0
 62
     7
370
    13
390
F
100
AcDbText
 10
69.27536
 20
626.167297
 30
0.0
 40
3.75
  1
 1
 41
0.7071411428571424
 72
     5
 11
75.462845
 21
626.167297
 31
0.0
100
AcDbText
  0
ENDBLK
  5
607
330
30A
100
AcDbEntity
  8
0
100
AcDbBlockEnd
  0
BLOCK
  5
608
330
30E
100
AcDbEntity
  8
0
100
AcDbBlockBegin
  2
BLOCK468
 70
     0
 10
0.0
 20
0.0
 30
0.0
  3
BLOCK468
  1

  0
TEXT
  5
30C
330
30E
100
AcDbEntity
  8
0
 62
     7
370
    13
390
F
100
AcDbText
 10
-394.439514
 20
-380.104248
 30
0.0
 40
6.0
  1
5631.644.1
 50
270.0
 41
1.171735673913044
 72
     5
 11
-394.439514
 21
-434.004089
 31
0.0
100
AcDbText
  0
ENDBLK
  5
609
330
30E
100
AcDbEntity
  8
0
100
AcDbBlockEnd
  0
BLOCK
  5
60A
330
319
100
AcDbEntity
  8
0
100
AcDbBlockBegin
  2
*D128
 70
     1
 10
0.0
 20
0.0
 30
0.0
  3
*D128
  1

  0
POINT
  5
310
330
319
100
AcDbEntity
  8
DEFPOINTS
  6
ByBlock
 62
     0
380
     1
100
AcDbPoint
 10
165.7365207853583
 20
376.221535
 30
0.0
  0
POINT
  5
311
330
319
100
AcDbEntity
  8
DEFPOINTS
  6
ByBlock
 62
     0
380
     1
100
AcDbPoint
 10
174.4355161418638
 20
102.221535
 30
0.0
  0
LINE
  5
312
330
319
100
AcDbEntity
  8
0
  6
ByBlock
 62
     0
370
    -2
380
     1
100
AcDbLine
 10
165.1115207853583
 20
376.221535
 30
0.0
 11
28.78219322387224
 21
376.221535
 31
0.0
  0
LINE
  5
313
330
319
100
AcDbEntity
  8
0
  6
ByBlock
 62
     0
370
    -2
380
     1
100
AcDbLine
 10
173.8105161418638
 20
102.221535
 30
0.0
 11
28.78219322387224
 21
102.221535
 31
0.0
  0
LINE
  5
314
330
319
100
AcDbEntity
  8
0
  6
ByBlock
 62
     0
370
    -2
380
     1
100
AcDbLine
 10
30.03219322387224
 20
373.721535
 30
0.0
 11
30.03219322387224
 21
104.721535
 31
0.0
  0
SOLID
  5
315
330
319
100
AcDbEntity
  8
0
  6
ByBlock
 62
     0
380
     1
100
AcDbTrace
 10
30.03219322387224
 20
376.221535
 30
0.0
 11
29.61552655720558
 21
373.721535
 31
0.0
 12
30.4488598905389
 22
373.721535
 32
0.0
 13
30.4488598905389
 23
373.721535
 33
0.0
  0
SOLID
  5
316
330
319
100
AcDbEntity
  8
0
  6
ByBlock
 62
     0
380
     1
100
AcDbTrace
 10
30.03219322387224
 20
102.221535
 30
0.0
 11
29.61552655720558
 21
104.721535
 31
0.0
 12
30.4488598905389
 22
104.721535
 32
0.0
 13
30.4488598905389
 23
104.721535
 33
0.0
  0
MTEXT
  5
317
330
319
100
AcDbEntity
  8
0
  6
ByBlock
 62
     0
370
    -2
380
     1
100
AcDbMText
 10
28.28219322387224
 20
239.221535
 30
0.0
 40
2.5
 41
0.0
 71
     5
 72
     1
  1
\A1;274
 11
6.123031769111886E-17
 21
1.0
 31
0.0
 73
     1
 44
1.0
  0
ENDBLK
  5
60B
330
319
100
AcDbEntity
  8
0
100
AcDbBlockEnd
  0
BLOCK
  5
60C
330
362
100
AcDbEntity
  8
0
100
AcDbBlockBegin
  2
*D129
 70
     1
 10
0.0
 20
0.0
 30
0.0
  3
*D129
  1

  0
POINT
  5
358
330
362
100
AcDbEntity
  8
DEFPOINTS
  6
ByBlock
 62
     0
380
     1
100
AcDbPoint
 10
331.4730415707166
 20
752.44307
 30
0.0
  0
POINT
  5
359
330
362
100
AcDbEntity
  8
DEFPOINTS
  6
ByBlock
 62
     0
380
     1
100
AcDbPoint
 10
348.8710322837276
 20
204.44307
 30
0.0
  0
LINE
  5
35A
330
362
100
AcDbEntity
  8
0
  6
ByBlock
 62
     0
370
    -2
380
     1
100
AcDbLine
 10
331.4105415707166
 20
752.44307
 30
0.0
 11
59.88438644774448
 21
752.44307
 31
0.0
  0
LINE
  5
35B
330
362
100
AcDbEntity
  8
0
  6
ByBlock
 62
     0
370
    -2
380
     1
100
AcDbLine
 10
348.8085322837276
 20
204.44307
 30
0.0
 11
59.88438644774448
 21
204.44307
 31
0.0
  0
LINE
  5
35C
330
362
100
AcDbEntity
  8
0
  6
ByBlock
 62
     0
370
    -2
380
     1
100
AcDbLine
 10
60.06438644774448
 20
752.2630700000001
 30
0.0
 11
60.06438644774448
 21
479.1030700000001
 31
0.0
  0
LINE
  5
35D
330
362
100
AcDbEntity
  8
0
  6
ByBlock
 62
     0
370
    -2
380
     1
100
AcDbLine
 10
60.06438644774448
 20
204.62307
 30
0.0
 11
60.06438644774448
 21
477.78307
 31
0.0
  0
SOLID
  5
35E
330
362
100
AcDbEntity
  8
0
  6
ByBlock
 62
     0
380
     1
100
AcDbTrace
 10
60.06438644774448
 20
752.44307
 30
0.0
 11
60.03438644774451
 21
752.2630700000001
 31
0.0
 12
60.09438644774445
 22
752.2630700000001
 32
0.0
 13
60.09438644774445
 23
752.2630700000001
 33
0.0
  0
SOLID
  5
35F
330
362
100
AcDbEntity
  8
0
  6
ByBlock
 62
     0
380
     1
100
AcDbTrace
 10
60.06438644774448
 20
204.44307
 30
0.0
 11
60.03438644774451
 21
204.62307
 31
0.0
 12
60.09438644774445
 22
204.62307
 32
0.0
 13
60.09438644774445
 23
204.62307
 33
0.0
  0
MTEXT
  5
360
330
362
100
AcDbEntity
  8
0
  6
ByBlock
 62
     0
370
    -2
380
     1
100
AcDbMText
 10
60.06438644774448
 20
478.44307
 30
0.0
 40
0.18
 41
0.0
 71
     5
 72
     1
  1
\A1;548.0000
 73
     1
 44
1.0
  0
ENDBLK
  5
60D
330
362
100
AcDbEntity
  8
0
100
AcDbBlockEnd
  0
BLOCK
  5
60E
330
36E
100
AcDbEntity
  8
0
100
AcDbBlockBegin
  2
*D130
 70
     1
 10
0.0
 20
0.0
 30
0.0
  3
*D130
  1

  0
POINT
  5
364
330
36E
100
AcDbEntity
  8
DEFPOINTS
  6
ByBlock
 62
     0
380
     1
100
AcDbPoint
 10
331.4730415707166
 20
752.44307
 30
0.0
  0
POINT
  5
365
330
36E
100
AcDbEntity
  8
DEFPOINTS
  6
ByBlock
 62
     0
380
     1
100
AcDbPoint
 10
348.8710322837276
 20
204.44307
 30
0.0
  0
LINE
  5
366
330
36E
100
AcDbEntity
  8
0
  6
ByBlock
 62
     0
370
    -2
380
     1
100
AcDbLine
 10
331.4105415707166
 20
752.44307
 30
0.0
 11
59.88438644774448
 21
752.44307
 31
0.0
  0
LINE
  5
367
330
36E
100
AcDbEntity
  8
0
  6
ByBlock
 62
     0
370
    -2
380
     1
100
AcDbLine
 10
348.8085322837276
 20
204.44307
 30
0.0
 11
59.88438644774448
 21
204.44307
 31
0.0
  0
LINE
  5
368
330
36E
100
AcDbEntity
  8
0
  6
ByBlock
 62
     0
370
    -2
380
     1
100
AcDbLine
 10
60.06438644774448
 20
752.2630700000001
 30
0.0
 11
60.06438644774448
 21
479.1030700000001
 31
0.0
  0
LINE
  5
369
330
36E
100
AcDbEntity
  8
0
  6
ByBlock
 62
     0
370
    -2
380
     1
100
AcDbLine
 10
60.06438644774448
 20
204.62307
 30
0.0
 11
60.06438644774448
 21
477.78307
 31
0.0
  0
SOLID
  5
36A
330
36E
100
AcDbEntity
  8
0
  6
ByBlock
 62
     0
380
     1
100
AcDbTrace
 10
60.06438644774448
 20
752.44307
 30
0.0
 11
60.03438644774451
 21
752.2630700000001
 31
0.0
 12
60.09438644774445
 22
752.2630700000001
 32
0.0
 13
60.09438644774445
 23
752.2630700000001
 33
0.0
  0
SOLID
  5
36B
330
36E
100
AcDbEntity
  8
0
  6
ByBlock
 62
     0
380
     1
100
AcDbTrace
 10
60.06438644774448
 20
204.44307
 30
0.0
 11
60.03438644774451
 21
204.62307
 31
0.0
 12
60.09438644774445
 22
204.62307
 32
0.0
 13
60.09438644774445
 23
204.62307
 33
0.0
  0
MTEXT
  5
36C
330
36E
100
AcDbEntity
  8
0
  6
ByBlock
 62
     0
370
    -2
380
     1
100
AcDbMText
 10
60.06438644774448
 20
478.44307
 30
0.0
 40
0.18
 41
0.0
 71
     5
 72
     1
  1
\A1;548.0000
 73
     1
 44
1.0
  0
ENDBLK
  5
60F
330
36E
100
AcDbEntity
  8
0
100
AcDbBlockEnd
  0
BLOCK
  5
610
330
37A
100
AcDbEntity
  8
0
100
AcDbBlockBegin
  2
*D131
 70
     1
 10
0.0
 20
0.0
 30
0.0
  3
*D131
  1

  0
POINT
  5
371
330
37A
100
AcDbEntity
  8
DEFPOINTS
  6
ByBlock
 62
     0
380
     1
100
AcDbPoint
 10
323.8549986129332
 20
752.44307
 30
0.0
  0
POINT
  5
372
330
37A
100
AcDbEntity
  8
DEFPOINTS
  6
ByBlock
 62
     0
380
     1
100
AcDbPoint
 10
348.6842563121554
 20
204.44307
 30
0.0
  0
LINE
  5
373
330
37A
100
AcDbEntity
  8
0
  6
ByBlock
 62
     0
370
    -2
380
     1
100
AcDbLine
 10
323.2299986129332
 20
752.44307
 30
0.0
 11
58.51198490302426
 21
752.44307
 31
0.0
  0
LINE
  5
374
330
37A
100
AcDbEntity
  8
0
  6
ByBlock
 62
     0
370
    -2
380
     1
100
AcDbLine
 10
348.0592563121554
 20
204.44307
 30
0.0
 11
58.51198490302426
 21
204.44307
 31
0.0
  0
LINE
  5
375
330
37A
100
AcDbEntity
  8
0
  6
ByBlock
 62
     0
370
    -2
380
     1
100
AcDbLine
 10
59.76198490302426
 20
749.94307
 30
0.0
 11
59.76198490302426
 21
206.94307
 31
0.0
  0
SOLID
  5
376
330
37A
100
AcDbEntity
  8
0
  6
ByBlock
 62
     0
380
     1
100
AcDbTrace
 10
59.76198490302426
 20
752.44307
 30
0.0
 11
59.34531823635757
 21
749.94307
 31
0.0
 12
60.17865156969094
 22
749.94307
 32
0.0
 13
60.17865156969094
 23
749.94307
 33
0.0
  0
SOLID
  5
377
330
37A
100
AcDbEntity
  8
0
  6
ByBlock
 62
     0
380
     1
100
AcDbTrace
 10
59.76198490302426
 20
204.44307
 30
0.0
 11
59.34531823635757
 21
206.94307
 31
0.0
 12
60.17865156969094
 22
206.94307
 32
0.0
 13
60.17865156969094
 23
206.94307
 33
0.0
  0
MTEXT
  5
378
330
37A
100
AcDbEntity
  8
0
  6
ByBlock
 62
     0
370
    -2
380
     1
100
AcDbMText
 10
57.88698490302426
 20
478.44307
 30
0.0
 40
2.5
 41
0.0
 71
     5
 72
     1
  1
\A1;548
 11
6.123031769111886E-17
 21
1.0
 31
0.0
 73
     1
 44
1.0
  0
ENDBLK
  5
611
330
37A
100
AcDbEntity
  8
0
100
AcDbBlockEnd
  0
BLOCK
  5
612
330
385
100
AcDbEntity
  8
0
100
AcDbBlockBegin
  2
*D132
 70
     1
 10
0.0
 20
0.0
 30
0.0
  3
*D132
  1

  0
POINT
  5
37C
330
385
100
AcDbEntity
  8
DEFPOINTS
  6
ByBlock
 62
     0
380
     1
100
AcDbPoint
 10
323.8549986129332
 20
752.44307
 30
0.0
  0
POINT
  5
37D
330
385
100
AcDbEntity
  8
DEFPOINTS
  6
ByBlock
 62
     0
380
     1
100
AcDbPoint
 10
348.6842563121554
 20
204.44307
 30
0.0
  0
LINE
  5
37E
330
385
100
AcDbEntity
  8
0
  6
ByBlock
 62
     0
370
    -2
380
     1
100
AcDbLine
 10
323.2299986129332
 20
752.44307
 30
0.0
 11
58.51198490302426
 21
752.44307
 31
0.0
  0
LINE
  5
37F
330
385
100
AcDbEntity
  8
0
  6
ByBlock
 62
     0
370
    -2
380
     1
100
AcDbLine
 10
348.0592563121554
 20
204.44307
 30
0.0
 11
58.51198490302426
 21
204.44307
 31
0.0
  0
LINE
  5
380
330
385
100
AcDbEntity
  8
0
  6
ByBlock
 62
     0
370
    -2
380
     1
100
AcDbLine
 10
59.76198490302426
 20
749.94307
 30
0.0
 11
59.76198490302426
 21
206.94307
 31
0.0
  0
SOLID
  5
381
330
385
100
AcDbEntity
  8
0
  6
ByBlock
 62
     0
380
     1
100
AcDbTrace
 10
59.76198490302426
 20
752.44307
 30
0.0
 11
59.34531823635757
 21
749.94307
 31
0.0
 12
60.17865156969094
 22
749.94307
 32
0.0
 13
60.17865156969094
 23
749.94307
 33
0.0
  0
SOLID
  5
382
330
385
100
AcDbEntity
  8
0
  6
ByBlock
 62
     0
380
     1
100
AcDbTrace
 10
59.76198490302426
 20
204.44307
 30
0.0
 11
59.34531823635757
 21
206.94307
 31
0.0
 12
60.17865156969094
 22
206.94307
 32
0.0
 13
60.17865156969094
 23
206.94307
 33
0.0
  0
MTEXT
  5
383
330
385
100
AcDbEntity
  8
0
  6
ByBlock
 62
     0
370
    -2
380
     1
100
AcDbMText
 10
57.88698490302426
 20
478.44307
 30
0.0
 40
2.5
 41
0.0
 71
     5
 72
     1
  1
\A1;548
 11
6.123031769111886E-17
 21
1.0
 31
0.0
 73
     1
 44
1.0
  0
ENDBLK
  5
613
330
385
100
AcDbEntity
  8
0
100
AcDbBlockEnd
  0
BLOCK
  5
614
330
390
100
AcDbEntity
  8
0
100
AcDbBlockBegin
  2
*D133
 70
     1
 10
0.0
 20
0.0
 30
0.0
  3
*D133
  1

  0
POINT
  5
387
330
390
100
AcDbEntity
  8
DEFPOINTS
  6
ByBlock
 62
     7
380
     1
100
AcDbPoint
 10
323.8549986129332
 20
752.44307
 30
0.0
  0
POINT
  5
388
330
390
100
AcDbEntity
  8
DEFPOINTS
  6
ByBlock
 62
     7
380
     1
100
AcDbPoint
 10
348.6842563121554
 20
204.44307
 30
0.0
  0
LINE
  5
389
330
390
100
AcDbEntity
  8
0
  6
ByBlock
 62
     7
370
    -2
380
     1
100
AcDbLine
 10
323.2299986129332
 20
752.44307
 30
0.0
 11
58.51198490302426
 21
752.44307
 31
0.0
  0
LINE
  5
38A
330
390
100
AcDbEntity
  8
0
  6
ByBlock
 62
     7
370
    -2
380
     1
100
AcDbLine
 10
348.0592563121554
 20
204.44307
 30
0.0
 11
58.51198490302426
 21
204.44307
 31
0.0
  0
LINE
  5
38B
330
390
100
AcDbEntity
  8
0
  6
ByBlock
 62
     7
370
    -2
380
     1
100
AcDbLine
 10
59.76198490302426
 20
742.44307
 30
0.0
 11
59.76198490302426
 21
214.44307
 31
0.0
  0
SOLID
  5
38C
330
390
100
AcDbEntity
  8
0
  6
ByBlock
 62
     7
380
     1
100
AcDbTrace
 10
59.76198490302426
 20
752.44307
 30
0.0
 11
58.09531823635757
 21
742.44307
 31
0.0
 12
61.42865156969094
 22
742.44307
 32
0.0
 13
61.42865156969094
 23
742.44307
 33
0.0
  0
SOLID
  5
38D
330
390
100
AcDbEntity
  8
0
  6
ByBlock
 62
     7
380
     1
100
AcDbTrace
 10
59.76198490302426
 20
204.44307
 30
0.0
 11
58.09531823635757
 21
214.44307
 31
0.0
 12
61.42865156969094
 22
214.44307
 32
0.0
 13
61.42865156969094
 23
214.44307
 33
0.0
  0
MTEXT
  5
38E
330
390
100
AcDbEntity
  8
0
  6
ByBlock
 62
     0
370
    -2
380
     1
100
AcDbMText
 10
47.76198490302426
 20
478.44307
 30
0.0
 40
14.0
 41
0.0
 71
     5
 72
     1
  1
\A1;548
 11
6.123031769111886E-17
 21
1.0
 31
0.0
 73
     1
 44
1.0
  0
ENDBLK
  5
615
330
390
100
AcDbEntity
  8
0
100
AcDbBlockEnd
  0
BLOCK
  5
616
330
39C
100
AcDbEntity
  8
0
100
AcDbBlockBegin
  2
*D134
 70
     1
 10
0.0
 20
0.0
 30
0.0
  3
*D134
  1

  0
POINT
  5
393
330
39C
100
AcDbEntity
  8
DEFPOINTS
  6
ByBlock
 62
     0
380
     1
100
AcDbPoint
 10
113.664222
 20
478.44307
 30
0.0
  0
POINT
  5
394
330
39C
100
AcDbEntity
  8
DEFPOINTS
  6
ByBlock
 62
     0
380
     1
100
AcDbPoint
 10
727.664194
 20
478.44307
 30
0.0
  0
LINE
  5
395
330
39C
100
AcDbEntity
  8
0
  6
ByBlock
 62
     0
370
    -2
380
     1
100
AcDbLine
 10
113.664222
 20
479.06807
 30
0.0
 11
113.664222
 21
801.1240762895974
 31
0.0
  0
LINE
  5
396
330
39C
100
AcDbEntity
  8
0
  6
ByBlock
 62
     0
370
    -2
380
     1
100
AcDbLine
 10
727.664194
 20
479.06807
 30
0.0
 11
727.664194
 21
801.1240762895974
 31
0.0
  0
LINE
  5
397
330
39C
100
AcDbEntity
  8
0
  6
ByBlock
 62
     0
370
    -2
380
     1
100
AcDbLine
 10
116.164222
 20
799.8740762895974
 30
0.0
 11
725.164194
 21
799.8740762895974
 31
0.0
  0
SOLID
  5
398
330
39C
100
AcDbEntity
  8
0
  6
ByBlock
 62
     0
380
     1
100
AcDbTrace
 10
113.664222
 20
799.8740762895974
 30
0.0
 11
116.164222
 21
799.4574096229308
 31
0.0
 12
116.164222
 22
800.290742956264
 32
0.0
 13
116.164222
 23
800.290742956264
 33
0.0
  0
SOLID
  5
399
330
39C
100
AcDbEntity
  8
0
  6
ByBlock
 62
     0
380
     1
100
AcDbTrace
 10
727.664194
 20
799.8740762895974
 30
0.0
 11
725.164194
 21
799.4574096229308
 31
0.0
 12
725.164194
 22
800.290742956264
 32
0.0
 13
725.164194
 23
800.290742956264
 33
0.0
  0
MTEXT
  5
39A
330
39C
100
AcDbEntity
  8
0
  6
ByBlock
 62
     0
370
    -2
380
     1
100
AcDbMText
 10
420.664208
 20
801.7490762895974
 30
0.0
 40
2.5
 41
0.0
 71
     5
 72
     1
  1
\A1;614
 73
     1
 44
1.0
  0
ENDBLK
  5
617
330
39C
100
AcDbEntity
  8
0
100
AcDbBlockEnd
  0
BLOCK
  5
618
330
3A7
100
AcDbEntity
  8
0
100
AcDbBlockBegin
  2
*D135
 70
     1
 10
0.0
 20
0.0
 30
0.0
  3
*D135
  1

  0
POINT
  5
39E
330
3A7
100
AcDbEntity
  8
DEFPOINTS
  6
ByBlock
 62
     0
380
     1
100
AcDbPoint
 10
113.664222
 20
478.44307
 30
0.0
  0
POINT
  5
39F
330
3A7
100
AcDbEntity
  8
DEFPOINTS
  6
ByBlock
 62
     0
380
     1
100
AcDbPoint
 10
727.664194
 20
478.44307
 30
0.0
  0
LINE
  5
3A0
330
3A7
100
AcDbEntity
  8
0
  6
ByBlock
 62
     0
370
    -2
380
     1
100
AcDbLine
 10
113.664222
 20
479.06807
 30
0.0
 11
113.664222
 21
801.1240762895974
 31
0.0
  0
LINE
  5
3A1
330
3A7
100
AcDbEntity
  8
0
  6
ByBlock
 62
     0
370
    -2
380
     1
100
AcDbLine
 10
727.664194
 20
479.06807
 30
0.0
 11
727.664194
 21
801.1240762895974
 31
0.0
  0
LINE
  5
3A2
330
3A7
100
AcDbEntity
  8
0
  6
ByBlock
 62
     0
370
    -2
380
     1
100
AcDbLine
 10
116.164222
 20
799.8740762895974
 30
0.0
 11
725.164194
 21
799.8740762895974
 31
0.0
  0
SOLID
  5
3A3
330
3A7
100
AcDbEntity
  8
0
  6
ByBlock
 62
     0
380
     1
100
AcDbTrace
 10
113.664222
 20
799.8740762895974
 30
0.0
 11
116.164222
 21
799.4574096229308
 31
0.0
 12
116.164222
 22
800.290742956264
 32
0.0
 13
116.164222
 23
800.290742956264
 33
0.0
  0
SOLID
  5
3A4
330
3A7
100
AcDbEntity
  8
0
  6
ByBlock
 62
     0
380
     1
100
AcDbTrace
 10
727.664194
 20
799.8740762895974
 30
0.0
 11
725.164194
 21
799.4574096229308
 31
0.0
 12
725.164194
 22
800.290742956264
 32
0.0
 13
725.164194
 23
800.290742956264
 33
0.0
  0
MTEXT
  5
3A5
330
3A7
100
AcDbEntity
  8
0
  6
ByBlock
 62
     0
370
    -2
380
     1
100
AcDbMText
 10
420.664208
 20
801.7490762895974
 30
0.0
 40
2.5
 41
0.0
 71
     5
 72
     1
  1
\A1;614
 73
     1
 44
1.0
  0
ENDBLK
  5
619
330
3A7
100
AcDbEntity
  8
0
100
AcDbBlockEnd
  0
BLOCK
  5
61A
330
3B2
100
AcDbEntity
  8
0
100
AcDbBlockBegin
  2
*D136
 70
     1
 10
0.0
 20
0.0
 30
0.0
  3
*D136
  1

  0
POINT
  5
3A9
330
3B2
100
AcDbEntity
  8
DEFPOINTS
  6
ByBlock
 62
     7
380
     1
100
AcDbPoint
 10
113.664222
 20
478.44307
 30
0.0
  0
POINT
  5
3AA
330
3B2
100
AcDbEntity
  8
DEFPOINTS
  6
ByBlock
 62
     7
380
     1
100
AcDbPoint
 10
727.664194
 20
478.44307
 30
0.0
  0
LINE
  5
3AB
330
3B2
100
AcDbEntity
  8
0
  6
ByBlock
 62
     7
370
    -2
380
     1
100
AcDbLine
 10
113.664222
 20
479.06807
 30
0.0
 11
113.664222
 21
801.1240762895974
 31
0.0
  0
LINE
  5
3AC
330
3B2
100
AcDbEntity
  8
0
  6
ByBlock
 62
     7
370
    -2
380
     1
100
AcDbLine
 10
727.664194
 20
479.06807
 30
0.0
 11
727.664194
 21
801.1240762895974
 31
0.0
  0
LINE
  5
3AD
330
3B2
100
AcDbEntity
  8
0
  6
ByBlock
 62
     7
370
    -2
380
     1
100
AcDbLine
 10
127.664222
 20
799.8740762895974
 30
0.0
 11
713.664194
 21
799.8740762895974
 31
0.0
  0
SOLID
  5
3AE
330
3B2
100
AcDbEntity
  8
0
  6
ByBlock
 62
     7
380
     1
100
AcDbTrace
 10
113.664222
 20
799.8740762895974
 30
0.0
 11
127.664222
 21
797.540742956264
 31
0.0
 12
127.664222
 22
802.2074096229308
 32
0.0
 13
127.664222
 23
802.2074096229308
 33
0.0
  0
SOLID
  5
3AF
330
3B2
100
AcDbEntity
  8
0
  6
ByBlock
 62
     7
380
     1
100
AcDbTrace
 10
727.664194
 20
799.8740762895974
 30
0.0
 11
713.664194
 21
797.540742956264
 31
0.0
 12
713.664194
 22
802.2074096229308
 32
0.0
 13
713.664194
 23
802.2074096229308
 33
0.0
  0
MTEXT
  5
3B0
330
3B2
100
AcDbEntity
  8
0
  6
ByBlock
 62
     0
370
    -2
380
     1
100
AcDbMText
 10
420.664208
 20
811.8740762895974
 30
0.0
 40
14.0
 41
0.0
 71
     5
 72
     1
  1
\A1;614
 73
     1
 44
1.0
  0
ENDBLK
  5
61B
330
3B2
100
AcDbEntity
  8
0
100
AcDbBlockEnd
  0
BLOCK
  5
61C
330
3C0
100
AcDbEntity
  8
0
100
AcDbBlockBegin
  2
*D137
 70
     1
 10
0.0
 20
0.0
 30
0.0
  3
*D137
  1

  0
POINT
  5
3B6
330
3C0
100
AcDbEntity
  8
DEFPOINTS
  6
ByBlock
 62
     0
380
     1
100
AcDbPoint
 10
895.753212
 20
713.12563428913
 30
0.0
  0
POINT
  5
3B7
330
3C0
100
AcDbEntity
  8
DEFPOINTS
  6
ByBlock
 62
     0
380
     1
100
AcDbPoint
 10
900.753212
 20
713.12563428913
 30
0.0
  0
LINE
  5
3B8
330
3C0
100
AcDbEntity
  8
0
  6
ByBlock
 62
     0
370
    -2
380
     1
100
AcDbLine
 10
895.753212
 20
713.75063428913
 30
0.0
 11
895.753212
 21
801.1240762895974
 31
0.0
  0
LINE
  5
3B9
330
3C0
100
AcDbEntity
  8
0
  6
ByBlock
 62
     0
370
    -2
380
     1
100
AcDbLine
 10
900.753212
 20
713.75063428913
 30
0.0
 11
900.753212
 21
801.1240762895974
 31
0.0
  0
LINE
  5
3BA
330
3C0
100
AcDbEntity
  8
0
  6
ByBlock
 62
     0
370
    -2
380
     1
100
AcDbLine
 10
893.253212
 20
799.8740762895974
 30
0.0
 11
890.753212
 21
799.8740762895974
 31
0.0
  0
LINE
  5
3BB
330
3C0
100
AcDbEntity
  8
0
  6
ByBlock
 62
     0
370
    -2
380
     1
100
AcDbLine
 10
903.253212
 20
799.8740762895974
 30
0.0
 11
905.753212
 21
799.8740762895974
 31
0.0
  0
SOLID
  5
3BC
330
3C0
100
AcDbEntity
  8
0
  6
ByBlock
 62
     0
380
     1
100
AcDbTrace
 10
895.753212
 20
799.8740762895974
 30
0.0
 11
893.253212
 21
799.4574096229308
 31
0.0
 12
893.253212
 22
800.290742956264
 32
0.0
 13
893.253212
 23
800.290742956264
 33
0.0
  0
SOLID
  5
3BD
330
3C0
100
AcDbEntity
  8
0
  6
ByBlock
 62
     0
380
     1
100
AcDbTrace
 10
900.753212
 20
799.8740762895974
 30
0.0
 11
903.253212
 21
799.4574096229308
 31
0.0
 12
903.253212
 22
800.290742956264
 32
0.0
 13
903.253212
 23
800.290742956264
 33
0.0
  0
MTEXT
  5
3BE
330
3C0
100
AcDbEntity
  8
0
  6
ByBlock
 62
     0
370
    -2
380
     1
100
AcDbMText
 10
898.253212
 20
801.7490762895974
 30
0.0
 40
2.5
 41
0.0
 71
     5
 72
     1
  1
\A1;5
 73
     1
 44
1.0
  0
ENDBLK
  5
61D
330
3C0
100
AcDbEntity
  8
0
100
AcDbBlockEnd
  0
BLOCK
  5
61E
330
3CC
100
AcDbEntity
  8
0
100
AcDbBlockBegin
  2
*D138
 70
     1
 10
0.0
 20
0.0
 30
0.0
  3
*D138
  1

  0
POINT
  5
3C2
330
3CC
100
AcDbEntity
  8
DEFPOINTS
  6
ByBlock
 62
     0
380
     1
100
AcDbPoint
 10
895.753212
 20
713.12563428913
 30
0.0
  0
POINT
  5
3C3
330
3CC
100
AcDbEntity
  8
DEFPOINTS
  6
ByBlock
 62
     0
380
     1
100
AcDbPoint
 10
900.753212
 20
713.12563428913
 30
0.0
  0
LINE
  5
3C4
330
3CC
100
AcDbEntity
  8
0
  6
ByBlock
 62
     0
370
    -2
380
     1
100
AcDbLine
 10
895.753212
 20
713.75063428913
 30
0.0
 11
895.753212
 21
801.1240762895974
 31
0.0
  0
LINE
  5
3C5
330
3CC
100
AcDbEntity
  8
0
  6
ByBlock
 62
     0
370
    -2
380
     1
100
AcDbLine
 10
900.753212
 20
713.75063428913
 30
0.0
 11
900.753212
 21
801.1240762895974
 31
0.0
  0
LINE
  5
3C6
330
3CC
100
AcDbEntity
  8
0
  6
ByBlock
 62
     0
370
    -2
380
     1
100
AcDbLine
 10
893.253212
 20
799.8740762895974
 30
0.0
 11
890.753212
 21
799.8740762895974
 31
0.0
  0
LINE
  5
3C7
330
3CC
100
AcDbEntity
  8
0
  6
ByBlock
 62
     0
370
    -2
380
     1
100
AcDbLine
 10
903.253212
 20
799.8740762895974
 30
0.0
 11
905.753212
 21
799.8740762895974
 31
0.0
  0
SOLID
  5
3C8
330
3CC
100
AcDbEntity
  8
0
  6
ByBlock
 62
     0
380
     1
100
AcDbTrace
 10
895.753212
 20
799.8740762895974
 30
0.0
 11
893.253212
 21
799.4574096229308
 31
0.0
 12
893.253212
 22
800.290742956264
 32
0.0
 13
893.253212
 23
800.290742956264
 33
0.0
  0
SOLID
  5
3C9
330
3CC
100
AcDbEntity
  8
0
  6
ByBlock
 62
     0
380
     1
100
AcDbTrace
 10
900.753212
 20
799.8740762895974
 30
0.0
 11
903.253212
 21
799.4574096229308
 31
0.0
 12
903.253212
 22
800.290742956264
 32
0.0
 13
903.253212
 23
800.290742956264
 33
0.0
  0
MTEXT
  5
3CA
330
3CC
100
AcDbEntity
  8
0
  6
ByBlock
 62
     0
370
    -2
380
     1
100
AcDbMText
 10
898.253212
 20
801.7490762895974
 30
0.0
 40
2.5
 41
0.0
 71
     5
 72
     1
  1
\A1;5
 73
     1
 44
1.0
  0
ENDBLK
  5
61F
330
3CC
100
AcDbEntity
  8
0
100
AcDbBlockEnd
  0
BLOCK
  5
620
330
3D9
100
AcDbEntity
  8
0
100
AcDbBlockBegin
  2
*D139
 70
     1
 10
0.0
 20
0.0
 30
0.0
  3
*D139
  1

  0
POINT
  5
3CE
330
3D9
100
AcDbEntity
  8
DEFPOINTS
  6
ByBlock
 62
     7
380
     1
100
AcDbPoint
 10
895.753212
 20
713.12563428913
 30
0.0
  0
POINT
  5
3CF
330
3D9
100
AcDbEntity
  8
DEFPOINTS
  6
ByBlock
 62
     7
380
     1
100
AcDbPoint
 10
900.753212
 20
713.12563428913
 30
0.0
  0
LINE
  5
3D0
330
3D9
100
AcDbEntity
  8
0
  6
ByBlock
 62
     7
370
    -2
380
     1
100
AcDbLine
 10
895.753212
 20
713.75063428913
 30
0.0
 11
895.753212
 21
801.1240762895974
 31
0.0
  0
LINE
  5
3D1
330
3D9
100
AcDbEntity
  8
0
  6
ByBlock
 62
     7
370
    -2
380
     1
100
AcDbLine
 10
900.753212
 20
713.75063428913
 30
0.0
 11
900.753212
 21
801.1240762895974
 31
0.0
  0
LINE
  5
3D2
330
3D9
100
AcDbEntity
  8
0
  6
ByBlock
 62
     7
370
    -2
380
     1
100
AcDbLine
 10
881.753212
 20
799.8740762895974
 30
0.0
 11
867.753212
 21
799.8740762895974
 31
0.0
  0
LINE
  5
3D3
330
3D9
100
AcDbEntity
  8
0
  6
ByBlock
 62
     7
370
    -2
380
     1
100
AcDbLine
 10
914.753212
 20
799.8740762895974
 30
0.0
 11
948.0865453333333
 21
799.8740762895974
 31
0.0
  0
SOLID
  5
3D4
330
3D9
100
AcDbEntity
  8
0
  6
ByBlock
 62
     7
380
     1
100
AcDbTrace
 10
895.753212
 20
799.8740762895974
 30
0.0
 11
881.753212
 21
797.540742956264
 31
0.0
 12
881.753212
 22
802.2074096229308
 32
0.0
 13
881.753212
 23
802.2074096229308
 33
0.0
  0
SOLID
  5
3D5
330
3D9
100
AcDbEntity
  8
0
  6
ByBlock
 62
     7
380
     1
100
AcDbTrace
 10
900.753212
 20
799.8740762895974
 30
0.0
 11
914.753212
 21
797.540742956264
 31
0.0
 12
914.753212
 22
802.2074096229308
 32
0.0
 13
914.753212
 23
802.2074096229308
 33
0.0
  0
LINE
  5
3D6
330
3D9
100
AcDbEntity
  8
0
  6
ByBlock
 62
     7
370
    -2
380
     1
100
AcDbLine
 10
895.753212
 20
799.8740762895974
 30
0.0
 11
900.753212
 21
799.8740762895974
 31
0.0
  0
MTEXT
  5
3D7
330
3D9
100
AcDbEntity
  8
0
  6
ByBlock
 62
     0
370
    -2
380
     1
100
AcDbMText
 10
938.4198786666666
 20
811.8740762895974
 30
0.0
 40
14.0
 41
0.0
 71
     5
 72
     1
  1
\A1;5
 73
     1
 44
1.0
  0
ENDBLK
  5
621
330
3D9
100
AcDbEntity
  8
0
100
AcDbBlockEnd
  0
ENDSEC
  0
SECTION
  2
ENTITIES
  0
POINT
  5
33A
330
1F
100
AcDbEntity
  8
0
 62
     7
370
    60
100
AcDbPoint
 10
113.664222
 20
204.44307
 30
0.0
  0
POINT
  5
33B
330
1F
100
AcDbEntity
  8
0
 62
     7
370
    60
100
AcDbPoint
 10
113.664222
 20
218.44307
 30
0.0
  0
POINT
  5
33C
330
1F
100
AcDbEntity
  8
0
 62
     7
370
    60
100
AcDbPoint
 10
113.664222
 20
202.44307
 30
0.0
  0
LINE
  5
33D
330
1F
100
AcDbEntity
  8
0
 62
     7
370
    60
100
AcDbLine
 10
113.664222
 20
204.44307
 30
0.0
 11
113.664222
 21
752.44307
 31
0.0
  0
LINE
  5
33E
330
1F
100
AcDbEntity
  8
0
 62
     7
370
    60
100
AcDbLine
 10
727.664194
 20
204.44307
 30
0.0
 11
727.664194
 21
752.44307
 31
0.0
  0
LINE
  5
33F
330
1F
100
AcDbEntity
  8
0
 62
     7
 48
0.0625
370
    60
100
AcDbLine
 10
900.753212
 20
204.44307
 30
0.0
 11
895.753212
 21
204.44307
 31
0.0
  0
LINE
  5
340
330
1F
100
AcDbEntity
  8
0
 62
     7
 48
0.0625
370
    60
100
AcDbLine
 10
900.753212
 20
752.44307
 30
0.0
 11
895.753212
 21
752.44307
 31
0.0
  0
LINE
  5
341
330
1F
100
AcDbEntity
  8
0
 62
     7
370
    60
100
AcDbLine
 10
895.753212
 20
204.44307
 30
0.0
 11
895.753212
 21
752.44307
 31
0.0
  0
LINE
  5
342
330
1F
100
AcDbEntity
  8
0
 62
     7
370
    60
100
AcDbLine
 10
900.753212
 20
204.44307
 30
0.0
 11
900.753212
 21
752.44307
 31
0.0
  0
LINE
  5
343
330
1F
100
AcDbEntity
  8
0
 62
     7
370
    60
100
AcDbLine
 10
727.664194
 20
752.44307
 30
0.0
 11
113.664222
 21
752.44307
 31
0.0
  0
LINE
  5
344
330
1F
100
AcDbEntity
  8
0
 62
     7
370
    60
100
AcDbLine
 10
727.664194
 20
204.44307
 30
0.0
 11
113.664222
 21
204.44307
 31
0.0
  0
DIMENSION
  5
36F
330
1F
100
AcDbEntity
  8
0
370
    25
100
AcDbDimension
  2
*D133
 10
59.76198490302426
 20
204.44307
 30
0.0
 11
47.76198490302426
 21
478.44307
 31
0.0
 70
    32
 71
     5
 41
2.5
 42
547.9999999999999
  3
ISO-25
100
AcDbAlignedDimension
 13
323.8549986129332
 23
752.44307
 33
0.0
 14
348.6842563121554
 24
204.44307
 34
0.0
 50
90.0
100
AcDbRotatedDimension
1001
ACAD
1000
DSTYLE
1002
{
1070
    41
1040
10.0
1070
   140
1040
14.0
1070
   147
1040
5.0
1070
   176
1070
     7
1070
   177
1070
     7
1002
}
  0
DIMENSION
  5
391
330
1F
100
AcDbEntity
  8
0
370
    25
100
AcDbDimension
  2
*D136
 10
727.664194
 20
799.8740762895974
 30
0.0
 11
420.664208
 21
811.8740762895974
 31
0.0
 70
    32
 71
     5
 41
2.5
 42
613.999972
  3
ISO-25
100
AcDbAlignedDimension
 13
113.664222
 23
478.44307
 33
0.0
 14
727.664194
 24
478.44307
 34
0.0
100
AcDbRotatedDimension
1001
ACAD
1000
DSTYLE
1002
{
1070
    41
1040
14.0
1070
   140
1040
14.0
1070
   147
1040
5.0
1070
   176
1070
     7
1070
   177
1070
     7
1002
}
  0
DIMENSION
  5
3B4
330
1F
100
AcDbEntity
  8
0
370
    25
100
AcDbDimension
  2
*D139
 10
900.753212
 20
799.8740762895974
 30
0.0
 11
938.4198786666666
 21
811.8740762895974
 31
0.0
 70
    32
 71
     5
 41
2.5
 42
5.000000000000001
  3
ISO-25
100
AcDbAlignedDimension
 13
895.753212
 23
713.12563428913
 33
0.0
 14
900.753212
 24
713.12563428913
 34
0.0
100
AcDbRotatedDimension
1001
ACAD
1000
DSTYLE
1002
{
1070
    41
1040
14.0
1070
   140
1040
14.0
1070
   147
1040
5.0
1070
   176
1070
     7
1070
   177
1070
     7
1002
}
  0
LINE
  5
501
330
1F
100
AcDbEntity
  8
STANDARD_LAYER
370
    60
100
AcDbLine
 10
396.3403037115065
 20
503.4218033346979
 30
0.0
 11
417.0219854715065
 21
531.3344200146969
 31
0.0
  0
LINE
  5
502
330
1F
100
AcDbEntity
  8
STANDARD_LAYER
370
    60
100
AcDbLine
 10
385.1121150315066
 20
474.3334251146978
 30
0.0
 11
405.7950391515064
 21
502.2462293546969
 31
0.0
  0
LINE
  5
503
330
1F
100
AcDbEntity
  8
STANDARD_LAYER
370
    60
100
AcDbLine
 10
380.0898903915065
 20
494.8998375946978
 30
0.0
 11
400.7720106315064
 21
522.8129856946978
 31
0.0
  0
LINE
  5
504
330
1F
100
AcDbEntity
  8
STANDARD_LAYER
370
    60
100
AcDbLine
 10
413.7721491915065
 20
462.2865296746977
 30
0.0
 11
434.4546348315066
 21
490.1993130746969
 31
0.0
  0
LINE
  5
505
330
1F
100
AcDbEntity
  8
STANDARD_LAYER
370
    60
100
AcDbLine
 10
430.9092421515065
 20
473.7453932546969
 30
0.0
 11
451.5914667915065
 21
501.6576452346978
 31
0.0
  0
VIEWPORT
  5
BB
330
73
100
AcDbEntity
 67
     1
  8
0
100
AcDbViewport
 10
7.8
 20
4.5
 30
0.0
 40
15.64
 41
9.0
 68
     1
 69
     1
 12
6.0
 22
4.5
 13
0.0
 23
0.0
 14
0.5
 24
0.5
 15
0.5
 25
0.5
 16
0.0
 26
0.0
 36
1.0
 17
0.0
 27
0.0
 37
0.0
 42
50.0
 43
0.0
 44
0.0
 45
12.0
 50
0.0
 51
0.0
 72
   100
 90
   557152
  1

281
     0
 71
     1
 74
     0
110
0.0
120
0.0
130
0.0
111
1.0
121
0.0
131
0.0
112
0.0
122
1.0
132
0.0
 79
     0
146
0.0
  0
ENDSEC
  0
SECTION
  2
OBJECTS
  0
DICTIONARY
  5
C
330
0
100
AcDbDictionary
281
     1
  3
ACAD_COLOR
350
6C
  3
ACAD_GROUP
350
D
  3
ACAD_LAYOUT
350
1A
  3
ACAD_MATERIAL
350
6B
  3
ACAD_MLEADERSTYLE
350
4F8
  3
ACAD_MLINESTYLE
350
17
  3
ACAD_PLOTSETTINGS
350
19
  3
ACAD_PLOTSTYLENAME
350
E
  3
ACAD_SCALELIST
350
99
  3
ACAD_TABLESTYLE
350
92
  3
ACDBHEADERROUNDTRIPXREC
350
622
  3
AcDbVariableDictionary
350
59
  3
DWGPROPS
350
625
  0
DICTIONARY
  5
6C
102
{ACAD_REACTORS
330
C
102
}
330
C
100
AcDbDictionary
281
     1
  0
DICTIONARY
  5
D
102
{ACAD_REACTORS
330
C
102
}
330
C
100
AcDbDictionary
281
     1
  0
DICTIONARY
  5
1A
102
{ACAD_REACTORS
330
C
102
}
330
C
100
AcDbDictionary
281
     1
  3
Layout1
350
74
  3
Layout2
350
3DE
  3
Model
350
22
  0
DICTIONARY
  5
6B
102
{ACAD_REACTORS
330
C
102
}
330
C
100
AcDbDictionary
281
     1
  0
DICTIONARY
  5
4F8
102
{ACAD_REACTORS
330
C
102
}
330
C
100
AcDbDictionary
281
     1
  0
DICTIONARY
  5
17
102
{ACAD_REACTORS
330
C
102
}
330
C
100
AcDbDictionary
281
     1
  3
Standard
350
18
  0
DICTIONARY
  5
19
102
{ACAD_REACTORS
330
C
102
}
330
C
100
AcDbDictionary
281
     1
  0
ACDBDICTIONARYWDFLT
  5
E
102
{ACAD_REACTORS
330
C
102
}
330
C
100
AcDbDictionary
281
     1
  3
Normal
350
F
100
AcDbDictionaryWithDefault
340
F
  0
DICTIONARY
  5
99
102
{ACAD_REACTORS
330
C
102
}
330
C
100
AcDbDictionary
281
     1
  3
A0
350
D5
  3
A1
350
D6
  3
A2
350
D7
  3
A3
350
D8
  3
A4
350
D9
  3
A5
350
DA
  3
A6
350
DB
  3
A7
350
DC
  3
A8
350
DD
  3
A9
350
DE
  3
B0
350
DF
  3
B1
350
E0
  3
B2
350
E1
  3
B3
350
E2
  3
B4
350
E3
  3
B5
350
E4
  3
B6
350
E5
  3
B7
350
E6
  3
B8
350
E7
  3
B9
350
E8
  3
C0
350
E9
  3
C1
350
EA
  3
C2
350
EB
  3
C3
350
EC
  3
C4
350
ED
  3
C5
350
EE
  3
C6
350
EF
  3
C7
350
F0
  3
C8
350
F1
  3
C9
350
F2
  3
D0
350
F3
  3
D1
350
F4
  3
D2
350
F5
  0
DICTIONARY
  5
92
102
{ACAD_REACTORS
330
C
102
}
330
C
100
AcDbDictionary
281
     1
  0
DICTIONARY
  5
622
102
{ACAD_REACTORS
330
C
102
}
330
C
100
AcDbDictionary
281
     1
  3
COLORDICT
350
623
  3
MATERIALDICT
350
624
  0
DICTIONARY
  5
59
102
{ACAD_REACTORS
330
C
102
}
330
C
100
AcDbDictionary
281
     1
  3
CTABLESTYLE
350
98
  3
DIMASSOC
350
5A
  3
HIDETEXT
350
5E
  0
XRECORD
  5
625
102
{ACAD_REACTORS
330
C
102
}
330
C
100
AcDbXrecord
280
     1
  1
DWGPROPS COOKIE
  2

  3

  4

  6

  7

  8
BelottiMc
  9

300
=
301
=
302
=
303
=
304
=
305
=
306
=
307
=
308
=
309
=
 40
0.0
 41
2455100.50618118
 42
2455100.547847847
  1

 90
        0
  0
LAYOUT
  5
74
102
{ACAD_REACTORS
330
1A
102
}
330
1A
100
AcDbPlotSettings
  1

  2
ProgeSOFT PDF Wizard
  4
A4
  6

 40
5.926666666666667
 41
6.011333333333321
 42
6.095999999999985
 43
5.926666666666667
 44
210.0
 45
297.0
 46
88.56200000000001
 47
136.531
 48
0.0
 49
0.0
140
0.0
141
0.0
142
1.0
143
1.0
 70
   692
 72
     1
 73
     0
 74
     0
  7

 75
    16
147
1.0
148
4.426666666666668
149
1.5
100
AcDbLayout
  1
Layout1
 70
     1
 71
     1
 10
0.0
 20
0.0
 11
0.0
 21
0.0
 12
0.0
 22
0.0
 32
0.0
 14
0.0
 24
0.0
 34
0.0
 15
0.0
 25
0.0
 35
0.0
146
0.0
 13
0.0
 23
0.0
 33
0.0
 16
1.0
 26
0.0
 36
0.0
 17
0.0
 27
1.0
 37
0.0
 76
     0
330
D1
331
4F7
1001
PROGE_PRINT_SETTINGS
1070
    73
1070
     1
  0
LAYOUT
  5
3DE
102
{ACAD_REACTORS
330
1A
102
}
330
1A
100
AcDbPlotSettings
  1

  2
ProgeSOFT PDF Wizard
  4
A4
  6

 40
5.926666666666667
 41
6.011333333333321
 42
6.095999999999985
 43
5.926666666666667
 44
210.0
 45
297.0
 46
88.562
 47
136.531
 48
0.0
 49
0.0
140
0.0
141
0.0
142
1.0
143
1.0
 70
   692
 72
     1
 73
     0
 74
     0
  7

 75
    16
147
1.0
148
0.0
149
0.0
100
AcDbLayout
  1
Layout2
 70
     1
 71
     2
 10
0.0
 20
0.0
 11
12.0
 21
9.0
 12
0.0
 22
0.0
 32
0.0
 14
0.0
 24
0.0
 34
0.0
 15
12.0
 25
9.0
 35
0.0
146
0.0
 13
0.0
 23
0.0
 33
0.0
 16
1.0
 26
0.0
 36
0.0
 17
0.0
 27
1.0
 37
0.0
 76
     0
330
73
331
BB
1001
PROGE_PRINT_SETTINGS
1070
    73
1070
     1
  0
LAYOUT
  5
22
102
{ACAD_REACTORS
330
1A
102
}
330
1A
100
AcDbPlotSettings
  1

  2
none_device
  4
Letter_(8.50_x_11.00_Inches)
  6

 40
6.349999904632568
 41
6.349999904632568
 42
6.350006103515625
 43
6.350006103515625
 44
215.8999938964844
 45
279.3999938964844
 46
0.0
 47
0.0
 48
0.0
 49
0.0
140
0.0
141
0.0
142
1.0
143
7.494315874528035
 70
 11952
 72
     1
 73
     1
 74
     0
  7

 75
     0
147
0.1334344610958871
148
0.1311165230791651
149
0.096403374003771
100
AcDbLayout
  1
Model
 70
     1
 71
     0
 10
0.0
 20
0.0
 11
0.0
 21
0.0
 12
0.0
 22
0.0
 32
0.0
 14
40.76198490302426
 24
202.44307
 34
0.0
 15
948.0865453333333
 25
818.8740762895974
 35
0.0
146
0.0
 13
0.0
 23
0.0
 33
0.0
 16
1.0
 26
0.0
 36
0.0
 17
0.0
 27
1.0
 37
0.0
 76
     0
330
1F
331
97
  0
MLINESTYLE
  5
18
102
{ACAD_REACTORS
330
17
102
}
330
17
100
AcDbMlineStyle
  2
STANDARD
 70
     0
  3

 62
   256
 51
90.0
 52
90.0
 71
     2
 49
0.5
 62
   256
  6
BYLAYER
 49
-0.5
 62
   256
  6
BYLAYER
  0
ACDBPLACEHOLDER
  5
F
102
{ACAD_REACTORS
330
E
102
}
330
E
  0
SCALE
  5
D5
102
{ACAD_REACTORS
330
99
102
}
330
99
100
AcDbScale
 70
     0
300
1:1
140
1.0
141
1.0
290
     1
  0
SCALE
  5
D6
102
{ACAD_REACTORS
330
99
102
}
330
99
100
AcDbScale
 70
     0
300
1:2
140
1.0
141
2.0
290
     0
  0
SCALE
  5
D7
102
{ACAD_REACTORS
330
99
102
}
330
99
100
AcDbScale
 70
     0
300
1:4
140
1.0
141
4.0
290
     0
  0
SCALE
  5
D8
102
{ACAD_REACTORS
330
99
102
}
330
99
100
AcDbScale
 70
     0
300
1:5
140
1.0
141
5.0
290
     0
  0
SCALE
  5
D9
102
{ACAD_REACTORS
330
99
102
}
330
99
100
AcDbScale
 70
     0
300
1:8
140
1.0
141
8.0
290
     0
  0
SCALE
  5
DA
102
{ACAD_REACTORS
330
99
102
}
330
99
100
AcDbScale
 70
     0
300
1:10
140
1.0
141
10.0
290
     0
  0
SCALE
  5
DB
102
{ACAD_REACTORS
330
99
102
}
330
99
100
AcDbScale
 70
     0
300
1:16
140
1.0
141
16.0
290
     0
  0
SCALE
  5
DC
102
{ACAD_REACTORS
330
99
102
}
330
99
100
AcDbScale
 70
     0
300
1:20
140
1.0
141
20.0
290
     0
  0
SCALE
  5
DD
102
{ACAD_REACTORS
330
99
102
}
330
99
100
AcDbScale
 70
     0
300
1:30
140
1.0
141
30.0
290
     0
  0
SCALE
  5
DE
102
{ACAD_REACTORS
330
99
102
}
330
99
100
AcDbScale
 70
     0
300
1:40
140
1.0
141
40.0
290
     0
  0
SCALE
  5
DF
102
{ACAD_REACTORS
330
99
102
}
330
99
100
AcDbScale
 70
     0
300
1:50
140
1.0
141
50.0
290
     0
  0
SCALE
  5
E0
102
{ACAD_REACTORS
330
99
102
}
330
99
100
AcDbScale
 70
     0
300
1:100
140
1.0
141
100.0
290
     0
  0
SCALE
  5
E1
102
{ACAD_REACTORS
330
99
102
}
330
99
100
AcDbScale
 70
     0
300
2:1
140
2.0
141
1.0
290
     0
  0
SCALE
  5
E2
102
{ACAD_REACTORS
330
99
102
}
330
99
100
AcDbScale
 70
     0
300
4:1
140
4.0
141
1.0
290
     0
  0
SCALE
  5
E3
102
{ACAD_REACTORS
330
99
102
}
330
99
100
AcDbScale
 70
     0
300
8:1
140
8.0
141
1.0
290
     0
  0
SCALE
  5
E4
102
{ACAD_REACTORS
330
99
102
}
330
99
100
AcDbScale
 70
     0
300
10:1
140
10.0
141
1.0
290
     0
  0
SCALE
  5
E5
102
{ACAD_REACTORS
330
99
102
}
330
99
100
AcDbScale
 70
     0
300
100:1
140
100.0
141
1.0
290
     0
  0
SCALE
  5
E6
102
{ACAD_REACTORS
330
99
102
}
330
99
100
AcDbScale
 70
     0
300
1/128" = 1'-0"
140
0.0078125
141
12.0
290
     0
  0
SCALE
  5
E7
102
{ACAD_REACTORS
330
99
102
}
330
99
100
AcDbScale
 70
     0
300
1/64" = 1'-0"
140
0.015625
141
12.0
290
     0
  0
SCALE
  5
E8
102
{ACAD_REACTORS
330
99
102
}
330
99
100
AcDbScale
 70
     0
300
1/32" = 1'-0"
140
0.03125
141
12.0
290
     0
  0
SCALE
  5
E9
102
{ACAD_REACTORS
330
99
102
}
330
99
100
AcDbScale
 70
     0
300
1/16" = 1'-0"
140
0.0625
141
12.0
290
     0
  0
SCALE
  5
EA
102
{ACAD_REACTORS
330
99
102
}
330
99
100
AcDbScale
 70
     0
300
3/32" = 1'-0"
140
0.09375
141
12.0
290
     0
  0
SCALE
  5
EB
102
{ACAD_REACTORS
330
99
102
}
330
99
100
AcDbScale
 70
     0
300
1/8" = 1'-0"
140
0.125
141
12.0
290
     0
  0
SCALE
  5
EC
102
{ACAD_REACTORS
330
99
102
}
330
99
100
AcDbScale
 70
     0
300
3/16" = 1'-0"
140
0.1875
141
12.0
290
     0
  0
SCALE
  5
ED
102
{ACAD_REACTORS
330
99
102
}
330
99
100
AcDbScale
 70
     0
300
1/4" = 1'-0"
140
0.25
141
12.0
290
     0
  0
SCALE
  5
EE
102
{ACAD_REACTORS
330
99
102
}
330
99
100
AcDbScale
 70
     0
300
3/8" = 1'-0"
140
0.375
141
12.0
290
     0
  0
SCALE
  5
EF
102
{ACAD_REACTORS
330
99
102
}
330
99
100
AcDbScale
 70
     0
300
1/2" = 1'-0"
140
0.5
141
12.0
290
     0
  0
SCALE
  5
F0
102
{ACAD_REACTORS
330
99
102
}
330
99
100
AcDbScale
 70
     0
300
3/4" = 1'-0"
140
0.75
141
12.0
290
     0
  0
SCALE
  5
F1
102
{ACAD_REACTORS
330
99
102
}
330
99
100
AcDbScale
 70
     0
300
1" = 1'-0"
140
1.0
141
12.0
290
     0
  0
SCALE
  5
F2
102
{ACAD_REACTORS
330
99
102
}
330
99
100
AcDbScale
 70
     0
300
1-1/2" = 1'-0"
140
1.5
141
12.0
290
     0
  0
SCALE
  5
F3
102
{ACAD_REACTORS
330
99
102
}
330
99
100
AcDbScale
 70
     0
300
3" = 1'-0"
140
3.0
141
12.0
290
     0
  0
SCALE
  5
F4
102
{ACAD_REACTORS
330
99
102
}
330
99
100
AcDbScale
 70
     0
300
6" = 1'-0"
140
6.0
141
12.0
290
     0
  0
SCALE
  5
F5
102
{ACAD_REACTORS
330
99
102
}
330
99
100
AcDbScale
 70
     0
300
1'-0" = 1'-0"
140
12.0
141
12.0
290
     0
  0
XRECORD
  5
623
102
{ACAD_REACTORS
330
622
102
}
330
622
100
AcDbXrecord
280
     1
340
6C
  0
XRECORD
  5
624
102
{ACAD_REACTORS
330
622
102
}
330
622
100
AcDbXrecord
280
     1
340
6B
  0
DICTIONARYVAR
  5
98
102
{ACAD_REACTORS
330
59
102
}
330
59
100
DictionaryVariables
280
     0
  1
Standard
  0
DICTIONARYVAR
  5
5A
102
{ACAD_REACTORS
330
59
102
}
330
59
100
DictionaryVariables
280
     0
  1
2
  0
DICTIONARYVAR
  5
5E
102
{ACAD_REACTORS
330
59
102
}
330
59
100
DictionaryVariables
280
     0
  1
1
  0
ENDSEC
  0
EOF
