  0
SECTION
  2
HEADER
  9
$ACADVER
  1
AC1015
  9
$ACADMAINTVER
 70
     6
  9
$DWGCODEPAGE
  3
ANSI_1252
  9
$INSBASE
 10
0.0
 20
0.0
 30
0.0
  9
$EXTMIN
 10
-8.572632
 20
-8.897104
 30
0.0
  9
$EXTMAX
 10
852.427399
 20
605.102896
 30
0.0
  9
$LIMMIN
 10
0.0
 20
0.0
  9
$LIMMAX
 10
420.0
 20
297.0
  9
$ORTHOMODE
 70
     0
  9
$REGENMODE
 70
     1
  9
$FILLMODE
 70
     1
  9
$QTEXTMODE
 70
     0
  9
$MIRRTEXT
 70
     1
  9
$LTSCALE
 40
1.0
  9
$ATTMODE
 70
     1
  9
$TEXTSIZE
 40
2.5
  9
$TRACEWID
 40
1.0
  9
$TEXTSTYLE
  7
Standard
  9
$CLAYER
  8
0
  9
$CELTYPE
  6
ByLayer
  9
$CECOLOR
 62
   256
  9
$CELTSCALE
 40
1.0
  9
$DISPSILH
 70
     0
  9
$DIMSCALE
 40
1.0
  9
$DIMASZ
 40
2.5
  9
$DIMEXO
 40
0.625
  9
$DIMDLI
 40
3.75
  9
$DIMRND
 40
0.0
  9
$DIMDLE
 40
0.0
  9
$DIMEXE
 40
1.25
  9
$DIMTP
 40
0.0
  9
$DIMTM
 40
0.0
  9
$DIMTXT
 40
2.5
  9
$DIMCEN
 40
2.5
  9
$DIMTSZ
 40
0.0
  9
$DIMTOL
 70
     0
  9
$DIMLIM
 70
     0
  9
$DIMTIH
 70
     0
  9
$DIMTOH
 70
     0
  9
$DIMSE1
 70
     0
  9
$DIMSE2
 70
     0
  9
$DIMTAD
 70
     1
  9
$DIMZIN
 70
     8
  9
$DIMBLK
  1

  9
$DIMASO
 70
     1
  9
$DIMSHO
 70
     1
  9
$DIMPOST
  1

  9
$DIMAPOST
  1

  9
$DIMALT
 70
     0
  9
$DIMALTD
 70
     3
  9
$DIMALTF
 40
0.03937
  9
$DIMLFAC
 40
1.0
  9
$DIMTOFL
 70
     1
  9
$DIMTVP
 40
0.0
  9
$DIMTIX
 70
     0
  9
$DIMSOXD
 70
     0
  9
$DIMSAH
 70
     0
  9
$DIMBLK1
  1

  9
$DIMBLK2
  1

  9
$DIMSTYLE
  2
Standard
  9
$DIMCLRD
 70
     0
  9
$DIMCLRE
 70
     0
  9
$DIMCLRT
 70
     0
  9
$DIMTFAC
 40
1.0
  9
$DIMGAP
 40
0.625
  9
$DIMJUST
 70
     0
  9
$DIMSD1
 70
     0
  9
$DIMSD2
 70
     0
  9
$DIMTOLJ
 70
     0
  9
$DIMTZIN
 70
     8
  9
$DIMALTZ
 70
     0
  9
$DIMALTTZ
 70
     0
  9
$DIMUPT
 70
     0
  9
$DIMDEC
 70
     2
  9
$DIMTDEC
 70
     2
  9
$DIMALTU
 70
     2
  9
$DIMALTTD
 70
     3
  9
$DIMTXSTY
  7
Standard
  9
$DIMAUNIT
 70
     0
  9
$DIMADEC
 70
     0
  9
$DIMALTRND
 40
0.0
  9
$DIMAZIN
 70
     0
  9
$DIMDSEP
 70
    44
  9
$DIMATFIT
 70
     0
  9
$DIMFRAC
 70
     0
  9
$DIMLDRBLK
  1

  9
$DIMLUNIT
 70
     2
  9
$DIMLWD
 70
    -2
  9
$DIMLWE
 70
    -2
  9
$DIMTMOVE
 70
     0
  9
$LUNITS
 70
     2
  9
$LUPREC
 70
     4
  9
$SKETCHINC
 40
1.0
  9
$FILLETRAD
 40
2.5
  9
$AUNITS
 70
     0
  9
$AUPREC
 70
     0
  9
$MENU
  1
.
  9
$ELEVATION
 40
0.0
  9
$PELEVATION
 40
0.0
  9
$THICKNESS
 40
0.0
  9
$LIMCHECK
 70
     0
  9
$CHAMFERA
 40
2.5
  9
$CHAMFERB
 40
2.5
  9
$CHAMFERC
 40
0.0
  9
$CHAMFERD
 40
0.0
  9
$SKPOLY
 70
     0
  9
$TDCREATE
 40
2447893.083333333
  9
$TDUCREATE
 40
2447893.0
  9
$TDUPDATE
 40
2447893.083333333
  9
$TDUUPDATE
 40
2447893.0
  9
$TDINDWG
 40
0.0025462847
  9
$TDUSRTIMER
 40
0.0025347106
  9
$USRTIMER
 70
     1
  9
$ANGBASE
 50
0.0
  9
$ANGDIR
 70
     0
  9
$PDMODE
 70
     0
  9
$PDSIZE
 40
0.0
  9
$PLINEWID
 40
0.0
  9
$SPLFRAME
 70
     0
  9
$SPLINETYPE
 70
     6
  9
$SPLINESEGS
 70
     8
  9
$HANDSEED
  5
CA1
  9
$SURFTAB1
 70
     6
  9
$SURFTAB2
 70
     6
  9
$SURFTYPE
 70
     6
  9
$SURFU
 70
     6
  9
$SURFV
 70
     6
  9
$UCSBASE
  2

  9
$UCSNAME
  2

  9
$UCSORG
 10
0.0
 20
0.0
 30
0.0
  9
$UCSXDIR
 10
1.0
 20
0.0
 30
0.0
  9
$UCSYDIR
 10
0.0
 20
1.0
 30
0.0
  9
$UCSORTHOREF
  2

  9
$UCSORTHOVIEW
 70
     0
  9
$UCSORGTOP
 10
0.0
 20
0.0
 30
0.0
  9
$UCSORGBOTTOM
 10
0.0
 20
0.0
 30
0.0
  9
$UCSORGLEFT
 10
0.0
 20
0.0
 30
0.0
  9
$UCSORGRIGHT
 10
0.0
 20
0.0
 30
0.0
  9
$UCSORGFRONT
 10
0.0
 20
0.0
 30
0.0
  9
$UCSORGBACK
 10
0.0
 20
0.0
 30
0.0
  9
$PUCSBASE
  2

  9
$PUCSNAME
  2

  9
$PUCSORG
 10
0.0
 20
0.0
 30
0.0
  9
$PUCSXDIR
 10
1.0
 20
0.0
 30
0.0
  9
$PUCSYDIR
 10
0.0
 20
1.0
 30
0.0
  9
$PUCSORTHOREF
  2

  9
$PUCSORTHOVIEW
 70
     0
  9
$PUCSORGTOP
 10
0.0
 20
0.0
 30
0.0
  9
$PUCSORGBOTTOM
 10
0.0
 20
0.0
 30
0.0
  9
$PUCSORGLEFT
 10
0.0
 20
0.0
 30
0.0
  9
$PUCSORGRIGHT
 10
0.0
 20
0.0
 30
0.0
  9
$PUCSORGFRONT
 10
0.0
 20
0.0
 30
0.0
  9
$PUCSORGBACK
 10
0.0
 20
0.0
 30
0.0
  9
$USERI1
 70
     0
  9
$USERI2
 70
     0
  9
$USERI3
 70
     0
  9
$USERI4
 70
     0
  9
$USERI5
 70
     0
  9
$USERR1
 40
0.0
  9
$USERR2
 40
0.0
  9
$USERR3
 40
0.0
  9
$USERR4
 40
0.0
  9
$USERR5
 40
0.0
  9
$WORLDVIEW
 70
     1
  9
$SHADEDGE
 70
     3
  9
$SHADEDIF
 70
    70
  9
$TILEMODE
 70
     1
  9
$MAXACTVP
 70
    48
  9
$PINSBASE
 10
0.0
 20
0.0
 30
0.0
  9
$PLIMCHECK
 70
     0
  9
$PEXTMIN
 10
0.0
 20
0.0
 30
0.0
  9
$PEXTMAX
 10
540.105835
 20
419.42865
 30
2.0
  9
$PLIMMIN
 10
0.0
 20
0.0
  9
$PLIMMAX
 10
420.0
 20
297.0
  9
$UNITMODE
 70
     0
  9
$VISRETAIN
 70
     0
  9
$PLINEGEN
 70
     0
  9
$PSLTSCALE
 70
     1
  9
$TREEDEPTH
 70
  3020
  9
$CMLSTYLE
  2
Standard
  9
$CMLJUST
 70
     0
  9
$CMLSCALE
 40
20.0
  9
$PROXYGRAPHICS
 70
     1
  9
$MEASUREMENT
 70
     1
  9
$CELWEIGHT
370
    -1
  9
$ENDCAPS
280
     0
  9
$JOINSTYLE
280
     0
  9
$LWDISPLAY
290
     0
  9
$INSUNITS
 70
     0
  9
$HYPERLINKBASE
  1

  9
$STYLESHEET
  1

  9
$XEDIT
290
     1
  9
$CEPSNTYPE
380
     0
  9
$PSTYLEMODE
290
     0
  9
$FINGERPRINTGUID
  2

  9
$VERSIONGUID
  2

  9
$EXTNAMES
290
     0
  9
$PSVPSCALE
 40
0.0
  9
$OLESTARTUP
290
     0
  0
ENDSEC
  0
SECTION
  2
CLASSES
  0
CLASS
  1
ACDBDICTIONARYWDFLT
  2
AcDbDictionaryWithDefault
  3
ObjectDBX Classes
 90
        0
280
     0
281
     0
  0
CLASS
  1
ACDBPLACEHOLDER
  2
AcDbPlaceHolder
  3
ObjectDBX Classes
 90
        0
280
     0
281
     0
  0
CLASS
  1
LAYOUT
  2
AcDbLayout
  3
ObjectDBX Classes
 90
        0
280
     0
281
     0
  0
CLASS
  1
DICTIONARYVAR
  2
AcDbDictionaryVar
  3
ObjectDBX Classes
 90
        0
280
     0
281
     0
  0
CLASS
  1
TABLESTYLE
  2
AcDbTableStyle
  3
ObjectDBX Classes
 90
     4095
280
     0
281
     0
  0
CLASS
  1
SCALE
  2
AcDbScale
  3
ObjectDBX Classes
 90
     1153
280
     0
281
     0
  0
CLASS
  1
WIPEOUTVARIABLES
  2
AcDbWipeoutVariables
  3
WipeOut|AutoCAD Express Tool|expresstools@autodesk.com
 90
        0
280
     0
281
     0
  0
ENDSEC
  0
SECTION
  2
TABLES
  0
TABLE
  2
VPORT
  5
8
330
0
100
AcDbSymbolTable
 70
     2
  0
VPORT
  5
97
330
8
100
AcDbSymbolTableRecord
100
AcDbViewportTableRecord
  2
*ACTIVE
 70
     0
 10
0.0
 20
0.0
 11
1.0
 21
1.0
 12
440.3060481979842
 22
146.3495825833446
 13
0.0
 23
0.0
 14
1.0
 24
1.0
 15
0.5
 25
0.5
 16
0.0
 26
0.0
 36
1.0
 17
0.0
 27
0.0
 37
0.0
 40
1120.830030264014
 41
0.688564
 42
50.0
 43
0.0
 44
0.0
 50
0.0
 51
0.0
 71
     0
 72
   100
 73
     1
 74
     1
 75
     0
 76
     0
 77
     0
 78
     0
281
     0
 65
     1
110
0.0
120
0.0
130
0.0
111
1.0
121
0.0
131
0.0
112
0.0
122
1.0
132
0.0
 79
     0
146
0.0
  0
ENDTAB
  0
TABLE
  2
LTYPE
  5
5
330
0
100
AcDbSymbolTable
 70
     2
  0
LTYPE
  5
14
330
5
100
AcDbSymbolTableRecord
100
AcDbLinetypeTableRecord
  2
ByBlock
 70
     0
  3

 72
    65
 73
     0
 40
0.0
  0
LTYPE
  5
15
330
5
100
AcDbSymbolTableRecord
100
AcDbLinetypeTableRecord
  2
ByLayer
 70
     0
  3

 72
    65
 73
     0
 40
0.0
  0
LTYPE
  5
16
330
5
100
AcDbSymbolTableRecord
100
AcDbLinetypeTableRecord
  2
Continuous
 70
     0
  3
Solid line
 72
    65
 73
     0
 40
0.0
  0
LTYPE
  5
9E2
330
5
100
AcDbSymbolTableRecord
100
AcDbLinetypeTableRecord
  2
SOLID
 70
     0
  3

 72
    65
 73
     0
 40
0.0
  0
ENDTAB
  0
TABLE
  2
LAYER
  5
2
330
0
100
AcDbSymbolTable
 70
     4
  0
LAYER
  5
10
330
2
100
AcDbSymbolTableRecord
100
AcDbLayerTableRecord
  2
0
 70
     0
 62
     7
  6
Continuous
370
    13
390
F
  0
LAYER
  5
24
330
2
100
AcDbSymbolTableRecord
100
AcDbLayerTableRecord
  2
100
 70
     0
 62
     7
  6
Continuous
370
    13
390
F
  0
LAYER
  5
988
330
2
100
AcDbSymbolTableRecord
100
AcDbLayerTableRecord
  2
DEFPOINTS
 70
     0
 62
     7
  6
Continuous
290
     0
370
    -3
390
F
  0
LAYER
  5
9DA
330
2
100
AcDbSymbolTableRecord
100
AcDbLayerTableRecord
  2
STANDARD_LAYER
 70
     0
 62
     7
  6
SOLID
370
    -3
390
F
  0
ENDTAB
  0
TABLE
  2
STYLE
  5
3
330
0
100
AcDbSymbolTable
 70
     2
  0
STYLE
  5
11
330
3
100
AcDbSymbolTableRecord
100
AcDbTextStyleTableRecord
  2
Standard
 70
     0
 40
0.0
 41
1.0
 50
0.0
 71
     0
 42
0.2
  3
isocp.shx
  4

  0
STYLE
  5
25
330
3
100
AcDbSymbolTableRecord
100
AcDbTextStyleTableRecord
  2
GDT
 70
     0
 40
0.0
 41
1.0
 50
0.0
 71
     0
 42
0.2
  3
gdt.shx
  4

  0
ENDTAB
  0
TABLE
  2
VIEW
  5
6
330
0
100
AcDbSymbolTable
 70
     0
  0
ENDTAB
  0
TABLE
  2
UCS
  5
7
330
0
100
AcDbSymbolTable
 70
     0
  0
ENDTAB
  0
TABLE
  2
APPID
  5
9
330
0
100
AcDbSymbolTable
 70
     2
  0
APPID
  5
12
330
9
100
AcDbSymbolTableRecord
100
AcDbRegAppTableRecord
  2
ACAD
 70
     0
  0
APPID
  5
9E1
330
9
100
AcDbSymbolTableRecord
100
AcDbRegAppTableRecord
  2
Conv5506CA
 70
     0
  0
ENDTAB
  0
TABLE
  2
DIMSTYLE
  5
A
330
0
100
AcDbSymbolTable
 70
     1
100
AcDbDimStyleTable
  0
DIMSTYLE
105
27
102
{ACAD_REACTORS
330
995
330
9B7
102
}
330
A
100
AcDbSymbolTableRecord
100
AcDbDimStyleTableRecord
  2
Standard
 70
     0
 41
2.5
 42
0.625
 43
3.75
 44
1.25
 73
     0
 74
     0
 77
     1
 78
     8
140
2.5
141
2.5
143
0.03937
147
0.625
171
     3
172
     1
271
     2
272
     2
274
     3
278
    44
283
     0
284
     8
289
     0
340
11
  0
ENDTAB
  0
TABLE
  2
BLOCK_RECORD
  5
1
330
0
100
AcDbSymbolTable
 70
   348
  0
BLOCK_RECORD
  5
1F
330
1
100
AcDbSymbolTableRecord
100
AcDbBlockTableRecord
  2
*Model_Space
340
22
  0
BLOCK_RECORD
  5
73
330
1
100
AcDbSymbolTableRecord
100
AcDbBlockTableRecord
  2
*Paper_Space
340
74
  0
BLOCK_RECORD
  5
109
330
1
100
AcDbSymbolTableRecord
100
AcDbBlockTableRecord
  2
BLOCK1
340
0
  0
BLOCK_RECORD
  5
10A
330
1
100
AcDbSymbolTableRecord
100
AcDbBlockTableRecord
  2
BLOCK2
340
0
  0
BLOCK_RECORD
  5
10B
330
1
100
AcDbSymbolTableRecord
100
AcDbBlockTableRecord
  2
BLOCK3
340
0
  0
BLOCK_RECORD
  5
10C
330
1
100
AcDbSymbolTableRecord
100
AcDbBlockTableRecord
  2
BLOCK4
340
0
  0
BLOCK_RECORD
  5
10D
330
1
100
AcDbSymbolTableRecord
100
AcDbBlockTableRecord
  2
BLOCK5
340
0
  0
BLOCK_RECORD
  5
10E
330
1
100
AcDbSymbolTableRecord
100
AcDbBlockTableRecord
  2
BLOCK6
340
0
  0
BLOCK_RECORD
  5
10F
330
1
100
AcDbSymbolTableRecord
100
AcDbBlockTableRecord
  2
BLOCK7
340
0
  0
BLOCK_RECORD
  5
110
330
1
100
AcDbSymbolTableRecord
100
AcDbBlockTableRecord
  2
BLOCK8
340
0
  0
BLOCK_RECORD
  5
111
330
1
100
AcDbSymbolTableRecord
100
AcDbBlockTableRecord
  2
BLOCK9
340
0
  0
BLOCK_RECORD
  5
112
330
1
100
AcDbSymbolTableRecord
100
AcDbBlockTableRecord
  2
BLOCK10
340
0
  0
BLOCK_RECORD
  5
113
330
1
100
AcDbSymbolTableRecord
100
AcDbBlockTableRecord
  2
BLOCK11
340
0
  0
BLOCK_RECORD
  5
114
330
1
100
AcDbSymbolTableRecord
100
AcDbBlockTableRecord
  2
BLOCK12
340
0
  0
BLOCK_RECORD
  5
115
330
1
100
AcDbSymbolTableRecord
100
AcDbBlockTableRecord
  2
BLOCK13
340
0
  0
BLOCK_RECORD
  5
116
330
1
100
AcDbSymbolTableRecord
100
AcDbBlockTableRecord
  2
BLOCK14
340
0
  0
BLOCK_RECORD
  5
117
330
1
100
AcDbSymbolTableRecord
100
AcDbBlockTableRecord
  2
BLOCK15
340
0
  0
BLOCK_RECORD
  5
118
330
1
100
AcDbSymbolTableRecord
100
AcDbBlockTableRecord
  2
BLOCK16
340
0
  0
BLOCK_RECORD
  5
119
330
1
100
AcDbSymbolTableRecord
100
AcDbBlockTableRecord
  2
BLOCK17
340
0
  0
BLOCK_RECORD
  5
11A
330
1
100
AcDbSymbolTableRecord
100
AcDbBlockTableRecord
  2
BLOCK18
340
0
  0
BLOCK_RECORD
  5
11B
330
1
100
AcDbSymbolTableRecord
100
AcDbBlockTableRecord
  2
BLOCK19
340
0
  0
BLOCK_RECORD
  5
11C
330
1
100
AcDbSymbolTableRecord
100
AcDbBlockTableRecord
  2
BLOCK20
340
0
  0
BLOCK_RECORD
  5
11D
330
1
100
AcDbSymbolTableRecord
100
AcDbBlockTableRecord
  2
BLOCK21
340
0
  0
BLOCK_RECORD
  5
11E
330
1
100
AcDbSymbolTableRecord
100
AcDbBlockTableRecord
  2
BLOCK22
340
0
  0
BLOCK_RECORD
  5
11F
330
1
100
AcDbSymbolTableRecord
100
AcDbBlockTableRecord
  2
BLOCK23
340
0
  0
BLOCK_RECORD
  5
120
330
1
100
AcDbSymbolTableRecord
100
AcDbBlockTableRecord
  2
BLOCK24
340
0
  0
BLOCK_RECORD
  5
121
330
1
100
AcDbSymbolTableRecord
100
AcDbBlockTableRecord
  2
BLOCK25
340
0
  0
BLOCK_RECORD
  5
122
330
1
100
AcDbSymbolTableRecord
100
AcDbBlockTableRecord
  2
BLOCK26
340
0
  0
BLOCK_RECORD
  5
123
330
1
100
AcDbSymbolTableRecord
100
AcDbBlockTableRecord
  2
BLOCK27
340
0
  0
BLOCK_RECORD
  5
124
330
1
100
AcDbSymbolTableRecord
100
AcDbBlockTableRecord
  2
BLOCK28
340
0
  0
BLOCK_RECORD
  5
125
330
1
100
AcDbSymbolTableRecord
100
AcDbBlockTableRecord
  2
BLOCK29
340
0
  0
BLOCK_RECORD
  5
126
330
1
100
AcDbSymbolTableRecord
100
AcDbBlockTableRecord
  2
BLOCK30
340
0
  0
BLOCK_RECORD
  5
127
330
1
100
AcDbSymbolTableRecord
100
AcDbBlockTableRecord
  2
BLOCK31
340
0
  0
BLOCK_RECORD
  5
128
330
1
100
AcDbSymbolTableRecord
100
AcDbBlockTableRecord
  2
BLOCK32
340
0
  0
BLOCK_RECORD
  5
129
330
1
100
AcDbSymbolTableRecord
100
AcDbBlockTableRecord
  2
BLOCK33
340
0
  0
BLOCK_RECORD
  5
12A
330
1
100
AcDbSymbolTableRecord
100
AcDbBlockTableRecord
  2
BLOCK34
340
0
  0
BLOCK_RECORD
  5
12B
330
1
100
AcDbSymbolTableRecord
100
AcDbBlockTableRecord
  2
BLOCK35
340
0
  0
BLOCK_RECORD
  5
12C
330
1
100
AcDbSymbolTableRecord
100
AcDbBlockTableRecord
  2
BLOCK36
340
0
  0
BLOCK_RECORD
  5
12D
330
1
100
AcDbSymbolTableRecord
100
AcDbBlockTableRecord
  2
BLOCK37
340
0
  0
BLOCK_RECORD
  5
12E
330
1
100
AcDbSymbolTableRecord
100
AcDbBlockTableRecord
  2
BLOCK38
340
0
  0
BLOCK_RECORD
  5
12F
330
1
100
AcDbSymbolTableRecord
100
AcDbBlockTableRecord
  2
BLOCK39
340
0
  0
BLOCK_RECORD
  5
130
330
1
100
AcDbSymbolTableRecord
100
AcDbBlockTableRecord
  2
BLOCK40
340
0
  0
BLOCK_RECORD
  5
131
330
1
100
AcDbSymbolTableRecord
100
AcDbBlockTableRecord
  2
BLOCK41
340
0
  0
BLOCK_RECORD
  5
132
330
1
100
AcDbSymbolTableRecord
100
AcDbBlockTableRecord
  2
BLOCK42
340
0
  0
BLOCK_RECORD
  5
133
330
1
100
AcDbSymbolTableRecord
100
AcDbBlockTableRecord
  2
BLOCK43
340
0
  0
BLOCK_RECORD
  5
134
330
1
100
AcDbSymbolTableRecord
100
AcDbBlockTableRecord
  2
BLOCK44
340
0
  0
BLOCK_RECORD
  5
135
330
1
100
AcDbSymbolTableRecord
100
AcDbBlockTableRecord
  2
BLOCK45
340
0
  0
BLOCK_RECORD
  5
136
330
1
100
AcDbSymbolTableRecord
100
AcDbBlockTableRecord
  2
BLOCK46
340
0
  0
BLOCK_RECORD
  5
137
330
1
100
AcDbSymbolTableRecord
100
AcDbBlockTableRecord
  2
BLOCK47
340
0
  0
BLOCK_RECORD
  5
138
330
1
100
AcDbSymbolTableRecord
100
AcDbBlockTableRecord
  2
BLOCK48
340
0
  0
BLOCK_RECORD
  5
139
330
1
100
AcDbSymbolTableRecord
100
AcDbBlockTableRecord
  2
BLOCK49
340
0
  0
BLOCK_RECORD
  5
13A
330
1
100
AcDbSymbolTableRecord
100
AcDbBlockTableRecord
  2
BLOCK50
340
0
  0
BLOCK_RECORD
  5
13B
330
1
100
AcDbSymbolTableRecord
100
AcDbBlockTableRecord
  2
BLOCK51
340
0
  0
BLOCK_RECORD
  5
13C
330
1
100
AcDbSymbolTableRecord
100
AcDbBlockTableRecord
  2
BLOCK52
340
0
  0
BLOCK_RECORD
  5
13D
330
1
100
AcDbSymbolTableRecord
100
AcDbBlockTableRecord
  2
BLOCK53
340
0
  0
BLOCK_RECORD
  5
13E
330
1
100
AcDbSymbolTableRecord
100
AcDbBlockTableRecord
  2
BLOCK54
340
0
  0
BLOCK_RECORD
  5
13F
330
1
100
AcDbSymbolTableRecord
100
AcDbBlockTableRecord
  2
BLOCK55
340
0
  0
BLOCK_RECORD
  5
140
330
1
100
AcDbSymbolTableRecord
100
AcDbBlockTableRecord
  2
BLOCK56
340
0
  0
BLOCK_RECORD
  5
141
330
1
100
AcDbSymbolTableRecord
100
AcDbBlockTableRecord
  2
BLOCK57
340
0
  0
BLOCK_RECORD
  5
142
330
1
100
AcDbSymbolTableRecord
100
AcDbBlockTableRecord
  2
BLOCK58
340
0
  0
BLOCK_RECORD
  5
143
330
1
100
AcDbSymbolTableRecord
100
AcDbBlockTableRecord
  2
BLOCK59
340
0
  0
BLOCK_RECORD
  5
144
330
1
100
AcDbSymbolTableRecord
100
AcDbBlockTableRecord
  2
BLOCK60
340
0
  0
BLOCK_RECORD
  5
145
330
1
100
AcDbSymbolTableRecord
100
AcDbBlockTableRecord
  2
BLOCK61
340
0
  0
BLOCK_RECORD
  5
146
330
1
100
AcDbSymbolTableRecord
100
AcDbBlockTableRecord
  2
BLOCK62
340
0
  0
BLOCK_RECORD
  5
147
330
1
100
AcDbSymbolTableRecord
100
AcDbBlockTableRecord
  2
BLOCK63
340
0
  0
BLOCK_RECORD
  5
148
330
1
100
AcDbSymbolTableRecord
100
AcDbBlockTableRecord
  2
BLOCK64
340
0
  0
BLOCK_RECORD
  5
149
330
1
100
AcDbSymbolTableRecord
100
AcDbBlockTableRecord
  2
BLOCK65
340
0
  0
BLOCK_RECORD
  5
14A
330
1
100
AcDbSymbolTableRecord
100
AcDbBlockTableRecord
  2
BLOCK66
340
0
  0
BLOCK_RECORD
  5
14B
330
1
100
AcDbSymbolTableRecord
100
AcDbBlockTableRecord
  2
BLOCK67
340
0
  0
BLOCK_RECORD
  5
14C
330
1
100
AcDbSymbolTableRecord
100
AcDbBlockTableRecord
  2
BLOCK68
340
0
  0
BLOCK_RECORD
  5
14D
330
1
100
AcDbSymbolTableRecord
100
AcDbBlockTableRecord
  2
BLOCK69
340
0
  0
BLOCK_RECORD
  5
14E
330
1
100
AcDbSymbolTableRecord
100
AcDbBlockTableRecord
  2
BLOCK70
340
0
  0
BLOCK_RECORD
  5
14F
330
1
100
AcDbSymbolTableRecord
100
AcDbBlockTableRecord
  2
BLOCK71
340
0
  0
BLOCK_RECORD
  5
150
330
1
100
AcDbSymbolTableRecord
100
AcDbBlockTableRecord
  2
BLOCK72
340
0
  0
BLOCK_RECORD
  5
151
330
1
100
AcDbSymbolTableRecord
100
AcDbBlockTableRecord
  2
BLOCK73
340
0
  0
BLOCK_RECORD
  5
152
330
1
100
AcDbSymbolTableRecord
100
AcDbBlockTableRecord
  2
BLOCK74
340
0
  0
BLOCK_RECORD
  5
153
330
1
100
AcDbSymbolTableRecord
100
AcDbBlockTableRecord
  2
BLOCK75
340
0
  0
BLOCK_RECORD
  5
154
330
1
100
AcDbSymbolTableRecord
100
AcDbBlockTableRecord
  2
BLOCK76
340
0
  0
BLOCK_RECORD
  5
155
330
1
100
AcDbSymbolTableRecord
100
AcDbBlockTableRecord
  2
BLOCK77
340
0
  0
BLOCK_RECORD
  5
156
330
1
100
AcDbSymbolTableRecord
100
AcDbBlockTableRecord
  2
BLOCK78
340
0
  0
BLOCK_RECORD
  5
157
330
1
100
AcDbSymbolTableRecord
100
AcDbBlockTableRecord
  2
BLOCK79
340
0
  0
BLOCK_RECORD
  5
158
330
1
100
AcDbSymbolTableRecord
100
AcDbBlockTableRecord
  2
BLOCK80
340
0
  0
BLOCK_RECORD
  5
159
330
1
100
AcDbSymbolTableRecord
100
AcDbBlockTableRecord
  2
BLOCK81
340
0
  0
BLOCK_RECORD
  5
15A
330
1
100
AcDbSymbolTableRecord
100
AcDbBlockTableRecord
  2
BLOCK82
340
0
  0
BLOCK_RECORD
  5
15B
330
1
100
AcDbSymbolTableRecord
100
AcDbBlockTableRecord
  2
BLOCK83
340
0
  0
BLOCK_RECORD
  5
15C
330
1
100
AcDbSymbolTableRecord
100
AcDbBlockTableRecord
  2
BLOCK84
340
0
  0
BLOCK_RECORD
  5
15D
330
1
100
AcDbSymbolTableRecord
100
AcDbBlockTableRecord
  2
BLOCK85
340
0
  0
BLOCK_RECORD
  5
15E
330
1
100
AcDbSymbolTableRecord
100
AcDbBlockTableRecord
  2
BLOCK86
340
0
  0
BLOCK_RECORD
  5
15F
330
1
100
AcDbSymbolTableRecord
100
AcDbBlockTableRecord
  2
BLOCK87
340
0
  0
BLOCK_RECORD
  5
160
330
1
100
AcDbSymbolTableRecord
100
AcDbBlockTableRecord
  2
BLOCK88
340
0
  0
BLOCK_RECORD
  5
161
330
1
100
AcDbSymbolTableRecord
100
AcDbBlockTableRecord
  2
BLOCK89
340
0
  0
BLOCK_RECORD
  5
162
330
1
100
AcDbSymbolTableRecord
100
AcDbBlockTableRecord
  2
BLOCK90
340
0
  0
BLOCK_RECORD
  5
163
330
1
100
AcDbSymbolTableRecord
100
AcDbBlockTableRecord
  2
BLOCK91
340
0
  0
BLOCK_RECORD
  5
164
330
1
100
AcDbSymbolTableRecord
100
AcDbBlockTableRecord
  2
BLOCK92
340
0
  0
BLOCK_RECORD
  5
165
330
1
100
AcDbSymbolTableRecord
100
AcDbBlockTableRecord
  2
BLOCK93
340
0
  0
BLOCK_RECORD
  5
166
330
1
100
AcDbSymbolTableRecord
100
AcDbBlockTableRecord
  2
BLOCK94
340
0
  0
BLOCK_RECORD
  5
167
330
1
100
AcDbSymbolTableRecord
100
AcDbBlockTableRecord
  2
BLOCK95
340
0
  0
BLOCK_RECORD
  5
168
330
1
100
AcDbSymbolTableRecord
100
AcDbBlockTableRecord
  2
BLOCK96
340
0
  0
BLOCK_RECORD
  5
169
330
1
100
AcDbSymbolTableRecord
100
AcDbBlockTableRecord
  2
BLOCK97
340
0
  0
BLOCK_RECORD
  5
16A
330
1
100
AcDbSymbolTableRecord
100
AcDbBlockTableRecord
  2
BLOCK98
340
0
  0
BLOCK_RECORD
  5
16B
330
1
100
AcDbSymbolTableRecord
100
AcDbBlockTableRecord
  2
BLOCK99
340
0
  0
BLOCK_RECORD
  5
16C
330
1
100
AcDbSymbolTableRecord
100
AcDbBlockTableRecord
  2
BLOCK100
340
0
  0
BLOCK_RECORD
  5
16D
330
1
100
AcDbSymbolTableRecord
100
AcDbBlockTableRecord
  2
BLOCK101
340
0
  0
BLOCK_RECORD
  5
16E
330
1
100
AcDbSymbolTableRecord
100
AcDbBlockTableRecord
  2
BLOCK102
340
0
  0
BLOCK_RECORD
  5
16F
330
1
100
AcDbSymbolTableRecord
100
AcDbBlockTableRecord
  2
BLOCK103
340
0
  0
BLOCK_RECORD
  5
170
330
1
100
AcDbSymbolTableRecord
100
AcDbBlockTableRecord
  2
BLOCK104
340
0
  0
BLOCK_RECORD
  5
171
330
1
100
AcDbSymbolTableRecord
100
AcDbBlockTableRecord
  2
BLOCK105
340
0
  0
BLOCK_RECORD
  5
172
330
1
100
AcDbSymbolTableRecord
100
AcDbBlockTableRecord
  2
BLOCK106
340
0
  0
BLOCK_RECORD
  5
173
330
1
100
AcDbSymbolTableRecord
100
AcDbBlockTableRecord
  2
BLOCK107
340
0
  0
BLOCK_RECORD
  5
174
330
1
100
AcDbSymbolTableRecord
100
AcDbBlockTableRecord
  2
BLOCK108
340
0
  0
BLOCK_RECORD
  5
175
330
1
100
AcDbSymbolTableRecord
100
AcDbBlockTableRecord
  2
BLOCK109
340
0
  0
BLOCK_RECORD
  5
176
330
1
100
AcDbSymbolTableRecord
100
AcDbBlockTableRecord
  2
BLOCK110
340
0
  0
BLOCK_RECORD
  5
177
330
1
100
AcDbSymbolTableRecord
100
AcDbBlockTableRecord
  2
BLOCK111
340
0
  0
BLOCK_RECORD
  5
178
330
1
100
AcDbSymbolTableRecord
100
AcDbBlockTableRecord
  2
BLOCK112
340
0
  0
BLOCK_RECORD
  5
179
330
1
100
AcDbSymbolTableRecord
100
AcDbBlockTableRecord
  2
BLOCK113
340
0
  0
BLOCK_RECORD
  5
17A
330
1
100
AcDbSymbolTableRecord
100
AcDbBlockTableRecord
  2
BLOCK114
340
0
  0
BLOCK_RECORD
  5
17B
330
1
100
AcDbSymbolTableRecord
100
AcDbBlockTableRecord
  2
BLOCK115
340
0
  0
BLOCK_RECORD
  5
17C
330
1
100
AcDbSymbolTableRecord
100
AcDbBlockTableRecord
  2
BLOCK116
340
0
  0
BLOCK_RECORD
  5
17D
330
1
100
AcDbSymbolTableRecord
100
AcDbBlockTableRecord
  2
BLOCK117
340
0
  0
BLOCK_RECORD
  5
17E
330
1
100
AcDbSymbolTableRecord
100
AcDbBlockTableRecord
  2
BLOCK118
340
0
  0
BLOCK_RECORD
  5
17F
330
1
100
AcDbSymbolTableRecord
100
AcDbBlockTableRecord
  2
BLOCK119
340
0
  0
BLOCK_RECORD
  5
180
330
1
100
AcDbSymbolTableRecord
100
AcDbBlockTableRecord
  2
BLOCK120
340
0
  0
BLOCK_RECORD
  5
181
330
1
100
AcDbSymbolTableRecord
100
AcDbBlockTableRecord
  2
BLOCK121
340
0
  0
BLOCK_RECORD
  5
182
330
1
100
AcDbSymbolTableRecord
100
AcDbBlockTableRecord
  2
BLOCK122
340
0
  0
BLOCK_RECORD
  5
183
330
1
100
AcDbSymbolTableRecord
100
AcDbBlockTableRecord
  2
BLOCK123
340
0
  0
BLOCK_RECORD
  5
184
330
1
100
AcDbSymbolTableRecord
100
AcDbBlockTableRecord
  2
BLOCK124
340
0
  0
BLOCK_RECORD
  5
185
330
1
100
AcDbSymbolTableRecord
100
AcDbBlockTableRecord
  2
BLOCK125
340
0
  0
BLOCK_RECORD
  5
186
330
1
100
AcDbSymbolTableRecord
100
AcDbBlockTableRecord
  2
BLOCK126
340
0
  0
BLOCK_RECORD
  5
187
330
1
100
AcDbSymbolTableRecord
100
AcDbBlockTableRecord
  2
BLOCK127
340
0
  0
BLOCK_RECORD
  5
188
330
1
100
AcDbSymbolTableRecord
100
AcDbBlockTableRecord
  2
BLOCK128
340
0
  0
BLOCK_RECORD
  5
189
330
1
100
AcDbSymbolTableRecord
100
AcDbBlockTableRecord
  2
BLOCK129
340
0
  0
BLOCK_RECORD
  5
18A
330
1
100
AcDbSymbolTableRecord
100
AcDbBlockTableRecord
  2
BLOCK130
340
0
  0
BLOCK_RECORD
  5
18B
330
1
100
AcDbSymbolTableRecord
100
AcDbBlockTableRecord
  2
BLOCK131
340
0
  0
BLOCK_RECORD
  5
18C
330
1
100
AcDbSymbolTableRecord
100
AcDbBlockTableRecord
  2
BLOCK132
340
0
  0
BLOCK_RECORD
  5
18D
330
1
100
AcDbSymbolTableRecord
100
AcDbBlockTableRecord
  2
BLOCK133
340
0
  0
BLOCK_RECORD
  5
18E
330
1
100
AcDbSymbolTableRecord
100
AcDbBlockTableRecord
  2
BLOCK134
340
0
  0
BLOCK_RECORD
  5
18F
330
1
100
AcDbSymbolTableRecord
100
AcDbBlockTableRecord
  2
BLOCK135
340
0
  0
BLOCK_RECORD
  5
190
330
1
100
AcDbSymbolTableRecord
100
AcDbBlockTableRecord
  2
BLOCK136
340
0
  0
BLOCK_RECORD
  5
191
330
1
100
AcDbSymbolTableRecord
100
AcDbBlockTableRecord
  2
BLOCK137
340
0
  0
BLOCK_RECORD
  5
192
330
1
100
AcDbSymbolTableRecord
100
AcDbBlockTableRecord
  2
BLOCK138
340
0
  0
BLOCK_RECORD
  5
193
330
1
100
AcDbSymbolTableRecord
100
AcDbBlockTableRecord
  2
BLOCK139
340
0
  0
BLOCK_RECORD
  5
194
330
1
100
AcDbSymbolTableRecord
100
AcDbBlockTableRecord
  2
BLOCK140
340
0
  0
BLOCK_RECORD
  5
195
330
1
100
AcDbSymbolTableRecord
100
AcDbBlockTableRecord
  2
BLOCK141
340
0
  0
BLOCK_RECORD
  5
196
330
1
100
AcDbSymbolTableRecord
100
AcDbBlockTableRecord
  2
BLOCK142
340
0
  0
BLOCK_RECORD
  5
197
330
1
100
AcDbSymbolTableRecord
100
AcDbBlockTableRecord
  2
BLOCK143
340
0
  0
BLOCK_RECORD
  5
198
330
1
100
AcDbSymbolTableRecord
100
AcDbBlockTableRecord
  2
BLOCK144
340
0
  0
BLOCK_RECORD
  5
199
330
1
100
AcDbSymbolTableRecord
100
AcDbBlockTableRecord
  2
BLOCK145
340
0
  0
BLOCK_RECORD
  5
19A
330
1
100
AcDbSymbolTableRecord
100
AcDbBlockTableRecord
  2
BLOCK146
340
0
  0
BLOCK_RECORD
  5
19B
330
1
100
AcDbSymbolTableRecord
100
AcDbBlockTableRecord
  2
BLOCK147
340
0
  0
BLOCK_RECORD
  5
19C
330
1
100
AcDbSymbolTableRecord
100
AcDbBlockTableRecord
  2
BLOCK148
340
0
  0
BLOCK_RECORD
  5
19D
330
1
100
AcDbSymbolTableRecord
100
AcDbBlockTableRecord
  2
BLOCK149
340
0
  0
BLOCK_RECORD
  5
19E
330
1
100
AcDbSymbolTableRecord
100
AcDbBlockTableRecord
  2
BLOCK150
340
0
  0
BLOCK_RECORD
  5
19F
330
1
100
AcDbSymbolTableRecord
100
AcDbBlockTableRecord
  2
BLOCK151
340
0
  0
BLOCK_RECORD
  5
1A0
330
1
100
AcDbSymbolTableRecord
100
AcDbBlockTableRecord
  2
BLOCK152
340
0
  0
BLOCK_RECORD
  5
1A1
330
1
100
AcDbSymbolTableRecord
100
AcDbBlockTableRecord
  2
BLOCK153
340
0
  0
BLOCK_RECORD
  5
1A2
330
1
100
AcDbSymbolTableRecord
100
AcDbBlockTableRecord
  2
BLOCK154
340
0
  0
BLOCK_RECORD
  5
1A3
330
1
100
AcDbSymbolTableRecord
100
AcDbBlockTableRecord
  2
BLOCK155
340
0
  0
BLOCK_RECORD
  5
1A4
330
1
100
AcDbSymbolTableRecord
100
AcDbBlockTableRecord
  2
BLOCK156
340
0
  0
BLOCK_RECORD
  5
1A5
330
1
100
AcDbSymbolTableRecord
100
AcDbBlockTableRecord
  2
BLOCK157
340
0
  0
BLOCK_RECORD
  5
1A6
330
1
100
AcDbSymbolTableRecord
100
AcDbBlockTableRecord
  2
BLOCK158
340
0
  0
BLOCK_RECORD
  5
1A7
330
1
100
AcDbSymbolTableRecord
100
AcDbBlockTableRecord
  2
BLOCK159
340
0
  0
BLOCK_RECORD
  5
1A8
330
1
100
AcDbSymbolTableRecord
100
AcDbBlockTableRecord
  2
BLOCK160
340
0
  0
BLOCK_RECORD
  5
1A9
330
1
100
AcDbSymbolTableRecord
100
AcDbBlockTableRecord
  2
BLOCK161
340
0
  0
BLOCK_RECORD
  5
1AA
330
1
100
AcDbSymbolTableRecord
100
AcDbBlockTableRecord
  2
BLOCK162
340
0
  0
BLOCK_RECORD
  5
1AB
330
1
100
AcDbSymbolTableRecord
100
AcDbBlockTableRecord
  2
BLOCK163
340
0
  0
BLOCK_RECORD
  5
1AC
330
1
100
AcDbSymbolTableRecord
100
AcDbBlockTableRecord
  2
BLOCK164
340
0
  0
BLOCK_RECORD
  5
1AD
330
1
100
AcDbSymbolTableRecord
100
AcDbBlockTableRecord
  2
BLOCK165
340
0
  0
BLOCK_RECORD
  5
1AE
330
1
100
AcDbSymbolTableRecord
100
AcDbBlockTableRecord
  2
BLOCK166
340
0
  0
BLOCK_RECORD
  5
1AF
330
1
100
AcDbSymbolTableRecord
100
AcDbBlockTableRecord
  2
BLOCK167
340
0
  0
BLOCK_RECORD
  5
1B0
330
1
100
AcDbSymbolTableRecord
100
AcDbBlockTableRecord
  2
BLOCK168
340
0
  0
BLOCK_RECORD
  5
1B1
330
1
100
AcDbSymbolTableRecord
100
AcDbBlockTableRecord
  2
BLOCK169
340
0
  0
BLOCK_RECORD
  5
1B2
330
1
100
AcDbSymbolTableRecord
100
AcDbBlockTableRecord
  2
BLOCK170
340
0
  0
BLOCK_RECORD
  5
1B3
330
1
100
AcDbSymbolTableRecord
100
AcDbBlockTableRecord
  2
BLOCK171
340
0
  0
BLOCK_RECORD
  5
1B4
330
1
100
AcDbSymbolTableRecord
100
AcDbBlockTableRecord
  2
BLOCK172
340
0
  0
BLOCK_RECORD
  5
1B5
330
1
100
AcDbSymbolTableRecord
100
AcDbBlockTableRecord
  2
BLOCK173
340
0
  0
BLOCK_RECORD
  5
1B6
330
1
100
AcDbSymbolTableRecord
100
AcDbBlockTableRecord
  2
BLOCK174
340
0
  0
BLOCK_RECORD
  5
1B7
330
1
100
AcDbSymbolTableRecord
100
AcDbBlockTableRecord
  2
BLOCK175
340
0
  0
BLOCK_RECORD
  5
1B8
330
1
100
AcDbSymbolTableRecord
100
AcDbBlockTableRecord
  2
BLOCK176
340
0
  0
BLOCK_RECORD
  5
1B9
330
1
100
AcDbSymbolTableRecord
100
AcDbBlockTableRecord
  2
BLOCK177
340
0
  0
BLOCK_RECORD
  5
1BA
330
1
100
AcDbSymbolTableRecord
100
AcDbBlockTableRecord
  2
BLOCK178
340
0
  0
BLOCK_RECORD
  5
1BB
330
1
100
AcDbSymbolTableRecord
100
AcDbBlockTableRecord
  2
BLOCK179
340
0
  0
BLOCK_RECORD
  5
1BC
330
1
100
AcDbSymbolTableRecord
100
AcDbBlockTableRecord
  2
BLOCK180
340
0
  0
BLOCK_RECORD
  5
1BD
330
1
100
AcDbSymbolTableRecord
100
AcDbBlockTableRecord
  2
BLOCK181
340
0
  0
BLOCK_RECORD
  5
1BE
330
1
100
AcDbSymbolTableRecord
100
AcDbBlockTableRecord
  2
BLOCK182
340
0
  0
BLOCK_RECORD
  5
1BF
330
1
100
AcDbSymbolTableRecord
100
AcDbBlockTableRecord
  2
BLOCK183
340
0
  0
BLOCK_RECORD
  5
1C0
330
1
100
AcDbSymbolTableRecord
100
AcDbBlockTableRecord
  2
BLOCK184
340
0
  0
BLOCK_RECORD
  5
1C1
330
1
100
AcDbSymbolTableRecord
100
AcDbBlockTableRecord
  2
BLOCK185
340
0
  0
BLOCK_RECORD
  5
1C2
330
1
100
AcDbSymbolTableRecord
100
AcDbBlockTableRecord
  2
BLOCK186
340
0
  0
BLOCK_RECORD
  5
1C3
330
1
100
AcDbSymbolTableRecord
100
AcDbBlockTableRecord
  2
BLOCK187
340
0
  0
BLOCK_RECORD
  5
1C4
330
1
100
AcDbSymbolTableRecord
100
AcDbBlockTableRecord
  2
BLOCK188
340
0
  0
BLOCK_RECORD
  5
1C5
330
1
100
AcDbSymbolTableRecord
100
AcDbBlockTableRecord
  2
BLOCK189
340
0
  0
BLOCK_RECORD
  5
1C6
330
1
100
AcDbSymbolTableRecord
100
AcDbBlockTableRecord
  2
BLOCK190
340
0
  0
BLOCK_RECORD
  5
1C7
330
1
100
AcDbSymbolTableRecord
100
AcDbBlockTableRecord
  2
BLOCK191
340
0
  0
BLOCK_RECORD
  5
1C8
330
1
100
AcDbSymbolTableRecord
100
AcDbBlockTableRecord
  2
BLOCK192
340
0
  0
BLOCK_RECORD
  5
1C9
330
1
100
AcDbSymbolTableRecord
100
AcDbBlockTableRecord
  2
BLOCK193
340
0
  0
BLOCK_RECORD
  5
1CA
330
1
100
AcDbSymbolTableRecord
100
AcDbBlockTableRecord
  2
BLOCK194
340
0
  0
BLOCK_RECORD
  5
1CB
330
1
100
AcDbSymbolTableRecord
100
AcDbBlockTableRecord
  2
BLOCK195
340
0
  0
BLOCK_RECORD
  5
1CC
330
1
100
AcDbSymbolTableRecord
100
AcDbBlockTableRecord
  2
BLOCK196
340
0
  0
BLOCK_RECORD
  5
1CD
330
1
100
AcDbSymbolTableRecord
100
AcDbBlockTableRecord
  2
BLOCK197
340
0
  0
BLOCK_RECORD
  5
1CE
330
1
100
AcDbSymbolTableRecord
100
AcDbBlockTableRecord
  2
BLOCK198
340
0
  0
BLOCK_RECORD
  5
1CF
330
1
100
AcDbSymbolTableRecord
100
AcDbBlockTableRecord
  2
BLOCK199
340
0
  0
BLOCK_RECORD
  5
1D0
330
1
100
AcDbSymbolTableRecord
100
AcDbBlockTableRecord
  2
BLOCK200
340
0
  0
BLOCK_RECORD
  5
1D1
330
1
100
AcDbSymbolTableRecord
100
AcDbBlockTableRecord
  2
BLOCK201
340
0
  0
BLOCK_RECORD
  5
1D2
330
1
100
AcDbSymbolTableRecord
100
AcDbBlockTableRecord
  2
BLOCK202
340
0
  0
BLOCK_RECORD
  5
1D3
330
1
100
AcDbSymbolTableRecord
100
AcDbBlockTableRecord
  2
BLOCK203
340
0
  0
BLOCK_RECORD
  5
1D4
330
1
100
AcDbSymbolTableRecord
100
AcDbBlockTableRecord
  2
BLOCK204
340
0
  0
BLOCK_RECORD
  5
1D5
330
1
100
AcDbSymbolTableRecord
100
AcDbBlockTableRecord
  2
BLOCK205
340
0
  0
BLOCK_RECORD
  5
1D6
330
1
100
AcDbSymbolTableRecord
100
AcDbBlockTableRecord
  2
BLOCK206
340
0
  0
BLOCK_RECORD
  5
1D7
330
1
100
AcDbSymbolTableRecord
100
AcDbBlockTableRecord
  2
BLOCK207
340
0
  0
BLOCK_RECORD
  5
1D8
330
1
100
AcDbSymbolTableRecord
100
AcDbBlockTableRecord
  2
BLOCK208
340
0
  0
BLOCK_RECORD
  5
1D9
330
1
100
AcDbSymbolTableRecord
100
AcDbBlockTableRecord
  2
BLOCK209
340
0
  0
BLOCK_RECORD
  5
1DA
330
1
100
AcDbSymbolTableRecord
100
AcDbBlockTableRecord
  2
BLOCK210
340
0
  0
BLOCK_RECORD
  5
1DB
330
1
100
AcDbSymbolTableRecord
100
AcDbBlockTableRecord
  2
BLOCK211
340
0
  0
BLOCK_RECORD
  5
1DC
330
1
100
AcDbSymbolTableRecord
100
AcDbBlockTableRecord
  2
BLOCK212
340
0
  0
BLOCK_RECORD
  5
1DD
330
1
100
AcDbSymbolTableRecord
100
AcDbBlockTableRecord
  2
BLOCK213
340
0
  0
BLOCK_RECORD
  5
1DE
330
1
100
AcDbSymbolTableRecord
100
AcDbBlockTableRecord
  2
BLOCK214
340
0
  0
BLOCK_RECORD
  5
1DF
330
1
100
AcDbSymbolTableRecord
100
AcDbBlockTableRecord
  2
BLOCK215
340
0
  0
BLOCK_RECORD
  5
1E0
330
1
100
AcDbSymbolTableRecord
100
AcDbBlockTableRecord
  2
BLOCK216
340
0
  0
BLOCK_RECORD
  5
1E1
330
1
100
AcDbSymbolTableRecord
100
AcDbBlockTableRecord
  2
BLOCK217
340
0
  0
BLOCK_RECORD
  5
1E2
330
1
100
AcDbSymbolTableRecord
100
AcDbBlockTableRecord
  2
BLOCK218
340
0
  0
BLOCK_RECORD
  5
1E3
330
1
100
AcDbSymbolTableRecord
100
AcDbBlockTableRecord
  2
BLOCK219
340
0
  0
BLOCK_RECORD
  5
1E4
330
1
100
AcDbSymbolTableRecord
100
AcDbBlockTableRecord
  2
BLOCK220
340
0
  0
BLOCK_RECORD
  5
1E5
330
1
100
AcDbSymbolTableRecord
100
AcDbBlockTableRecord
  2
BLOCK221
340
0
  0
BLOCK_RECORD
  5
1E6
330
1
100
AcDbSymbolTableRecord
100
AcDbBlockTableRecord
  2
BLOCK222
340
0
  0
BLOCK_RECORD
  5
1E7
330
1
100
AcDbSymbolTableRecord
100
AcDbBlockTableRecord
  2
BLOCK223
340
0
  0
BLOCK_RECORD
  5
1E8
330
1
100
AcDbSymbolTableRecord
100
AcDbBlockTableRecord
  2
BLOCK224
340
0
  0
BLOCK_RECORD
  5
1E9
330
1
100
AcDbSymbolTableRecord
100
AcDbBlockTableRecord
  2
BLOCK225
340
0
  0
BLOCK_RECORD
  5
1EA
330
1
100
AcDbSymbolTableRecord
100
AcDbBlockTableRecord
  2
BLOCK226
340
0
  0
BLOCK_RECORD
  5
1EB
330
1
100
AcDbSymbolTableRecord
100
AcDbBlockTableRecord
  2
BLOCK227
340
0
  0
BLOCK_RECORD
  5
1EC
330
1
100
AcDbSymbolTableRecord
100
AcDbBlockTableRecord
  2
BLOCK228
340
0
  0
BLOCK_RECORD
  5
1ED
330
1
100
AcDbSymbolTableRecord
100
AcDbBlockTableRecord
  2
BLOCK229
340
0
  0
BLOCK_RECORD
  5
1EE
330
1
100
AcDbSymbolTableRecord
100
AcDbBlockTableRecord
  2
BLOCK230
340
0
  0
BLOCK_RECORD
  5
1EF
330
1
100
AcDbSymbolTableRecord
100
AcDbBlockTableRecord
  2
BLOCK231
340
0
  0
BLOCK_RECORD
  5
1F0
330
1
100
AcDbSymbolTableRecord
100
AcDbBlockTableRecord
  2
BLOCK232
340
0
  0
BLOCK_RECORD
  5
1F1
330
1
100
AcDbSymbolTableRecord
100
AcDbBlockTableRecord
  2
BLOCK233
340
0
  0
BLOCK_RECORD
  5
1F2
330
1
100
AcDbSymbolTableRecord
100
AcDbBlockTableRecord
  2
BLOCK234
340
0
  0
BLOCK_RECORD
  5
1F3
330
1
100
AcDbSymbolTableRecord
100
AcDbBlockTableRecord
  2
BLOCK235
340
0
  0
BLOCK_RECORD
  5
1F4
330
1
100
AcDbSymbolTableRecord
100
AcDbBlockTableRecord
  2
BLOCK236
340
0
  0
BLOCK_RECORD
  5
1F5
330
1
100
AcDbSymbolTableRecord
100
AcDbBlockTableRecord
  2
BLOCK237
340
0
  0
BLOCK_RECORD
  5
1F6
330
1
100
AcDbSymbolTableRecord
100
AcDbBlockTableRecord
  2
BLOCK238
340
0
  0
BLOCK_RECORD
  5
1F7
330
1
100
AcDbSymbolTableRecord
100
AcDbBlockTableRecord
  2
BLOCK239
340
0
  0
BLOCK_RECORD
  5
1F8
330
1
100
AcDbSymbolTableRecord
100
AcDbBlockTableRecord
  2
BLOCK240
340
0
  0
BLOCK_RECORD
  5
1F9
330
1
100
AcDbSymbolTableRecord
100
AcDbBlockTableRecord
  2
BLOCK241
340
0
  0
BLOCK_RECORD
  5
1FA
330
1
100
AcDbSymbolTableRecord
100
AcDbBlockTableRecord
  2
BLOCK242
340
0
  0
BLOCK_RECORD
  5
1FB
330
1
100
AcDbSymbolTableRecord
100
AcDbBlockTableRecord
  2
BLOCK243
340
0
  0
BLOCK_RECORD
  5
1FC
330
1
100
AcDbSymbolTableRecord
100
AcDbBlockTableRecord
  2
BLOCK244
340
0
  0
BLOCK_RECORD
  5
1FD
330
1
100
AcDbSymbolTableRecord
100
AcDbBlockTableRecord
  2
BLOCK245
340
0
  0
BLOCK_RECORD
  5
1FE
330
1
100
AcDbSymbolTableRecord
100
AcDbBlockTableRecord
  2
BLOCK246
340
0
  0
BLOCK_RECORD
  5
1FF
330
1
100
AcDbSymbolTableRecord
100
AcDbBlockTableRecord
  2
BLOCK247
340
0
  0
BLOCK_RECORD
  5
200
330
1
100
AcDbSymbolTableRecord
100
AcDbBlockTableRecord
  2
BLOCK248
340
0
  0
BLOCK_RECORD
  5
201
330
1
100
AcDbSymbolTableRecord
100
AcDbBlockTableRecord
  2
BLOCK249
340
0
  0
BLOCK_RECORD
  5
202
330
1
100
AcDbSymbolTableRecord
100
AcDbBlockTableRecord
  2
BLOCK250
340
0
  0
BLOCK_RECORD
  5
203
330
1
100
AcDbSymbolTableRecord
100
AcDbBlockTableRecord
  2
BLOCK251
340
0
  0
BLOCK_RECORD
  5
204
330
1
100
AcDbSymbolTableRecord
100
AcDbBlockTableRecord
  2
BLOCK252
340
0
  0
BLOCK_RECORD
  5
205
330
1
100
AcDbSymbolTableRecord
100
AcDbBlockTableRecord
  2
BLOCK253
340
0
  0
BLOCK_RECORD
  5
206
330
1
100
AcDbSymbolTableRecord
100
AcDbBlockTableRecord
  2
BLOCK254
340
0
  0
BLOCK_RECORD
  5
207
330
1
100
AcDbSymbolTableRecord
100
AcDbBlockTableRecord
  2
BLOCK255
340
0
  0
BLOCK_RECORD
  5
208
330
1
100
AcDbSymbolTableRecord
100
AcDbBlockTableRecord
  2
BLOCK256
340
0
  0
BLOCK_RECORD
  5
209
330
1
100
AcDbSymbolTableRecord
100
AcDbBlockTableRecord
  2
BLOCK257
340
0
  0
BLOCK_RECORD
  5
20A
330
1
100
AcDbSymbolTableRecord
100
AcDbBlockTableRecord
  2
BLOCK258
340
0
  0
BLOCK_RECORD
  5
20B
330
1
100
AcDbSymbolTableRecord
100
AcDbBlockTableRecord
  2
BLOCK259
340
0
  0
BLOCK_RECORD
  5
20C
330
1
100
AcDbSymbolTableRecord
100
AcDbBlockTableRecord
  2
BLOCK260
340
0
  0
BLOCK_RECORD
  5
20D
330
1
100
AcDbSymbolTableRecord
100
AcDbBlockTableRecord
  2
BLOCK261
340
0
  0
BLOCK_RECORD
  5
20E
330
1
100
AcDbSymbolTableRecord
100
AcDbBlockTableRecord
  2
BLOCK262
340
0
  0
BLOCK_RECORD
  5
20F
330
1
100
AcDbSymbolTableRecord
100
AcDbBlockTableRecord
  2
BLOCK263
340
0
  0
BLOCK_RECORD
  5
210
330
1
100
AcDbSymbolTableRecord
100
AcDbBlockTableRecord
  2
BLOCK264
340
0
  0
BLOCK_RECORD
  5
211
330
1
100
AcDbSymbolTableRecord
100
AcDbBlockTableRecord
  2
BLOCK265
340
0
  0
BLOCK_RECORD
  5
212
330
1
100
AcDbSymbolTableRecord
100
AcDbBlockTableRecord
  2
BLOCK266
340
0
  0
BLOCK_RECORD
  5
213
330
1
100
AcDbSymbolTableRecord
100
AcDbBlockTableRecord
  2
BLOCK267
340
0
  0
BLOCK_RECORD
  5
214
330
1
100
AcDbSymbolTableRecord
100
AcDbBlockTableRecord
  2
BLOCK268
340
0
  0
BLOCK_RECORD
  5
215
330
1
100
AcDbSymbolTableRecord
100
AcDbBlockTableRecord
  2
BLOCK269
340
0
  0
BLOCK_RECORD
  5
216
330
1
100
AcDbSymbolTableRecord
100
AcDbBlockTableRecord
  2
BLOCK270
340
0
  0
BLOCK_RECORD
  5
217
330
1
100
AcDbSymbolTableRecord
100
AcDbBlockTableRecord
  2
BLOCK271
340
0
  0
BLOCK_RECORD
  5
218
330
1
100
AcDbSymbolTableRecord
100
AcDbBlockTableRecord
  2
BLOCK272
340
0
  0
BLOCK_RECORD
  5
219
330
1
100
AcDbSymbolTableRecord
100
AcDbBlockTableRecord
  2
BLOCK273
340
0
  0
BLOCK_RECORD
  5
21A
330
1
100
AcDbSymbolTableRecord
100
AcDbBlockTableRecord
  2
BLOCK274
340
0
  0
BLOCK_RECORD
  5
21B
330
1
100
AcDbSymbolTableRecord
100
AcDbBlockTableRecord
  2
BLOCK275
340
0
  0
BLOCK_RECORD
  5
21C
330
1
100
AcDbSymbolTableRecord
100
AcDbBlockTableRecord
  2
BLOCK276
340
0
  0
BLOCK_RECORD
  5
21D
330
1
100
AcDbSymbolTableRecord
100
AcDbBlockTableRecord
  2
BLOCK277
340
0
  0
BLOCK_RECORD
  5
21E
330
1
100
AcDbSymbolTableRecord
100
AcDbBlockTableRecord
  2
BLOCK278
340
0
  0
BLOCK_RECORD
  5
21F
330
1
100
AcDbSymbolTableRecord
100
AcDbBlockTableRecord
  2
BLOCK279
340
0
  0
BLOCK_RECORD
  5
220
330
1
100
AcDbSymbolTableRecord
100
AcDbBlockTableRecord
  2
BLOCK280
340
0
  0
BLOCK_RECORD
  5
221
330
1
100
AcDbSymbolTableRecord
100
AcDbBlockTableRecord
  2
BLOCK281
340
0
  0
BLOCK_RECORD
  5
222
330
1
100
AcDbSymbolTableRecord
100
AcDbBlockTableRecord
  2
BLOCK282
340
0
  0
BLOCK_RECORD
  5
223
330
1
100
AcDbSymbolTableRecord
100
AcDbBlockTableRecord
  2
BLOCK283
340
0
  0
BLOCK_RECORD
  5
224
330
1
100
AcDbSymbolTableRecord
100
AcDbBlockTableRecord
  2
BLOCK284
340
0
  0
BLOCK_RECORD
  5
225
330
1
100
AcDbSymbolTableRecord
100
AcDbBlockTableRecord
  2
BLOCK285
340
0
  0
BLOCK_RECORD
  5
226
330
1
100
AcDbSymbolTableRecord
100
AcDbBlockTableRecord
  2
BLOCK286
340
0
  0
BLOCK_RECORD
  5
227
330
1
100
AcDbSymbolTableRecord
100
AcDbBlockTableRecord
  2
BLOCK287
340
0
  0
BLOCK_RECORD
  5
228
330
1
100
AcDbSymbolTableRecord
100
AcDbBlockTableRecord
  2
BLOCK288
340
0
  0
BLOCK_RECORD
  5
229
330
1
100
AcDbSymbolTableRecord
100
AcDbBlockTableRecord
  2
BLOCK289
340
0
  0
BLOCK_RECORD
  5
22A
330
1
100
AcDbSymbolTableRecord
100
AcDbBlockTableRecord
  2
BLOCK290
340
0
  0
BLOCK_RECORD
  5
22B
330
1
100
AcDbSymbolTableRecord
100
AcDbBlockTableRecord
  2
BLOCK291
340
0
  0
BLOCK_RECORD
  5
22C
330
1
100
AcDbSymbolTableRecord
100
AcDbBlockTableRecord
  2
BLOCK292
340
0
  0
BLOCK_RECORD
  5
22D
330
1
100
AcDbSymbolTableRecord
100
AcDbBlockTableRecord
  2
BLOCK293
340
0
  0
BLOCK_RECORD
  5
22E
330
1
100
AcDbSymbolTableRecord
100
AcDbBlockTableRecord
  2
BLOCK294
340
0
  0
BLOCK_RECORD
  5
22F
330
1
100
AcDbSymbolTableRecord
100
AcDbBlockTableRecord
  2
BLOCK295
340
0
  0
BLOCK_RECORD
  5
230
330
1
100
AcDbSymbolTableRecord
100
AcDbBlockTableRecord
  2
BLOCK296
340
0
  0
BLOCK_RECORD
  5
231
330
1
100
AcDbSymbolTableRecord
100
AcDbBlockTableRecord
  2
BLOCK297
340
0
  0
BLOCK_RECORD
  5
232
330
1
100
AcDbSymbolTableRecord
100
AcDbBlockTableRecord
  2
BLOCK298
340
0
  0
BLOCK_RECORD
  5
233
330
1
100
AcDbSymbolTableRecord
100
AcDbBlockTableRecord
  2
BLOCK299
340
0
  0
BLOCK_RECORD
  5
234
330
1
100
AcDbSymbolTableRecord
100
AcDbBlockTableRecord
  2
BLOCK300
340
0
  0
BLOCK_RECORD
  5
235
330
1
100
AcDbSymbolTableRecord
100
AcDbBlockTableRecord
  2
BLOCK301
340
0
  0
BLOCK_RECORD
  5
236
330
1
100
AcDbSymbolTableRecord
100
AcDbBlockTableRecord
  2
BLOCK302
340
0
  0
BLOCK_RECORD
  5
237
330
1
100
AcDbSymbolTableRecord
100
AcDbBlockTableRecord
  2
BLOCK303
340
0
  0
BLOCK_RECORD
  5
238
330
1
100
AcDbSymbolTableRecord
100
AcDbBlockTableRecord
  2
BLOCK304
340
0
  0
BLOCK_RECORD
  5
239
330
1
100
AcDbSymbolTableRecord
100
AcDbBlockTableRecord
  2
BLOCK305
340
0
  0
BLOCK_RECORD
  5
23A
330
1
100
AcDbSymbolTableRecord
100
AcDbBlockTableRecord
  2
BLOCK306
340
0
  0
BLOCK_RECORD
  5
23B
330
1
100
AcDbSymbolTableRecord
100
AcDbBlockTableRecord
  2
BLOCK307
340
0
  0
BLOCK_RECORD
  5
23C
330
1
100
AcDbSymbolTableRecord
100
AcDbBlockTableRecord
  2
BLOCK308
340
0
  0
BLOCK_RECORD
  5
23D
330
1
100
AcDbSymbolTableRecord
100
AcDbBlockTableRecord
  2
BLOCK309
340
0
  0
BLOCK_RECORD
  5
23E
330
1
100
AcDbSymbolTableRecord
100
AcDbBlockTableRecord
  2
BLOCK310
340
0
  0
BLOCK_RECORD
  5
23F
330
1
100
AcDbSymbolTableRecord
100
AcDbBlockTableRecord
  2
BLOCK311
340
0
  0
BLOCK_RECORD
  5
240
330
1
100
AcDbSymbolTableRecord
100
AcDbBlockTableRecord
  2
BLOCK312
340
0
  0
BLOCK_RECORD
  5
241
330
1
100
AcDbSymbolTableRecord
100
AcDbBlockTableRecord
  2
BLOCK313
340
0
  0
BLOCK_RECORD
  5
242
330
1
100
AcDbSymbolTableRecord
100
AcDbBlockTableRecord
  2
BLOCK314
340
0
  0
BLOCK_RECORD
  5
243
330
1
100
AcDbSymbolTableRecord
100
AcDbBlockTableRecord
  2
BLOCK315
340
0
  0
BLOCK_RECORD
  5
244
330
1
100
AcDbSymbolTableRecord
100
AcDbBlockTableRecord
  2
BLOCK316
340
0
  0
BLOCK_RECORD
  5
245
330
1
100
AcDbSymbolTableRecord
100
AcDbBlockTableRecord
  2
BLOCK317
340
0
  0
BLOCK_RECORD
  5
246
330
1
100
AcDbSymbolTableRecord
100
AcDbBlockTableRecord
  2
BLOCK318
340
0
  0
BLOCK_RECORD
  5
247
330
1
100
AcDbSymbolTableRecord
100
AcDbBlockTableRecord
  2
BLOCK319
340
0
  0
BLOCK_RECORD
  5
248
330
1
100
AcDbSymbolTableRecord
100
AcDbBlockTableRecord
  2
BLOCK320
340
0
  0
BLOCK_RECORD
  5
249
330
1
100
AcDbSymbolTableRecord
100
AcDbBlockTableRecord
  2
BLOCK321
340
0
  0
BLOCK_RECORD
  5
24A
330
1
100
AcDbSymbolTableRecord
100
AcDbBlockTableRecord
  2
BLOCK322
340
0
  0
BLOCK_RECORD
  5
24B
330
1
100
AcDbSymbolTableRecord
100
AcDbBlockTableRecord
  2
BLOCK323
340
0
  0
BLOCK_RECORD
  5
24C
330
1
100
AcDbSymbolTableRecord
100
AcDbBlockTableRecord
  2
BLOCK324
340
0
  0
BLOCK_RECORD
  5
24D
330
1
100
AcDbSymbolTableRecord
100
AcDbBlockTableRecord
  2
BLOCK325
340
0
  0
BLOCK_RECORD
  5
24E
330
1
100
AcDbSymbolTableRecord
100
AcDbBlockTableRecord
  2
BLOCK326
340
0
  0
BLOCK_RECORD
  5
24F
330
1
100
AcDbSymbolTableRecord
100
AcDbBlockTableRecord
  2
BLOCK327
340
0
  0
BLOCK_RECORD
  5
250
330
1
100
AcDbSymbolTableRecord
100
AcDbBlockTableRecord
  2
BLOCK328
340
0
  0
BLOCK_RECORD
  5
251
330
1
100
AcDbSymbolTableRecord
100
AcDbBlockTableRecord
  2
BLOCK329
340
0
  0
BLOCK_RECORD
  5
252
330
1
100
AcDbSymbolTableRecord
100
AcDbBlockTableRecord
  2
BLOCK330
340
0
  0
BLOCK_RECORD
  5
253
330
1
100
AcDbSymbolTableRecord
100
AcDbBlockTableRecord
  2
BLOCK331
340
0
  0
BLOCK_RECORD
  5
254
330
1
100
AcDbSymbolTableRecord
100
AcDbBlockTableRecord
  2
BLOCK332
340
0
  0
BLOCK_RECORD
  5
255
330
1
100
AcDbSymbolTableRecord
100
AcDbBlockTableRecord
  2
BLOCK333
340
0
  0
BLOCK_RECORD
  5
256
330
1
100
AcDbSymbolTableRecord
100
AcDbBlockTableRecord
  2
BLOCK334
340
0
  0
BLOCK_RECORD
  5
257
330
1
100
AcDbSymbolTableRecord
100
AcDbBlockTableRecord
  2
BLOCK335
340
0
  0
BLOCK_RECORD
  5
258
330
1
100
AcDbSymbolTableRecord
100
AcDbBlockTableRecord
  2
BLOCK336
340
0
  0
BLOCK_RECORD
  5
259
330
1
100
AcDbSymbolTableRecord
100
AcDbBlockTableRecord
  2
BLOCK337
340
0
  0
BLOCK_RECORD
  5
25A
330
1
100
AcDbSymbolTableRecord
100
AcDbBlockTableRecord
  2
BLOCK338
340
0
  0
BLOCK_RECORD
  5
25B
330
1
100
AcDbSymbolTableRecord
100
AcDbBlockTableRecord
  2
BLOCK339
340
0
  0
BLOCK_RECORD
  5
25C
330
1
100
AcDbSymbolTableRecord
100
AcDbBlockTableRecord
  2
BLOCK340
340
0
  0
BLOCK_RECORD
  5
25D
330
1
100
AcDbSymbolTableRecord
100
AcDbBlockTableRecord
  2
BLOCK341
340
0
  0
BLOCK_RECORD
  5
994
330
1
100
AcDbSymbolTableRecord
100
AcDbBlockTableRecord
  2
*D341
340
0
  0
BLOCK_RECORD
  5
9A0
330
1
100
AcDbSymbolTableRecord
100
AcDbBlockTableRecord
  2
*D342
340
0
  0
BLOCK_RECORD
  5
9AB
330
1
100
AcDbSymbolTableRecord
100
AcDbBlockTableRecord
  2
*D343
340
0
  0
BLOCK_RECORD
  5
9B6
330
1
100
AcDbSymbolTableRecord
100
AcDbBlockTableRecord
  2
*D344
340
0
  0
BLOCK_RECORD
  5
9C2
330
1
100
AcDbSymbolTableRecord
100
AcDbBlockTableRecord
  2
*D345
340
0
  0
BLOCK_RECORD
  5
9CD
330
1
100
AcDbSymbolTableRecord
100
AcDbBlockTableRecord
  2
*D346
340
0
  0
BLOCK_RECORD
  5
9D8
330
1
100
AcDbSymbolTableRecord
100
AcDbBlockTableRecord
  2
*D347
340
0
  0
ENDTAB
  0
ENDSEC
  0
SECTION
  2
BLOCKS
  0
BLOCK
  5
20
330
1F
100
AcDbEntity
  8
0
100
AcDbBlockBegin
  2
*Model_Space
 70
     0
 10
0.0
 20
0.0
 30
0.0
  3
*Model_Space
  1

  0
ENDBLK
  5
21
330
1F
100
AcDbEntity
  8
0
100
AcDbBlockEnd
  0
BLOCK
  5
75
330
73
100
AcDbEntity
 67
     1
  8
0
100
AcDbBlockBegin
  2
*Paper_Space
 70
     0
 10
0.0
 20
0.0
 30
0.0
  3
*Paper_Space
  1

  0
ENDBLK
  5
76
330
73
100
AcDbEntity
 67
     1
  8
0
100
AcDbBlockEnd
  0
BLOCK
  5
9E4
330
109
100
AcDbEntity
  8
0
100
AcDbBlockBegin
  2
BLOCK1
 70
     0
 10
0.0
 20
0.0
 30
0.0
  3
BLOCK1
  1

  0
TEXT
  5
25F
330
109
100
AcDbEntity
  8
0
 62
     7
370
    15
390
F
100
AcDbText
 10
-233.267883
 20
-143.373917
 30
0.0
 40
3.0
  1
DESCRIZIONE/DESCRIPTION
 41
1.634773993610224
 72
     5
 11
-156.515244
 21
-143.373917
 31
0.0
100
AcDbText
  0
ENDBLK
  5
9E5
330
109
100
AcDbEntity
  8
0
100
AcDbBlockEnd
  0
BLOCK
  5
9E6
330
10A
100
AcDbEntity
  8
0
100
AcDbBlockBegin
  2
BLOCK2
 70
     0
 10
0.0
 20
0.0
 30
0.0
  3
BLOCK2
  1

  0
TEXT
  5
262
330
10A
100
AcDbEntity
  8
0
 62
     7
370
    15
390
F
100
AcDbText
 10
-123.634018
 20
-142.936005
 30
0.0
 40
3.0
  1
CODICE/CODE
 41
1.606831346578366
 72
     5
 11
-87.239288
 21
-142.936005
 31
0.0
100
AcDbText
  0
ENDBLK
  5
9E7
330
10A
100
AcDbEntity
  8
0
100
AcDbBlockEnd
  0
BLOCK
  5
9E8
330
10B
100
AcDbEntity
  8
0
100
AcDbBlockBegin
  2
BLOCK3
 70
     0
 10
0.0
 20
0.0
 30
0.0
  3
BLOCK3
  1

  0
TEXT
  5
265
330
10B
100
AcDbEntity
  8
0
 62
     7
370
    15
390
F
100
AcDbText
 10
-66.845459
 20
-142.69165
 30
0.0
 40
3.0
  1
FINITURA/FINISH
 41
1.721843523316062
 72
     5
 11
-16.998089
 21
-142.69165
 31
0.0
100
AcDbText
  0
ENDBLK
  5
9E9
330
10B
100
AcDbEntity
  8
0
100
AcDbBlockEnd
  0
BLOCK
  5
9EA
330
10C
100
AcDbEntity
  8
0
100
AcDbBlockBegin
  2
BLOCK4
 70
     0
 10
0.0
 20
0.0
 30
0.0
  3
BLOCK4
  1

  0
TEXT
  5
268
330
10C
100
AcDbEntity
  8
0
 62
     7
370
    15
390
F
100
AcDbText
 10
-234.511078
 20
-149.81012
 30
0.0
 40
3.0
  1
Vetro trasparente/trasparent glass
 41
1.726898806758326
 72
     5
 11
-120.763687
 21
-149.81012
 31
0.0
100
AcDbText
  0
ENDBLK
  5
9EB
330
10C
100
AcDbEntity
  8
0
100
AcDbBlockEnd
  0
BLOCK
  5
9EC
330
10D
100
AcDbEntity
  8
0
100
AcDbBlockBegin
  2
BLOCK5
 70
     0
 10
0.0
 20
0.0
 30
0.0
  3
BLOCK5
  1

  0
TEXT
  5
26B
330
10D
100
AcDbEntity
  8
0
 62
     7
370
    15
390
F
100
AcDbText
 10
-234.179047
 20
-157.31012
 30
0.0
 40
3.0
  1
Vetro diffondente/diffused glass
 41
1.778925573907598
 72
     5
 11
-127.157974
 21
-157.31012
 31
0.0
100
AcDbText
  0
ENDBLK
  5
9ED
330
10D
100
AcDbEntity
  8
0
100
AcDbBlockEnd
  0
BLOCK
  5
9EE
330
10E
100
AcDbEntity
  8
0
100
AcDbBlockBegin
  2
BLOCK6
 70
     0
 10
0.0
 20
0.0
 30
0.0
  3
BLOCK6
  1

  0
TEXT
  5
26E
330
10E
100
AcDbEntity
  8
0
 62
     7
370
    15
390
F
100
AcDbText
 10
-118.025894
 20
-149.680679
 30
0.0
 40
3.0
  1
56327927
 41
1.607853509807402
 72
     5
 11
-91.720634
 21
-149.680679
 31
0.0
100
AcDbText
  0
ENDBLK
  5
9EF
330
10E
100
AcDbEntity
  8
0
100
AcDbBlockEnd
  0
BLOCK
  5
9F0
330
10F
100
AcDbEntity
  8
0
100
AcDbBlockBegin
  2
BLOCK7
 70
     0
 10
0.0
 20
0.0
 30
0.0
  3
BLOCK7
  1

  0
TEXT
  5
271
330
10F
100
AcDbEntity
  8
0
 62
     7
370
    15
390
F
100
AcDbText
 10
-117.87561
 20
-156.854584
 30
0.0
 40
3.0
  1
56327935
 41
1.607853448684512
 72
     5
 11
-91.570351
 21
-156.854584
 31
0.0
100
AcDbText
  0
ENDBLK
  5
9F1
330
10F
100
AcDbEntity
  8
0
100
AcDbBlockEnd
  0
BLOCK
  5
9F2
330
110
100
AcDbEntity
  8
0
100
AcDbBlockBegin
  2
BLOCK8
 70
     0
 10
0.0
 20
0.0
 30
0.0
  3
BLOCK8
  1

  0
TEXT
  5
274
330
110
100
AcDbEntity
  8
0
 62
     7
370
    15
390
F
100
AcDbText
 10
-79.287384
 20
-149.731628
 30
0.0
 40
3.0
  1
Temperato trasparente/trasparent tempered
 41
1.679074237143032
 72
     5
 11
58.002121
 21
-149.731628
 31
0.0
100
AcDbText
  0
ENDBLK
  5
9F3
330
110
100
AcDbEntity
  8
0
100
AcDbBlockEnd
  0
BLOCK
  5
9F4
330
111
100
AcDbEntity
  8
0
100
AcDbBlockBegin
  2
BLOCK9
 70
     0
 10
0.0
 20
0.0
 30
0.0
  3
BLOCK9
  1

  0
TEXT
  5
277
330
111
100
AcDbEntity
  8
0
 62
     7
370
    15
390
F
100
AcDbText
 10
-79.183426
 20
-156.636414
 30
0.0
 40
3.0
  1
Temperato acidato opaco/opaque diffused tempered
 41
1.726448423369026
 72
     5
 11
81.648193
 21
-156.636414
 31
0.0
100
AcDbText
  0
ENDBLK
  5
9F5
330
111
100
AcDbEntity
  8
0
100
AcDbBlockEnd
  0
BLOCK
  5
9F6
330
112
100
AcDbEntity
  8
0
100
AcDbBlockBegin
  2
BLOCK10
 70
     0
 10
0.0
 20
0.0
 30
0.0
  3
BLOCK10
  1

  0
TEXT
  5
27A
330
112
100
AcDbEntity
  8
0
 62
     7
370
    15
390
F
100
AcDbText
 10
108.955742
 20
-145.920517
 30
0.0
 40
3.0
  1
VETRO PROIETTORE
 41
1.535657518037518
 72
     5
 11
162.166275
 21
-145.920517
 31
0.0
100
AcDbText
  0
ENDBLK
  5
9F7
330
112
100
AcDbEntity
  8
0
100
AcDbBlockEnd
  0
BLOCK
  5
9F8
330
113
100
AcDbEntity
  8
0
100
AcDbBlockBegin
  2
BLOCK11
 70
     0
 10
0.0
 20
0.0
 30
0.0
  3
BLOCK11
  1

  0
TEXT
  5
27D
330
113
100
AcDbEntity
  8
0
 62
     7
370
    60
390
F
100
AcDbText
 10
160.79155
 20
-161.210114
 30
0.0
 40
2.8
  1
VETRO FLOAT/ PLANE GLASS
 41
1.265281247713352
 72
     5
 11
222.951569
 21
-161.210114
 31
0.0
100
AcDbText
  0
ENDBLK
  5
9F9
330
113
100
AcDbEntity
  8
0
100
AcDbBlockEnd
  0
BLOCK
  5
9FA
330
114
100
AcDbEntity
  8
0
100
AcDbBlockBegin
  2
BLOCK12
 70
     0
 10
0.0
 20
0.0
 30
0.0
  3
BLOCK12
  1

  0
TEXT
  5
280
330
114
100
AcDbEntity
  8
0
 62
     7
370
    60
390
F
100
AcDbText
 10
162.098221
 20
-172.114655
 30
0.0
 40
2.8
  1
TRASPARENTE/ TRASPARENT
 41
1.191410084033613
 72
     5
 11
221.644897
 21
-172.114655
 31
0.0
100
AcDbText
  0
ENDBLK
  5
9FB
330
114
100
AcDbEntity
  8
0
100
AcDbBlockEnd
  0
BLOCK
  5
9FC
330
115
100
AcDbEntity
  8
0
100
AcDbBlockBegin
  2
BLOCK13
 70
     0
 10
0.0
 20
0.0
 30
0.0
  3
BLOCK13
  1

  0
TEXT
  5
283
330
115
100
AcDbEntity
  8
0
 62
     7
370
    60
390
F
100
AcDbText
 10
228.38797
 20
-147.581116
 30
0.0
 40
3.0
  1
1:1
 41
2.26087043478261
 72
     5
 11
236.187973
 21
-147.581116
 31
0.0
100
AcDbText
  0
ENDBLK
  5
9FD
330
115
100
AcDbEntity
  8
0
100
AcDbBlockEnd
  0
BLOCK
  5
9FE
330
116
100
AcDbEntity
  8
0
100
AcDbBlockBegin
  2
BLOCK14
 70
     0
 10
0.0
 20
0.0
 30
0.0
  3
BLOCK14
  1

  0
TEXT
  5
286
330
116
100
AcDbEntity
  8
0
 62
     7
370
    60
390
F
100
AcDbText
 10
234.170746
 20
-165.011108
 30
0.0
 40
5.0
  1
6637.078.4
 41
1.485155884385543
 72
     5
 11
279.837433
 21
-165.011108
 31
0.0
100
AcDbText
  0
ENDBLK
  5
9FF
330
116
100
AcDbEntity
  8
0
100
AcDbBlockEnd
  0
BLOCK
  5
A00
330
117
100
AcDbEntity
  8
0
100
AcDbBlockBegin
  2
BLOCK15
 70
     0
 10
0.0
 20
0.0
 30
0.0
  3
BLOCK15
  1

  0
TEXT
  5
289
330
117
100
AcDbEntity
  8
0
 62
     7
370
    60
390
F
100
AcDbText
 10
254.619965
 20
-140.281189
 30
0.0
 40
2.0
  1
25.08.03
 41
1.562807140168828
 72
     5
 11
269.15329
 21
-140.281189
 31
0.0
100
AcDbText
  0
ENDBLK
  5
A01
330
117
100
AcDbEntity
  8
0
100
AcDbBlockEnd
  0
BLOCK
  5
A02
330
118
100
AcDbEntity
  8
0
100
AcDbBlockBegin
  2
BLOCK16
 70
     0
 10
0.0
 20
0.0
 30
0.0
  3
BLOCK16
  1

  0
TEXT
  5
28C
330
118
100
AcDbEntity
  8
0
 62
     7
370
    60
390
F
100
AcDbText
 10
254.619965
 20
-145.531189
 30
0.0
 40
2.0
  1
25.08.03
 41
1.562807140168828
 72
     5
 11
269.15329
 21
-145.531189
 31
0.0
100
AcDbText
  0
ENDBLK
  5
A03
330
118
100
AcDbEntity
  8
0
100
AcDbBlockEnd
  0
BLOCK
  5
A04
330
119
100
AcDbEntity
  8
0
100
AcDbBlockBegin
  2
BLOCK17
 70
     0
 10
0.0
 20
0.0
 30
0.0
  3
BLOCK17
  1

  0
TEXT
  5
28F
330
119
100
AcDbEntity
  8
0
 62
     7
370
    60
390
F
100
AcDbText
 10
254.619965
 20
-150.531189
 30
0.0
 40
2.0
  1
25.08.03
 41
1.562807140168828
 72
     5
 11
269.15329
 21
-150.531189
 31
0.0
100
AcDbText
  0
ENDBLK
  5
A05
330
119
100
AcDbEntity
  8
0
100
AcDbBlockEnd
  0
BLOCK
  5
A06
330
11A
100
AcDbEntity
  8
0
100
AcDbBlockBegin
  2
BLOCK18
 70
     0
 10
0.0
 20
0.0
 30
0.0
  3
BLOCK18
  1

  0
TEXT
  5
292
330
11A
100
AcDbEntity
  8
0
 62
     7
370
    60
390
F
100
AcDbText
 10
136.661621
 20
-148.531189
 30
0.0
 40
3.0
  1
.
 41
4.888882222222215
 72
     5
 11
138.861618
 21
-148.531189
 31
0.0
100
AcDbText
  0
ENDBLK
  5
A07
330
11A
100
AcDbEntity
  8
0
100
AcDbBlockEnd
  0
BLOCK
  5
A08
330
11B
100
AcDbEntity
  8
0
100
AcDbBlockBegin
  2
BLOCK19
 70
     0
 10
0.0
 20
0.0
 30
0.0
  3
BLOCK19
  1

  0
TEXT
  5
295
330
11B
100
AcDbEntity
  8
0
 62
     7
370
    15
390
F
100
AcDbText
 10
153.100327
 20
-146.092667
 30
0.0
 40
3.0
  1
COLOSSEUM
 41
1.443718296836984
 72
     5
 11
182.768738
 21
-146.092667
 31
0.0
100
AcDbText
  0
ENDBLK
  5
A09
330
11B
100
AcDbEntity
  8
0
100
AcDbBlockEnd
  0
BLOCK
  5
A0A
330
11C
100
AcDbEntity
  8
0
100
AcDbBlockBegin
  2
BLOCK20
 70
     0
 10
0.0
 20
0.0
 30
0.0
  3
BLOCK20
  1

  0
TEXT
  5
298
330
11C
100
AcDbEntity
  8
0
 62
     7
370
    60
390
F
100
AcDbText
 10
186.90329
 20
-129.531189
 30
0.0
 40
2.0
  1
.
 41
4.888863333333309
 72
     5
 11
188.369949
 21
-129.531189
 31
0.0
100
AcDbText
  0
ENDBLK
  5
A0B
330
11C
100
AcDbEntity
  8
0
100
AcDbBlockEnd
  0
BLOCK
  5
A0C
330
11D
100
AcDbEntity
  8
0
100
AcDbBlockBegin
  2
BLOCK21
 70
     0
 10
0.0
 20
0.0
 30
0.0
  3
BLOCK21
  1

  0
TEXT
  5
29B
330
11D
100
AcDbEntity
  8
0
 62
     7
370
    60
390
F
100
AcDbText
 10
226.40329
 20
-129.531189
 30
0.0
 40
2.0
  1
.
 41
4.888863333333309
 72
     5
 11
227.869949
 21
-129.531189
 31
0.0
100
AcDbText
  0
ENDBLK
  5
A0D
330
11D
100
AcDbEntity
  8
0
100
AcDbBlockEnd
  0
BLOCK
  5
A0E
330
11E
100
AcDbEntity
  8
0
100
AcDbBlockBegin
  2
BLOCK22
 70
     0
 10
0.0
 20
0.0
 30
0.0
  3
BLOCK22
  1

  0
TEXT
  5
29E
330
11E
100
AcDbEntity
  8
0
 62
     7
370
    60
390
F
100
AcDbText
 10
261.15329
 20
-129.531189
 30
0.0
 40
2.0
  1
.
 41
4.888916666666508
 72
     5
 11
262.619965
 21
-129.531189
 31
0.0
100
AcDbText
  0
ENDBLK
  5
A0F
330
11E
100
AcDbEntity
  8
0
100
AcDbBlockEnd
  0
BLOCK
  5
A10
330
11F
100
AcDbEntity
  8
0
100
AcDbBlockBegin
  2
BLOCK23
 70
     0
 10
0.0
 20
0.0
 30
0.0
  3
BLOCK23
  1

  0
TEXT
  5
2A1
330
11F
100
AcDbEntity
  8
0
 62
     7
370
    60
390
F
100
AcDbText
 10
162.987625
 20
-79.526398
 30
0.0
 40
5.0
  1
B
 41
1.128206769230771
 72
     5
 11
166.654297
 21
-79.526398
 31
0.0
100
AcDbText
  0
ENDBLK
  5
A11
330
11F
100
AcDbEntity
  8
0
100
AcDbBlockEnd
  0
BLOCK
  5
A12
330
120
100
AcDbEntity
  8
0
100
AcDbBlockBegin
  2
BLOCK24
 70
     0
 10
0.0
 20
0.0
 30
0.0
  3
BLOCK24
  1

  0
TEXT
  5
2A4
330
120
100
AcDbEntity
  8
100
 62
     7
370
    60
390
F
100
AcDbText
 10
143.10437
 20
-164.480652
 30
0.0
 40
2.0
  1
s p a
 41
1.622767302452317
 72
     5
 11
152.037704
 21
-164.480652
 31
0.0
100
AcDbText
  0
ENDBLK
  5
A13
330
120
100
AcDbEntity
  8
0
100
AcDbBlockEnd
  0
BLOCK
  5
A14
330
121
100
AcDbEntity
  8
0
100
AcDbBlockBegin
  2
BLOCK25
 70
     0
 10
0.0
 20
0.0
 30
0.0
  3
BLOCK25
  1

  0
TEXT
  5
2A7
330
121
100
AcDbEntity
  8
0
 62
     7
370
    15
390
F
100
AcDbText
 10
-526.030212
 20
350.595337
 30
0.0
 40
2.0
  1
A
 41
0.9777826666666746
 72
     5
 11
-524.563538
 21
350.595337
 31
0.0
100
AcDbText
  0
ENDBLK
  5
A15
330
121
100
AcDbEntity
  8
0
100
AcDbBlockEnd
  0
BLOCK
  5
A16
330
122
100
AcDbEntity
  8
0
100
AcDbBlockBegin
  2
BLOCK26
 70
     0
 10
0.0
 20
0.0
 30
0.0
  3
BLOCK26
  1

  0
TEXT
  5
2AA
330
122
100
AcDbEntity
  8
0
 62
     7
370
    15
390
F
100
AcDbText
 10
-526.030212
 20
254.92865
 30
0.0
 40
2.0
  1
B
 41
1.128210769230778
 72
     5
 11
-524.563538
 21
254.92865
 31
0.0
100
AcDbText
  0
ENDBLK
  5
A17
330
122
100
AcDbEntity
  8
0
100
AcDbBlockEnd
  0
BLOCK
  5
A18
330
123
100
AcDbEntity
  8
0
100
AcDbBlockBegin
  2
BLOCK27
 70
     0
 10
0.0
 20
0.0
 30
0.0
  3
BLOCK27
  1

  0
TEXT
  5
2AD
330
123
100
AcDbEntity
  8
0
 62
     7
370
    15
390
F
100
AcDbText
 10
-526.030212
 20
159.261978
 30
0.0
 40
2.0
  1
C
 41
1.333340000000011
 72
     5
 11
-524.563538
 21
159.261978
 31
0.0
100
AcDbText
  0
ENDBLK
  5
A19
330
123
100
AcDbEntity
  8
0
100
AcDbBlockEnd
  0
BLOCK
  5
A1A
330
124
100
AcDbEntity
  8
0
100
AcDbBlockBegin
  2
BLOCK28
 70
     0
 10
0.0
 20
0.0
 30
0.0
  3
BLOCK28
  1

  0
TEXT
  5
2B0
330
124
100
AcDbEntity
  8
0
 62
     7
370
    15
390
F
100
AcDbText
 10
-526.030212
 20
63.595314
 30
0.0
 40
2.0
  1
D
 41
1.128210769230778
 72
     5
 11
-524.563538
 21
63.595314
 31
0.0
100
AcDbText
  0
ENDBLK
  5
A1B
330
124
100
AcDbEntity
  8
0
100
AcDbBlockEnd
  0
BLOCK
  5
A1C
330
125
100
AcDbEntity
  8
0
100
AcDbBlockBegin
  2
BLOCK29
 70
     0
 10
0.0
 20
0.0
 30
0.0
  3
BLOCK29
  1

  0
TEXT
  5
2B3
330
125
100
AcDbEntity
  8
0
 62
     7
370
    15
390
F
100
AcDbText
 10
-526.030212
 20
-32.07135
 30
0.0
 40
2.0
  1
E
 41
1.333340000000011
 72
     5
 11
-524.563538
 21
-32.07135
 31
0.0
100
AcDbText
  0
ENDBLK
  5
A1D
330
125
100
AcDbEntity
  8
0
100
AcDbBlockEnd
  0
BLOCK
  5
A1E
330
126
100
AcDbEntity
  8
0
100
AcDbBlockBegin
  2
BLOCK30
 70
     0
 10
0.0
 20
0.0
 30
0.0
  3
BLOCK30
  1

  0
TEXT
  5
2B6
330
126
100
AcDbEntity
  8
0
 62
     7
370
    15
390
F
100
AcDbText
 10
-526.030212
 20
-127.738037
 30
0.0
 40
2.0
  1
F
 41
1.333340000000011
 72
     5
 11
-524.563538
 21
-127.738037
 31
0.0
100
AcDbText
  0
ENDBLK
  5
A1F
330
126
100
AcDbEntity
  8
0
100
AcDbBlockEnd
  0
BLOCK
  5
A20
330
127
100
AcDbEntity
  8
0
100
AcDbBlockBegin
  2
BLOCK31
 70
     0
 10
0.0
 20
0.0
 30
0.0
  3
BLOCK31
  1

  0
TEXT
  5
2B9
330
127
100
AcDbEntity
  8
0
 62
     7
370
    15
390
F
100
AcDbText
 10
-478.474609
 20
-178.07135
 30
0.0
 40
2.0
  1
1
 41
2.095248571428588
 72
     5
 11
-477.007935
 21
-178.07135
 31
0.0
100
AcDbText
  0
ENDBLK
  5
A21
330
127
100
AcDbEntity
  8
0
100
AcDbBlockEnd
  0
BLOCK
  5
A22
330
128
100
AcDbEntity
  8
0
100
AcDbBlockBegin
  2
BLOCK32
 70
     0
 10
0.0
 20
0.0
 30
0.0
  3
BLOCK32
  1

  0
TEXT
  5
2BC
330
128
100
AcDbEntity
  8
0
 62
     7
370
    15
390
F
100
AcDbText
 10
-388.363495
 20
-178.07135
 30
0.0
 40
2.0
  1
2
 41
1.332805064362049
 72
     5
 11
-386.89682
 21
-178.07135
 31
0.0
100
AcDbText
  0
ENDBLK
  5
A23
330
128
100
AcDbEntity
  8
0
100
AcDbBlockEnd
  0
BLOCK
  5
A24
330
129
100
AcDbEntity
  8
0
100
AcDbBlockBegin
  2
BLOCK33
 70
     0
 10
0.0
 20
0.0
 30
0.0
  3
BLOCK33
  1

  0
TEXT
  5
2BF
330
129
100
AcDbEntity
  8
0
 62
     7
370
    15
390
F
100
AcDbText
 10
-298.25238
 20
-178.07135
 30
0.0
 40
2.0
  1
3
 41
1.333340000000011
 72
     5
 11
-296.785706
 21
-178.07135
 31
0.0
100
AcDbText
  0
ENDBLK
  5
A25
330
129
100
AcDbEntity
  8
0
100
AcDbBlockEnd
  0
BLOCK
  5
A26
330
12A
100
AcDbEntity
  8
0
100
AcDbBlockBegin
  2
BLOCK34
 70
     0
 10
0.0
 20
0.0
 30
0.0
  3
BLOCK34
  1

  0
TEXT
  5
2C2
330
12A
100
AcDbEntity
  8
0
 62
     7
370
    15
390
F
100
AcDbText
 10
-208.141266
 20
-178.07135
 30
0.0
 40
2.0
  1
4
 41
1.128199999999993
 72
     5
 11
-206.674606
 21
-178.07135
 31
0.0
100
AcDbText
  0
ENDBLK
  5
A27
330
12A
100
AcDbEntity
  8
0
100
AcDbBlockEnd
  0
BLOCK
  5
A28
330
12B
100
AcDbEntity
  8
0
100
AcDbBlockBegin
  2
BLOCK35
 70
     0
 10
0.0
 20
0.0
 30
0.0
  3
BLOCK35
  1

  0
TEXT
  5
2C5
330
12B
100
AcDbEntity
  8
0
 62
     7
370
    15
390
F
100
AcDbText
 10
-118.030159
 20
-178.07135
 30
0.0
 40
2.0
  1
5
 41
1.333333636363637
 72
     5
 11
-116.563492
 21
-178.07135
 31
0.0
100
AcDbText
  0
ENDBLK
  5
A29
330
12B
100
AcDbEntity
  8
0
100
AcDbBlockEnd
  0
BLOCK
  5
A2A
330
12C
100
AcDbEntity
  8
0
100
AcDbBlockBegin
  2
BLOCK36
 70
     0
 10
0.0
 20
0.0
 30
0.0
  3
BLOCK36
  1

  0
TEXT
  5
2C8
330
12C
100
AcDbEntity
  8
0
 62
     7
370
    15
390
F
100
AcDbText
 10
-27.919044
 20
-178.07135
 30
0.0
 40
2.0
  1
6
 41
1.333333636363637
 72
     5
 11
-26.452377
 21
-178.07135
 31
0.0
100
AcDbText
  0
ENDBLK
  5
A2B
330
12C
100
AcDbEntity
  8
0
100
AcDbBlockEnd
  0
BLOCK
  5
A2C
330
12D
100
AcDbEntity
  8
0
100
AcDbBlockBegin
  2
BLOCK37
 70
     0
 10
0.0
 20
0.0
 30
0.0
  3
BLOCK37
  1

  0
TEXT
  5
2CB
330
12D
100
AcDbEntity
  8
0
 62
     7
370
    15
390
F
100
AcDbText
 10
62.192055
 20
-178.07135
 30
0.0
 40
2.0
  1
7
 41
1.333333636363631
 72
     5
 11
63.658722
 21
-178.07135
 31
0.0
100
AcDbText
  0
ENDBLK
  5
A2D
330
12D
100
AcDbEntity
  8
0
100
AcDbBlockEnd
  0
BLOCK
  5
A2E
330
12E
100
AcDbEntity
  8
0
100
AcDbBlockBegin
  2
BLOCK38
 70
     0
 10
0.0
 20
0.0
 30
0.0
  3
BLOCK38
  1

  0
TEXT
  5
2CE
330
12E
100
AcDbEntity
  8
0
 62
     7
370
    15
390
F
100
AcDbText
 10
152.303192
 20
-178.07135
 30
0.0
 40
2.0
  1
8
 41
1.33393360618462
 72
     5
 11
153.769852
 21
-178.07135
 31
0.0
100
AcDbText
  0
ENDBLK
  5
A2F
330
12E
100
AcDbEntity
  8
0
100
AcDbBlockEnd
  0
BLOCK
  5
A30
330
12F
100
AcDbEntity
  8
0
100
AcDbBlockBegin
  2
BLOCK39
 70
     0
 10
0.0
 20
0.0
 30
0.0
  3
BLOCK39
  1

  0
TEXT
  5
2D1
330
12F
100
AcDbEntity
  8
0
 62
     7
370
    15
390
F
100
AcDbText
 10
242.414307
 20
-178.07135
 30
0.0
 40
2.0
  1
9
 41
1.324908783338613
 72
     5
 11
243.880966
 21
-178.07135
 31
0.0
100
AcDbText
  0
ENDBLK
  5
A31
330
12F
100
AcDbEntity
  8
0
100
AcDbBlockEnd
  0
BLOCK
  5
A32
330
130
100
AcDbEntity
  8
0
100
AcDbBlockBegin
  2
BLOCK40
 70
     0
 10
0.0
 20
0.0
 30
0.0
  3
BLOCK40
  1

  0
TEXT
  5
2D4
330
130
100
AcDbEntity
  8
0
 62
     7
370
    15
390
F
100
AcDbText
 10
-478.474609
 20
400.92865
 30
0.0
 40
2.0
  1
1
 41
2.095248571428588
 72
     5
 11
-477.007935
 21
400.92865
 31
0.0
100
AcDbText
  0
ENDBLK
  5
A33
330
130
100
AcDbEntity
  8
0
100
AcDbBlockEnd
  0
BLOCK
  5
A34
330
131
100
AcDbEntity
  8
0
100
AcDbBlockBegin
  2
BLOCK41
 70
     0
 10
0.0
 20
0.0
 30
0.0
  3
BLOCK41
  1

  0
TEXT
  5
2D7
330
131
100
AcDbEntity
  8
0
 62
     7
370
    15
390
F
100
AcDbText
 10
-388.363495
 20
400.92865
 30
0.0
 40
2.0
  1
2
 41
1.332805064362049
 72
     5
 11
-386.89682
 21
400.92865
 31
0.0
100
AcDbText
  0
ENDBLK
  5
A35
330
131
100
AcDbEntity
  8
0
100
AcDbBlockEnd
  0
BLOCK
  5
A36
330
132
100
AcDbEntity
  8
0
100
AcDbBlockBegin
  2
BLOCK42
 70
     0
 10
0.0
 20
0.0
 30
0.0
  3
BLOCK42
  1

  0
TEXT
  5
2DA
330
132
100
AcDbEntity
  8
0
 62
     7
370
    15
390
F
100
AcDbText
 10
-298.25238
 20
400.92865
 30
0.0
 40
2.0
  1
3
 41
1.333340000000011
 72
     5
 11
-296.785706
 21
400.92865
 31
0.0
100
AcDbText
  0
ENDBLK
  5
A37
330
132
100
AcDbEntity
  8
0
100
AcDbBlockEnd
  0
BLOCK
  5
A38
330
133
100
AcDbEntity
  8
0
100
AcDbBlockBegin
  2
BLOCK43
 70
     0
 10
0.0
 20
0.0
 30
0.0
  3
BLOCK43
  1

  0
TEXT
  5
2DD
330
133
100
AcDbEntity
  8
0
 62
     7
370
    15
390
F
100
AcDbText
 10
-208.141266
 20
400.92865
 30
0.0
 40
2.0
  1
4
 41
1.128199999999993
 72
     5
 11
-206.674606
 21
400.92865
 31
0.0
100
AcDbText
  0
ENDBLK
  5
A39
330
133
100
AcDbEntity
  8
0
100
AcDbBlockEnd
  0
BLOCK
  5
A3A
330
134
100
AcDbEntity
  8
0
100
AcDbBlockBegin
  2
BLOCK44
 70
     0
 10
0.0
 20
0.0
 30
0.0
  3
BLOCK44
  1

  0
TEXT
  5
2E0
330
134
100
AcDbEntity
  8
0
 62
     7
370
    15
390
F
100
AcDbText
 10
-118.030159
 20
400.92865
 30
0.0
 40
2.0
  1
5
 41
1.333333636363637
 72
     5
 11
-116.563492
 21
400.92865
 31
0.0
100
AcDbText
  0
ENDBLK
  5
A3B
330
134
100
AcDbEntity
  8
0
100
AcDbBlockEnd
  0
BLOCK
  5
A3C
330
135
100
AcDbEntity
  8
0
100
AcDbBlockBegin
  2
BLOCK45
 70
     0
 10
0.0
 20
0.0
 30
0.0
  3
BLOCK45
  1

  0
TEXT
  5
2E3
330
135
100
AcDbEntity
  8
0
 62
     7
370
    15
390
F
100
AcDbText
 10
-27.919044
 20
400.92865
 30
0.0
 40
2.0
  1
6
 41
1.333333636363637
 72
     5
 11
-26.452377
 21
400.92865
 31
0.0
100
AcDbText
  0
ENDBLK
  5
A3D
330
135
100
AcDbEntity
  8
0
100
AcDbBlockEnd
  0
BLOCK
  5
A3E
330
136
100
AcDbEntity
  8
0
100
AcDbBlockBegin
  2
BLOCK46
 70
     0
 10
0.0
 20
0.0
 30
0.0
  3
BLOCK46
  1

  0
TEXT
  5
2E6
330
136
100
AcDbEntity
  8
0
 62
     7
370
    15
390
F
100
AcDbText
 10
62.192055
 20
400.92865
 30
0.0
 40
2.0
  1
7
 41
1.333333636363631
 72
     5
 11
63.658722
 21
400.92865
 31
0.0
100
AcDbText
  0
ENDBLK
  5
A3F
330
136
100
AcDbEntity
  8
0
100
AcDbBlockEnd
  0
BLOCK
  5
A40
330
137
100
AcDbEntity
  8
0
100
AcDbBlockBegin
  2
BLOCK47
 70
     0
 10
0.0
 20
0.0
 30
0.0
  3
BLOCK47
  1

  0
TEXT
  5
2E9
330
137
100
AcDbEntity
  8
0
 62
     7
370
    15
390
F
100
AcDbText
 10
152.303192
 20
400.92865
 30
0.0
 40
2.0
  1
8
 41
1.33393360618462
 72
     5
 11
153.769852
 21
400.92865
 31
0.0
100
AcDbText
  0
ENDBLK
  5
A41
330
137
100
AcDbEntity
  8
0
100
AcDbBlockEnd
  0
BLOCK
  5
A42
330
138
100
AcDbEntity
  8
0
100
AcDbBlockBegin
  2
BLOCK48
 70
     0
 10
0.0
 20
0.0
 30
0.0
  3
BLOCK48
  1

  0
TEXT
  5
2EC
330
138
100
AcDbEntity
  8
0
 62
     7
370
    15
390
F
100
AcDbText
 10
242.414307
 20
400.92865
 30
0.0
 40
2.0
  1
9
 41
1.324908783338613
 72
     5
 11
243.880966
 21
400.92865
 31
0.0
100
AcDbText
  0
ENDBLK
  5
A43
330
138
100
AcDbEntity
  8
0
100
AcDbBlockEnd
  0
BLOCK
  5
A44
330
139
100
AcDbEntity
  8
0
100
AcDbBlockBegin
  2
BLOCK49
 70
     0
 10
0.0
 20
0.0
 30
0.0
  3
BLOCK49
  1

  0
TEXT
  5
2EF
330
139
100
AcDbEntity
  8
0
 62
     7
370
    15
390
F
100
AcDbText
 10
289.969849
 20
350.595337
 30
0.0
 40
2.0
  1
A
 41
0.9777826666666746
 72
     5
 11
291.436523
 21
350.595337
 31
0.0
100
AcDbText
  0
ENDBLK
  5
A45
330
139
100
AcDbEntity
  8
0
100
AcDbBlockEnd
  0
BLOCK
  5
A46
330
13A
100
AcDbEntity
  8
0
100
AcDbBlockBegin
  2
BLOCK50
 70
     0
 10
0.0
 20
0.0
 30
0.0
  3
BLOCK50
  1

  0
TEXT
  5
2F2
330
13A
100
AcDbEntity
  8
0
 62
     7
370
    15
390
F
100
AcDbText
 10
289.969849
 20
254.92865
 30
0.0
 40
2.0
  1
B
 41
1.128210769230778
 72
     5
 11
291.436523
 21
254.92865
 31
0.0
100
AcDbText
  0
ENDBLK
  5
A47
330
13A
100
AcDbEntity
  8
0
100
AcDbBlockEnd
  0
BLOCK
  5
A48
330
13B
100
AcDbEntity
  8
0
100
AcDbBlockBegin
  2
BLOCK51
 70
     0
 10
0.0
 20
0.0
 30
0.0
  3
BLOCK51
  1

  0
TEXT
  5
2F5
330
13B
100
AcDbEntity
  8
0
 62
     7
370
    15
390
F
100
AcDbText
 10
289.969849
 20
159.261978
 30
0.0
 40
2.0
  1
C
 41
1.333340000000011
 72
     5
 11
291.436523
 21
159.261978
 31
0.0
100
AcDbText
  0
ENDBLK
  5
A49
330
13B
100
AcDbEntity
  8
0
100
AcDbBlockEnd
  0
BLOCK
  5
A4A
330
13C
100
AcDbEntity
  8
0
100
AcDbBlockBegin
  2
BLOCK52
 70
     0
 10
0.0
 20
0.0
 30
0.0
  3
BLOCK52
  1

  0
TEXT
  5
2F8
330
13C
100
AcDbEntity
  8
0
 62
     7
370
    15
390
F
100
AcDbText
 10
289.969849
 20
63.595314
 30
0.0
 40
2.0
  1
D
 41
1.128210769230778
 72
     5
 11
291.436523
 21
63.595314
 31
0.0
100
AcDbText
  0
ENDBLK
  5
A4B
330
13C
100
AcDbEntity
  8
0
100
AcDbBlockEnd
  0
BLOCK
  5
A4C
330
13D
100
AcDbEntity
  8
0
100
AcDbBlockBegin
  2
BLOCK53
 70
     0
 10
0.0
 20
0.0
 30
0.0
  3
BLOCK53
  1

  0
TEXT
  5
2FB
330
13D
100
AcDbEntity
  8
0
 62
     7
370
    15
390
F
100
AcDbText
 10
289.969849
 20
-32.07135
 30
0.0
 40
2.0
  1
E
 41
1.333340000000011
 72
     5
 11
291.436523
 21
-32.07135
 31
0.0
100
AcDbText
  0
ENDBLK
  5
A4D
330
13D
100
AcDbEntity
  8
0
100
AcDbBlockEnd
  0
BLOCK
  5
A4E
330
13E
100
AcDbEntity
  8
0
100
AcDbBlockBegin
  2
BLOCK54
 70
     0
 10
0.0
 20
0.0
 30
0.0
  3
BLOCK54
  1

  0
TEXT
  5
2FE
330
13E
100
AcDbEntity
  8
0
 62
     7
370
    15
390
F
100
AcDbText
 10
289.969849
 20
-127.738037
 30
0.0
 40
2.0
  1
F
 41
1.333340000000011
 72
     5
 11
291.436523
 21
-127.738037
 31
0.0
100
AcDbText
  0
ENDBLK
  5
A4F
330
13E
100
AcDbEntity
  8
0
100
AcDbBlockEnd
  0
BLOCK
  5
A50
330
13F
100
AcDbEntity
  8
0
100
AcDbBlockBegin
  2
BLOCK55
 70
     0
 10
0.0
 20
0.0
 30
0.0
  3
BLOCK55
  1

  0
TEXT
  5
301
330
13F
100
AcDbEntity
  8
0
 62
     7
370
    15
390
F
100
AcDbText
 10
133.435822
 20
-86.297028
 30
0.0
 40
2.0
  1
TOLLERANZE GENERALI
 41
1.262511062271062
 72
     5
 11
167.902374
 21
-86.297028
 31
0.0
100
AcDbText
  0
ENDBLK
  5
A51
330
13F
100
AcDbEntity
  8
0
100
AcDbBlockEnd
  0
BLOCK
  5
A52
330
140
100
AcDbEntity
  8
0
100
AcDbBlockBegin
  2
BLOCK56
 70
     0
 10
0.0
 20
0.0
 30
0.0
  3
BLOCK56
  1

  0
TEXT
  5
304
330
140
100
AcDbEntity
  8
0
 62
     7
370
    15
390
F
100
AcDbText
 10
110.512321
 20
-139.7854
 30
0.0
 40
2.0
  1
DENOMINAZIONE
 41
1.268464378378379
 72
     5
 11
133.978912
 21
-139.7854
 31
0.0
100
AcDbText
  0
ENDBLK
  5
A53
330
140
100
AcDbEntity
  8
0
100
AcDbBlockEnd
  0
BLOCK
  5
A54
330
141
100
AcDbEntity
  8
0
100
AcDbBlockBegin
  2
BLOCK57
 70
     0
 10
0.0
 20
0.0
 30
0.0
  3
BLOCK57
  1

  0
TEXT
  5
307
330
141
100
AcDbEntity
  8
0
 62
     7
370
    15
390
F
100
AcDbText
 10
159.557007
 20
-155.709534
 30
0.0
 40
2.0
  1
MATERIALE
 41
1.231548473282443
 72
     5
 11
175.690292
 21
-155.709534
 31
0.0
100
AcDbText
  0
ENDBLK
  5
A55
330
141
100
AcDbEntity
  8
0
100
AcDbBlockEnd
  0
BLOCK
  5
A56
330
142
100
AcDbEntity
  8
0
100
AcDbBlockBegin
  2
BLOCK58
 70
     0
 10
0.0
 20
0.0
 30
0.0
  3
BLOCK58
  1

  0
TEXT
  5
30A
330
142
100
AcDbEntity
  8
0
 62
     7
370
    15
390
F
100
AcDbText
 10
159.753021
 20
-168.518616
 30
0.0
 40
2.0
  1
FINITURA
 41
1.361900761904762
 72
     5
 11
174.052979
 21
-168.518616
 31
0.0
100
AcDbText
  0
ENDBLK
  5
A57
330
142
100
AcDbEntity
  8
0
100
AcDbBlockEnd
  0
BLOCK
  5
A58
330
143
100
AcDbEntity
  8
0
100
AcDbBlockBegin
  2
BLOCK59
 70
     0
 10
0.0
 20
0.0
 30
0.0
  3
BLOCK59
  1

  0
TEXT
  5
30D
330
143
100
AcDbEntity
  8
0
 62
     7
370
    15
390
F
100
AcDbText
 10
184.246216
 20
-134.725891
 30
0.0
 40
2.0
  1
IND.
 41
1.699181463414634
 72
     5
 11
191.21286
 21
-134.725891
 31
0.0
100
AcDbText
  0
ENDBLK
  5
A59
330
143
100
AcDbEntity
  8
0
100
AcDbBlockEnd
  0
BLOCK
  5
A5A
330
144
100
AcDbEntity
  8
0
100
AcDbBlockBegin
  2
BLOCK60
 70
     0
 10
0.0
 20
0.0
 30
0.0
  3
BLOCK60
  1

  0
TEXT
  5
310
330
144
100
AcDbEntity
  8
0
 62
     7
370
    15
390
F
100
AcDbText
 10
192.687561
 20
-135.229004
 30
0.0
 40
2.0
  1
RIF.
 41
1.786318974358975
 72
     5
 11
199.654205
 21
-135.229004
 31
0.0
100
AcDbText
  0
ENDBLK
  5
A5B
330
144
100
AcDbEntity
  8
0
100
AcDbBlockEnd
  0
BLOCK
  5
A5C
330
145
100
AcDbEntity
  8
0
100
AcDbBlockBegin
  2
BLOCK61
 70
     0
 10
0.0
 20
0.0
 30
0.0
  3
BLOCK61
  1

  0
TEXT
  5
313
330
145
100
AcDbEntity
  8
0
 62
     7
370
    15
390
F
100
AcDbText
 10
215.980499
 20
-135.112732
 30
0.0
 40
2.0
  1
DESCRIZIONE
 41
1.346933809523809
 72
     5
 11
235.780426
 21
-135.112732
 31
0.0
100
AcDbText
  0
ENDBLK
  5
A5D
330
145
100
AcDbEntity
  8
0
100
AcDbBlockEnd
  0
BLOCK
  5
A5E
330
146
100
AcDbEntity
  8
0
100
AcDbBlockBegin
  2
BLOCK62
 70
     0
 10
0.0
 20
0.0
 30
0.0
  3
BLOCK62
  1

  0
TEXT
  5
316
330
146
100
AcDbEntity
  8
0
 62
     7
370
    15
390
F
100
AcDbText
 10
259.755005
 20
-135.159241
 30
0.0
 40
2.0
  1
DATA
 41
1.071791384615389
 72
     5
 11
266.721649
 21
-135.159241
 31
0.0
100
AcDbText
  0
ENDBLK
  5
A5F
330
146
100
AcDbEntity
  8
0
100
AcDbBlockEnd
  0
BLOCK
  5
A60
330
147
100
AcDbEntity
  8
0
100
AcDbBlockBegin
  2
BLOCK63
 70
     0
 10
0.0
 20
0.0
 30
0.0
  3
BLOCK63
  1

  0
TEXT
  5
319
330
147
100
AcDbEntity
  8
0
 62
     7
370
    15
390
F
100
AcDbText
 10
276.668732
 20
-134.973267
 30
0.0
 40
2.0
  1
FIRMA
 41
1.275360434782615
 72
     5
 11
285.468719
 21
-134.973267
 31
0.0
100
AcDbText
  0
ENDBLK
  5
A61
330
147
100
AcDbEntity
  8
0
100
AcDbBlockEnd
  0
BLOCK
  5
A62
330
148
100
AcDbEntity
  8
0
100
AcDbBlockBegin
  2
BLOCK64
 70
     0
 10
0.0
 20
0.0
 30
0.0
  3
BLOCK64
  1

  0
TEXT
  5
31C
330
148
100
AcDbEntity
  8
0
 62
     7
370
    15
390
F
100
AcDbText
 10
228.315094
 20
-140.041107
 30
0.0
 40
2.0
  1
SCALA
 41
1.142853636363639
 72
     5
 11
237.115067
 21
-140.041107
 31
0.0
100
AcDbText
  0
ENDBLK
  5
A63
330
148
100
AcDbEntity
  8
0
100
AcDbBlockEnd
  0
BLOCK
  5
A64
330
149
100
AcDbEntity
  8
0
100
AcDbBlockBegin
  2
BLOCK65
 70
     0
 10
0.0
 20
0.0
 30
0.0
  3
BLOCK65
  1

  0
TEXT
  5
31F
330
149
100
AcDbEntity
  8
0
 62
     7
370
    15
390
F
100
AcDbText
 10
108.997612
 20
-78.865295
 30
0.0
 40
2.0
  1
TOLLERANZE GENERALI GRUPPO..........
 41
1.501902173913044
 72
     5
 11
174.630737
 21
-78.865295
 31
0.0
100
AcDbText
  0
ENDBLK
  5
A65
330
149
100
AcDbEntity
  8
0
100
AcDbBlockEnd
  0
BLOCK
  5
A66
330
14A
100
AcDbEntity
  8
0
100
AcDbBlockBegin
  2
BLOCK66
 70
     0
 10
0.0
 20
0.0
 30
0.0
  3
BLOCK66
  1

  0
TEXT
  5
322
330
14A
100
AcDbEntity
  8
0
 62
     7
370
    15
390
F
100
AcDbText
 10
183.803711
 20
-120.529114
 30
0.0
 40
2.5
  1
MODIFICHE
 50
90.0
 41
1.378913025641026
 72
     5
 11
183.803711
 21
-100.362511
 31
0.0
100
AcDbText
  0
ENDBLK
  5
A67
330
14A
100
AcDbEntity
  8
0
100
AcDbBlockEnd
  0
BLOCK
  5
A68
330
14B
100
AcDbEntity
  8
0
100
AcDbBlockBegin
  2
BLOCK67
 70
     0
 10
0.0
 20
0.0
 30
0.0
  3
BLOCK67
  1

  0
TEXT
  5
325
330
14B
100
AcDbEntity
  8
0
 62
     7
370
    15
390
F
100
AcDbText
 10
228.240692
 20
-156.428711
 30
0.0
 40
2.5
  1
CODICE
 41
1.380948155844157
 72
     5
 11
241.532318
 21
-156.428711
 31
0.0
100
AcDbText
  0
ENDBLK
  5
A69
330
14B
100
AcDbEntity
  8
0
100
AcDbBlockEnd
  0
BLOCK
  5
A6A
330
14C
100
AcDbEntity
  8
0
100
AcDbBlockBegin
  2
BLOCK68
 70
     0
 10
0.0
 20
0.0
 30
0.0
  3
BLOCK68
  1

  0
TEXT
  5
328
330
14C
100
AcDbEntity
  8
0
 62
     7
370
    15
390
F
100
AcDbText
 10
115.950096
 20
-170.242859
 30
0.0
 40
1.5
  1
24069 Cenate Sotto/Bergamo
 41
1.347305417070998
 72
     5
 11
151.424973
 21
-170.242859
 31
0.0
100
AcDbText
  0
ENDBLK
  5
A6B
330
14C
100
AcDbEntity
  8
0
100
AcDbBlockEnd
  0
BLOCK
  5
A6C
330
14D
100
AcDbEntity
  8
0
100
AcDbBlockBegin
  2
BLOCK69
 70
     0
 10
0.0
 20
0.0
 30
0.0
  3
BLOCK69
  1

  0
TEXT
  5
32B
330
14D
100
AcDbEntity
  8
0
 62
     7
370
    15
390
F
100
AcDbText
 10
123.407982
 20
-135.621521
 30
0.0
 40
2.0
  1
0.75
 41
1.548144888888885
 72
     5
 11
130.374634
 21
-135.621521
 31
0.0
100
AcDbText
  0
ENDBLK
  5
A6D
330
14D
100
AcDbEntity
  8
0
100
AcDbBlockEnd
  0
BLOCK
  5
A6E
330
14E
100
AcDbEntity
  8
0
100
AcDbBlockBegin
  2
BLOCK70
 70
     0
 10
0.0
 20
0.0
 30
0.0
  3
BLOCK70
  1

  0
TEXT
  5
32E
330
14E
100
AcDbEntity
  8
0
 62
     7
370
    15
390
F
100
AcDbText
 10
121.633949
 20
-135.073914
 30
0.0
 40
2.0
  1
+
 41
1.333333636363637
 72
     5
 11
123.100616
 21
-135.073914
 31
0.0
100
AcDbText
  0
ENDBLK
  5
A6F
330
14E
100
AcDbEntity
  8
0
100
AcDbBlockEnd
  0
BLOCK
  5
A70
330
14F
100
AcDbEntity
  8
0
100
AcDbBlockBegin
  2
BLOCK71
 70
     0
 10
0.0
 20
0.0
 30
0.0
  3
BLOCK71
  1

  0
TEXT
  5
331
330
14F
100
AcDbEntity
  8
0
 62
     7
370
    15
390
F
100
AcDbText
 10
121.633949
 20
-136.085876
 30
0.0
 40
2.0
  1
-
 41
1.333333636363637
 72
     5
 11
123.100616
 21
-136.085876
 31
0.0
100
AcDbText
  0
ENDBLK
  5
A71
330
14F
100
AcDbEntity
  8
0
100
AcDbBlockEnd
  0
BLOCK
  5
A72
330
150
100
AcDbEntity
  8
0
100
AcDbBlockBegin
  2
BLOCK72
 70
     0
 10
0.0
 20
0.0
 30
0.0
  3
BLOCK72
  1

  0
TEXT
  5
334
330
150
100
AcDbEntity
  8
0
 62
     7
370
    15
390
F
100
AcDbText
 10
134.324646
 20
-135.621521
 30
0.0
 40
2.0
  1
1.5
 41
1.901228148148151
 72
     5
 11
139.457962
 21
-135.621521
 31
0.0
100
AcDbText
  0
ENDBLK
  5
A73
330
150
100
AcDbEntity
  8
0
100
AcDbBlockEnd
  0
BLOCK
  5
A74
330
151
100
AcDbEntity
  8
0
100
AcDbBlockBegin
  2
BLOCK73
 70
     0
 10
0.0
 20
0.0
 30
0.0
  3
BLOCK73
  1

  0
TEXT
  5
337
330
151
100
AcDbEntity
  8
0
 62
     7
370
    15
390
F
100
AcDbText
 10
146.15799
 20
-135.621521
 30
0.0
 40
2.0
  1
1
 41
2.095227142857132
 72
     5
 11
147.624649
 21
-135.621521
 31
0.0
100
AcDbText
  0
ENDBLK
  5
A75
330
151
100
AcDbEntity
  8
0
100
AcDbBlockEnd
  0
BLOCK
  5
A76
330
152
100
AcDbEntity
  8
0
100
AcDbBlockBegin
  2
BLOCK74
 70
     0
 10
0.0
 20
0.0
 30
0.0
  3
BLOCK74
  1

  0
TEXT
  5
33A
330
152
100
AcDbEntity
  8
0
 62
     7
370
    15
390
F
100
AcDbText
 10
154.324646
 20
-135.621521
 30
0.0
 40
2.0
  1
1.5
 41
1.901228148148151
 72
     5
 11
159.457962
 21
-135.621521
 31
0.0
100
AcDbText
  0
ENDBLK
  5
A77
330
152
100
AcDbEntity
  8
0
100
AcDbBlockEnd
  0
BLOCK
  5
A78
330
153
100
AcDbEntity
  8
0
100
AcDbBlockBegin
  2
BLOCK75
 70
     0
 10
0.0
 20
0.0
 30
0.0
  3
BLOCK75
  1

  0
TEXT
  5
33D
330
153
100
AcDbEntity
  8
0
 62
     7
370
    15
390
F
100
AcDbText
 10
164.324646
 20
-135.621521
 30
0.0
 40
2.0
  1
1,5
 41
1.833327142857145
 72
     5
 11
169.457962
 21
-135.621521
 31
0.0
100
AcDbText
  0
ENDBLK
  5
A79
330
153
100
AcDbEntity
  8
0
100
AcDbBlockEnd
  0
BLOCK
  5
A7A
330
154
100
AcDbEntity
  8
0
100
AcDbBlockBegin
  2
BLOCK76
 70
     0
 10
0.0
 20
0.0
 30
0.0
  3
BLOCK76
  1

  0
TEXT
  5
340
330
154
100
AcDbEntity
  8
0
 62
     7
370
    15
390
F
100
AcDbText
 10
174.324646
 20
-135.621521
 30
0.0
 40
2.0
  1
2.5
 41
1.655908387096777
 72
     5
 11
179.457962
 21
-135.621521
 31
0.0
100
AcDbText
  0
ENDBLK
  5
A7B
330
154
100
AcDbEntity
  8
0
100
AcDbBlockEnd
  0
BLOCK
  5
A7C
330
155
100
AcDbEntity
  8
0
100
AcDbBlockBegin
  2
BLOCK77
 70
     0
 10
0.0
 20
0.0
 30
0.0
  3
BLOCK77
  1

  0
TEXT
  5
343
330
155
100
AcDbEntity
  8
0
 62
     7
370
    15
390
F
100
AcDbText
 10
131.633942
 20
-136.085876
 30
0.0
 40
2.0
  1
-
 41
1.333326363636383
 72
     5
 11
133.100601
 21
-136.085876
 31
0.0
100
AcDbText
  0
ENDBLK
  5
A7D
330
155
100
AcDbEntity
  8
0
100
AcDbBlockEnd
  0
BLOCK
  5
A7E
330
156
100
AcDbEntity
  8
0
100
AcDbBlockBegin
  2
BLOCK78
 70
     0
 10
0.0
 20
0.0
 30
0.0
  3
BLOCK78
  1

  0
TEXT
  5
346
330
156
100
AcDbEntity
  8
0
 62
     7
370
    15
390
F
100
AcDbText
 10
131.633942
 20
-135.073914
 30
0.0
 40
2.0
  1
+
 41
1.333326363636383
 72
     5
 11
133.100601
 21
-135.073914
 31
0.0
100
AcDbText
  0
ENDBLK
  5
A7F
330
156
100
AcDbEntity
  8
0
100
AcDbBlockEnd
  0
BLOCK
  5
A80
330
157
100
AcDbEntity
  8
0
100
AcDbBlockBegin
  2
BLOCK79
 70
     0
 10
0.0
 20
0.0
 30
0.0
  3
BLOCK79
  1

  0
TEXT
  5
349
330
157
100
AcDbEntity
  8
0
 62
     7
370
    15
390
F
100
AcDbText
 10
141.633942
 20
-136.085876
 30
0.0
 40
2.0
  1
-
 41
1.333326363636383
 72
     5
 11
143.100601
 21
-136.085876
 31
0.0
100
AcDbText
  0
ENDBLK
  5
A81
330
157
100
AcDbEntity
  8
0
100
AcDbBlockEnd
  0
BLOCK
  5
A82
330
158
100
AcDbEntity
  8
0
100
AcDbBlockBegin
  2
BLOCK80
 70
     0
 10
0.0
 20
0.0
 30
0.0
  3
BLOCK80
  1

  0
TEXT
  5
34C
330
158
100
AcDbEntity
  8
0
 62
     7
370
    15
390
F
100
AcDbText
 10
141.633942
 20
-135.073914
 30
0.0
 40
2.0
  1
+
 41
1.333326363636383
 72
     5
 11
143.100601
 21
-135.073914
 31
0.0
100
AcDbText
  0
ENDBLK
  5
A83
330
158
100
AcDbEntity
  8
0
100
AcDbBlockEnd
  0
BLOCK
  5
A84
330
159
100
AcDbEntity
  8
0
100
AcDbBlockBegin
  2
BLOCK81
 70
     0
 10
0.0
 20
0.0
 30
0.0
  3
BLOCK81
  1

  0
TEXT
  5
34F
330
159
100
AcDbEntity
  8
0
 62
     7
370
    15
390
F
100
AcDbText
 10
151.633942
 20
-136.085876
 30
0.0
 40
2.0
  1
-
 41
1.333326363636383
 72
     5
 11
153.100601
 21
-136.085876
 31
0.0
100
AcDbText
  0
ENDBLK
  5
A85
330
159
100
AcDbEntity
  8
0
100
AcDbBlockEnd
  0
BLOCK
  5
A86
330
15A
100
AcDbEntity
  8
0
100
AcDbBlockBegin
  2
BLOCK82
 70
     0
 10
0.0
 20
0.0
 30
0.0
  3
BLOCK82
  1

  0
TEXT
  5
352
330
15A
100
AcDbEntity
  8
0
 62
     7
370
    15
390
F
100
AcDbText
 10
151.633942
 20
-135.073914
 30
0.0
 40
2.0
  1
+
 41
1.333326363636383
 72
     5
 11
153.100601
 21
-135.073914
 31
0.0
100
AcDbText
  0
ENDBLK
  5
A87
330
15A
100
AcDbEntity
  8
0
100
AcDbBlockEnd
  0
BLOCK
  5
A88
330
15B
100
AcDbEntity
  8
0
100
AcDbBlockBegin
  2
BLOCK83
 70
     0
 10
0.0
 20
0.0
 30
0.0
  3
BLOCK83
  1

  0
TEXT
  5
355
330
15B
100
AcDbEntity
  8
0
 62
     7
370
    15
390
F
100
AcDbText
 10
161.633942
 20
-136.085876
 30
0.0
 40
2.0
  1
-
 41
1.333326363636383
 72
     5
 11
163.100601
 21
-136.085876
 31
0.0
100
AcDbText
  0
ENDBLK
  5
A89
330
15B
100
AcDbEntity
  8
0
100
AcDbBlockEnd
  0
BLOCK
  5
A8A
330
15C
100
AcDbEntity
  8
0
100
AcDbBlockBegin
  2
BLOCK84
 70
     0
 10
0.0
 20
0.0
 30
0.0
  3
BLOCK84
  1

  0
TEXT
  5
358
330
15C
100
AcDbEntity
  8
0
 62
     7
370
    15
390
F
100
AcDbText
 10
161.633942
 20
-135.073914
 30
0.0
 40
2.0
  1
+
 41
1.333326363636383
 72
     5
 11
163.100601
 21
-135.073914
 31
0.0
100
AcDbText
  0
ENDBLK
  5
A8B
330
15C
100
AcDbEntity
  8
0
100
AcDbBlockEnd
  0
BLOCK
  5
A8C
330
15D
100
AcDbEntity
  8
0
100
AcDbBlockBegin
  2
BLOCK85
 70
     0
 10
0.0
 20
0.0
 30
0.0
  3
BLOCK85
  1

  0
TEXT
  5
35B
330
15D
100
AcDbEntity
  8
0
 62
     7
370
    15
390
F
100
AcDbText
 10
171.633942
 20
-136.085876
 30
0.0
 40
2.0
  1
-
 41
1.333326363636383
 72
     5
 11
173.100601
 21
-136.085876
 31
0.0
100
AcDbText
  0
ENDBLK
  5
A8D
330
15D
100
AcDbEntity
  8
0
100
AcDbBlockEnd
  0
BLOCK
  5
A8E
330
15E
100
AcDbEntity
  8
0
100
AcDbBlockBegin
  2
BLOCK86
 70
     0
 10
0.0
 20
0.0
 30
0.0
  3
BLOCK86
  1

  0
TEXT
  5
35E
330
15E
100
AcDbEntity
  8
0
 62
     7
370
    15
390
F
100
AcDbText
 10
171.633942
 20
-135.073914
 30
0.0
 40
2.0
  1
+
 41
1.333326363636383
 72
     5
 11
173.100601
 21
-135.073914
 31
0.0
100
AcDbText
  0
ENDBLK
  5
A8F
330
15E
100
AcDbEntity
  8
0
100
AcDbBlockEnd
  0
BLOCK
  5
A90
330
15F
100
AcDbEntity
  8
0
100
AcDbBlockBegin
  2
BLOCK87
 70
     0
 10
0.0
 20
0.0
 30
0.0
  3
BLOCK87
  1

  0
TEXT
  5
361
330
15F
100
AcDbEntity
  8
0
 62
     7
370
    15
390
F
100
AcDbText
 10
240.401581
 20
-145.57135
 30
0.0
 40
2.0
  1
APPROVATO
 41
0.8977959863945592
 72
     5
 11
253.599182
 21
-145.57135
 31
0.0
100
AcDbText
  0
ENDBLK
  5
A91
330
15F
100
AcDbEntity
  8
0
100
AcDbBlockEnd
  0
BLOCK
  5
A92
330
160
100
AcDbEntity
  8
0
100
AcDbBlockBegin
  2
BLOCK88
 70
     0
 10
0.0
 20
0.0
 30
0.0
  3
BLOCK88
  1

  0
TEXT
  5
364
330
160
100
AcDbEntity
  8
0
 62
     7
370
    15
390
F
100
AcDbText
 10
243.401581
 20
-150.57135
 30
0.0
 40
2.0
  1
VISTO
 41
1.04328536231884
 72
     5
 11
250.60025
 21
-150.57135
 31
0.0
100
AcDbText
  0
ENDBLK
  5
A93
330
160
100
AcDbEntity
  8
0
100
AcDbBlockEnd
  0
BLOCK
  5
A94
330
161
100
AcDbEntity
  8
0
100
AcDbBlockBegin
  2
BLOCK89
 70
     0
 10
0.0
 20
0.0
 30
0.0
  3
BLOCK89
  1

  0
TEXT
  5
367
330
161
100
AcDbEntity
  8
0
 62
     7
370
    15
390
F
100
AcDbText
 10
240.401581
 20
-140.32135
 30
0.0
 40
2.0
  1
DISEGNATO
 41
1.007450458015269
 72
     5
 11
253.599182
 21
-140.32135
 31
0.0
100
AcDbText
  0
ENDBLK
  5
A95
330
161
100
AcDbEntity
  8
0
100
AcDbBlockEnd
  0
BLOCK
  5
A96
330
162
100
AcDbEntity
  8
0
100
AcDbBlockBegin
  2
BLOCK90
 70
     0
 10
0.0
 20
0.0
 30
0.0
  3
BLOCK90
  1

  0
TEXT
  5
36A
330
162
100
AcDbEntity
  8
0
 62
     7
370
    15
390
F
100
AcDbText
 10
124.324638
 20
-131.621521
 30
0.0
 40
2.0
  1
0.5
 41
1.655910967741941
 72
     5
 11
129.457962
 21
-131.621521
 31
0.0
100
AcDbText
  0
ENDBLK
  5
A97
330
162
100
AcDbEntity
  8
0
100
AcDbBlockEnd
  0
BLOCK
  5
A98
330
163
100
AcDbEntity
  8
0
100
AcDbBlockBegin
  2
BLOCK91
 70
     0
 10
0.0
 20
0.0
 30
0.0
  3
BLOCK91
  1

  0
TEXT
  5
36D
330
163
100
AcDbEntity
  8
0
 62
     7
370
    15
390
F
100
AcDbText
 10
124.324638
 20
-127.621521
 30
0.0
 40
2.0
  1
0.5
 41
1.655910967741941
 72
     5
 11
129.457962
 21
-127.621521
 31
0.0
100
AcDbText
  0
ENDBLK
  5
A99
330
163
100
AcDbEntity
  8
0
100
AcDbBlockEnd
  0
BLOCK
  5
A9A
330
164
100
AcDbEntity
  8
0
100
AcDbBlockBegin
  2
BLOCK92
 70
     0
 10
0.0
 20
0.0
 30
0.0
  3
BLOCK92
  1

  0
TEXT
  5
370
330
164
100
AcDbEntity
  8
0
 62
     7
370
    15
390
F
100
AcDbText
 10
123.407982
 20
-123.621521
 30
0.0
 40
2.0
  1
0.35
 41
1.548144888888885
 72
     5
 11
130.374634
 21
-123.621521
 31
0.0
100
AcDbText
  0
ENDBLK
  5
A9B
330
164
100
AcDbEntity
  8
0
100
AcDbBlockEnd
  0
BLOCK
  5
A9C
330
165
100
AcDbEntity
  8
0
100
AcDbBlockBegin
  2
BLOCK93
 70
     0
 10
0.0
 20
0.0
 30
0.0
  3
BLOCK93
  1

  0
TEXT
  5
373
330
165
100
AcDbEntity
  8
0
 62
     7
370
    15
390
F
100
AcDbText
 10
123.407982
 20
-119.621521
 30
0.0
 40
2.0
  1
0.25
 41
1.548144888888885
 72
     5
 11
130.374634
 21
-119.621521
 31
0.0
100
AcDbText
  0
ENDBLK
  5
A9D
330
165
100
AcDbEntity
  8
0
100
AcDbBlockEnd
  0
BLOCK
  5
A9E
330
166
100
AcDbEntity
  8
0
100
AcDbBlockBegin
  2
BLOCK94
 70
     0
 10
0.0
 20
0.0
 30
0.0
  3
BLOCK94
  1

  0
TEXT
  5
376
330
166
100
AcDbEntity
  8
0
 62
     7
370
    15
390
F
100
AcDbText
 10
123.407982
 20
-115.621521
 30
0.0
 40
2.0
  1
0.15
 41
1.699183414634142
 72
     5
 11
130.374634
 21
-115.621521
 31
0.0
100
AcDbText
  0
ENDBLK
  5
A9F
330
166
100
AcDbEntity
  8
0
100
AcDbBlockEnd
  0
BLOCK
  5
AA0
330
167
100
AcDbEntity
  8
0
100
AcDbBlockBegin
  2
BLOCK95
 70
     0
 10
0.0
 20
0.0
 30
0.0
  3
BLOCK95
  1

  0
TEXT
  5
379
330
167
100
AcDbEntity
  8
0
 62
     7
370
    15
390
F
100
AcDbText
 10
124.324638
 20
-111.621521
 30
0.0
 40
2.0
  1
0.1
 41
1.901231111111117
 72
     5
 11
129.457962
 21
-111.621521
 31
0.0
100
AcDbText
  0
ENDBLK
  5
AA1
330
167
100
AcDbEntity
  8
0
100
AcDbBlockEnd
  0
BLOCK
  5
AA2
330
168
100
AcDbEntity
  8
0
100
AcDbBlockBegin
  2
BLOCK96
 70
     0
 10
0.0
 20
0.0
 30
0.0
  3
BLOCK96
  1

  0
TEXT
  5
37C
330
168
100
AcDbEntity
  8
0
 62
     7
370
    15
390
F
100
AcDbText
 10
124.324638
 20
-107.621521
 30
0.0
 40
2.0
  1
0.1
 41
1.901231111111117
 72
     5
 11
129.457962
 21
-107.621521
 31
0.0
100
AcDbText
  0
ENDBLK
  5
AA3
330
168
100
AcDbEntity
  8
0
100
AcDbBlockEnd
  0
BLOCK
  5
AA4
330
169
100
AcDbEntity
  8
0
100
AcDbBlockBegin
  2
BLOCK97
 70
     0
 10
0.0
 20
0.0
 30
0.0
  3
BLOCK97
  1

  0
TEXT
  5
37F
330
169
100
AcDbEntity
  8
0
 62
     7
370
    15
390
F
100
AcDbText
 10
123.407982
 20
-103.621521
 30
0.0
 40
2.0
  1
0.05
 41
1.548144888888885
 72
     5
 11
130.374634
 21
-103.621521
 31
0.0
100
AcDbText
  0
ENDBLK
  5
AA5
330
169
100
AcDbEntity
  8
0
100
AcDbBlockEnd
  0
BLOCK
  5
AA6
330
16A
100
AcDbEntity
  8
0
100
AcDbBlockBegin
  2
BLOCK98
 70
     0
 10
0.0
 20
0.0
 30
0.0
  3
BLOCK98
  1

  0
TEXT
  5
382
330
16A
100
AcDbEntity
  8
0
 62
     7
370
    15
390
F
100
AcDbText
 10
123.407982
 20
-99.621521
 30
0.0
 40
2.0
  1
0.03
 41
1.548144888888885
 72
     5
 11
130.374634
 21
-99.621521
 31
0.0
100
AcDbText
  0
ENDBLK
  5
AA7
330
16A
100
AcDbEntity
  8
0
100
AcDbBlockEnd
  0
BLOCK
  5
AA8
330
16B
100
AcDbEntity
  8
0
100
AcDbBlockBegin
  2
BLOCK99
 70
     0
 10
0.0
 20
0.0
 30
0.0
  3
BLOCK99
  1

  0
TEXT
  5
385
330
16B
100
AcDbEntity
  8
0
 62
     7
370
    15
390
F
100
AcDbText
 10
123.324638
 20
-95.621521
 30
0.0
 40
2.0
  1
0.025
 41
1.220112203389833
 72
     5
 11
130.5233
 21
-95.621521
 31
0.0
100
AcDbText
  0
ENDBLK
  5
AA9
330
16B
100
AcDbEntity
  8
0
100
AcDbBlockEnd
  0
BLOCK
  5
AAA
330
16C
100
AcDbEntity
  8
0
100
AcDbBlockBegin
  2
BLOCK100
 70
     0
 10
0.0
 20
0.0
 30
0.0
  3
BLOCK100
  1

  0
TEXT
  5
388
330
16C
100
AcDbEntity
  8
0
 62
     7
370
    15
390
F
100
AcDbText
 10
134.324646
 20
-131.621521
 30
0.0
 40
2.0
  1
1.5
 41
1.901228148148151
 72
     5
 11
139.457962
 21
-131.621521
 31
0.0
100
AcDbText
  0
ENDBLK
  5
AAB
330
16C
100
AcDbEntity
  8
0
100
AcDbBlockEnd
  0
BLOCK
  5
AAC
330
16D
100
AcDbEntity
  8
0
100
AcDbBlockBegin
  2
BLOCK101
 70
     0
 10
0.0
 20
0.0
 30
0.0
  3
BLOCK101
  1

  0
TEXT
  5
38B
330
16D
100
AcDbEntity
  8
0
 62
     7
370
    15
390
F
100
AcDbText
 10
134.324646
 20
-127.621521
 30
0.0
 40
2.0
  1
1.5
 41
1.901228148148151
 72
     5
 11
139.457962
 21
-127.621521
 31
0.0
100
AcDbText
  0
ENDBLK
  5
AAD
330
16D
100
AcDbEntity
  8
0
100
AcDbBlockEnd
  0
BLOCK
  5
AAE
330
16E
100
AcDbEntity
  8
0
100
AcDbBlockBegin
  2
BLOCK102
 70
     0
 10
0.0
 20
0.0
 30
0.0
  3
BLOCK102
  1

  0
TEXT
  5
38E
330
16E
100
AcDbEntity
  8
0
 62
     7
370
    15
390
F
100
AcDbText
 10
133.40799
 20
-123.621521
 30
0.0
 40
2.0
  1
0.75
 41
1.548143111111105
 72
     5
 11
140.374634
 21
-123.621521
 31
0.0
100
AcDbText
  0
ENDBLK
  5
AAF
330
16E
100
AcDbEntity
  8
0
100
AcDbBlockEnd
  0
BLOCK
  5
AB0
330
16F
100
AcDbEntity
  8
0
100
AcDbBlockBegin
  2
BLOCK103
 70
     0
 10
0.0
 20
0.0
 30
0.0
  3
BLOCK103
  1

  0
TEXT
  5
391
330
16F
100
AcDbEntity
  8
0
 62
     7
370
    15
390
F
100
AcDbText
 10
133.40799
 20
-119.621521
 30
0.0
 40
2.0
  1
0.75
 41
1.548143111111105
 72
     5
 11
140.374634
 21
-119.621521
 31
0.0
100
AcDbText
  0
ENDBLK
  5
AB1
330
16F
100
AcDbEntity
  8
0
100
AcDbBlockEnd
  0
BLOCK
  5
AB2
330
170
100
AcDbEntity
  8
0
100
AcDbBlockBegin
  2
BLOCK104
 70
     0
 10
0.0
 20
0.0
 30
0.0
  3
BLOCK104
  1

  0
TEXT
  5
394
330
170
100
AcDbEntity
  8
0
 62
     7
370
    15
390
F
100
AcDbText
 10
134.324646
 20
-115.621521
 30
0.0
 40
2.0
  1
0.5
 41
1.655908387096777
 72
     5
 11
139.457962
 21
-115.621521
 31
0.0
100
AcDbText
  0
ENDBLK
  5
AB3
330
170
100
AcDbEntity
  8
0
100
AcDbBlockEnd
  0
BLOCK
  5
AB4
330
171
100
AcDbEntity
  8
0
100
AcDbBlockBegin
  2
BLOCK105
 70
     0
 10
0.0
 20
0.0
 30
0.0
  3
BLOCK105
  1

  0
TEXT
  5
397
330
171
100
AcDbEntity
  8
0
 62
     7
370
    15
390
F
100
AcDbText
 10
133.40799
 20
-111.621521
 30
0.0
 40
2.0
  1
0.25
 41
1.548143111111105
 72
     5
 11
140.374634
 21
-111.621521
 31
0.0
100
AcDbText
  0
ENDBLK
  5
AB5
330
171
100
AcDbEntity
  8
0
100
AcDbBlockEnd
  0
BLOCK
  5
AB6
330
172
100
AcDbEntity
  8
0
100
AcDbBlockBegin
  2
BLOCK106
 70
     0
 10
0.0
 20
0.0
 30
0.0
  3
BLOCK106
  1

  0
TEXT
  5
39A
330
172
100
AcDbEntity
  8
0
 62
     7
370
    15
390
F
100
AcDbText
 10
133.40799
 20
-107.621521
 30
0.0
 40
2.0
  1
0.25
 41
1.548143111111105
 72
     5
 11
140.374634
 21
-107.621521
 31
0.0
100
AcDbText
  0
ENDBLK
  5
AB7
330
172
100
AcDbEntity
  8
0
100
AcDbBlockEnd
  0
BLOCK
  5
AB8
330
173
100
AcDbEntity
  8
0
100
AcDbBlockBegin
  2
BLOCK107
 70
     0
 10
0.0
 20
0.0
 30
0.0
  3
BLOCK107
  1

  0
TEXT
  5
39D
330
173
100
AcDbEntity
  8
0
 62
     7
370
    15
390
F
100
AcDbText
 10
134.324646
 20
-103.621521
 30
0.0
 40
2.0
  1
0.1
 41
1.901228148148151
 72
     5
 11
139.457962
 21
-103.621521
 31
0.0
100
AcDbText
  0
ENDBLK
  5
AB9
330
173
100
AcDbEntity
  8
0
100
AcDbBlockEnd
  0
BLOCK
  5
ABA
330
174
100
AcDbEntity
  8
0
100
AcDbBlockBegin
  2
BLOCK108
 70
     0
 10
0.0
 20
0.0
 30
0.0
  3
BLOCK108
  1

  0
TEXT
  5
3A0
330
174
100
AcDbEntity
  8
0
 62
     7
370
    15
390
F
100
AcDbText
 10
134.324646
 20
-99.621521
 30
0.0
 40
2.0
  1
0.1
 41
1.901228148148151
 72
     5
 11
139.457962
 21
-99.621521
 31
0.0
100
AcDbText
  0
ENDBLK
  5
ABB
330
174
100
AcDbEntity
  8
0
100
AcDbBlockEnd
  0
BLOCK
  5
ABC
330
175
100
AcDbEntity
  8
0
100
AcDbBlockBegin
  2
BLOCK109
 70
     0
 10
0.0
 20
0.0
 30
0.0
  3
BLOCK109
  1

  0
TEXT
  5
3A3
330
175
100
AcDbEntity
  8
0
 62
     7
370
    15
390
F
100
AcDbText
 10
133.40799
 20
-95.621521
 30
0.0
 40
2.0
  1
0.05
 41
1.548143111111105
 72
     5
 11
140.374634
 21
-95.621521
 31
0.0
100
AcDbText
  0
ENDBLK
  5
ABD
330
175
100
AcDbEntity
  8
0
100
AcDbBlockEnd
  0
BLOCK
  5
ABE
330
176
100
AcDbEntity
  8
0
100
AcDbBlockBegin
  2
BLOCK110
 70
     0
 10
0.0
 20
0.0
 30
0.0
  3
BLOCK110
  1

  0
TEXT
  5
3A6
330
176
100
AcDbEntity
  8
0
 62
     7
370
    15
390
F
100
AcDbText
 10
143.40799
 20
-131.621521
 30
0.0
 40
2.0
  1
0.75
 41
1.548143111111105
 72
     5
 11
150.374634
 21
-131.621521
 31
0.0
100
AcDbText
  0
ENDBLK
  5
ABF
330
176
100
AcDbEntity
  8
0
100
AcDbBlockEnd
  0
BLOCK
  5
AC0
330
177
100
AcDbEntity
  8
0
100
AcDbBlockBegin
  2
BLOCK111
 70
     0
 10
0.0
 20
0.0
 30
0.0
  3
BLOCK111
  1

  0
TEXT
  5
3A9
330
177
100
AcDbEntity
  8
0
 62
     7
370
    15
390
F
100
AcDbText
 10
144.324646
 20
-127.621521
 30
0.0
 40
2.0
  1
0.5
 41
1.655908387096777
 72
     5
 11
149.457962
 21
-127.621521
 31
0.0
100
AcDbText
  0
ENDBLK
  5
AC1
330
177
100
AcDbEntity
  8
0
100
AcDbBlockEnd
  0
BLOCK
  5
AC2
330
178
100
AcDbEntity
  8
0
100
AcDbBlockBegin
  2
BLOCK112
 70
     0
 10
0.0
 20
0.0
 30
0.0
  3
BLOCK112
  1

  0
TEXT
  5
3AC
330
178
100
AcDbEntity
  8
0
 62
     7
370
    15
390
F
100
AcDbText
 10
144.324646
 20
-123.621521
 30
0.0
 40
2.0
  1
0.5
 41
1.655908387096777
 72
     5
 11
149.457962
 21
-123.621521
 31
0.0
100
AcDbText
  0
ENDBLK
  5
AC3
330
178
100
AcDbEntity
  8
0
100
AcDbBlockEnd
  0
BLOCK
  5
AC4
330
179
100
AcDbEntity
  8
0
100
AcDbBlockBegin
  2
BLOCK113
 70
     0
 10
0.0
 20
0.0
 30
0.0
  3
BLOCK113
  1

  0
TEXT
  5
3AF
330
179
100
AcDbEntity
  8
0
 62
     7
370
    15
390
F
100
AcDbText
 10
144.324646
 20
-119.621521
 30
0.0
 40
2.0
  1
0.3
 41
1.655908387096777
 72
     5
 11
149.457962
 21
-119.621521
 31
0.0
100
AcDbText
  0
ENDBLK
  5
AC5
330
179
100
AcDbEntity
  8
0
100
AcDbBlockEnd
  0
BLOCK
  5
AC6
330
17A
100
AcDbEntity
  8
0
100
AcDbBlockBegin
  2
BLOCK114
 70
     0
 10
0.0
 20
0.0
 30
0.0
  3
BLOCK114
  1

  0
TEXT
  5
3B2
330
17A
100
AcDbEntity
  8
0
 62
     7
370
    15
390
F
100
AcDbText
 10
144.324646
 20
-115.621521
 30
0.0
 40
2.0
  1
0.2
 41
1.655672188304007
 72
     5
 11
149.457962
 21
-115.621521
 31
0.0
100
AcDbText
  0
ENDBLK
  5
AC7
330
17A
100
AcDbEntity
  8
0
100
AcDbBlockEnd
  0
BLOCK
  5
AC8
330
17B
100
AcDbEntity
  8
0
100
AcDbBlockBegin
  2
BLOCK115
 70
     0
 10
0.0
 20
0.0
 30
0.0
  3
BLOCK115
  1

  0
TEXT
  5
3B5
330
17B
100
AcDbEntity
  8
0
 62
     7
370
    15
390
F
100
AcDbText
 10
143.40799
 20
-111.621521
 30
0.0
 40
2.0
  1
0.15
 41
1.699181463414628
 72
     5
 11
150.374634
 21
-111.621521
 31
0.0
100
AcDbText
  0
ENDBLK
  5
AC9
330
17B
100
AcDbEntity
  8
0
100
AcDbBlockEnd
  0
BLOCK
  5
ACA
330
17C
100
AcDbEntity
  8
0
100
AcDbBlockBegin
  2
BLOCK116
 70
     0
 10
0.0
 20
0.0
 30
0.0
  3
BLOCK116
  1

  0
TEXT
  5
3B8
330
17C
100
AcDbEntity
  8
0
 62
     7
370
    15
390
F
100
AcDbText
 10
144.324646
 20
-107.621521
 30
0.0
 40
2.0
  1
0.1
 41
1.901228148148151
 72
     5
 11
149.457962
 21
-107.621521
 31
0.0
100
AcDbText
  0
ENDBLK
  5
ACB
330
17C
100
AcDbEntity
  8
0
100
AcDbBlockEnd
  0
BLOCK
  5
ACC
330
17D
100
AcDbEntity
  8
0
100
AcDbBlockBegin
  2
BLOCK117
 70
     0
 10
0.0
 20
0.0
 30
0.0
  3
BLOCK117
  1

  0
TEXT
  5
3BB
330
17D
100
AcDbEntity
  8
0
 62
     7
370
    15
390
F
100
AcDbText
 10
143.40799
 20
-103.621521
 30
0.0
 40
2.0
  1
0.05
 41
1.548143111111105
 72
     5
 11
150.374634
 21
-103.621521
 31
0.0
100
AcDbText
  0
ENDBLK
  5
ACD
330
17D
100
AcDbEntity
  8
0
100
AcDbBlockEnd
  0
BLOCK
  5
ACE
330
17E
100
AcDbEntity
  8
0
100
AcDbBlockBegin
  2
BLOCK118
 70
     0
 10
0.0
 20
0.0
 30
0.0
  3
BLOCK118
  1

  0
TEXT
  5
3BE
330
17E
100
AcDbEntity
  8
0
 62
     7
370
    15
390
F
100
AcDbText
 10
143.324646
 20
-99.621521
 30
0.0
 40
2.0
  1
0.035
 41
1.220113389830508
 72
     5
 11
150.523315
 21
-99.621521
 31
0.0
100
AcDbText
  0
ENDBLK
  5
ACF
330
17E
100
AcDbEntity
  8
0
100
AcDbBlockEnd
  0
BLOCK
  5
AD0
330
17F
100
AcDbEntity
  8
0
100
AcDbBlockBegin
  2
BLOCK119
 70
     0
 10
0.0
 20
0.0
 30
0.0
  3
BLOCK119
  1

  0
TEXT
  5
3C1
330
17F
100
AcDbEntity
  8
0
 62
     7
370
    15
390
F
100
AcDbText
 10
143.324646
 20
-95.621521
 30
0.0
 40
2.0
  1
0.025
 41
1.220113389830508
 72
     5
 11
150.523315
 21
-95.621521
 31
0.0
100
AcDbText
  0
ENDBLK
  5
AD1
330
17F
100
AcDbEntity
  8
0
100
AcDbBlockEnd
  0
BLOCK
  5
AD2
330
180
100
AcDbEntity
  8
0
100
AcDbBlockBegin
  2
BLOCK120
 70
     0
 10
0.0
 20
0.0
 30
0.0
  3
BLOCK120
  1

  0
TEXT
  5
3C4
330
180
100
AcDbEntity
  8
0
 62
     7
370
    15
390
F
100
AcDbText
 10
154.324646
 20
-131.621521
 30
0.0
 40
2.0
  1
1.5
 41
1.901228148148151
 72
     5
 11
159.457962
 21
-131.621521
 31
0.0
100
AcDbText
  0
ENDBLK
  5
AD3
330
180
100
AcDbEntity
  8
0
100
AcDbBlockEnd
  0
BLOCK
  5
AD4
330
181
100
AcDbEntity
  8
0
100
AcDbBlockBegin
  2
BLOCK121
 70
     0
 10
0.0
 20
0.0
 30
0.0
  3
BLOCK121
  1

  0
TEXT
  5
3C7
330
181
100
AcDbEntity
  8
0
 62
     7
370
    15
390
F
100
AcDbText
 10
154.324646
 20
-127.621521
 30
0.0
 40
2.0
  1
1.5
 41
1.901228148148151
 72
     5
 11
159.457962
 21
-127.621521
 31
0.0
100
AcDbText
  0
ENDBLK
  5
AD5
330
181
100
AcDbEntity
  8
0
100
AcDbBlockEnd
  0
BLOCK
  5
AD6
330
182
100
AcDbEntity
  8
0
100
AcDbBlockBegin
  2
BLOCK122
 70
     0
 10
0.0
 20
0.0
 30
0.0
  3
BLOCK122
  1

  0
TEXT
  5
3CA
330
182
100
AcDbEntity
  8
0
 62
     7
370
    15
390
F
100
AcDbText
 10
156.15799
 20
-123.621521
 30
0.0
 40
2.0
  1
1
 41
2.095227142857132
 72
     5
 11
157.624649
 21
-123.621521
 31
0.0
100
AcDbText
  0
ENDBLK
  5
AD7
330
182
100
AcDbEntity
  8
0
100
AcDbBlockEnd
  0
BLOCK
  5
AD8
330
183
100
AcDbEntity
  8
0
100
AcDbBlockBegin
  2
BLOCK123
 70
     0
 10
0.0
 20
0.0
 30
0.0
  3
BLOCK123
  1

  0
TEXT
  5
3CD
330
183
100
AcDbEntity
  8
0
 62
     7
370
    15
390
F
100
AcDbText
 10
156.15799
 20
-119.621521
 30
0.0
 40
2.0
  1
1
 41
2.095227142857132
 72
     5
 11
157.624649
 21
-119.621521
 31
0.0
100
AcDbText
  0
ENDBLK
  5
AD9
330
183
100
AcDbEntity
  8
0
100
AcDbBlockEnd
  0
BLOCK
  5
ADA
330
184
100
AcDbEntity
  8
0
100
AcDbBlockBegin
  2
BLOCK124
 70
     0
 10
0.0
 20
0.0
 30
0.0
  3
BLOCK124
  1

  0
TEXT
  5
3D0
330
184
100
AcDbEntity
  8
0
 62
     7
370
    15
390
F
100
AcDbText
 10
154.324646
 20
-115.621521
 30
0.0
 40
2.0
  1
0.5
 41
1.655908387096777
 72
     5
 11
159.457962
 21
-115.621521
 31
0.0
100
AcDbText
  0
ENDBLK
  5
ADB
330
184
100
AcDbEntity
  8
0
100
AcDbBlockEnd
  0
BLOCK
  5
ADC
330
185
100
AcDbEntity
  8
0
100
AcDbBlockBegin
  2
BLOCK125
 70
     0
 10
0.0
 20
0.0
 30
0.0
  3
BLOCK125
  1

  0
TEXT
  5
3D3
330
185
100
AcDbEntity
  8
0
 62
     7
370
    15
390
F
100
AcDbText
 10
154.324646
 20
-111.621521
 30
0.0
 40
2.0
  1
0.5
 41
1.655908387096777
 72
     5
 11
159.457962
 21
-111.621521
 31
0.0
100
AcDbText
  0
ENDBLK
  5
ADD
330
185
100
AcDbEntity
  8
0
100
AcDbBlockEnd
  0
BLOCK
  5
ADE
330
186
100
AcDbEntity
  8
0
100
AcDbBlockBegin
  2
BLOCK126
 70
     0
 10
0.0
 20
0.0
 30
0.0
  3
BLOCK126
  1

  0
TEXT
  5
3D6
330
186
100
AcDbEntity
  8
0
 62
     7
370
    15
390
F
100
AcDbText
 10
154.324646
 20
-107.621521
 30
0.0
 40
2.0
  1
0.3
 41
1.655908387096777
 72
     5
 11
159.457962
 21
-107.621521
 31
0.0
100
AcDbText
  0
ENDBLK
  5
ADF
330
186
100
AcDbEntity
  8
0
100
AcDbBlockEnd
  0
BLOCK
  5
AE0
330
187
100
AcDbEntity
  8
0
100
AcDbBlockBegin
  2
BLOCK127
 70
     0
 10
0.0
 20
0.0
 30
0.0
  3
BLOCK127
  1

  0
TEXT
  5
3D9
330
187
100
AcDbEntity
  8
0
 62
     7
370
    15
390
F
100
AcDbText
 10
153.40799
 20
-103.621521
 30
0.0
 40
2.0
  1
0.15
 41
1.699181463414628
 72
     5
 11
160.374634
 21
-103.621521
 31
0.0
100
AcDbText
  0
ENDBLK
  5
AE1
330
187
100
AcDbEntity
  8
0
100
AcDbBlockEnd
  0
BLOCK
  5
AE2
330
188
100
AcDbEntity
  8
0
100
AcDbBlockBegin
  2
BLOCK128
 70
     0
 10
0.0
 20
0.0
 30
0.0
  3
BLOCK128
  1

  0
TEXT
  5
3DC
330
188
100
AcDbEntity
  8
0
 62
     7
370
    15
390
F
100
AcDbText
 10
153.40799
 20
-99.621521
 30
0.0
 40
2.0
  1
0.15
 41
1.699181463414628
 72
     5
 11
160.374634
 21
-99.621521
 31
0.0
100
AcDbText
  0
ENDBLK
  5
AE3
330
188
100
AcDbEntity
  8
0
100
AcDbBlockEnd
  0
BLOCK
  5
AE4
330
189
100
AcDbEntity
  8
0
100
AcDbBlockBegin
  2
BLOCK129
 70
     0
 10
0.0
 20
0.0
 30
0.0
  3
BLOCK129
  1

  0
TEXT
  5
3DF
330
189
100
AcDbEntity
  8
0
 62
     7
370
    15
390
F
100
AcDbText
 10
153.40799
 20
-95.621521
 30
0.0
 40
2.0
  1
0.05
 41
1.548143111111105
 72
     5
 11
160.374634
 21
-95.621521
 31
0.0
100
AcDbText
  0
ENDBLK
  5
AE5
330
189
100
AcDbEntity
  8
0
100
AcDbBlockEnd
  0
BLOCK
  5
AE6
330
18A
100
AcDbEntity
  8
0
100
AcDbBlockBegin
  2
BLOCK130
 70
     0
 10
0.0
 20
0.0
 30
0.0
  3
BLOCK130
  1

  0
TEXT
  5
3E2
330
18A
100
AcDbEntity
  8
0
 62
     7
370
    15
390
F
100
AcDbText
 10
166.157959
 20
-131.621521
 30
0.0
 40
2.0
  1
1
 41
2.095228571428557
 72
     5
 11
167.624619
 21
-131.621521
 31
0.0
100
AcDbText
  0
ENDBLK
  5
AE7
330
18A
100
AcDbEntity
  8
0
100
AcDbBlockEnd
  0
BLOCK
  5
AE8
330
18B
100
AcDbEntity
  8
0
100
AcDbBlockBegin
  2
BLOCK131
 70
     0
 10
0.0
 20
0.0
 30
0.0
  3
BLOCK131
  1

  0
TEXT
  5
3E5
330
18B
100
AcDbEntity
  8
0
 62
     7
370
    15
390
F
100
AcDbText
 10
163.407959
 20
-127.621521
 30
0.0
 40
2.0
  1
0.75
 41
1.548143111111112
 72
     5
 11
170.374603
 21
-127.621521
 31
0.0
100
AcDbText
  0
ENDBLK
  5
AE9
330
18B
100
AcDbEntity
  8
0
100
AcDbBlockEnd
  0
BLOCK
  5
AEA
330
18C
100
AcDbEntity
  8
0
100
AcDbBlockBegin
  2
BLOCK132
 70
     0
 10
0.0
 20
0.0
 30
0.0
  3
BLOCK132
  1

  0
TEXT
  5
3E8
330
18C
100
AcDbEntity
  8
0
 62
     7
370
    15
390
F
100
AcDbText
 10
164.324646
 20
-123.621521
 30
0.0
 40
2.0
  1
0.5
 41
1.655908387096777
 72
     5
 11
169.457962
 21
-123.621521
 31
0.0
100
AcDbText
  0
ENDBLK
  5
AEB
330
18C
100
AcDbEntity
  8
0
100
AcDbBlockEnd
  0
BLOCK
  5
AEC
330
18D
100
AcDbEntity
  8
0
100
AcDbBlockBegin
  2
BLOCK133
 70
     0
 10
0.0
 20
0.0
 30
0.0
  3
BLOCK133
  1

  0
TEXT
  5
3EB
330
18D
100
AcDbEntity
  8
0
 62
     7
370
    15
390
F
100
AcDbText
 10
163.407959
 20
-119.621521
 30
0.0
 40
2.0
  1
0.35
 41
1.548143111111112
 72
     5
 11
170.374603
 21
-119.621521
 31
0.0
100
AcDbText
  0
ENDBLK
  5
AED
330
18D
100
AcDbEntity
  8
0
100
AcDbBlockEnd
  0
BLOCK
  5
AEE
330
18E
100
AcDbEntity
  8
0
100
AcDbBlockBegin
  2
BLOCK134
 70
     0
 10
0.0
 20
0.0
 30
0.0
  3
BLOCK134
  1

  0
TEXT
  5
3EE
330
18E
100
AcDbEntity
  8
0
 62
     7
370
    15
390
F
100
AcDbText
 10
163.407959
 20
-115.621521
 30
0.0
 40
2.0
  1
0.15
 41
1.699181463414634
 72
     5
 11
170.374603
 21
-115.621521
 31
0.0
100
AcDbText
  0
ENDBLK
  5
AEF
330
18E
100
AcDbEntity
  8
0
100
AcDbBlockEnd
  0
BLOCK
  5
AF0
330
18F
100
AcDbEntity
  8
0
100
AcDbBlockBegin
  2
BLOCK135
 70
     0
 10
0.0
 20
0.0
 30
0.0
  3
BLOCK135
  1

  0
TEXT
  5
3F1
330
18F
100
AcDbEntity
  8
0
 62
     7
370
    15
390
F
100
AcDbText
 10
164.324646
 20
-111.621521
 30
0.0
 40
2.0
  1
0.1
 41
1.901228148148151
 72
     5
 11
169.457962
 21
-111.621521
 31
0.0
100
AcDbText
  0
ENDBLK
  5
AF1
330
18F
100
AcDbEntity
  8
0
100
AcDbBlockEnd
  0
BLOCK
  5
AF2
330
190
100
AcDbEntity
  8
0
100
AcDbBlockBegin
  2
BLOCK136
 70
     0
 10
0.0
 20
0.0
 30
0.0
  3
BLOCK136
  1

  0
TEXT
  5
3F4
330
190
100
AcDbEntity
  8
0
 62
     7
370
    15
390
F
100
AcDbText
 10
164.324646
 20
-107.621521
 30
0.0
 40
2.0
  1
0.1
 41
1.901228148148151
 72
     5
 11
169.457962
 21
-107.621521
 31
0.0
100
AcDbText
  0
ENDBLK
  5
AF3
330
190
100
AcDbEntity
  8
0
100
AcDbBlockEnd
  0
BLOCK
  5
AF4
330
191
100
AcDbEntity
  8
0
100
AcDbBlockBegin
  2
BLOCK137
 70
     0
 10
0.0
 20
0.0
 30
0.0
  3
BLOCK137
  1

  0
TEXT
  5
3F7
330
191
100
AcDbEntity
  8
0
 62
     7
370
    15
390
F
100
AcDbText
 10
163.407959
 20
-103.621521
 30
0.0
 40
2.0
  1
0.05
 41
1.548143111111112
 72
     5
 11
170.374603
 21
-103.621521
 31
0.0
100
AcDbText
  0
ENDBLK
  5
AF5
330
191
100
AcDbEntity
  8
0
100
AcDbBlockEnd
  0
BLOCK
  5
AF6
330
192
100
AcDbEntity
  8
0
100
AcDbBlockBegin
  2
BLOCK138
 70
     0
 10
0.0
 20
0.0
 30
0.0
  3
BLOCK138
  1

  0
TEXT
  5
3FA
330
192
100
AcDbEntity
  8
0
 62
     7
370
    15
390
F
100
AcDbText
 10
163.407959
 20
-99.621521
 30
0.0
 40
2.0
  1
0.03
 41
1.548143111111112
 72
     5
 11
170.374603
 21
-99.621521
 31
0.0
100
AcDbText
  0
ENDBLK
  5
AF7
330
192
100
AcDbEntity
  8
0
100
AcDbBlockEnd
  0
BLOCK
  5
AF8
330
193
100
AcDbEntity
  8
0
100
AcDbBlockBegin
  2
BLOCK139
 70
     0
 10
0.0
 20
0.0
 30
0.0
  3
BLOCK139
  1

  0
TEXT
  5
3FD
330
193
100
AcDbEntity
  8
0
 62
     7
370
    15
390
F
100
AcDbText
 10
163.324646
 20
-95.621521
 30
0.0
 40
2.0
  1
0.025
 41
1.220113389830508
 72
     5
 11
170.523315
 21
-95.621521
 31
0.0
100
AcDbText
  0
ENDBLK
  5
AF9
330
193
100
AcDbEntity
  8
0
100
AcDbBlockEnd
  0
BLOCK
  5
AFA
330
194
100
AcDbEntity
  8
0
100
AcDbBlockBegin
  2
BLOCK140
 70
     0
 10
0.0
 20
0.0
 30
0.0
  3
BLOCK140
  1

  0
TEXT
  5
400
330
194
100
AcDbEntity
  8
0
 62
     7
370
    15
390
F
100
AcDbText
 10
176.157959
 20
-131.621521
 30
0.0
 40
2.0
  1
2
 41
1.332791433478594
 72
     5
 11
177.624619
 21
-131.621521
 31
0.0
100
AcDbText
  0
ENDBLK
  5
AFB
330
194
100
AcDbEntity
  8
0
100
AcDbBlockEnd
  0
BLOCK
  5
AFC
330
195
100
AcDbEntity
  8
0
100
AcDbBlockBegin
  2
BLOCK141
 70
     0
 10
0.0
 20
0.0
 30
0.0
  3
BLOCK141
  1

  0
TEXT
  5
403
330
195
100
AcDbEntity
  8
0
 62
     7
370
    15
390
F
100
AcDbText
 10
176.157959
 20
-127.621521
 30
0.0
 40
2.0
  1
2
 41
1.332791433478594
 72
     5
 11
177.624619
 21
-127.621521
 31
0.0
100
AcDbText
  0
ENDBLK
  5
AFD
330
195
100
AcDbEntity
  8
0
100
AcDbBlockEnd
  0
BLOCK
  5
AFE
330
196
100
AcDbEntity
  8
0
100
AcDbBlockBegin
  2
BLOCK142
 70
     0
 10
0.0
 20
0.0
 30
0.0
  3
BLOCK142
  1

  0
TEXT
  5
406
330
196
100
AcDbEntity
  8
0
 62
     7
370
    15
390
F
100
AcDbText
 10
174.324646
 20
-123.621521
 30
0.0
 40
2.0
  1
1.5
 41
1.901228148148151
 72
     5
 11
179.457962
 21
-123.621521
 31
0.0
100
AcDbText
  0
ENDBLK
  5
AFF
330
196
100
AcDbEntity
  8
0
100
AcDbBlockEnd
  0
BLOCK
  5
B00
330
197
100
AcDbEntity
  8
0
100
AcDbBlockBegin
  2
BLOCK143
 70
     0
 10
0.0
 20
0.0
 30
0.0
  3
BLOCK143
  1

  0
TEXT
  5
409
330
197
100
AcDbEntity
  8
0
 62
     7
370
    15
390
F
100
AcDbText
 10
176.157959
 20
-119.621521
 30
0.0
 40
2.0
  1
1
 41
2.095228571428557
 72
     5
 11
177.624619
 21
-119.621521
 31
0.0
100
AcDbText
  0
ENDBLK
  5
B01
330
197
100
AcDbEntity
  8
0
100
AcDbBlockEnd
  0
BLOCK
  5
B02
330
198
100
AcDbEntity
  8
0
100
AcDbBlockBegin
  2
BLOCK144
 70
     0
 10
0.0
 20
0.0
 30
0.0
  3
BLOCK144
  1

  0
TEXT
  5
40C
330
198
100
AcDbEntity
  8
0
 62
     7
370
    15
390
F
100
AcDbText
 10
173.407959
 20
-115.621521
 30
0.0
 40
2.0
  1
0.75
 41
1.548143111111112
 72
     5
 11
180.374603
 21
-115.621521
 31
0.0
100
AcDbText
  0
ENDBLK
  5
B03
330
198
100
AcDbEntity
  8
0
100
AcDbBlockEnd
  0
BLOCK
  5
B04
330
199
100
AcDbEntity
  8
0
100
AcDbBlockBegin
  2
BLOCK145
 70
     0
 10
0.0
 20
0.0
 30
0.0
  3
BLOCK145
  1

  0
TEXT
  5
40F
330
199
100
AcDbEntity
  8
0
 62
     7
370
    15
390
F
100
AcDbText
 10
174.324646
 20
-111.621521
 30
0.0
 40
2.0
  1
0.5
 41
1.655908387096777
 72
     5
 11
179.457962
 21
-111.621521
 31
0.0
100
AcDbText
  0
ENDBLK
  5
B05
330
199
100
AcDbEntity
  8
0
100
AcDbBlockEnd
  0
BLOCK
  5
B06
330
19A
100
AcDbEntity
  8
0
100
AcDbBlockBegin
  2
BLOCK146
 70
     0
 10
0.0
 20
0.0
 30
0.0
  3
BLOCK146
  1

  0
TEXT
  5
412
330
19A
100
AcDbEntity
  8
0
 62
     7
370
    15
390
F
100
AcDbText
 10
174.324646
 20
-107.621521
 30
0.0
 40
2.0
  1
0.4
 41
1.555550303030305
 72
     5
 11
179.457962
 21
-107.621521
 31
0.0
100
AcDbText
  0
ENDBLK
  5
B07
330
19A
100
AcDbEntity
  8
0
100
AcDbBlockEnd
  0
BLOCK
  5
B08
330
19B
100
AcDbEntity
  8
0
100
AcDbBlockBegin
  2
BLOCK147
 70
     0
 10
0.0
 20
0.0
 30
0.0
  3
BLOCK147
  1

  0
TEXT
  5
415
330
19B
100
AcDbEntity
  8
0
 62
     7
370
    15
390
F
100
AcDbText
 10
173.407959
 20
-103.621521
 30
0.0
 40
2.0
  1
0.25
 41
1.548143111111112
 72
     5
 11
180.374603
 21
-103.621521
 31
0.0
100
AcDbText
  0
ENDBLK
  5
B09
330
19B
100
AcDbEntity
  8
0
100
AcDbBlockEnd
  0
BLOCK
  5
B0A
330
19C
100
AcDbEntity
  8
0
100
AcDbBlockBegin
  2
BLOCK148
 70
     0
 10
0.0
 20
0.0
 30
0.0
  3
BLOCK148
  1

  0
TEXT
  5
418
330
19C
100
AcDbEntity
  8
0
 62
     7
370
    15
390
F
100
AcDbText
 10
173.407959
 20
-99.621521
 30
0.0
 40
2.0
  1
0.15
 41
1.699181463414634
 72
     5
 11
180.374603
 21
-99.621521
 31
0.0
100
AcDbText
  0
ENDBLK
  5
B0B
330
19C
100
AcDbEntity
  8
0
100
AcDbBlockEnd
  0
BLOCK
  5
B0C
330
19D
100
AcDbEntity
  8
0
100
AcDbBlockBegin
  2
BLOCK149
 70
     0
 10
0.0
 20
0.0
 30
0.0
  3
BLOCK149
  1

  0
TEXT
  5
41B
330
19D
100
AcDbEntity
  8
0
 62
     7
370
    15
390
F
100
AcDbText
 10
173.407959
 20
-95.621521
 30
0.0
 40
2.0
  1
0.05
 41
1.548143111111112
 72
     5
 11
180.374603
 21
-95.621521
 31
0.0
100
AcDbText
  0
ENDBLK
  5
B0D
330
19D
100
AcDbEntity
  8
0
100
AcDbBlockEnd
  0
BLOCK
  5
B0E
330
19E
100
AcDbEntity
  8
0
100
AcDbBlockBegin
  2
BLOCK150
 70
     0
 10
0.0
 20
0.0
 30
0.0
  3
BLOCK150
  1

  0
TEXT
  5
41E
330
19E
100
AcDbEntity
  8
0
 62
     7
370
    15
390
F
100
AcDbText
 10
121.633949
 20
-131.073914
 30
0.0
 40
2.0
  1
+
 41
1.333333636363637
 72
     5
 11
123.100616
 21
-131.073914
 31
0.0
100
AcDbText
  0
ENDBLK
  5
B0F
330
19E
100
AcDbEntity
  8
0
100
AcDbBlockEnd
  0
BLOCK
  5
B10
330
19F
100
AcDbEntity
  8
0
100
AcDbBlockBegin
  2
BLOCK151
 70
     0
 10
0.0
 20
0.0
 30
0.0
  3
BLOCK151
  1

  0
TEXT
  5
421
330
19F
100
AcDbEntity
  8
0
 62
     7
370
    15
390
F
100
AcDbText
 10
121.633949
 20
-127.073914
 30
0.0
 40
2.0
  1
+
 41
1.333333636363637
 72
     5
 11
123.100616
 21
-127.073914
 31
0.0
100
AcDbText
  0
ENDBLK
  5
B11
330
19F
100
AcDbEntity
  8
0
100
AcDbBlockEnd
  0
BLOCK
  5
B12
330
1A0
100
AcDbEntity
  8
0
100
AcDbBlockBegin
  2
BLOCK152
 70
     0
 10
0.0
 20
0.0
 30
0.0
  3
BLOCK152
  1

  0
TEXT
  5
424
330
1A0
100
AcDbEntity
  8
0
 62
     7
370
    15
390
F
100
AcDbText
 10
121.633949
 20
-123.073914
 30
0.0
 40
2.0
  1
+
 41
1.333333636363637
 72
     5
 11
123.100616
 21
-123.073914
 31
0.0
100
AcDbText
  0
ENDBLK
  5
B13
330
1A0
100
AcDbEntity
  8
0
100
AcDbBlockEnd
  0
BLOCK
  5
B14
330
1A1
100
AcDbEntity
  8
0
100
AcDbBlockBegin
  2
BLOCK153
 70
     0
 10
0.0
 20
0.0
 30
0.0
  3
BLOCK153
  1

  0
TEXT
  5
427
330
1A1
100
AcDbEntity
  8
0
 62
     7
370
    15
390
F
100
AcDbText
 10
121.633949
 20
-119.073914
 30
0.0
 40
2.0
  1
+
 41
1.333333636363637
 72
     5
 11
123.100616
 21
-119.073914
 31
0.0
100
AcDbText
  0
ENDBLK
  5
B15
330
1A1
100
AcDbEntity
  8
0
100
AcDbBlockEnd
  0
BLOCK
  5
B16
330
1A2
100
AcDbEntity
  8
0
100
AcDbBlockBegin
  2
BLOCK154
 70
     0
 10
0.0
 20
0.0
 30
0.0
  3
BLOCK154
  1

  0
TEXT
  5
42A
330
1A2
100
AcDbEntity
  8
0
 62
     7
370
    15
390
F
100
AcDbText
 10
121.633949
 20
-115.073914
 30
0.0
 40
2.0
  1
+
 41
1.333333636363637
 72
     5
 11
123.100616
 21
-115.073914
 31
0.0
100
AcDbText
  0
ENDBLK
  5
B17
330
1A2
100
AcDbEntity
  8
0
100
AcDbBlockEnd
  0
BLOCK
  5
B18
330
1A3
100
AcDbEntity
  8
0
100
AcDbBlockBegin
  2
BLOCK155
 70
     0
 10
0.0
 20
0.0
 30
0.0
  3
BLOCK155
  1

  0
TEXT
  5
42D
330
1A3
100
AcDbEntity
  8
0
 62
     7
370
    15
390
F
100
AcDbText
 10
121.633949
 20
-111.073914
 30
0.0
 40
2.0
  1
+
 41
1.333333636363637
 72
     5
 11
123.100616
 21
-111.073914
 31
0.0
100
AcDbText
  0
ENDBLK
  5
B19
330
1A3
100
AcDbEntity
  8
0
100
AcDbBlockEnd
  0
BLOCK
  5
B1A
330
1A4
100
AcDbEntity
  8
0
100
AcDbBlockBegin
  2
BLOCK156
 70
     0
 10
0.0
 20
0.0
 30
0.0
  3
BLOCK156
  1

  0
TEXT
  5
430
330
1A4
100
AcDbEntity
  8
0
 62
     7
370
    15
390
F
100
AcDbText
 10
121.633949
 20
-107.073914
 30
0.0
 40
2.0
  1
+
 41
1.333333636363637
 72
     5
 11
123.100616
 21
-107.073914
 31
0.0
100
AcDbText
  0
ENDBLK
  5
B1B
330
1A4
100
AcDbEntity
  8
0
100
AcDbBlockEnd
  0
BLOCK
  5
B1C
330
1A5
100
AcDbEntity
  8
0
100
AcDbBlockBegin
  2
BLOCK157
 70
     0
 10
0.0
 20
0.0
 30
0.0
  3
BLOCK157
  1

  0
TEXT
  5
433
330
1A5
100
AcDbEntity
  8
0
 62
     7
370
    15
390
F
100
AcDbText
 10
121.633949
 20
-103.073914
 30
0.0
 40
2.0
  1
+
 41
1.333333636363637
 72
     5
 11
123.100616
 21
-103.073914
 31
0.0
100
AcDbText
  0
ENDBLK
  5
B1D
330
1A5
100
AcDbEntity
  8
0
100
AcDbBlockEnd
  0
BLOCK
  5
B1E
330
1A6
100
AcDbEntity
  8
0
100
AcDbBlockBegin
  2
BLOCK158
 70
     0
 10
0.0
 20
0.0
 30
0.0
  3
BLOCK158
  1

  0
TEXT
  5
436
330
1A6
100
AcDbEntity
  8
0
 62
     7
370
    15
390
F
100
AcDbText
 10
121.633949
 20
-99.073914
 30
0.0
 40
2.0
  1
+
 41
1.333333636363637
 72
     5
 11
123.100616
 21
-99.073914
 31
0.0
100
AcDbText
  0
ENDBLK
  5
B1F
330
1A6
100
AcDbEntity
  8
0
100
AcDbBlockEnd
  0
BLOCK
  5
B20
330
1A7
100
AcDbEntity
  8
0
100
AcDbBlockBegin
  2
BLOCK159
 70
     0
 10
0.0
 20
0.0
 30
0.0
  3
BLOCK159
  1

  0
TEXT
  5
439
330
1A7
100
AcDbEntity
  8
0
 62
     7
370
    15
390
F
100
AcDbText
 10
121.633949
 20
-95.073914
 30
0.0
 40
2.0
  1
+
 41
1.333333636363637
 72
     5
 11
123.100616
 21
-95.073914
 31
0.0
100
AcDbText
  0
ENDBLK
  5
B21
330
1A7
100
AcDbEntity
  8
0
100
AcDbBlockEnd
  0
BLOCK
  5
B22
330
1A8
100
AcDbEntity
  8
0
100
AcDbBlockBegin
  2
BLOCK160
 70
     0
 10
0.0
 20
0.0
 30
0.0
  3
BLOCK160
  1

  0
TEXT
  5
43C
330
1A8
100
AcDbEntity
  8
0
 62
     7
370
    15
390
F
100
AcDbText
 10
121.633949
 20
-132.085876
 30
0.0
 40
2.0
  1
-
 41
1.333333636363637
 72
     5
 11
123.100616
 21
-132.085876
 31
0.0
100
AcDbText
  0
ENDBLK
  5
B23
330
1A8
100
AcDbEntity
  8
0
100
AcDbBlockEnd
  0
BLOCK
  5
B24
330
1A9
100
AcDbEntity
  8
0
100
AcDbBlockBegin
  2
BLOCK161
 70
     0
 10
0.0
 20
0.0
 30
0.0
  3
BLOCK161
  1

  0
TEXT
  5
43F
330
1A9
100
AcDbEntity
  8
0
 62
     7
370
    15
390
F
100
AcDbText
 10
121.633949
 20
-128.085876
 30
0.0
 40
2.0
  1
-
 41
1.333333636363637
 72
     5
 11
123.100616
 21
-128.085876
 31
0.0
100
AcDbText
  0
ENDBLK
  5
B25
330
1A9
100
AcDbEntity
  8
0
100
AcDbBlockEnd
  0
BLOCK
  5
B26
330
1AA
100
AcDbEntity
  8
0
100
AcDbBlockBegin
  2
BLOCK162
 70
     0
 10
0.0
 20
0.0
 30
0.0
  3
BLOCK162
  1

  0
TEXT
  5
442
330
1AA
100
AcDbEntity
  8
0
 62
     7
370
    15
390
F
100
AcDbText
 10
121.633949
 20
-124.085876
 30
0.0
 40
2.0
  1
-
 41
1.333333636363637
 72
     5
 11
123.100616
 21
-124.085876
 31
0.0
100
AcDbText
  0
ENDBLK
  5
B27
330
1AA
100
AcDbEntity
  8
0
100
AcDbBlockEnd
  0
BLOCK
  5
B28
330
1AB
100
AcDbEntity
  8
0
100
AcDbBlockBegin
  2
BLOCK163
 70
     0
 10
0.0
 20
0.0
 30
0.0
  3
BLOCK163
  1

  0
TEXT
  5
445
330
1AB
100
AcDbEntity
  8
0
 62
     7
370
    15
390
F
100
AcDbText
 10
121.633949
 20
-120.085876
 30
0.0
 40
2.0
  1
-
 41
1.333333636363637
 72
     5
 11
123.100616
 21
-120.085876
 31
0.0
100
AcDbText
  0
ENDBLK
  5
B29
330
1AB
100
AcDbEntity
  8
0
100
AcDbBlockEnd
  0
BLOCK
  5
B2A
330
1AC
100
AcDbEntity
  8
0
100
AcDbBlockBegin
  2
BLOCK164
 70
     0
 10
0.0
 20
0.0
 30
0.0
  3
BLOCK164
  1

  0
TEXT
  5
448
330
1AC
100
AcDbEntity
  8
0
 62
     7
370
    15
390
F
100
AcDbText
 10
121.633949
 20
-116.085876
 30
0.0
 40
2.0
  1
-
 41
1.333333636363637
 72
     5
 11
123.100616
 21
-116.085876
 31
0.0
100
AcDbText
  0
ENDBLK
  5
B2B
330
1AC
100
AcDbEntity
  8
0
100
AcDbBlockEnd
  0
BLOCK
  5
B2C
330
1AD
100
AcDbEntity
  8
0
100
AcDbBlockBegin
  2
BLOCK165
 70
     0
 10
0.0
 20
0.0
 30
0.0
  3
BLOCK165
  1

  0
TEXT
  5
44B
330
1AD
100
AcDbEntity
  8
0
 62
     7
370
    15
390
F
100
AcDbText
 10
121.633949
 20
-112.085876
 30
0.0
 40
2.0
  1
-
 41
1.333333636363637
 72
     5
 11
123.100616
 21
-112.085876
 31
0.0
100
AcDbText
  0
ENDBLK
  5
B2D
330
1AD
100
AcDbEntity
  8
0
100
AcDbBlockEnd
  0
BLOCK
  5
B2E
330
1AE
100
AcDbEntity
  8
0
100
AcDbBlockBegin
  2
BLOCK166
 70
     0
 10
0.0
 20
0.0
 30
0.0
  3
BLOCK166
  1

  0
TEXT
  5
44E
330
1AE
100
AcDbEntity
  8
0
 62
     7
370
    15
390
F
100
AcDbText
 10
121.633949
 20
-108.085876
 30
0.0
 40
2.0
  1
-
 41
1.333333636363637
 72
     5
 11
123.100616
 21
-108.085876
 31
0.0
100
AcDbText
  0
ENDBLK
  5
B2F
330
1AE
100
AcDbEntity
  8
0
100
AcDbBlockEnd
  0
BLOCK
  5
B30
330
1AF
100
AcDbEntity
  8
0
100
AcDbBlockBegin
  2
BLOCK167
 70
     0
 10
0.0
 20
0.0
 30
0.0
  3
BLOCK167
  1

  0
TEXT
  5
451
330
1AF
100
AcDbEntity
  8
0
 62
     7
370
    15
390
F
100
AcDbText
 10
121.633949
 20
-104.085876
 30
0.0
 40
2.0
  1
-
 41
1.333333636363637
 72
     5
 11
123.100616
 21
-104.085876
 31
0.0
100
AcDbText
  0
ENDBLK
  5
B31
330
1AF
100
AcDbEntity
  8
0
100
AcDbBlockEnd
  0
BLOCK
  5
B32
330
1B0
100
AcDbEntity
  8
0
100
AcDbBlockBegin
  2
BLOCK168
 70
     0
 10
0.0
 20
0.0
 30
0.0
  3
BLOCK168
  1

  0
TEXT
  5
454
330
1B0
100
AcDbEntity
  8
0
 62
     7
370
    15
390
F
100
AcDbText
 10
121.633949
 20
-100.085876
 30
0.0
 40
2.0
  1
-
 41
1.333333636363637
 72
     5
 11
123.100616
 21
-100.085876
 31
0.0
100
AcDbText
  0
ENDBLK
  5
B33
330
1B0
100
AcDbEntity
  8
0
100
AcDbBlockEnd
  0
BLOCK
  5
B34
330
1B1
100
AcDbEntity
  8
0
100
AcDbBlockBegin
  2
BLOCK169
 70
     0
 10
0.0
 20
0.0
 30
0.0
  3
BLOCK169
  1

  0
TEXT
  5
457
330
1B1
100
AcDbEntity
  8
0
 62
     7
370
    15
390
F
100
AcDbText
 10
121.633949
 20
-96.085876
 30
0.0
 40
2.0
  1
-
 41
1.333333636363637
 72
     5
 11
123.100616
 21
-96.085876
 31
0.0
100
AcDbText
  0
ENDBLK
  5
B35
330
1B1
100
AcDbEntity
  8
0
100
AcDbBlockEnd
  0
BLOCK
  5
B36
330
1B2
100
AcDbEntity
  8
0
100
AcDbBlockBegin
  2
BLOCK170
 70
     0
 10
0.0
 20
0.0
 30
0.0
  3
BLOCK170
  1

  0
TEXT
  5
45A
330
1B2
100
AcDbEntity
  8
0
 62
     7
370
    15
390
F
100
AcDbText
 10
131.633942
 20
-131.073914
 30
0.0
 40
2.0
  1
+
 41
1.333326363636383
 72
     5
 11
133.100601
 21
-131.073914
 31
0.0
100
AcDbText
  0
ENDBLK
  5
B37
330
1B2
100
AcDbEntity
  8
0
100
AcDbBlockEnd
  0
BLOCK
  5
B38
330
1B3
100
AcDbEntity
  8
0
100
AcDbBlockBegin
  2
BLOCK171
 70
     0
 10
0.0
 20
0.0
 30
0.0
  3
BLOCK171
  1

  0
TEXT
  5
45D
330
1B3
100
AcDbEntity
  8
0
 62
     7
370
    15
390
F
100
AcDbText
 10
131.633942
 20
-127.073914
 30
0.0
 40
2.0
  1
+
 41
1.333326363636383
 72
     5
 11
133.100601
 21
-127.073914
 31
0.0
100
AcDbText
  0
ENDBLK
  5
B39
330
1B3
100
AcDbEntity
  8
0
100
AcDbBlockEnd
  0
BLOCK
  5
B3A
330
1B4
100
AcDbEntity
  8
0
100
AcDbBlockBegin
  2
BLOCK172
 70
     0
 10
0.0
 20
0.0
 30
0.0
  3
BLOCK172
  1

  0
TEXT
  5
460
330
1B4
100
AcDbEntity
  8
0
 62
     7
370
    15
390
F
100
AcDbText
 10
131.633942
 20
-123.073914
 30
0.0
 40
2.0
  1
+
 41
1.333326363636383
 72
     5
 11
133.100601
 21
-123.073914
 31
0.0
100
AcDbText
  0
ENDBLK
  5
B3B
330
1B4
100
AcDbEntity
  8
0
100
AcDbBlockEnd
  0
BLOCK
  5
B3C
330
1B5
100
AcDbEntity
  8
0
100
AcDbBlockBegin
  2
BLOCK173
 70
     0
 10
0.0
 20
0.0
 30
0.0
  3
BLOCK173
  1

  0
TEXT
  5
463
330
1B5
100
AcDbEntity
  8
0
 62
     7
370
    15
390
F
100
AcDbText
 10
131.633942
 20
-119.073914
 30
0.0
 40
2.0
  1
+
 41
1.333326363636383
 72
     5
 11
133.100601
 21
-119.073914
 31
0.0
100
AcDbText
  0
ENDBLK
  5
B3D
330
1B5
100
AcDbEntity
  8
0
100
AcDbBlockEnd
  0
BLOCK
  5
B3E
330
1B6
100
AcDbEntity
  8
0
100
AcDbBlockBegin
  2
BLOCK174
 70
     0
 10
0.0
 20
0.0
 30
0.0
  3
BLOCK174
  1

  0
TEXT
  5
466
330
1B6
100
AcDbEntity
  8
0
 62
     7
370
    15
390
F
100
AcDbText
 10
131.633942
 20
-115.073914
 30
0.0
 40
2.0
  1
+
 41
1.333326363636383
 72
     5
 11
133.100601
 21
-115.073914
 31
0.0
100
AcDbText
  0
ENDBLK
  5
B3F
330
1B6
100
AcDbEntity
  8
0
100
AcDbBlockEnd
  0
BLOCK
  5
B40
330
1B7
100
AcDbEntity
  8
0
100
AcDbBlockBegin
  2
BLOCK175
 70
     0
 10
0.0
 20
0.0
 30
0.0
  3
BLOCK175
  1

  0
TEXT
  5
469
330
1B7
100
AcDbEntity
  8
0
 62
     7
370
    15
390
F
100
AcDbText
 10
131.633942
 20
-111.073914
 30
0.0
 40
2.0
  1
+
 41
1.333326363636383
 72
     5
 11
133.100601
 21
-111.073914
 31
0.0
100
AcDbText
  0
ENDBLK
  5
B41
330
1B7
100
AcDbEntity
  8
0
100
AcDbBlockEnd
  0
BLOCK
  5
B42
330
1B8
100
AcDbEntity
  8
0
100
AcDbBlockBegin
  2
BLOCK176
 70
     0
 10
0.0
 20
0.0
 30
0.0
  3
BLOCK176
  1

  0
TEXT
  5
46C
330
1B8
100
AcDbEntity
  8
0
 62
     7
370
    15
390
F
100
AcDbText
 10
131.633942
 20
-107.073914
 30
0.0
 40
2.0
  1
+
 41
1.333326363636383
 72
     5
 11
133.100601
 21
-107.073914
 31
0.0
100
AcDbText
  0
ENDBLK
  5
B43
330
1B8
100
AcDbEntity
  8
0
100
AcDbBlockEnd
  0
BLOCK
  5
B44
330
1B9
100
AcDbEntity
  8
0
100
AcDbBlockBegin
  2
BLOCK177
 70
     0
 10
0.0
 20
0.0
 30
0.0
  3
BLOCK177
  1

  0
TEXT
  5
46F
330
1B9
100
AcDbEntity
  8
0
 62
     7
370
    15
390
F
100
AcDbText
 10
131.633942
 20
-103.073914
 30
0.0
 40
2.0
  1
+
 41
1.333326363636383
 72
     5
 11
133.100601
 21
-103.073914
 31
0.0
100
AcDbText
  0
ENDBLK
  5
B45
330
1B9
100
AcDbEntity
  8
0
100
AcDbBlockEnd
  0
BLOCK
  5
B46
330
1BA
100
AcDbEntity
  8
0
100
AcDbBlockBegin
  2
BLOCK178
 70
     0
 10
0.0
 20
0.0
 30
0.0
  3
BLOCK178
  1

  0
TEXT
  5
472
330
1BA
100
AcDbEntity
  8
0
 62
     7
370
    15
390
F
100
AcDbText
 10
131.633942
 20
-99.073914
 30
0.0
 40
2.0
  1
+
 41
1.333326363636383
 72
     5
 11
133.100601
 21
-99.073914
 31
0.0
100
AcDbText
  0
ENDBLK
  5
B47
330
1BA
100
AcDbEntity
  8
0
100
AcDbBlockEnd
  0
BLOCK
  5
B48
330
1BB
100
AcDbEntity
  8
0
100
AcDbBlockBegin
  2
BLOCK179
 70
     0
 10
0.0
 20
0.0
 30
0.0
  3
BLOCK179
  1

  0
TEXT
  5
475
330
1BB
100
AcDbEntity
  8
0
 62
     7
370
    15
390
F
100
AcDbText
 10
131.633942
 20
-95.073914
 30
0.0
 40
2.0
  1
+
 41
1.333326363636383
 72
     5
 11
133.100601
 21
-95.073914
 31
0.0
100
AcDbText
  0
ENDBLK
  5
B49
330
1BB
100
AcDbEntity
  8
0
100
AcDbBlockEnd
  0
BLOCK
  5
B4A
330
1BC
100
AcDbEntity
  8
0
100
AcDbBlockBegin
  2
BLOCK180
 70
     0
 10
0.0
 20
0.0
 30
0.0
  3
BLOCK180
  1

  0
TEXT
  5
478
330
1BC
100
AcDbEntity
  8
0
 62
     7
370
    15
390
F
100
AcDbText
 10
131.633942
 20
-132.085876
 30
0.0
 40
2.0
  1
-
 41
1.333326363636383
 72
     5
 11
133.100601
 21
-132.085876
 31
0.0
100
AcDbText
  0
ENDBLK
  5
B4B
330
1BC
100
AcDbEntity
  8
0
100
AcDbBlockEnd
  0
BLOCK
  5
B4C
330
1BD
100
AcDbEntity
  8
0
100
AcDbBlockBegin
  2
BLOCK181
 70
     0
 10
0.0
 20
0.0
 30
0.0
  3
BLOCK181
  1

  0
TEXT
  5
47B
330
1BD
100
AcDbEntity
  8
0
 62
     7
370
    15
390
F
100
AcDbText
 10
131.633942
 20
-128.085876
 30
0.0
 40
2.0
  1
-
 41
1.333326363636383
 72
     5
 11
133.100601
 21
-128.085876
 31
0.0
100
AcDbText
  0
ENDBLK
  5
B4D
330
1BD
100
AcDbEntity
  8
0
100
AcDbBlockEnd
  0
BLOCK
  5
B4E
330
1BE
100
AcDbEntity
  8
0
100
AcDbBlockBegin
  2
BLOCK182
 70
     0
 10
0.0
 20
0.0
 30
0.0
  3
BLOCK182
  1

  0
TEXT
  5
47E
330
1BE
100
AcDbEntity
  8
0
 62
     7
370
    15
390
F
100
AcDbText
 10
131.633942
 20
-124.085876
 30
0.0
 40
2.0
  1
-
 41
1.333326363636383
 72
     5
 11
133.100601
 21
-124.085876
 31
0.0
100
AcDbText
  0
ENDBLK
  5
B4F
330
1BE
100
AcDbEntity
  8
0
100
AcDbBlockEnd
  0
BLOCK
  5
B50
330
1BF
100
AcDbEntity
  8
0
100
AcDbBlockBegin
  2
BLOCK183
 70
     0
 10
0.0
 20
0.0
 30
0.0
  3
BLOCK183
  1

  0
TEXT
  5
481
330
1BF
100
AcDbEntity
  8
0
 62
     7
370
    15
390
F
100
AcDbText
 10
131.633942
 20
-120.085876
 30
0.0
 40
2.0
  1
-
 41
1.333326363636383
 72
     5
 11
133.100601
 21
-120.085876
 31
0.0
100
AcDbText
  0
ENDBLK
  5
B51
330
1BF
100
AcDbEntity
  8
0
100
AcDbBlockEnd
  0
BLOCK
  5
B52
330
1C0
100
AcDbEntity
  8
0
100
AcDbBlockBegin
  2
BLOCK184
 70
     0
 10
0.0
 20
0.0
 30
0.0
  3
BLOCK184
  1

  0
TEXT
  5
484
330
1C0
100
AcDbEntity
  8
0
 62
     7
370
    15
390
F
100
AcDbText
 10
131.633942
 20
-116.085876
 30
0.0
 40
2.0
  1
-
 41
1.333326363636383
 72
     5
 11
133.100601
 21
-116.085876
 31
0.0
100
AcDbText
  0
ENDBLK
  5
B53
330
1C0
100
AcDbEntity
  8
0
100
AcDbBlockEnd
  0
BLOCK
  5
B54
330
1C1
100
AcDbEntity
  8
0
100
AcDbBlockBegin
  2
BLOCK185
 70
     0
 10
0.0
 20
0.0
 30
0.0
  3
BLOCK185
  1

  0
TEXT
  5
487
330
1C1
100
AcDbEntity
  8
0
 62
     7
370
    15
390
F
100
AcDbText
 10
131.633942
 20
-112.085876
 30
0.0
 40
2.0
  1
-
 41
1.333326363636383
 72
     5
 11
133.100601
 21
-112.085876
 31
0.0
100
AcDbText
  0
ENDBLK
  5
B55
330
1C1
100
AcDbEntity
  8
0
100
AcDbBlockEnd
  0
BLOCK
  5
B56
330
1C2
100
AcDbEntity
  8
0
100
AcDbBlockBegin
  2
BLOCK186
 70
     0
 10
0.0
 20
0.0
 30
0.0
  3
BLOCK186
  1

  0
TEXT
  5
48A
330
1C2
100
AcDbEntity
  8
0
 62
     7
370
    15
390
F
100
AcDbText
 10
131.633942
 20
-108.085876
 30
0.0
 40
2.0
  1
-
 41
1.333326363636383
 72
     5
 11
133.100601
 21
-108.085876
 31
0.0
100
AcDbText
  0
ENDBLK
  5
B57
330
1C2
100
AcDbEntity
  8
0
100
AcDbBlockEnd
  0
BLOCK
  5
B58
330
1C3
100
AcDbEntity
  8
0
100
AcDbBlockBegin
  2
BLOCK187
 70
     0
 10
0.0
 20
0.0
 30
0.0
  3
BLOCK187
  1

  0
TEXT
  5
48D
330
1C3
100
AcDbEntity
  8
0
 62
     7
370
    15
390
F
100
AcDbText
 10
131.633942
 20
-104.085876
 30
0.0
 40
2.0
  1
-
 41
1.333326363636383
 72
     5
 11
133.100601
 21
-104.085876
 31
0.0
100
AcDbText
  0
ENDBLK
  5
B59
330
1C3
100
AcDbEntity
  8
0
100
AcDbBlockEnd
  0
BLOCK
  5
B5A
330
1C4
100
AcDbEntity
  8
0
100
AcDbBlockBegin
  2
BLOCK188
 70
     0
 10
0.0
 20
0.0
 30
0.0
  3
BLOCK188
  1

  0
TEXT
  5
490
330
1C4
100
AcDbEntity
  8
0
 62
     7
370
    15
390
F
100
AcDbText
 10
131.633942
 20
-100.085876
 30
0.0
 40
2.0
  1
-
 41
1.333326363636383
 72
     5
 11
133.100601
 21
-100.085876
 31
0.0
100
AcDbText
  0
ENDBLK
  5
B5B
330
1C4
100
AcDbEntity
  8
0
100
AcDbBlockEnd
  0
BLOCK
  5
B5C
330
1C5
100
AcDbEntity
  8
0
100
AcDbBlockBegin
  2
BLOCK189
 70
     0
 10
0.0
 20
0.0
 30
0.0
  3
BLOCK189
  1

  0
TEXT
  5
493
330
1C5
100
AcDbEntity
  8
0
 62
     7
370
    15
390
F
100
AcDbText
 10
131.633942
 20
-96.085876
 30
0.0
 40
2.0
  1
-
 41
1.333326363636383
 72
     5
 11
133.100601
 21
-96.085876
 31
0.0
100
AcDbText
  0
ENDBLK
  5
B5D
330
1C5
100
AcDbEntity
  8
0
100
AcDbBlockEnd
  0
BLOCK
  5
B5E
330
1C6
100
AcDbEntity
  8
0
100
AcDbBlockBegin
  2
BLOCK190
 70
     0
 10
0.0
 20
0.0
 30
0.0
  3
BLOCK190
  1

  0
TEXT
  5
496
330
1C6
100
AcDbEntity
  8
0
 62
     7
370
    15
390
F
100
AcDbText
 10
141.633942
 20
-131.073914
 30
0.0
 40
2.0
  1
+
 41
1.333326363636383
 72
     5
 11
143.100601
 21
-131.073914
 31
0.0
100
AcDbText
  0
ENDBLK
  5
B5F
330
1C6
100
AcDbEntity
  8
0
100
AcDbBlockEnd
  0
BLOCK
  5
B60
330
1C7
100
AcDbEntity
  8
0
100
AcDbBlockBegin
  2
BLOCK191
 70
     0
 10
0.0
 20
0.0
 30
0.0
  3
BLOCK191
  1

  0
TEXT
  5
499
330
1C7
100
AcDbEntity
  8
0
 62
     7
370
    15
390
F
100
AcDbText
 10
141.633942
 20
-127.073914
 30
0.0
 40
2.0
  1
+
 41
1.333326363636383
 72
     5
 11
143.100601
 21
-127.073914
 31
0.0
100
AcDbText
  0
ENDBLK
  5
B61
330
1C7
100
AcDbEntity
  8
0
100
AcDbBlockEnd
  0
BLOCK
  5
B62
330
1C8
100
AcDbEntity
  8
0
100
AcDbBlockBegin
  2
BLOCK192
 70
     0
 10
0.0
 20
0.0
 30
0.0
  3
BLOCK192
  1

  0
TEXT
  5
49C
330
1C8
100
AcDbEntity
  8
0
 62
     7
370
    15
390
F
100
AcDbText
 10
141.633942
 20
-123.073914
 30
0.0
 40
2.0
  1
+
 41
1.333326363636383
 72
     5
 11
143.100601
 21
-123.073914
 31
0.0
100
AcDbText
  0
ENDBLK
  5
B63
330
1C8
100
AcDbEntity
  8
0
100
AcDbBlockEnd
  0
BLOCK
  5
B64
330
1C9
100
AcDbEntity
  8
0
100
AcDbBlockBegin
  2
BLOCK193
 70
     0
 10
0.0
 20
0.0
 30
0.0
  3
BLOCK193
  1

  0
TEXT
  5
49F
330
1C9
100
AcDbEntity
  8
0
 62
     7
370
    15
390
F
100
AcDbText
 10
141.633942
 20
-119.073914
 30
0.0
 40
2.0
  1
+
 41
1.333326363636383
 72
     5
 11
143.100601
 21
-119.073914
 31
0.0
100
AcDbText
  0
ENDBLK
  5
B65
330
1C9
100
AcDbEntity
  8
0
100
AcDbBlockEnd
  0
BLOCK
  5
B66
330
1CA
100
AcDbEntity
  8
0
100
AcDbBlockBegin
  2
BLOCK194
 70
     0
 10
0.0
 20
0.0
 30
0.0
  3
BLOCK194
  1

  0
TEXT
  5
4A2
330
1CA
100
AcDbEntity
  8
0
 62
     7
370
    15
390
F
100
AcDbText
 10
141.633942
 20
-115.073914
 30
0.0
 40
2.0
  1
+
 41
1.333326363636383
 72
     5
 11
143.100601
 21
-115.073914
 31
0.0
100
AcDbText
  0
ENDBLK
  5
B67
330
1CA
100
AcDbEntity
  8
0
100
AcDbBlockEnd
  0
BLOCK
  5
B68
330
1CB
100
AcDbEntity
  8
0
100
AcDbBlockBegin
  2
BLOCK195
 70
     0
 10
0.0
 20
0.0
 30
0.0
  3
BLOCK195
  1

  0
TEXT
  5
4A5
330
1CB
100
AcDbEntity
  8
0
 62
     7
370
    15
390
F
100
AcDbText
 10
141.633942
 20
-111.073914
 30
0.0
 40
2.0
  1
+
 41
1.333326363636383
 72
     5
 11
143.100601
 21
-111.073914
 31
0.0
100
AcDbText
  0
ENDBLK
  5
B69
330
1CB
100
AcDbEntity
  8
0
100
AcDbBlockEnd
  0
BLOCK
  5
B6A
330
1CC
100
AcDbEntity
  8
0
100
AcDbBlockBegin
  2
BLOCK196
 70
     0
 10
0.0
 20
0.0
 30
0.0
  3
BLOCK196
  1

  0
TEXT
  5
4A8
330
1CC
100
AcDbEntity
  8
0
 62
     7
370
    15
390
F
100
AcDbText
 10
141.633942
 20
-107.073914
 30
0.0
 40
2.0
  1
+
 41
1.333326363636383
 72
     5
 11
143.100601
 21
-107.073914
 31
0.0
100
AcDbText
  0
ENDBLK
  5
B6B
330
1CC
100
AcDbEntity
  8
0
100
AcDbBlockEnd
  0
BLOCK
  5
B6C
330
1CD
100
AcDbEntity
  8
0
100
AcDbBlockBegin
  2
BLOCK197
 70
     0
 10
0.0
 20
0.0
 30
0.0
  3
BLOCK197
  1

  0
TEXT
  5
4AB
330
1CD
100
AcDbEntity
  8
0
 62
     7
370
    15
390
F
100
AcDbText
 10
141.633942
 20
-103.073914
 30
0.0
 40
2.0
  1
+
 41
1.333326363636383
 72
     5
 11
143.100601
 21
-103.073914
 31
0.0
100
AcDbText
  0
ENDBLK
  5
B6D
330
1CD
100
AcDbEntity
  8
0
100
AcDbBlockEnd
  0
BLOCK
  5
B6E
330
1CE
100
AcDbEntity
  8
0
100
AcDbBlockBegin
  2
BLOCK198
 70
     0
 10
0.0
 20
0.0
 30
0.0
  3
BLOCK198
  1

  0
TEXT
  5
4AE
330
1CE
100
AcDbEntity
  8
0
 62
     7
370
    15
390
F
100
AcDbText
 10
141.633942
 20
-99.073914
 30
0.0
 40
2.0
  1
+
 41
1.333326363636383
 72
     5
 11
143.100601
 21
-99.073914
 31
0.0
100
AcDbText
  0
ENDBLK
  5
B6F
330
1CE
100
AcDbEntity
  8
0
100
AcDbBlockEnd
  0
BLOCK
  5
B70
330
1CF
100
AcDbEntity
  8
0
100
AcDbBlockBegin
  2
BLOCK199
 70
     0
 10
0.0
 20
0.0
 30
0.0
  3
BLOCK199
  1

  0
TEXT
  5
4B1
330
1CF
100
AcDbEntity
  8
0
 62
     7
370
    15
390
F
100
AcDbText
 10
141.633942
 20
-95.073914
 30
0.0
 40
2.0
  1
+
 41
1.333326363636383
 72
     5
 11
143.100601
 21
-95.073914
 31
0.0
100
AcDbText
  0
ENDBLK
  5
B71
330
1CF
100
AcDbEntity
  8
0
100
AcDbBlockEnd
  0
BLOCK
  5
B72
330
1D0
100
AcDbEntity
  8
0
100
AcDbBlockBegin
  2
BLOCK200
 70
     0
 10
0.0
 20
0.0
 30
0.0
  3
BLOCK200
  1

  0
TEXT
  5
4B4
330
1D0
100
AcDbEntity
  8
0
 62
     7
370
    15
390
F
100
AcDbText
 10
141.633942
 20
-132.085876
 30
0.0
 40
2.0
  1
-
 41
1.333326363636383
 72
     5
 11
143.100601
 21
-132.085876
 31
0.0
100
AcDbText
  0
ENDBLK
  5
B73
330
1D0
100
AcDbEntity
  8
0
100
AcDbBlockEnd
  0
BLOCK
  5
B74
330
1D1
100
AcDbEntity
  8
0
100
AcDbBlockBegin
  2
BLOCK201
 70
     0
 10
0.0
 20
0.0
 30
0.0
  3
BLOCK201
  1

  0
TEXT
  5
4B7
330
1D1
100
AcDbEntity
  8
0
 62
     7
370
    15
390
F
100
AcDbText
 10
141.633942
 20
-128.085876
 30
0.0
 40
2.0
  1
-
 41
1.333326363636383
 72
     5
 11
143.100601
 21
-128.085876
 31
0.0
100
AcDbText
  0
ENDBLK
  5
B75
330
1D1
100
AcDbEntity
  8
0
100
AcDbBlockEnd
  0
BLOCK
  5
B76
330
1D2
100
AcDbEntity
  8
0
100
AcDbBlockBegin
  2
BLOCK202
 70
     0
 10
0.0
 20
0.0
 30
0.0
  3
BLOCK202
  1

  0
TEXT
  5
4BA
330
1D2
100
AcDbEntity
  8
0
 62
     7
370
    15
390
F
100
AcDbText
 10
141.633942
 20
-124.085876
 30
0.0
 40
2.0
  1
-
 41
1.333326363636383
 72
     5
 11
143.100601
 21
-124.085876
 31
0.0
100
AcDbText
  0
ENDBLK
  5
B77
330
1D2
100
AcDbEntity
  8
0
100
AcDbBlockEnd
  0
BLOCK
  5
B78
330
1D3
100
AcDbEntity
  8
0
100
AcDbBlockBegin
  2
BLOCK203
 70
     0
 10
0.0
 20
0.0
 30
0.0
  3
BLOCK203
  1

  0
TEXT
  5
4BD
330
1D3
100
AcDbEntity
  8
0
 62
     7
370
    15
390
F
100
AcDbText
 10
141.633942
 20
-120.085876
 30
0.0
 40
2.0
  1
-
 41
1.333326363636383
 72
     5
 11
143.100601
 21
-120.085876
 31
0.0
100
AcDbText
  0
ENDBLK
  5
B79
330
1D3
100
AcDbEntity
  8
0
100
AcDbBlockEnd
  0
BLOCK
  5
B7A
330
1D4
100
AcDbEntity
  8
0
100
AcDbBlockBegin
  2
BLOCK204
 70
     0
 10
0.0
 20
0.0
 30
0.0
  3
BLOCK204
  1

  0
TEXT
  5
4C0
330
1D4
100
AcDbEntity
  8
0
 62
     7
370
    15
390
F
100
AcDbText
 10
141.633942
 20
-116.085876
 30
0.0
 40
2.0
  1
-
 41
1.333326363636383
 72
     5
 11
143.100601
 21
-116.085876
 31
0.0
100
AcDbText
  0
ENDBLK
  5
B7B
330
1D4
100
AcDbEntity
  8
0
100
AcDbBlockEnd
  0
BLOCK
  5
B7C
330
1D5
100
AcDbEntity
  8
0
100
AcDbBlockBegin
  2
BLOCK205
 70
     0
 10
0.0
 20
0.0
 30
0.0
  3
BLOCK205
  1

  0
TEXT
  5
4C3
330
1D5
100
AcDbEntity
  8
0
 62
     7
370
    15
390
F
100
AcDbText
 10
141.633942
 20
-112.085876
 30
0.0
 40
2.0
  1
-
 41
1.333326363636383
 72
     5
 11
143.100601
 21
-112.085876
 31
0.0
100
AcDbText
  0
ENDBLK
  5
B7D
330
1D5
100
AcDbEntity
  8
0
100
AcDbBlockEnd
  0
BLOCK
  5
B7E
330
1D6
100
AcDbEntity
  8
0
100
AcDbBlockBegin
  2
BLOCK206
 70
     0
 10
0.0
 20
0.0
 30
0.0
  3
BLOCK206
  1

  0
TEXT
  5
4C6
330
1D6
100
AcDbEntity
  8
0
 62
     7
370
    15
390
F
100
AcDbText
 10
141.633942
 20
-108.085876
 30
0.0
 40
2.0
  1
-
 41
1.333326363636383
 72
     5
 11
143.100601
 21
-108.085876
 31
0.0
100
AcDbText
  0
ENDBLK
  5
B7F
330
1D6
100
AcDbEntity
  8
0
100
AcDbBlockEnd
  0
BLOCK
  5
B80
330
1D7
100
AcDbEntity
  8
0
100
AcDbBlockBegin
  2
BLOCK207
 70
     0
 10
0.0
 20
0.0
 30
0.0
  3
BLOCK207
  1

  0
TEXT
  5
4C9
330
1D7
100
AcDbEntity
  8
0
 62
     7
370
    15
390
F
100
AcDbText
 10
141.633942
 20
-104.085876
 30
0.0
 40
2.0
  1
-
 41
1.333326363636383
 72
     5
 11
143.100601
 21
-104.085876
 31
0.0
100
AcDbText
  0
ENDBLK
  5
B81
330
1D7
100
AcDbEntity
  8
0
100
AcDbBlockEnd
  0
BLOCK
  5
B82
330
1D8
100
AcDbEntity
  8
0
100
AcDbBlockBegin
  2
BLOCK208
 70
     0
 10
0.0
 20
0.0
 30
0.0
  3
BLOCK208
  1

  0
TEXT
  5
4CC
330
1D8
100
AcDbEntity
  8
0
 62
     7
370
    15
390
F
100
AcDbText
 10
141.633942
 20
-100.085876
 30
0.0
 40
2.0
  1
-
 41
1.333326363636383
 72
     5
 11
143.100601
 21
-100.085876
 31
0.0
100
AcDbText
  0
ENDBLK
  5
B83
330
1D8
100
AcDbEntity
  8
0
100
AcDbBlockEnd
  0
BLOCK
  5
B84
330
1D9
100
AcDbEntity
  8
0
100
AcDbBlockBegin
  2
BLOCK209
 70
     0
 10
0.0
 20
0.0
 30
0.0
  3
BLOCK209
  1

  0
TEXT
  5
4CF
330
1D9
100
AcDbEntity
  8
0
 62
     7
370
    15
390
F
100
AcDbText
 10
141.633942
 20
-96.085876
 30
0.0
 40
2.0
  1
-
 41
1.333326363636383
 72
     5
 11
143.100601
 21
-96.085876
 31
0.0
100
AcDbText
  0
ENDBLK
  5
B85
330
1D9
100
AcDbEntity
  8
0
100
AcDbBlockEnd
  0
BLOCK
  5
B86
330
1DA
100
AcDbEntity
  8
0
100
AcDbBlockBegin
  2
BLOCK210
 70
     0
 10
0.0
 20
0.0
 30
0.0
  3
BLOCK210
  1

  0
TEXT
  5
4D2
330
1DA
100
AcDbEntity
  8
0
 62
     7
370
    15
390
F
100
AcDbText
 10
151.633942
 20
-131.073914
 30
0.0
 40
2.0
  1
+
 41
1.333326363636383
 72
     5
 11
153.100601
 21
-131.073914
 31
0.0
100
AcDbText
  0
ENDBLK
  5
B87
330
1DA
100
AcDbEntity
  8
0
100
AcDbBlockEnd
  0
BLOCK
  5
B88
330
1DB
100
AcDbEntity
  8
0
100
AcDbBlockBegin
  2
BLOCK211
 70
     0
 10
0.0
 20
0.0
 30
0.0
  3
BLOCK211
  1

  0
TEXT
  5
4D5
330
1DB
100
AcDbEntity
  8
0
 62
     7
370
    15
390
F
100
AcDbText
 10
151.633942
 20
-127.073914
 30
0.0
 40
2.0
  1
+
 41
1.333326363636383
 72
     5
 11
153.100601
 21
-127.073914
 31
0.0
100
AcDbText
  0
ENDBLK
  5
B89
330
1DB
100
AcDbEntity
  8
0
100
AcDbBlockEnd
  0
BLOCK
  5
B8A
330
1DC
100
AcDbEntity
  8
0
100
AcDbBlockBegin
  2
BLOCK212
 70
     0
 10
0.0
 20
0.0
 30
0.0
  3
BLOCK212
  1

  0
TEXT
  5
4D8
330
1DC
100
AcDbEntity
  8
0
 62
     7
370
    15
390
F
100
AcDbText
 10
151.633942
 20
-123.073914
 30
0.0
 40
2.0
  1
+
 41
1.333326363636383
 72
     5
 11
153.100601
 21
-123.073914
 31
0.0
100
AcDbText
  0
ENDBLK
  5
B8B
330
1DC
100
AcDbEntity
  8
0
100
AcDbBlockEnd
  0
BLOCK
  5
B8C
330
1DD
100
AcDbEntity
  8
0
100
AcDbBlockBegin
  2
BLOCK213
 70
     0
 10
0.0
 20
0.0
 30
0.0
  3
BLOCK213
  1

  0
TEXT
  5
4DB
330
1DD
100
AcDbEntity
  8
0
 62
     7
370
    15
390
F
100
AcDbText
 10
151.633942
 20
-119.073914
 30
0.0
 40
2.0
  1
+
 41
1.333326363636383
 72
     5
 11
153.100601
 21
-119.073914
 31
0.0
100
AcDbText
  0
ENDBLK
  5
B8D
330
1DD
100
AcDbEntity
  8
0
100
AcDbBlockEnd
  0
BLOCK
  5
B8E
330
1DE
100
AcDbEntity
  8
0
100
AcDbBlockBegin
  2
BLOCK214
 70
     0
 10
0.0
 20
0.0
 30
0.0
  3
BLOCK214
  1

  0
TEXT
  5
4DE
330
1DE
100
AcDbEntity
  8
0
 62
     7
370
    15
390
F
100
AcDbText
 10
151.633942
 20
-115.073914
 30
0.0
 40
2.0
  1
+
 41
1.333326363636383
 72
     5
 11
153.100601
 21
-115.073914
 31
0.0
100
AcDbText
  0
ENDBLK
  5
B8F
330
1DE
100
AcDbEntity
  8
0
100
AcDbBlockEnd
  0
BLOCK
  5
B90
330
1DF
100
AcDbEntity
  8
0
100
AcDbBlockBegin
  2
BLOCK215
 70
     0
 10
0.0
 20
0.0
 30
0.0
  3
BLOCK215
  1

  0
TEXT
  5
4E1
330
1DF
100
AcDbEntity
  8
0
 62
     7
370
    15
390
F
100
AcDbText
 10
151.633942
 20
-111.073914
 30
0.0
 40
2.0
  1
+
 41
1.333326363636383
 72
     5
 11
153.100601
 21
-111.073914
 31
0.0
100
AcDbText
  0
ENDBLK
  5
B91
330
1DF
100
AcDbEntity
  8
0
100
AcDbBlockEnd
  0
BLOCK
  5
B92
330
1E0
100
AcDbEntity
  8
0
100
AcDbBlockBegin
  2
BLOCK216
 70
     0
 10
0.0
 20
0.0
 30
0.0
  3
BLOCK216
  1

  0
TEXT
  5
4E4
330
1E0
100
AcDbEntity
  8
0
 62
     7
370
    15
390
F
100
AcDbText
 10
151.633942
 20
-107.073914
 30
0.0
 40
2.0
  1
+
 41
1.333326363636383
 72
     5
 11
153.100601
 21
-107.073914
 31
0.0
100
AcDbText
  0
ENDBLK
  5
B93
330
1E0
100
AcDbEntity
  8
0
100
AcDbBlockEnd
  0
BLOCK
  5
B94
330
1E1
100
AcDbEntity
  8
0
100
AcDbBlockBegin
  2
BLOCK217
 70
     0
 10
0.0
 20
0.0
 30
0.0
  3
BLOCK217
  1

  0
TEXT
  5
4E7
330
1E1
100
AcDbEntity
  8
0
 62
     7
370
    15
390
F
100
AcDbText
 10
151.633942
 20
-103.073914
 30
0.0
 40
2.0
  1
+
 41
1.333326363636383
 72
     5
 11
153.100601
 21
-103.073914
 31
0.0
100
AcDbText
  0
ENDBLK
  5
B95
330
1E1
100
AcDbEntity
  8
0
100
AcDbBlockEnd
  0
BLOCK
  5
B96
330
1E2
100
AcDbEntity
  8
0
100
AcDbBlockBegin
  2
BLOCK218
 70
     0
 10
0.0
 20
0.0
 30
0.0
  3
BLOCK218
  1

  0
TEXT
  5
4EA
330
1E2
100
AcDbEntity
  8
0
 62
     7
370
    15
390
F
100
AcDbText
 10
151.633942
 20
-99.073914
 30
0.0
 40
2.0
  1
+
 41
1.333326363636383
 72
     5
 11
153.100601
 21
-99.073914
 31
0.0
100
AcDbText
  0
ENDBLK
  5
B97
330
1E2
100
AcDbEntity
  8
0
100
AcDbBlockEnd
  0
BLOCK
  5
B98
330
1E3
100
AcDbEntity
  8
0
100
AcDbBlockBegin
  2
BLOCK219
 70
     0
 10
0.0
 20
0.0
 30
0.0
  3
BLOCK219
  1

  0
TEXT
  5
4ED
330
1E3
100
AcDbEntity
  8
0
 62
     7
370
    15
390
F
100
AcDbText
 10
151.633942
 20
-95.073914
 30
0.0
 40
2.0
  1
+
 41
1.333326363636383
 72
     5
 11
153.100601
 21
-95.073914
 31
0.0
100
AcDbText
  0
ENDBLK
  5
B99
330
1E3
100
AcDbEntity
  8
0
100
AcDbBlockEnd
  0
BLOCK
  5
B9A
330
1E4
100
AcDbEntity
  8
0
100
AcDbBlockBegin
  2
BLOCK220
 70
     0
 10
0.0
 20
0.0
 30
0.0
  3
BLOCK220
  1

  0
TEXT
  5
4F0
330
1E4
100
AcDbEntity
  8
0
 62
     7
370
    15
390
F
100
AcDbText
 10
151.633942
 20
-132.085876
 30
0.0
 40
2.0
  1
-
 41
1.333326363636383
 72
     5
 11
153.100601
 21
-132.085876
 31
0.0
100
AcDbText
  0
ENDBLK
  5
B9B
330
1E4
100
AcDbEntity
  8
0
100
AcDbBlockEnd
  0
BLOCK
  5
B9C
330
1E5
100
AcDbEntity
  8
0
100
AcDbBlockBegin
  2
BLOCK221
 70
     0
 10
0.0
 20
0.0
 30
0.0
  3
BLOCK221
  1

  0
TEXT
  5
4F3
330
1E5
100
AcDbEntity
  8
0
 62
     7
370
    15
390
F
100
AcDbText
 10
151.633942
 20
-128.085876
 30
0.0
 40
2.0
  1
-
 41
1.333326363636383
 72
     5
 11
153.100601
 21
-128.085876
 31
0.0
100
AcDbText
  0
ENDBLK
  5
B9D
330
1E5
100
AcDbEntity
  8
0
100
AcDbBlockEnd
  0
BLOCK
  5
B9E
330
1E6
100
AcDbEntity
  8
0
100
AcDbBlockBegin
  2
BLOCK222
 70
     0
 10
0.0
 20
0.0
 30
0.0
  3
BLOCK222
  1

  0
TEXT
  5
4F6
330
1E6
100
AcDbEntity
  8
0
 62
     7
370
    15
390
F
100
AcDbText
 10
151.633942
 20
-124.085876
 30
0.0
 40
2.0
  1
-
 41
1.333326363636383
 72
     5
 11
153.100601
 21
-124.085876
 31
0.0
100
AcDbText
  0
ENDBLK
  5
B9F
330
1E6
100
AcDbEntity
  8
0
100
AcDbBlockEnd
  0
BLOCK
  5
BA0
330
1E7
100
AcDbEntity
  8
0
100
AcDbBlockBegin
  2
BLOCK223
 70
     0
 10
0.0
 20
0.0
 30
0.0
  3
BLOCK223
  1

  0
TEXT
  5
4F9
330
1E7
100
AcDbEntity
  8
0
 62
     7
370
    15
390
F
100
AcDbText
 10
151.633942
 20
-120.085876
 30
0.0
 40
2.0
  1
-
 41
1.333326363636383
 72
     5
 11
153.100601
 21
-120.085876
 31
0.0
100
AcDbText
  0
ENDBLK
  5
BA1
330
1E7
100
AcDbEntity
  8
0
100
AcDbBlockEnd
  0
BLOCK
  5
BA2
330
1E8
100
AcDbEntity
  8
0
100
AcDbBlockBegin
  2
BLOCK224
 70
     0
 10
0.0
 20
0.0
 30
0.0
  3
BLOCK224
  1

  0
TEXT
  5
4FC
330
1E8
100
AcDbEntity
  8
0
 62
     7
370
    15
390
F
100
AcDbText
 10
151.633942
 20
-116.085876
 30
0.0
 40
2.0
  1
-
 41
1.333326363636383
 72
     5
 11
153.100601
 21
-116.085876
 31
0.0
100
AcDbText
  0
ENDBLK
  5
BA3
330
1E8
100
AcDbEntity
  8
0
100
AcDbBlockEnd
  0
BLOCK
  5
BA4
330
1E9
100
AcDbEntity
  8
0
100
AcDbBlockBegin
  2
BLOCK225
 70
     0
 10
0.0
 20
0.0
 30
0.0
  3
BLOCK225
  1

  0
TEXT
  5
4FF
330
1E9
100
AcDbEntity
  8
0
 62
     7
370
    15
390
F
100
AcDbText
 10
151.633942
 20
-112.085876
 30
0.0
 40
2.0
  1
-
 41
1.333326363636383
 72
     5
 11
153.100601
 21
-112.085876
 31
0.0
100
AcDbText
  0
ENDBLK
  5
BA5
330
1E9
100
AcDbEntity
  8
0
100
AcDbBlockEnd
  0
BLOCK
  5
BA6
330
1EA
100
AcDbEntity
  8
0
100
AcDbBlockBegin
  2
BLOCK226
 70
     0
 10
0.0
 20
0.0
 30
0.0
  3
BLOCK226
  1

  0
TEXT
  5
502
330
1EA
100
AcDbEntity
  8
0
 62
     7
370
    15
390
F
100
AcDbText
 10
151.633942
 20
-108.085876
 30
0.0
 40
2.0
  1
-
 41
1.333326363636383
 72
     5
 11
153.100601
 21
-108.085876
 31
0.0
100
AcDbText
  0
ENDBLK
  5
BA7
330
1EA
100
AcDbEntity
  8
0
100
AcDbBlockEnd
  0
BLOCK
  5
BA8
330
1EB
100
AcDbEntity
  8
0
100
AcDbBlockBegin
  2
BLOCK227
 70
     0
 10
0.0
 20
0.0
 30
0.0
  3
BLOCK227
  1

  0
TEXT
  5
505
330
1EB
100
AcDbEntity
  8
0
 62
     7
370
    15
390
F
100
AcDbText
 10
151.633942
 20
-104.085876
 30
0.0
 40
2.0
  1
-
 41
1.333326363636383
 72
     5
 11
153.100601
 21
-104.085876
 31
0.0
100
AcDbText
  0
ENDBLK
  5
BA9
330
1EB
100
AcDbEntity
  8
0
100
AcDbBlockEnd
  0
BLOCK
  5
BAA
330
1EC
100
AcDbEntity
  8
0
100
AcDbBlockBegin
  2
BLOCK228
 70
     0
 10
0.0
 20
0.0
 30
0.0
  3
BLOCK228
  1

  0
TEXT
  5
508
330
1EC
100
AcDbEntity
  8
0
 62
     7
370
    15
390
F
100
AcDbText
 10
151.633942
 20
-100.085876
 30
0.0
 40
2.0
  1
-
 41
1.333326363636383
 72
     5
 11
153.100601
 21
-100.085876
 31
0.0
100
AcDbText
  0
ENDBLK
  5
BAB
330
1EC
100
AcDbEntity
  8
0
100
AcDbBlockEnd
  0
BLOCK
  5
BAC
330
1ED
100
AcDbEntity
  8
0
100
AcDbBlockBegin
  2
BLOCK229
 70
     0
 10
0.0
 20
0.0
 30
0.0
  3
BLOCK229
  1

  0
TEXT
  5
50B
330
1ED
100
AcDbEntity
  8
0
 62
     7
370
    15
390
F
100
AcDbText
 10
151.633942
 20
-96.085876
 30
0.0
 40
2.0
  1
-
 41
1.333326363636383
 72
     5
 11
153.100601
 21
-96.085876
 31
0.0
100
AcDbText
  0
ENDBLK
  5
BAD
330
1ED
100
AcDbEntity
  8
0
100
AcDbBlockEnd
  0
BLOCK
  5
BAE
330
1EE
100
AcDbEntity
  8
0
100
AcDbBlockBegin
  2
BLOCK230
 70
     0
 10
0.0
 20
0.0
 30
0.0
  3
BLOCK230
  1

  0
TEXT
  5
50E
330
1EE
100
AcDbEntity
  8
0
 62
     7
370
    15
390
F
100
AcDbText
 10
161.633942
 20
-131.073914
 30
0.0
 40
2.0
  1
+
 41
1.333326363636383
 72
     5
 11
163.100601
 21
-131.073914
 31
0.0
100
AcDbText
  0
ENDBLK
  5
BAF
330
1EE
100
AcDbEntity
  8
0
100
AcDbBlockEnd
  0
BLOCK
  5
BB0
330
1EF
100
AcDbEntity
  8
0
100
AcDbBlockBegin
  2
BLOCK231
 70
     0
 10
0.0
 20
0.0
 30
0.0
  3
BLOCK231
  1

  0
TEXT
  5
511
330
1EF
100
AcDbEntity
  8
0
 62
     7
370
    15
390
F
100
AcDbText
 10
161.633942
 20
-127.073914
 30
0.0
 40
2.0
  1
+
 41
1.333326363636383
 72
     5
 11
163.100601
 21
-127.073914
 31
0.0
100
AcDbText
  0
ENDBLK
  5
BB1
330
1EF
100
AcDbEntity
  8
0
100
AcDbBlockEnd
  0
BLOCK
  5
BB2
330
1F0
100
AcDbEntity
  8
0
100
AcDbBlockBegin
  2
BLOCK232
 70
     0
 10
0.0
 20
0.0
 30
0.0
  3
BLOCK232
  1

  0
TEXT
  5
514
330
1F0
100
AcDbEntity
  8
0
 62
     7
370
    15
390
F
100
AcDbText
 10
161.633942
 20
-123.073914
 30
0.0
 40
2.0
  1
+
 41
1.333326363636383
 72
     5
 11
163.100601
 21
-123.073914
 31
0.0
100
AcDbText
  0
ENDBLK
  5
BB3
330
1F0
100
AcDbEntity
  8
0
100
AcDbBlockEnd
  0
BLOCK
  5
BB4
330
1F1
100
AcDbEntity
  8
0
100
AcDbBlockBegin
  2
BLOCK233
 70
     0
 10
0.0
 20
0.0
 30
0.0
  3
BLOCK233
  1

  0
TEXT
  5
517
330
1F1
100
AcDbEntity
  8
0
 62
     7
370
    15
390
F
100
AcDbText
 10
161.633942
 20
-119.073914
 30
0.0
 40
2.0
  1
+
 41
1.333326363636383
 72
     5
 11
163.100601
 21
-119.073914
 31
0.0
100
AcDbText
  0
ENDBLK
  5
BB5
330
1F1
100
AcDbEntity
  8
0
100
AcDbBlockEnd
  0
BLOCK
  5
BB6
330
1F2
100
AcDbEntity
  8
0
100
AcDbBlockBegin
  2
BLOCK234
 70
     0
 10
0.0
 20
0.0
 30
0.0
  3
BLOCK234
  1

  0
TEXT
  5
51A
330
1F2
100
AcDbEntity
  8
0
 62
     7
370
    15
390
F
100
AcDbText
 10
161.633942
 20
-115.073914
 30
0.0
 40
2.0
  1
+
 41
1.333326363636383
 72
     5
 11
163.100601
 21
-115.073914
 31
0.0
100
AcDbText
  0
ENDBLK
  5
BB7
330
1F2
100
AcDbEntity
  8
0
100
AcDbBlockEnd
  0
BLOCK
  5
BB8
330
1F3
100
AcDbEntity
  8
0
100
AcDbBlockBegin
  2
BLOCK235
 70
     0
 10
0.0
 20
0.0
 30
0.0
  3
BLOCK235
  1

  0
TEXT
  5
51D
330
1F3
100
AcDbEntity
  8
0
 62
     7
370
    15
390
F
100
AcDbText
 10
161.633942
 20
-111.073914
 30
0.0
 40
2.0
  1
+
 41
1.333326363636383
 72
     5
 11
163.100601
 21
-111.073914
 31
0.0
100
AcDbText
  0
ENDBLK
  5
BB9
330
1F3
100
AcDbEntity
  8
0
100
AcDbBlockEnd
  0
BLOCK
  5
BBA
330
1F4
100
AcDbEntity
  8
0
100
AcDbBlockBegin
  2
BLOCK236
 70
     0
 10
0.0
 20
0.0
 30
0.0
  3
BLOCK236
  1

  0
TEXT
  5
520
330
1F4
100
AcDbEntity
  8
0
 62
     7
370
    15
390
F
100
AcDbText
 10
161.633942
 20
-107.073914
 30
0.0
 40
2.0
  1
+
 41
1.333326363636383
 72
     5
 11
163.100601
 21
-107.073914
 31
0.0
100
AcDbText
  0
ENDBLK
  5
BBB
330
1F4
100
AcDbEntity
  8
0
100
AcDbBlockEnd
  0
BLOCK
  5
BBC
330
1F5
100
AcDbEntity
  8
0
100
AcDbBlockBegin
  2
BLOCK237
 70
     0
 10
0.0
 20
0.0
 30
0.0
  3
BLOCK237
  1

  0
TEXT
  5
523
330
1F5
100
AcDbEntity
  8
0
 62
     7
370
    15
390
F
100
AcDbText
 10
161.633942
 20
-103.073914
 30
0.0
 40
2.0
  1
+
 41
1.333326363636383
 72
     5
 11
163.100601
 21
-103.073914
 31
0.0
100
AcDbText
  0
ENDBLK
  5
BBD
330
1F5
100
AcDbEntity
  8
0
100
AcDbBlockEnd
  0
BLOCK
  5
BBE
330
1F6
100
AcDbEntity
  8
0
100
AcDbBlockBegin
  2
BLOCK238
 70
     0
 10
0.0
 20
0.0
 30
0.0
  3
BLOCK238
  1

  0
TEXT
  5
526
330
1F6
100
AcDbEntity
  8
0
 62
     7
370
    15
390
F
100
AcDbText
 10
161.633942
 20
-99.073914
 30
0.0
 40
2.0
  1
+
 41
1.333326363636383
 72
     5
 11
163.100601
 21
-99.073914
 31
0.0
100
AcDbText
  0
ENDBLK
  5
BBF
330
1F6
100
AcDbEntity
  8
0
100
AcDbBlockEnd
  0
BLOCK
  5
BC0
330
1F7
100
AcDbEntity
  8
0
100
AcDbBlockBegin
  2
BLOCK239
 70
     0
 10
0.0
 20
0.0
 30
0.0
  3
BLOCK239
  1

  0
TEXT
  5
529
330
1F7
100
AcDbEntity
  8
0
 62
     7
370
    15
390
F
100
AcDbText
 10
161.633942
 20
-95.073914
 30
0.0
 40
2.0
  1
+
 41
1.333326363636383
 72
     5
 11
163.100601
 21
-95.073914
 31
0.0
100
AcDbText
  0
ENDBLK
  5
BC1
330
1F7
100
AcDbEntity
  8
0
100
AcDbBlockEnd
  0
BLOCK
  5
BC2
330
1F8
100
AcDbEntity
  8
0
100
AcDbBlockBegin
  2
BLOCK240
 70
     0
 10
0.0
 20
0.0
 30
0.0
  3
BLOCK240
  1

  0
TEXT
  5
52C
330
1F8
100
AcDbEntity
  8
0
 62
     7
370
    15
390
F
100
AcDbText
 10
161.633942
 20
-132.085876
 30
0.0
 40
2.0
  1
-
 41
1.333326363636383
 72
     5
 11
163.100601
 21
-132.085876
 31
0.0
100
AcDbText
  0
ENDBLK
  5
BC3
330
1F8
100
AcDbEntity
  8
0
100
AcDbBlockEnd
  0
BLOCK
  5
BC4
330
1F9
100
AcDbEntity
  8
0
100
AcDbBlockBegin
  2
BLOCK241
 70
     0
 10
0.0
 20
0.0
 30
0.0
  3
BLOCK241
  1

  0
TEXT
  5
52F
330
1F9
100
AcDbEntity
  8
0
 62
     7
370
    15
390
F
100
AcDbText
 10
161.633942
 20
-128.085876
 30
0.0
 40
2.0
  1
-
 41
1.333326363636383
 72
     5
 11
163.100601
 21
-128.085876
 31
0.0
100
AcDbText
  0
ENDBLK
  5
BC5
330
1F9
100
AcDbEntity
  8
0
100
AcDbBlockEnd
  0
BLOCK
  5
BC6
330
1FA
100
AcDbEntity
  8
0
100
AcDbBlockBegin
  2
BLOCK242
 70
     0
 10
0.0
 20
0.0
 30
0.0
  3
BLOCK242
  1

  0
TEXT
  5
532
330
1FA
100
AcDbEntity
  8
0
 62
     7
370
    15
390
F
100
AcDbText
 10
161.633942
 20
-124.085876
 30
0.0
 40
2.0
  1
-
 41
1.333326363636383
 72
     5
 11
163.100601
 21
-124.085876
 31
0.0
100
AcDbText
  0
ENDBLK
  5
BC7
330
1FA
100
AcDbEntity
  8
0
100
AcDbBlockEnd
  0
BLOCK
  5
BC8
330
1FB
100
AcDbEntity
  8
0
100
AcDbBlockBegin
  2
BLOCK243
 70
     0
 10
0.0
 20
0.0
 30
0.0
  3
BLOCK243
  1

  0
TEXT
  5
535
330
1FB
100
AcDbEntity
  8
0
 62
     7
370
    15
390
F
100
AcDbText
 10
161.633942
 20
-120.085876
 30
0.0
 40
2.0
  1
-
 41
1.333326363636383
 72
     5
 11
163.100601
 21
-120.085876
 31
0.0
100
AcDbText
  0
ENDBLK
  5
BC9
330
1FB
100
AcDbEntity
  8
0
100
AcDbBlockEnd
  0
BLOCK
  5
BCA
330
1FC
100
AcDbEntity
  8
0
100
AcDbBlockBegin
  2
BLOCK244
 70
     0
 10
0.0
 20
0.0
 30
0.0
  3
BLOCK244
  1

  0
TEXT
  5
538
330
1FC
100
AcDbEntity
  8
0
 62
     7
370
    15
390
F
100
AcDbText
 10
161.633942
 20
-116.085876
 30
0.0
 40
2.0
  1
-
 41
1.333326363636383
 72
     5
 11
163.100601
 21
-116.085876
 31
0.0
100
AcDbText
  0
ENDBLK
  5
BCB
330
1FC
100
AcDbEntity
  8
0
100
AcDbBlockEnd
  0
BLOCK
  5
BCC
330
1FD
100
AcDbEntity
  8
0
100
AcDbBlockBegin
  2
BLOCK245
 70
     0
 10
0.0
 20
0.0
 30
0.0
  3
BLOCK245
  1

  0
TEXT
  5
53B
330
1FD
100
AcDbEntity
  8
0
 62
     7
370
    15
390
F
100
AcDbText
 10
161.633942
 20
-112.085876
 30
0.0
 40
2.0
  1
-
 41
1.333326363636383
 72
     5
 11
163.100601
 21
-112.085876
 31
0.0
100
AcDbText
  0
ENDBLK
  5
BCD
330
1FD
100
AcDbEntity
  8
0
100
AcDbBlockEnd
  0
BLOCK
  5
BCE
330
1FE
100
AcDbEntity
  8
0
100
AcDbBlockBegin
  2
BLOCK246
 70
     0
 10
0.0
 20
0.0
 30
0.0
  3
BLOCK246
  1

  0
TEXT
  5
53E
330
1FE
100
AcDbEntity
  8
0
 62
     7
370
    15
390
F
100
AcDbText
 10
161.633942
 20
-108.085876
 30
0.0
 40
2.0
  1
-
 41
1.333326363636383
 72
     5
 11
163.100601
 21
-108.085876
 31
0.0
100
AcDbText
  0
ENDBLK
  5
BCF
330
1FE
100
AcDbEntity
  8
0
100
AcDbBlockEnd
  0
BLOCK
  5
BD0
330
1FF
100
AcDbEntity
  8
0
100
AcDbBlockBegin
  2
BLOCK247
 70
     0
 10
0.0
 20
0.0
 30
0.0
  3
BLOCK247
  1

  0
TEXT
  5
541
330
1FF
100
AcDbEntity
  8
0
 62
     7
370
    15
390
F
100
AcDbText
 10
161.633942
 20
-104.085876
 30
0.0
 40
2.0
  1
-
 41
1.333326363636383
 72
     5
 11
163.100601
 21
-104.085876
 31
0.0
100
AcDbText
  0
ENDBLK
  5
BD1
330
1FF
100
AcDbEntity
  8
0
100
AcDbBlockEnd
  0
BLOCK
  5
BD2
330
200
100
AcDbEntity
  8
0
100
AcDbBlockBegin
  2
BLOCK248
 70
     0
 10
0.0
 20
0.0
 30
0.0
  3
BLOCK248
  1

  0
TEXT
  5
544
330
200
100
AcDbEntity
  8
0
 62
     7
370
    15
390
F
100
AcDbText
 10
161.633942
 20
-100.085876
 30
0.0
 40
2.0
  1
-
 41
1.333326363636383
 72
     5
 11
163.100601
 21
-100.085876
 31
0.0
100
AcDbText
  0
ENDBLK
  5
BD3
330
200
100
AcDbEntity
  8
0
100
AcDbBlockEnd
  0
BLOCK
  5
BD4
330
201
100
AcDbEntity
  8
0
100
AcDbBlockBegin
  2
BLOCK249
 70
     0
 10
0.0
 20
0.0
 30
0.0
  3
BLOCK249
  1

  0
TEXT
  5
547
330
201
100
AcDbEntity
  8
0
 62
     7
370
    15
390
F
100
AcDbText
 10
161.633942
 20
-96.085876
 30
0.0
 40
2.0
  1
-
 41
1.333326363636383
 72
     5
 11
163.100601
 21
-96.085876
 31
0.0
100
AcDbText
  0
ENDBLK
  5
BD5
330
201
100
AcDbEntity
  8
0
100
AcDbBlockEnd
  0
BLOCK
  5
BD6
330
202
100
AcDbEntity
  8
0
100
AcDbBlockBegin
  2
BLOCK250
 70
     0
 10
0.0
 20
0.0
 30
0.0
  3
BLOCK250
  1

  0
TEXT
  5
54A
330
202
100
AcDbEntity
  8
0
 62
     7
370
    15
390
F
100
AcDbText
 10
171.633942
 20
-131.073914
 30
0.0
 40
2.0
  1
+
 41
1.333326363636383
 72
     5
 11
173.100601
 21
-131.073914
 31
0.0
100
AcDbText
  0
ENDBLK
  5
BD7
330
202
100
AcDbEntity
  8
0
100
AcDbBlockEnd
  0
BLOCK
  5
BD8
330
203
100
AcDbEntity
  8
0
100
AcDbBlockBegin
  2
BLOCK251
 70
     0
 10
0.0
 20
0.0
 30
0.0
  3
BLOCK251
  1

  0
TEXT
  5
54D
330
203
100
AcDbEntity
  8
0
 62
     7
370
    15
390
F
100
AcDbText
 10
171.633942
 20
-127.073914
 30
0.0
 40
2.0
  1
+
 41
1.333326363636383
 72
     5
 11
173.100601
 21
-127.073914
 31
0.0
100
AcDbText
  0
ENDBLK
  5
BD9
330
203
100
AcDbEntity
  8
0
100
AcDbBlockEnd
  0
BLOCK
  5
BDA
330
204
100
AcDbEntity
  8
0
100
AcDbBlockBegin
  2
BLOCK252
 70
     0
 10
0.0
 20
0.0
 30
0.0
  3
BLOCK252
  1

  0
TEXT
  5
550
330
204
100
AcDbEntity
  8
0
 62
     7
370
    15
390
F
100
AcDbText
 10
171.633942
 20
-123.073914
 30
0.0
 40
2.0
  1
+
 41
1.333326363636383
 72
     5
 11
173.100601
 21
-123.073914
 31
0.0
100
AcDbText
  0
ENDBLK
  5
BDB
330
204
100
AcDbEntity
  8
0
100
AcDbBlockEnd
  0
BLOCK
  5
BDC
330
205
100
AcDbEntity
  8
0
100
AcDbBlockBegin
  2
BLOCK253
 70
     0
 10
0.0
 20
0.0
 30
0.0
  3
BLOCK253
  1

  0
TEXT
  5
553
330
205
100
AcDbEntity
  8
0
 62
     7
370
    15
390
F
100
AcDbText
 10
171.633942
 20
-119.073914
 30
0.0
 40
2.0
  1
+
 41
1.333326363636383
 72
     5
 11
173.100601
 21
-119.073914
 31
0.0
100
AcDbText
  0
ENDBLK
  5
BDD
330
205
100
AcDbEntity
  8
0
100
AcDbBlockEnd
  0
BLOCK
  5
BDE
330
206
100
AcDbEntity
  8
0
100
AcDbBlockBegin
  2
BLOCK254
 70
     0
 10
0.0
 20
0.0
 30
0.0
  3
BLOCK254
  1

  0
TEXT
  5
556
330
206
100
AcDbEntity
  8
0
 62
     7
370
    15
390
F
100
AcDbText
 10
171.633942
 20
-115.073914
 30
0.0
 40
2.0
  1
+
 41
1.333326363636383
 72
     5
 11
173.100601
 21
-115.073914
 31
0.0
100
AcDbText
  0
ENDBLK
  5
BDF
330
206
100
AcDbEntity
  8
0
100
AcDbBlockEnd
  0
BLOCK
  5
BE0
330
207
100
AcDbEntity
  8
0
100
AcDbBlockBegin
  2
BLOCK255
 70
     0
 10
0.0
 20
0.0
 30
0.0
  3
BLOCK255
  1

  0
TEXT
  5
559
330
207
100
AcDbEntity
  8
0
 62
     7
370
    15
390
F
100
AcDbText
 10
171.633942
 20
-111.073914
 30
0.0
 40
2.0
  1
+
 41
1.333326363636383
 72
     5
 11
173.100601
 21
-111.073914
 31
0.0
100
AcDbText
  0
ENDBLK
  5
BE1
330
207
100
AcDbEntity
  8
0
100
AcDbBlockEnd
  0
BLOCK
  5
BE2
330
208
100
AcDbEntity
  8
0
100
AcDbBlockBegin
  2
BLOCK256
 70
     0
 10
0.0
 20
0.0
 30
0.0
  3
BLOCK256
  1

  0
TEXT
  5
55C
330
208
100
AcDbEntity
  8
0
 62
     7
370
    15
390
F
100
AcDbText
 10
171.633942
 20
-107.073914
 30
0.0
 40
2.0
  1
+
 41
1.333326363636383
 72
     5
 11
173.100601
 21
-107.073914
 31
0.0
100
AcDbText
  0
ENDBLK
  5
BE3
330
208
100
AcDbEntity
  8
0
100
AcDbBlockEnd
  0
BLOCK
  5
BE4
330
209
100
AcDbEntity
  8
0
100
AcDbBlockBegin
  2
BLOCK257
 70
     0
 10
0.0
 20
0.0
 30
0.0
  3
BLOCK257
  1

  0
TEXT
  5
55F
330
209
100
AcDbEntity
  8
0
 62
     7
370
    15
390
F
100
AcDbText
 10
171.633942
 20
-103.073914
 30
0.0
 40
2.0
  1
+
 41
1.333326363636383
 72
     5
 11
173.100601
 21
-103.073914
 31
0.0
100
AcDbText
  0
ENDBLK
  5
BE5
330
209
100
AcDbEntity
  8
0
100
AcDbBlockEnd
  0
BLOCK
  5
BE6
330
20A
100
AcDbEntity
  8
0
100
AcDbBlockBegin
  2
BLOCK258
 70
     0
 10
0.0
 20
0.0
 30
0.0
  3
BLOCK258
  1

  0
TEXT
  5
562
330
20A
100
AcDbEntity
  8
0
 62
     7
370
    15
390
F
100
AcDbText
 10
171.633942
 20
-99.073914
 30
0.0
 40
2.0
  1
+
 41
1.333326363636383
 72
     5
 11
173.100601
 21
-99.073914
 31
0.0
100
AcDbText
  0
ENDBLK
  5
BE7
330
20A
100
AcDbEntity
  8
0
100
AcDbBlockEnd
  0
BLOCK
  5
BE8
330
20B
100
AcDbEntity
  8
0
100
AcDbBlockBegin
  2
BLOCK259
 70
     0
 10
0.0
 20
0.0
 30
0.0
  3
BLOCK259
  1

  0
TEXT
  5
565
330
20B
100
AcDbEntity
  8
0
 62
     7
370
    15
390
F
100
AcDbText
 10
171.633942
 20
-95.073914
 30
0.0
 40
2.0
  1
+
 41
1.333326363636383
 72
     5
 11
173.100601
 21
-95.073914
 31
0.0
100
AcDbText
  0
ENDBLK
  5
BE9
330
20B
100
AcDbEntity
  8
0
100
AcDbBlockEnd
  0
BLOCK
  5
BEA
330
20C
100
AcDbEntity
  8
0
100
AcDbBlockBegin
  2
BLOCK260
 70
     0
 10
0.0
 20
0.0
 30
0.0
  3
BLOCK260
  1

  0
TEXT
  5
568
330
20C
100
AcDbEntity
  8
0
 62
     7
370
    15
390
F
100
AcDbText
 10
171.633942
 20
-132.085876
 30
0.0
 40
2.0
  1
-
 41
1.333326363636383
 72
     5
 11
173.100601
 21
-132.085876
 31
0.0
100
AcDbText
  0
ENDBLK
  5
BEB
330
20C
100
AcDbEntity
  8
0
100
AcDbBlockEnd
  0
BLOCK
  5
BEC
330
20D
100
AcDbEntity
  8
0
100
AcDbBlockBegin
  2
BLOCK261
 70
     0
 10
0.0
 20
0.0
 30
0.0
  3
BLOCK261
  1

  0
TEXT
  5
56B
330
20D
100
AcDbEntity
  8
0
 62
     7
370
    15
390
F
100
AcDbText
 10
171.633942
 20
-128.085876
 30
0.0
 40
2.0
  1
-
 41
1.333326363636383
 72
     5
 11
173.100601
 21
-128.085876
 31
0.0
100
AcDbText
  0
ENDBLK
  5
BED
330
20D
100
AcDbEntity
  8
0
100
AcDbBlockEnd
  0
BLOCK
  5
BEE
330
20E
100
AcDbEntity
  8
0
100
AcDbBlockBegin
  2
BLOCK262
 70
     0
 10
0.0
 20
0.0
 30
0.0
  3
BLOCK262
  1

  0
TEXT
  5
56E
330
20E
100
AcDbEntity
  8
0
 62
     7
370
    15
390
F
100
AcDbText
 10
171.633942
 20
-124.085876
 30
0.0
 40
2.0
  1
-
 41
1.333326363636383
 72
     5
 11
173.100601
 21
-124.085876
 31
0.0
100
AcDbText
  0
ENDBLK
  5
BEF
330
20E
100
AcDbEntity
  8
0
100
AcDbBlockEnd
  0
BLOCK
  5
BF0
330
20F
100
AcDbEntity
  8
0
100
AcDbBlockBegin
  2
BLOCK263
 70
     0
 10
0.0
 20
0.0
 30
0.0
  3
BLOCK263
  1

  0
TEXT
  5
571
330
20F
100
AcDbEntity
  8
0
 62
     7
370
    15
390
F
100
AcDbText
 10
171.633942
 20
-120.085876
 30
0.0
 40
2.0
  1
-
 41
1.333326363636383
 72
     5
 11
173.100601
 21
-120.085876
 31
0.0
100
AcDbText
  0
ENDBLK
  5
BF1
330
20F
100
AcDbEntity
  8
0
100
AcDbBlockEnd
  0
BLOCK
  5
BF2
330
210
100
AcDbEntity
  8
0
100
AcDbBlockBegin
  2
BLOCK264
 70
     0
 10
0.0
 20
0.0
 30
0.0
  3
BLOCK264
  1

  0
TEXT
  5
574
330
210
100
AcDbEntity
  8
0
 62
     7
370
    15
390
F
100
AcDbText
 10
171.633942
 20
-116.085876
 30
0.0
 40
2.0
  1
-
 41
1.333326363636383
 72
     5
 11
173.100601
 21
-116.085876
 31
0.0
100
AcDbText
  0
ENDBLK
  5
BF3
330
210
100
AcDbEntity
  8
0
100
AcDbBlockEnd
  0
BLOCK
  5
BF4
330
211
100
AcDbEntity
  8
0
100
AcDbBlockBegin
  2
BLOCK265
 70
     0
 10
0.0
 20
0.0
 30
0.0
  3
BLOCK265
  1

  0
TEXT
  5
577
330
211
100
AcDbEntity
  8
0
 62
     7
370
    15
390
F
100
AcDbText
 10
171.633942
 20
-112.085876
 30
0.0
 40
2.0
  1
-
 41
1.333326363636383
 72
     5
 11
173.100601
 21
-112.085876
 31
0.0
100
AcDbText
  0
ENDBLK
  5
BF5
330
211
100
AcDbEntity
  8
0
100
AcDbBlockEnd
  0
BLOCK
  5
BF6
330
212
100
AcDbEntity
  8
0
100
AcDbBlockBegin
  2
BLOCK266
 70
     0
 10
0.0
 20
0.0
 30
0.0
  3
BLOCK266
  1

  0
TEXT
  5
57A
330
212
100
AcDbEntity
  8
0
 62
     7
370
    15
390
F
100
AcDbText
 10
171.633942
 20
-108.085876
 30
0.0
 40
2.0
  1
-
 41
1.333326363636383
 72
     5
 11
173.100601
 21
-108.085876
 31
0.0
100
AcDbText
  0
ENDBLK
  5
BF7
330
212
100
AcDbEntity
  8
0
100
AcDbBlockEnd
  0
BLOCK
  5
BF8
330
213
100
AcDbEntity
  8
0
100
AcDbBlockBegin
  2
BLOCK267
 70
     0
 10
0.0
 20
0.0
 30
0.0
  3
BLOCK267
  1

  0
TEXT
  5
57D
330
213
100
AcDbEntity
  8
0
 62
     7
370
    15
390
F
100
AcDbText
 10
171.633942
 20
-104.085876
 30
0.0
 40
2.0
  1
-
 41
1.333326363636383
 72
     5
 11
173.100601
 21
-104.085876
 31
0.0
100
AcDbText
  0
ENDBLK
  5
BF9
330
213
100
AcDbEntity
  8
0
100
AcDbBlockEnd
  0
BLOCK
  5
BFA
330
214
100
AcDbEntity
  8
0
100
AcDbBlockBegin
  2
BLOCK268
 70
     0
 10
0.0
 20
0.0
 30
0.0
  3
BLOCK268
  1

  0
TEXT
  5
580
330
214
100
AcDbEntity
  8
0
 62
     7
370
    15
390
F
100
AcDbText
 10
171.633942
 20
-100.085876
 30
0.0
 40
2.0
  1
-
 41
1.333326363636383
 72
     5
 11
173.100601
 21
-100.085876
 31
0.0
100
AcDbText
  0
ENDBLK
  5
BFB
330
214
100
AcDbEntity
  8
0
100
AcDbBlockEnd
  0
BLOCK
  5
BFC
330
215
100
AcDbEntity
  8
0
100
AcDbBlockBegin
  2
BLOCK269
 70
     0
 10
0.0
 20
0.0
 30
0.0
  3
BLOCK269
  1

  0
TEXT
  5
583
330
215
100
AcDbEntity
  8
0
 62
     7
370
    15
390
F
100
AcDbText
 10
171.633942
 20
-96.085876
 30
0.0
 40
2.0
  1
-
 41
1.333326363636383
 72
     5
 11
173.100601
 21
-96.085876
 31
0.0
100
AcDbText
  0
ENDBLK
  5
BFD
330
215
100
AcDbEntity
  8
0
100
AcDbBlockEnd
  0
BLOCK
  5
BFE
330
216
100
AcDbEntity
  8
0
100
AcDbBlockBegin
  2
BLOCK270
 70
     0
 10
0.0
 20
0.0
 30
0.0
  3
BLOCK270
  1

  0
TEXT
  5
586
330
216
100
AcDbEntity
  8
0
 62
     7
370
    15
390
F
100
AcDbText
 10
124.733543
 20
-92.015686
 30
0.0
 40
2.5
  1
A
 41
0.9777792000000015
 72
     5
 11
126.566879
 21
-92.015686
 31
0.0
100
AcDbText
  0
ENDBLK
  5
BFF
330
216
100
AcDbEntity
  8
0
100
AcDbBlockEnd
  0
BLOCK
  5
C00
330
217
100
AcDbEntity
  8
0
100
AcDbBlockBegin
  2
BLOCK271
 70
     0
 10
0.0
 20
0.0
 30
0.0
  3
BLOCK271
  1

  0
TEXT
  5
589
330
217
100
AcDbEntity
  8
0
 62
     7
370
    15
390
F
100
AcDbText
 10
134.733551
 20
-92.015686
 30
0.0
 40
2.5
  1
B
 41
1.128201846153843
 72
     5
 11
136.566879
 21
-92.015686
 31
0.0
100
AcDbText
  0
ENDBLK
  5
C01
330
217
100
AcDbEntity
  8
0
100
AcDbBlockEnd
  0
BLOCK
  5
C02
330
218
100
AcDbEntity
  8
0
100
AcDbBlockBegin
  2
BLOCK272
 70
     0
 10
0.0
 20
0.0
 30
0.0
  3
BLOCK272
  1

  0
TEXT
  5
58C
330
218
100
AcDbEntity
  8
0
 62
     7
370
    15
390
F
100
AcDbText
 10
144.733551
 20
-92.015686
 30
0.0
 40
2.5
  1
C
 41
1.333329454545451
 72
     5
 11
146.566879
 21
-92.015686
 31
0.0
100
AcDbText
  0
ENDBLK
  5
C03
330
218
100
AcDbEntity
  8
0
100
AcDbBlockEnd
  0
BLOCK
  5
C04
330
219
100
AcDbEntity
  8
0
100
AcDbBlockBegin
  2
BLOCK273
 70
     0
 10
0.0
 20
0.0
 30
0.0
  3
BLOCK273
  1

  0
TEXT
  5
58F
330
219
100
AcDbEntity
  8
0
 62
     7
370
    15
390
F
100
AcDbText
 10
154.733551
 20
-92.015686
 30
0.0
 40
2.5
  1
D
 41
1.128201846153843
 72
     5
 11
156.566879
 21
-92.015686
 31
0.0
100
AcDbText
  0
ENDBLK
  5
C05
330
219
100
AcDbEntity
  8
0
100
AcDbBlockEnd
  0
BLOCK
  5
C06
330
21A
100
AcDbEntity
  8
0
100
AcDbBlockBegin
  2
BLOCK274
 70
     0
 10
0.0
 20
0.0
 30
0.0
  3
BLOCK274
  1

  0
TEXT
  5
592
330
21A
100
AcDbEntity
  8
0
 62
     7
370
    15
390
F
100
AcDbText
 10
164.733551
 20
-92.015686
 30
0.0
 40
2.5
  1
E
 41
1.333329454545451
 72
     5
 11
166.566879
 21
-92.015686
 31
0.0
100
AcDbText
  0
ENDBLK
  5
C07
330
21A
100
AcDbEntity
  8
0
100
AcDbBlockEnd
  0
BLOCK
  5
C08
330
21B
100
AcDbEntity
  8
0
100
AcDbBlockBegin
  2
BLOCK275
 70
     0
 10
0.0
 20
0.0
 30
0.0
  3
BLOCK275
  1

  0
TEXT
  5
595
330
21B
100
AcDbEntity
  8
0
 62
     7
370
    15
390
F
100
AcDbText
 10
174.733551
 20
-92.015686
 30
0.0
 40
2.5
  1
F
 41
1.333329454545451
 72
     5
 11
176.566879
 21
-92.015686
 31
0.0
100
AcDbText
  0
ENDBLK
  5
C09
330
21B
100
AcDbEntity
  8
0
100
AcDbBlockEnd
  0
BLOCK
  5
C0A
330
21C
100
AcDbEntity
  8
0
100
AcDbBlockBegin
  2
BLOCK276
 70
     0
 10
0.0
 20
0.0
 30
0.0
  3
BLOCK276
  1

  0
TEXT
  5
598
330
21C
100
AcDbEntity
  8
0
 62
     7
370
    15
390
F
100
AcDbText
 10
110.164207
 20
-85.175171
 30
0.0
 40
2.0
  1
QUOTE
 41
1.142853636363636
 72
     5
 11
118.96418
 21
-85.175171
 31
0.0
100
AcDbText
  0
ENDBLK
  5
C0B
330
21C
100
AcDbEntity
  8
0
100
AcDbBlockEnd
  0
BLOCK
  5
C0C
330
21D
100
AcDbEntity
  8
0
100
AcDbBlockBegin
  2
BLOCK277
 70
     0
 10
0.0
 20
0.0
 30
0.0
  3
BLOCK277
  1

  0
TEXT
  5
59B
330
21D
100
AcDbEntity
  8
0
 62
     7
370
    15
390
F
100
AcDbText
 10
112.914207
 20
-88.175171
 30
0.0
 40
2.0
  1
IN
 41
1.736839999999996
 72
     5
 11
116.214203
 21
-88.175171
 31
0.0
100
AcDbText
  0
ENDBLK
  5
C0D
330
21D
100
AcDbEntity
  8
0
100
AcDbBlockEnd
  0
BLOCK
  5
C0E
330
21E
100
AcDbEntity
  8
0
100
AcDbBlockBegin
  2
BLOCK278
 70
     0
 10
0.0
 20
0.0
 30
0.0
  3
BLOCK278
  1

  0
TEXT
  5
59E
330
21E
100
AcDbEntity
  8
0
 62
     7
370
    15
390
F
100
AcDbText
 10
112.914207
 20
-91.175171
 30
0.0
 40
2.0
  1
mm
 41
0.9999987878787857
 72
     5
 11
116.214203
 21
-91.175171
 31
0.0
100
AcDbText
  0
ENDBLK
  5
C0F
330
21E
100
AcDbEntity
  8
0
100
AcDbBlockEnd
  0
BLOCK
  5
C10
330
21F
100
AcDbEntity
  8
0
100
AcDbBlockBegin
  2
BLOCK279
 70
     0
 10
0.0
 20
0.0
 30
0.0
  3
BLOCK279
  1

  0
TEXT
  5
5A1
330
21F
100
AcDbEntity
  8
0
 62
     7
370
    15
390
F
100
AcDbText
 10
112.505547
 20
-95.70047
 30
0.0
 40
2.0
  1
0-10
 41
1.162674493172688
 72
     5
 11
118.204483
 21
-95.70047
 31
0.0
100
AcDbText
  0
ENDBLK
  5
C11
330
21F
100
AcDbEntity
  8
0
100
AcDbBlockEnd
  0
BLOCK
  5
C12
330
220
100
AcDbEntity
  8
0
100
AcDbBlockBegin
  2
BLOCK280
 70
     0
 10
0.0
 20
0.0
 30
0.0
  3
BLOCK280
  1

  0
TEXT
  5
5A4
330
220
100
AcDbEntity
  8
0
 62
     7
370
    15
390
F
100
AcDbText
 10
111.055504
 20
-99.70047
 30
0.0
 40
2.0
  1
10-18
 41
1.220216798033731
 72
     5
 11
118.254173
 21
-99.70047
 31
0.0
100
AcDbText
  0
ENDBLK
  5
C13
330
220
100
AcDbEntity
  8
0
100
AcDbBlockEnd
  0
BLOCK
  5
C14
330
221
100
AcDbEntity
  8
0
100
AcDbBlockBegin
  2
BLOCK281
 70
     0
 10
0.0
 20
0.0
 30
0.0
  3
BLOCK281
  1

  0
TEXT
  5
5A7
330
221
100
AcDbEntity
  8
0
 62
     7
370
    15
390
F
100
AcDbText
 10
111.055504
 20
-103.70047
 30
0.0
 40
2.0
  1
18-30
 41
1.142450966682973
 72
     5
 11
118.254173
 21
-103.70047
 31
0.0
100
AcDbText
  0
ENDBLK
  5
C15
330
221
100
AcDbEntity
  8
0
100
AcDbBlockEnd
  0
BLOCK
  5
C16
330
222
100
AcDbEntity
  8
0
100
AcDbBlockBegin
  2
BLOCK282
 70
     0
 10
0.0
 20
0.0
 30
0.0
  3
BLOCK282
  1

  0
TEXT
  5
5AA
330
222
100
AcDbEntity
  8
0
 62
     7
370
    15
390
F
100
AcDbText
 10
111.055504
 20
-107.70047
 30
0.0
 40
2.0
  1
30-50
 41
1.074175729056514
 72
     5
 11
118.254173
 21
-107.70047
 31
0.0
100
AcDbText
  0
ENDBLK
  5
C17
330
222
100
AcDbEntity
  8
0
100
AcDbBlockEnd
  0
BLOCK
  5
C18
330
223
100
AcDbEntity
  8
0
100
AcDbBlockBegin
  2
BLOCK283
 70
     0
 10
0.0
 20
0.0
 30
0.0
  3
BLOCK283
  1

  0
TEXT
  5
5AD
330
223
100
AcDbEntity
  8
0
 62
     7
370
    15
390
F
100
AcDbText
 10
111.055504
 20
-111.70047
 30
0.0
 40
2.0
  1
50-80
 41
1.0742558785669
 72
     5
 11
118.254173
 21
-111.70047
 31
0.0
100
AcDbText
  0
ENDBLK
  5
C19
330
223
100
AcDbEntity
  8
0
100
AcDbBlockEnd
  0
BLOCK
  5
C1A
330
224
100
AcDbEntity
  8
0
100
AcDbBlockBegin
  2
BLOCK284
 70
     0
 10
0.0
 20
0.0
 30
0.0
  3
BLOCK284
  1

  0
TEXT
  5
5B0
330
224
100
AcDbEntity
  8
0
 62
     7
370
    15
390
F
100
AcDbText
 10
111.005547
 20
-115.70047
 30
0.0
 40
2.0
  1
80-120
 41
1.12950493565424
 72
     5
 11
119.703949
 21
-115.70047
 31
0.0
100
AcDbText
  0
ENDBLK
  5
C1B
330
224
100
AcDbEntity
  8
0
100
AcDbBlockEnd
  0
BLOCK
  5
C1C
330
225
100
AcDbEntity
  8
0
100
AcDbBlockBegin
  2
BLOCK285
 70
     0
 10
0.0
 20
0.0
 30
0.0
  3
BLOCK285
  1

  0
TEXT
  5
5B3
330
225
100
AcDbEntity
  8
0
 62
     7
370
    15
390
F
100
AcDbText
 10
109.555504
 20
-119.7005
 30
0.0
 40
2.0
  1
120-180
 41
1.172054628964745
 72
     5
 11
119.753639
 21
-119.7005
 31
0.0
100
AcDbText
  0
ENDBLK
  5
C1D
330
225
100
AcDbEntity
  8
0
100
AcDbBlockEnd
  0
BLOCK
  5
C1E
330
226
100
AcDbEntity
  8
0
100
AcDbBlockBegin
  2
BLOCK286
 70
     0
 10
0.0
 20
0.0
 30
0.0
  3
BLOCK286
  1

  0
TEXT
  5
5B6
330
226
100
AcDbEntity
  8
0
 62
     7
370
    15
390
F
100
AcDbText
 10
109.555504
 20
-123.7005
 30
0.0
 40
2.0
  1
180-250
 41
1.120541828364133
 72
     5
 11
119.753639
 21
-123.7005
 31
0.0
100
AcDbText
  0
ENDBLK
  5
C1F
330
226
100
AcDbEntity
  8
0
100
AcDbBlockEnd
  0
BLOCK
  5
C20
330
227
100
AcDbEntity
  8
0
100
AcDbBlockBegin
  2
BLOCK287
 70
     0
 10
0.0
 20
0.0
 30
0.0
  3
BLOCK287
  1

  0
TEXT
  5
5B9
330
227
100
AcDbEntity
  8
0
 62
     7
370
    15
390
F
100
AcDbText
 10
109.555504
 20
-127.7005
 30
0.0
 40
2.0
  1
250-320
 41
1.073309973481396
 72
     5
 11
119.753639
 21
-127.7005
 31
0.0
100
AcDbText
  0
ENDBLK
  5
C21
330
227
100
AcDbEntity
  8
0
100
AcDbBlockEnd
  0
BLOCK
  5
C22
330
228
100
AcDbEntity
  8
0
100
AcDbBlockBegin
  2
BLOCK288
 70
     0
 10
0.0
 20
0.0
 30
0.0
  3
BLOCK288
  1

  0
TEXT
  5
5BC
330
228
100
AcDbEntity
  8
0
 62
     7
370
    15
390
F
100
AcDbText
 10
109.555504
 20
-131.7005
 30
0.0
 40
2.0
  1
320-400
 41
1.051183463192923
 72
     5
 11
119.753639
 21
-131.7005
 31
0.0
100
AcDbText
  0
ENDBLK
  5
C23
330
228
100
AcDbEntity
  8
0
100
AcDbBlockEnd
  0
BLOCK
  5
C24
330
229
100
AcDbEntity
  8
0
100
AcDbBlockBegin
  2
BLOCK289
 70
     0
 10
0.0
 20
0.0
 30
0.0
  3
BLOCK289
  1

  0
TEXT
  5
5BF
330
229
100
AcDbEntity
  8
0
 62
     7
370
    15
390
F
100
AcDbText
 10
109.555504
 20
-135.7005
 30
0.0
 40
2.0
  1
400-500
 41
1.051183463192923
 72
     5
 11
119.753639
 21
-135.7005
 31
0.0
100
AcDbText
  0
ENDBLK
  5
C25
330
229
100
AcDbEntity
  8
0
100
AcDbBlockEnd
  0
BLOCK
  5
C26
330
22A
100
AcDbEntity
  8
0
100
AcDbBlockBegin
  2
BLOCK290
 70
     0
 10
0.0
 20
0.0
 30
0.0
  3
BLOCK290
  1

  0
TEXT
  5
5C2
330
22A
100
AcDbEntity
  8
0
 62
     7
370
    15
390
F
100
AcDbText
 10
113.923943
 20
-95.658447
 30
0.0
 40
2.0
  1
:
 41
4.888890000000003
 72
     5
 11
115.39061
 21
-95.658447
 31
0.0
100
AcDbText
  0
ENDBLK
  5
C27
330
22A
100
AcDbEntity
  8
0
100
AcDbBlockEnd
  0
BLOCK
  5
C28
330
22B
100
AcDbEntity
  8
0
100
AcDbBlockBegin
  2
BLOCK291
 70
     0
 10
0.0
 20
0.0
 30
0.0
  3
BLOCK291
  1

  0
TEXT
  5
5C5
330
22B
100
AcDbEntity
  8
0
 62
     7
370
    15
390
F
100
AcDbText
 10
113.923943
 20
-99.658447
 30
0.0
 40
2.0
  1
:
 41
4.888890000000003
 72
     5
 11
115.39061
 21
-99.658447
 31
0.0
100
AcDbText
  0
ENDBLK
  5
C29
330
22B
100
AcDbEntity
  8
0
100
AcDbBlockEnd
  0
BLOCK
  5
C2A
330
22C
100
AcDbEntity
  8
0
100
AcDbBlockBegin
  2
BLOCK292
 70
     0
 10
0.0
 20
0.0
 30
0.0
  3
BLOCK292
  1

  0
TEXT
  5
5C8
330
22C
100
AcDbEntity
  8
0
 62
     7
370
    15
390
F
100
AcDbText
 10
113.923943
 20
-103.658447
 30
0.0
 40
2.0
  1
:
 41
4.888890000000003
 72
     5
 11
115.39061
 21
-103.658447
 31
0.0
100
AcDbText
  0
ENDBLK
  5
C2B
330
22C
100
AcDbEntity
  8
0
100
AcDbBlockEnd
  0
BLOCK
  5
C2C
330
22D
100
AcDbEntity
  8
0
100
AcDbBlockBegin
  2
BLOCK293
 70
     0
 10
0.0
 20
0.0
 30
0.0
  3
BLOCK293
  1

  0
TEXT
  5
5CB
330
22D
100
AcDbEntity
  8
0
 62
     7
370
    15
390
F
100
AcDbText
 10
113.923943
 20
-107.658447
 30
0.0
 40
2.0
  1
:
 41
4.888890000000003
 72
     5
 11
115.39061
 21
-107.658447
 31
0.0
100
AcDbText
  0
ENDBLK
  5
C2D
330
22D
100
AcDbEntity
  8
0
100
AcDbBlockEnd
  0
BLOCK
  5
C2E
330
22E
100
AcDbEntity
  8
0
100
AcDbBlockBegin
  2
BLOCK294
 70
     0
 10
0.0
 20
0.0
 30
0.0
  3
BLOCK294
  1

  0
TEXT
  5
5CE
330
22E
100
AcDbEntity
  8
0
 62
     7
370
    15
390
F
100
AcDbText
 10
113.923943
 20
-111.658447
 30
0.0
 40
2.0
  1
:
 41
4.888890000000003
 72
     5
 11
115.39061
 21
-111.658447
 31
0.0
100
AcDbText
  0
ENDBLK
  5
C2F
330
22E
100
AcDbEntity
  8
0
100
AcDbBlockEnd
  0
BLOCK
  5
C30
330
22F
100
AcDbEntity
  8
0
100
AcDbBlockBegin
  2
BLOCK295
 70
     0
 10
0.0
 20
0.0
 30
0.0
  3
BLOCK295
  1

  0
TEXT
  5
5D1
330
22F
100
AcDbEntity
  8
0
 62
     7
370
    15
390
F
100
AcDbText
 10
113.923943
 20
-115.658447
 30
0.0
 40
2.0
  1
:
 41
4.888890000000003
 72
     5
 11
115.39061
 21
-115.658447
 31
0.0
100
AcDbText
  0
ENDBLK
  5
C31
330
22F
100
AcDbEntity
  8
0
100
AcDbBlockEnd
  0
BLOCK
  5
C32
330
230
100
AcDbEntity
  8
0
100
AcDbBlockBegin
  2
BLOCK296
 70
     0
 10
0.0
 20
0.0
 30
0.0
  3
BLOCK296
  1

  0
TEXT
  5
5D4
330
230
100
AcDbEntity
  8
0
 62
     7
370
    15
390
F
100
AcDbText
 10
113.923943
 20
-119.658447
 30
0.0
 40
2.0
  1
:
 41
4.888890000000003
 72
     5
 11
115.39061
 21
-119.658447
 31
0.0
100
AcDbText
  0
ENDBLK
  5
C33
330
230
100
AcDbEntity
  8
0
100
AcDbBlockEnd
  0
BLOCK
  5
C34
330
231
100
AcDbEntity
  8
0
100
AcDbBlockBegin
  2
BLOCK297
 70
     0
 10
0.0
 20
0.0
 30
0.0
  3
BLOCK297
  1

  0
TEXT
  5
5D7
330
231
100
AcDbEntity
  8
0
 62
     7
370
    15
390
F
100
AcDbText
 10
113.923943
 20
-123.658447
 30
0.0
 40
2.0
  1
:
 41
4.888890000000003
 72
     5
 11
115.39061
 21
-123.658447
 31
0.0
100
AcDbText
  0
ENDBLK
  5
C35
330
231
100
AcDbEntity
  8
0
100
AcDbBlockEnd
  0
BLOCK
  5
C36
330
232
100
AcDbEntity
  8
0
100
AcDbBlockBegin
  2
BLOCK298
 70
     0
 10
0.0
 20
0.0
 30
0.0
  3
BLOCK298
  1

  0
TEXT
  5
5DA
330
232
100
AcDbEntity
  8
0
 62
     7
370
    15
390
F
100
AcDbText
 10
113.923943
 20
-127.658447
 30
0.0
 40
2.0
  1
:
 41
4.888890000000003
 72
     5
 11
115.39061
 21
-127.658447
 31
0.0
100
AcDbText
  0
ENDBLK
  5
C37
330
232
100
AcDbEntity
  8
0
100
AcDbBlockEnd
  0
BLOCK
  5
C38
330
233
100
AcDbEntity
  8
0
100
AcDbBlockBegin
  2
BLOCK299
 70
     0
 10
0.0
 20
0.0
 30
0.0
  3
BLOCK299
  1

  0
TEXT
  5
5DD
330
233
100
AcDbEntity
  8
0
 62
     7
370
    15
390
F
100
AcDbText
 10
113.923943
 20
-131.658447
 30
0.0
 40
2.0
  1
:
 41
4.888890000000003
 72
     5
 11
115.39061
 21
-131.658447
 31
0.0
100
AcDbText
  0
ENDBLK
  5
C39
330
233
100
AcDbEntity
  8
0
100
AcDbBlockEnd
  0
BLOCK
  5
C3A
330
234
100
AcDbEntity
  8
0
100
AcDbBlockBegin
  2
BLOCK300
 70
     0
 10
0.0
 20
0.0
 30
0.0
  3
BLOCK300
  1

  0
TEXT
  5
5E0
330
234
100
AcDbEntity
  8
0
 62
     7
370
    15
390
F
100
AcDbText
 10
113.923943
 20
-135.658447
 30
0.0
 40
2.0
  1
:
 41
4.888890000000003
 72
     5
 11
115.39061
 21
-135.658447
 31
0.0
100
AcDbText
  0
ENDBLK
  5
C3B
330
234
100
AcDbEntity
  8
0
100
AcDbBlockEnd
  0
BLOCK
  5
C3C
330
235
100
AcDbEntity
  8
0
100
AcDbBlockBegin
  2
BLOCK301
 70
     0
 10
0.0
 20
0.0
 30
0.0
  3
BLOCK301
  1

  0
TEXT
  5
5E3
330
235
100
AcDbEntity
  8
0
 62
     7
370
    15
390
F
100
AcDbText
 10
44.733871
 20
271.653015
 30
0.0
 40
3.5
  1
GLASS CALCIUM SODIC WITHOUT LEAD
 41
1.240178395653564
 72
     5
 11
141.746826
 21
271.653015
 31
0.0
100
AcDbText
  0
ENDBLK
  5
C3D
330
235
100
AcDbEntity
  8
0
100
AcDbBlockEnd
  0
BLOCK
  5
C3E
330
236
100
AcDbEntity
  8
0
100
AcDbBlockBegin
  2
BLOCK302
 70
     0
 10
0.0
 20
0.0
 30
0.0
  3
BLOCK302
  1

  0
TEXT
  5
5E6
330
236
100
AcDbEntity
  8
0
 62
     7
370
    15
390
F
100
AcDbText
 10
42.590378
 20
233.809448
 30
0.0
 40
3.5
  1
GRINDING SHINING ON ALL PERIMETER
 41
1.308200078457012
 72
     5
 11
142.634979
 21
233.809448
 31
0.0
100
AcDbText
  0
ENDBLK
  5
C3F
330
236
100
AcDbEntity
  8
0
100
AcDbBlockEnd
  0
BLOCK
  5
C40
330
237
100
AcDbEntity
  8
0
100
AcDbBlockBegin
  2
BLOCK303
 70
     0
 10
0.0
 20
0.0
 30
0.0
  3
BLOCK303
  1

  0
TEXT
  5
5E9
330
237
100
AcDbEntity
  8
0
 62
     7
370
    15
390
F
100
AcDbText
 10
44.90593
 20
204.473724
 30
0.0
 40
3.5
  1
CONTINUOUS GRINDING WITH CNC
 41
1.273135913010874
 72
     5
 11
129.792267
 21
204.473724
 31
0.0
100
AcDbText
  0
ENDBLK
  5
C41
330
237
100
AcDbEntity
  8
0
100
AcDbBlockEnd
  0
BLOCK
  5
C42
330
238
100
AcDbEntity
  8
0
100
AcDbBlockBegin
  2
BLOCK304
 70
     0
 10
0.0
 20
0.0
 30
0.0
  3
BLOCK304
  1

  0
TEXT
  5
5EC
330
238
100
AcDbEntity
  8
0
 62
     7
370
    15
390
F
100
AcDbText
 10
43.511765
 20
165.649872
 30
0.0
 40
3.5
  1
GLASS TEMPERED IN ACCORDANCE WITH EN 60598-2-5WITH UNIFORM COOLING
 41
1.244055610468288
 72
     5
 11
243.601135
 21
165.649872
 31
0.0
100
AcDbText
  0
ENDBLK
  5
C43
330
238
100
AcDbEntity
  8
0
100
AcDbBlockEnd
  0
BLOCK
  5
C44
330
239
100
AcDbEntity
  8
0
100
AcDbBlockBegin
  2
BLOCK305
 70
     0
 10
0.0
 20
0.0
 30
0.0
  3
BLOCK305
  1

  0
TEXT
  5
5EF
330
239
100
AcDbEntity
  8
0
 62
     7
370
    15
390
F
100
AcDbText
 10
49.664352
 20
47.853409
 30
0.0
 40
3.5
  1
PLANARITY TOLERANCE AFTER TEMPERING +/- 0,3
 41
1.241534714285714
 72
     5
 11
180.025497
 21
47.853409
 31
0.0
100
AcDbText
  0
ENDBLK
  5
C45
330
239
100
AcDbEntity
  8
0
100
AcDbBlockEnd
  0
BLOCK
  5
C46
330
23A
100
AcDbEntity
  8
0
100
AcDbBlockBegin
  2
BLOCK306
 70
     0
 10
0.0
 20
0.0
 30
0.0
  3
BLOCK306
  1

  0
TEXT
  5
5F2
330
23A
100
AcDbEntity
  8
0
 62
     7
370
    15
390
F
100
AcDbText
 10
186.894623
 20
-129.475906
 30
0.0
 40
1.8
  1
A
 41
1.156582222222222
 72
     5
 11
188.456009
 21
-129.475906
 31
0.0
100
AcDbText
  0
ENDBLK
  5
C47
330
23A
100
AcDbEntity
  8
0
100
AcDbBlockEnd
  0
BLOCK
  5
C48
330
23B
100
AcDbEntity
  8
0
100
AcDbBlockBegin
  2
BLOCK307
 70
     0
 10
0.0
 20
0.0
 30
0.0
  3
BLOCK307
  1

  0
TEXT
  5
5F5
330
23B
100
AcDbEntity
  8
0
 62
     7
370
    15
390
F
100
AcDbText
 10
203.018173
 20
-129.760544
 30
0.0
 40
2.0
  1
AGGIUNTA NOTE
 41
1.193297037037037
 72
     5
 11
225.571487
 21
-129.760544
 31
0.0
100
AcDbText
  0
ENDBLK
  5
C49
330
23B
100
AcDbEntity
  8
0
100
AcDbBlockEnd
  0
BLOCK
  5
C4A
330
23C
100
AcDbEntity
  8
0
100
AcDbBlockBegin
  2
BLOCK308
 70
     0
 10
0.0
 20
0.0
 30
0.0
  3
BLOCK308
  1

  0
TEXT
  5
5F8
330
23C
100
AcDbEntity
  8
0
 62
     7
370
    15
390
F
100
AcDbText
 10
272.775269
 20
-129.543823
 30
0.0
 40
1.8
  1
LEGRENZI
 41
1.273298470948013
 72
     5
 11
285.266327
 21
-129.543823
 31
0.0
100
AcDbText
  0
ENDBLK
  5
C4B
330
23C
100
AcDbEntity
  8
0
100
AcDbBlockEnd
  0
BLOCK
  5
C4C
330
23D
100
AcDbEntity
  8
0
100
AcDbBlockBegin
  2
BLOCK309
 70
     0
 10
0.0
 20
0.0
 30
0.0
  3
BLOCK309
  1

  0
TEXT
  5
5FB
330
23D
100
AcDbEntity
  8
0
 62
     7
370
    15
390
F
100
AcDbText
 10
41.507919
 20
121.828156
 30
0.0
 40
3.5
  1
AFTER TEMPERING THE HARDNESS ON SURFACE MUST BE CONSTANT BEETWEEN CENTRE AND RIM
 41
1.208283168514136
 72
     5
 11
284.040558
 21
121.828156
 31
0.0
100
AcDbText
  0
ENDBLK
  5
C4D
330
23D
100
AcDbEntity
  8
0
100
AcDbBlockEnd
  0
BLOCK
  5
C4E
330
23E
100
AcDbEntity
  8
0
100
AcDbBlockBegin
  2
BLOCK310
 70
     0
 10
0.0
 20
0.0
 30
0.0
  3
BLOCK310
  1

  0
TEXT
  5
5FE
330
23E
100
AcDbEntity
  8
0
 62
     7
370
    15
390
F
100
AcDbText
 10
45.742233
 20
76.242371
 30
0.0
 40
3.5
  1
AFTER TEMPERING THE COMPRESSION RESISTANCE MUST BE > 90MPa ON 
 41
1.243039156324713
 72
     5
 11
233.704956
 21
76.242371
 31
0.0
100
AcDbText
  0
TEXT
  5
5FF
330
23E
100
AcDbEntity
  8
0
 62
     7
370
    15
390
F
100
AcDbText
 10
45.742233
 20
70.204239
 30
0.0
 40
3.5
  1
ALL SURFACE OF GLASS (suggested machine LDSR)
 41
1.292619088689728
 72
     5
 11
182.166702
 21
70.204239
 31
0.0
100
AcDbText
  0
ENDBLK
  5
C4F
330
23E
100
AcDbEntity
  8
0
100
AcDbBlockEnd
  0
BLOCK
  5
C50
330
23F
100
AcDbEntity
  8
0
100
AcDbBlockBegin
  2
BLOCK311
 70
     0
 10
0.0
 20
0.0
 30
0.0
  3
BLOCK311
  1

  0
TEXT
  5
602
330
23F
100
AcDbEntity
  8
0
 62
     7
370
    15
390
F
100
AcDbText
 10
42.293747
 20
27.024521
 30
0.0
 40
3.5
  1
- IL PARTICOLARE DEVE ESSERE FORNITO PULITO E PRIVO DI ONDULAZIONI
 41
1.308588669387755
 72
     5
 11
242.671387
 21
27.024521
 31
0.0
100
AcDbText
  0
ENDBLK
  5
C51
330
23F
100
AcDbEntity
  8
0
100
AcDbBlockEnd
  0
BLOCK
  5
C52
330
240
100
AcDbEntity
  8
0
100
AcDbBlockBegin
  2
BLOCK312
 70
     0
 10
0.0
 20
0.0
 30
0.0
  3
BLOCK312
  1

  0
TEXT
  5
605
330
240
100
AcDbEntity
  8
0
 62
     7
370
    15
390
F
100
AcDbText
 10
41.663254
 20
15.921799
 30
0.0
 40
3.5
  1
- THE GLASS MUST BE DELIVERED CLEAN AND WITHOUT BUCKLE
 41
1.235612785629375
 72
     5
 11
205.372681
 21
15.921799
 31
0.0
100
AcDbText
  0
ENDBLK
  5
C53
330
240
100
AcDbEntity
  8
0
100
AcDbBlockEnd
  0
BLOCK
  5
C54
330
241
100
AcDbEntity
  8
0
100
AcDbBlockBegin
  2
BLOCK313
 70
     0
 10
0.0
 20
0.0
 30
0.0
  3
BLOCK313
  1

  0
TEXT
  5
608
330
241
100
AcDbEntity
  8
0
 62
     7
370
    15
390
F
100
AcDbText
 10
39.431995
 20
-75.125427
 30
0.0
 40
2.5
  1
RADIUS OF GRINDING R 1,5 +/- 0,2mm 
 41
1.371789104072398
 72
     5
 11
115.223343
 21
-75.125427
 31
0.0
100
AcDbText
  0
ENDBLK
  5
C55
330
241
100
AcDbEntity
  8
0
100
AcDbBlockEnd
  0
BLOCK
  5
C56
330
242
100
AcDbEntity
  8
0
100
AcDbBlockBegin
  2
BLOCK314
 70
     0
 10
0.0
 20
0.0
 30
0.0
  3
BLOCK314
  1

  0
TEXT
  5
60B
330
242
100
AcDbEntity
  8
0
 62
     7
370
    15
390
F
100
AcDbText
 10
179.932785
 20
-146.39151
 30
0.0
 40
2.5
  1
/ GLASS OF COLOSSEUM
 41
1.217452631578947
 72
     5
 11
223.304535
 21
-146.39151
 31
0.0
100
AcDbText
  0
ENDBLK
  5
C57
330
242
100
AcDbEntity
  8
0
100
AcDbBlockEnd
  0
BLOCK
  5
C58
330
243
100
AcDbEntity
  8
0
100
AcDbBlockBegin
  2
BLOCK315
 70
     0
 10
0.0
 20
0.0
 30
0.0
  3
BLOCK315
  1

  0
TEXT
  5
60E
330
243
100
AcDbEntity
  8
0
 62
     7
370
    15
390
F
100
AcDbText
 10
-195.583786
 20
144.814789
 30
0.0
 40
3.5
  1
THICKNESS GLASS 4 mm +/- 0,3
 41
1.291581296767577
 72
     5
 11
-110.575134
 21
144.814789
 31
0.0
100
AcDbText
  0
ENDBLK
  5
C59
330
243
100
AcDbEntity
  8
0
100
AcDbBlockEnd
  0
BLOCK
  5
C5A
330
244
100
AcDbEntity
  8
0
100
AcDbBlockBegin
  2
BLOCK316
 70
     0
 10
0.0
 20
0.0
 30
0.0
  3
BLOCK316
  1

  0
TEXT
  5
611
330
244
100
AcDbEntity
  8
0
 62
     7
370
    15
390
F
100
AcDbText
 10
191.255783
 20
-129.536407
 30
0.0
 40
1.5
  1
05/486
 41
1.2541984456895
 72
     5
 11
199.062698
 21
-129.536407
 31
0.0
100
AcDbText
  0
ENDBLK
  5
C5B
330
244
100
AcDbEntity
  8
0
100
AcDbBlockEnd
  0
BLOCK
  5
C5C
330
245
100
AcDbEntity
  8
0
100
AcDbBlockBegin
  2
BLOCK317
 70
     0
 10
0.0
 20
0.0
 30
0.0
  3
BLOCK317
  1

  0
TEXT
  5
614
330
245
100
AcDbEntity
  8
0
 62
     7
370
    15
390
F
100
AcDbText
 10
187.100464
 20
-124.526703
 30
0.0
 40
1.8
  1
B
 41
1.334517948717948
 72
     5
 11
188.66185
 21
-124.526703
 31
0.0
100
AcDbText
  0
ENDBLK
  5
C5D
330
245
100
AcDbEntity
  8
0
100
AcDbBlockEnd
  0
BLOCK
  5
C5E
330
246
100
AcDbEntity
  8
0
100
AcDbBlockBegin
  2
BLOCK318
 70
     0
 10
0.0
 20
0.0
 30
0.0
  3
BLOCK318
  1

  0
TEXT
  5
617
330
246
100
AcDbEntity
  8
0
 62
     7
370
    15
390
F
100
AcDbText
 10
203.009888
 20
-125.126129
 30
0.0
 40
1.8
  1
VARIATE NOTE
 41
1.203378420038536
 72
     5
 11
221.74649
 21
-125.126129
 31
0.0
100
AcDbText
  0
ENDBLK
  5
C5F
330
246
100
AcDbEntity
  8
0
100
AcDbBlockEnd
  0
BLOCK
  5
C60
330
247
100
AcDbEntity
  8
0
100
AcDbBlockBegin
  2
BLOCK319
 70
     0
 10
0.0
 20
0.0
 30
0.0
  3
BLOCK319
  1

  0
TEXT
  5
61A
330
247
100
AcDbEntity
  8
0
 62
     7
370
    15
390
F
100
AcDbText
 10
255.524902
 20
-124.693573
 30
0.0
 40
1.8
  1
16.11.05
 41
1.713451165980796
 72
     5
 11
268.015961
 21
-124.693573
 31
0.0
100
AcDbText
  0
ENDBLK
  5
C61
330
247
100
AcDbEntity
  8
0
100
AcDbBlockEnd
  0
BLOCK
  5
C62
330
248
100
AcDbEntity
  8
0
100
AcDbBlockBegin
  2
BLOCK320
 70
     0
 10
0.0
 20
0.0
 30
0.0
  3
BLOCK320
  1

  0
TEXT
  5
61D
330
248
100
AcDbEntity
  8
0
 62
     7
370
    15
390
F
100
AcDbText
 10
255.889282
 20
-130.054688
 30
0.0
 40
1.8
  1
21.09.05
 41
1.558209510834163
 72
     5
 11
268.380341
 21
-130.054688
 31
0.0
100
AcDbText
  0
ENDBLK
  5
C63
330
248
100
AcDbEntity
  8
0
100
AcDbBlockEnd
  0
BLOCK
  5
C64
330
249
100
AcDbEntity
  8
0
100
AcDbBlockBegin
  2
BLOCK321
 70
     0
 10
0.0
 20
0.0
 30
0.0
  3
BLOCK321
  1

  0
TEXT
  5
620
330
249
100
AcDbEntity
  8
0
 62
     7
370
    15
390
F
100
AcDbText
 10
272.440125
 20
-124.870728
 30
0.0
 40
1.8
  1
LEGRENZI
 41
1.273298470948007
 72
     5
 11
284.931183
 21
-124.870728
 31
0.0
100
AcDbText
  0
ENDBLK
  5
C65
330
249
100
AcDbEntity
  8
0
100
AcDbBlockEnd
  0
BLOCK
  5
C66
330
24A
100
AcDbEntity
  8
0
100
AcDbBlockBegin
  2
BLOCK322
 70
     0
 10
0.0
 20
0.0
 30
0.0
  3
BLOCK322
  1

  0
LINE
  5
623
330
24A
100
AcDbEntity
  8
0
 62
     7
370
    15
390
F
100
AcDbLine
 10
-237.505173
 20
-137.808884
 30
0.0
 11
68.277786
 21
-137.808884
 31
0.0
  0
LINE
  5
624
330
24A
100
AcDbEntity
  8
0
 62
     7
370
    15
390
F
100
AcDbLine
 10
-237.505173
 20
-144.855713
 30
0.0
 11
68.277786
 21
-144.855713
 31
0.0
  0
LINE
  5
625
330
24A
100
AcDbEntity
  8
0
 62
     7
370
    15
390
F
100
AcDbLine
 10
-237.505173
 20
-151.902542
 30
0.0
 11
68.277786
 21
-151.902542
 31
0.0
  0
LINE
  5
626
330
24A
100
AcDbEntity
  8
0
 62
     7
370
    15
390
F
100
AcDbLine
 10
-237.505173
 20
-158.949371
 30
0.0
 11
68.277786
 21
-158.949371
 31
0.0
  0
LINE
  5
627
330
24A
100
AcDbEntity
  8
0
 62
     7
370
    15
390
F
100
AcDbLine
 10
-237.505173
 20
-137.808884
 30
0.0
 11
-237.505173
 21
-158.949371
 31
0.0
  0
LINE
  5
628
330
24A
100
AcDbEntity
  8
0
 62
     7
370
    15
390
F
100
AcDbLine
 10
-131.232529
 20
-137.808884
 30
0.0
 11
-131.232529
 21
-158.949371
 31
0.0
  0
LINE
  5
629
330
24A
100
AcDbEntity
  8
0
 62
     7
370
    15
390
F
100
AcDbLine
 10
-83.149277
 20
-137.808884
 30
0.0
 11
-83.149277
 21
-158.949371
 31
0.0
  0
LINE
  5
62A
330
24A
100
AcDbEntity
  8
0
 62
     7
370
    15
390
F
100
AcDbLine
 10
68.277786
 20
-137.808884
 30
0.0
 11
68.277786
 21
-158.949371
 31
0.0
  0
ENDBLK
  5
C67
330
24A
100
AcDbEntity
  8
0
100
AcDbBlockEnd
  0
BLOCK
  5
C68
330
24B
100
AcDbEntity
  8
0
100
AcDbBlockBegin
  2
BLOCK323
 70
     0
 10
0.0
 20
0.0
 30
0.0
  3
BLOCK323
  1

  0
TEXT
  5
62D
330
24B
100
AcDbEntity
  8
0
 62
     7
370
    15
390
F
100
AcDbText
 10
312.557831
 20
297.01944
 30
0.0
 40
3.5
  1
NOTE:
 41
1.663158329670326
 72
     5
 11
331.476257
 21
297.01944
 31
0.0
100
AcDbText
  0
ENDBLK
  5
C69
330
24B
100
AcDbEntity
  8
0
100
AcDbBlockEnd
  0
BLOCK
  5
C6A
330
24C
100
AcDbEntity
  8
0
100
AcDbBlockBegin
  2
BLOCK324
 70
     0
 10
0.0
 20
0.0
 30
0.0
  3
BLOCK324
  1

  0
TEXT
  5
630
330
24C
100
AcDbEntity
  8
0
 62
     7
370
    15
390
F
100
AcDbText
 10
295.279419
 20
56.245857
 30
0.0
 40
3.5
  1
- TOLLERANZA PLANARITA'DOPO TEMPRA: +/- 0,3
 41
1.60284725017887
 72
     5
 11
463.297882
 21
56.245857
 31
0.0
100
AcDbText
  0
ENDBLK
  5
C6B
330
24C
100
AcDbEntity
  8
0
100
AcDbBlockEnd
  0
BLOCK
  5
C6C
330
24D
100
AcDbEntity
  8
0
100
AcDbBlockBegin
  2
BLOCK325
 70
     0
 10
0.0
 20
0.0
 30
0.0
  3
BLOCK325
  1

  0
TEXT
  5
633
330
24D
100
AcDbEntity
  8
0
 62
     7
370
    15
390
F
100
AcDbText
 10
290.935516
 20
215.389923
 30
0.0
 40
3.5
  1
- MOLATURA CON CNC SENZA INTERRUZIONE
 41
1.584604540718399
 72
     5
 11
435.411835
 21
215.389923
 31
0.0
100
AcDbText
  0
ENDBLK
  5
C6D
330
24D
100
AcDbEntity
  8
0
100
AcDbBlockEnd
  0
BLOCK
  5
C6E
330
24E
100
AcDbEntity
  8
0
100
AcDbBlockBegin
  2
BLOCK326
 70
     0
 10
0.0
 20
0.0
 30
0.0
  3
BLOCK326
  1

  0
TEXT
  5
636
330
24E
100
AcDbEntity
  8
0
 62
     7
370
    15
390
F
100
AcDbText
 10
289.201538
 20
253.336349
 30
0.0
 40
3.5
  1
- EFFETTUARE MOLATURA LUCIDA PRIVA DI SEGHETTATURE
 41
1.571101579264617
 72
     5
 11
484.685852
 21
253.336349
 31
0.0
100
AcDbText
  0
ENDBLK
  5
C6F
330
24E
100
AcDbEntity
  8
0
100
AcDbBlockEnd
  0
BLOCK
  5
C70
330
24F
100
AcDbEntity
  8
0
100
AcDbBlockBegin
  2
BLOCK327
 70
     0
 10
0.0
 20
0.0
 30
0.0
  3
BLOCK327
  1

  0
TEXT
  5
639
330
24F
100
AcDbEntity
  8
0
 62
     7
370
    15
390
F
100
AcDbText
 10
298.764435
 20
243.280319
 30
0.0
 40
3.5
  1
LUNGO TUTTI I BORDI
 41
1.722449119533528
 72
     5
 11
372.614441
 21
243.280319
 31
0.0
100
AcDbText
  0
ENDBLK
  5
C71
330
24F
100
AcDbEntity
  8
0
100
AcDbBlockEnd
  0
BLOCK
  5
C72
330
250
100
AcDbEntity
  8
0
100
AcDbBlockBegin
  2
BLOCK328
 70
     0
 10
0.0
 20
0.0
 30
0.0
  3
BLOCK328
  1

  0
TEXT
  5
63C
330
250
100
AcDbEntity
  8
0
 62
     7
370
    15
390
F
100
AcDbText
 10
289.68988
 20
183.830414
 30
0.0
 40
3.5
  1
- ESEGUIRE TRATTAMENTO DI TEMPRA TERMICA SECONDO LA EN 60598-2-5
 41
1.602289302536189
 72
     5
 11
540.105835
 21
183.830414
 31
0.0
100
AcDbText
  0
ENDBLK
  5
C73
330
250
100
AcDbEntity
  8
0
100
AcDbBlockEnd
  0
BLOCK
  5
C74
330
251
100
AcDbEntity
  8
0
100
AcDbBlockBegin
  2
BLOCK329
 70
     0
 10
0.0
 20
0.0
 30
0.0
  3
BLOCK329
  1

  0
TEXT
  5
63F
330
251
100
AcDbEntity
  8
0
 62
     7
370
    15
390
F
100
AcDbText
 10
297.691437
 20
175.70874
 30
0.0
 40
3.5
  1
CON RAFFREDDAMENTO UNIFORME SU TUTTO IL VETRO
 41
1.567781092043682
 72
     5
 11
473.557281
 21
175.70874
 31
0.0
100
AcDbText
  0
ENDBLK
  5
C75
330
251
100
AcDbEntity
  8
0
100
AcDbBlockEnd
  0
BLOCK
  5
C76
330
252
100
AcDbEntity
  8
0
100
AcDbBlockBegin
  2
BLOCK330
 70
     0
 10
0.0
 20
0.0
 30
0.0
  3
BLOCK330
  1

  0
TEXT
  5
642
330
252
100
AcDbEntity
  8
0
 62
     7
370
    15
390
F
100
AcDbText
 10
292.318054
 20
282.18219
 30
0.0
 40
3.5
  1
- VETRO SODO-CALCICO DA LASTRA DI I SCELTA SENZA PIOMBO
 41
1.623723366672957
 72
     5
 11
507.420807
 21
282.18219
 31
0.0
100
AcDbText
  0
ENDBLK
  5
C77
330
252
100
AcDbEntity
  8
0
100
AcDbBlockEnd
  0
BLOCK
  5
C78
330
253
100
AcDbEntity
  8
0
100
AcDbBlockBegin
  2
BLOCK331
 70
     0
 10
0.0
 20
0.0
 30
0.0
  3
BLOCK331
  1

  0
TEXT
  5
645
330
253
100
AcDbEntity
  8
0
 62
     7
370
    15
390
F
100
AcDbText
 10
291.479279
 20
142.637161
 30
0.0
 40
3.5
  1
- DOPO TRATTAMENTO DI TEMPRA LA DUREZZA SUPERFICIALE
 41
1.572253585926928
 72
     5
 11
494.810974
 21
142.637161
 31
0.0
100
AcDbText
  0
ENDBLK
  5
C79
330
253
100
AcDbEntity
  8
0
100
AcDbBlockEnd
  0
BLOCK
  5
C7A
330
254
100
AcDbEntity
  8
0
100
AcDbBlockBegin
  2
BLOCK332
 70
     0
 10
0.0
 20
0.0
 30
0.0
  3
BLOCK332
  1

  0
TEXT
  5
648
330
254
100
AcDbEntity
  8
0
 62
     7
370
    15
390
F
100
AcDbText
 10
298.984863
 20
132.545929
 30
0.0
 40
3.5
  1
DEVE ESSERE COSTANTE DAL CENTRO AL BORDO DEL VETRO
 41
1.5623121998002
 72
     5
 11
494.469177
 21
132.545929
 31
0.0
100
AcDbText
  0
ENDBLK
  5
C7B
330
254
100
AcDbEntity
  8
0
100
AcDbBlockEnd
  0
BLOCK
  5
C7C
330
255
100
AcDbEntity
  8
0
100
AcDbBlockBegin
  2
BLOCK333
 70
     0
 10
0.0
 20
0.0
 30
0.0
  3
BLOCK333
  1

  0
TEXT
  5
64B
330
255
100
AcDbEntity
  8
0
 62
     7
370
    15
390
F
100
AcDbText
 10
293.495117
 20
105.807854
 30
0.0
 40
3.5
  1
- DOPO TEMPRA LA RESISTENZA DI COMPRESSIONE
 41
1.597513315902067
 72
     5
 11
461.51358
 21
105.807854
 31
0.0
100
AcDbText
  0
ENDBLK
  5
C7D
330
255
100
AcDbEntity
  8
0
100
AcDbBlockEnd
  0
BLOCK
  5
C7E
330
256
100
AcDbEntity
  8
0
100
AcDbBlockBegin
  2
BLOCK334
 70
     0
 10
0.0
 20
0.0
 30
0.0
  3
BLOCK334
  1

  0
TEXT
  5
64E
330
256
100
AcDbEntity
  8
0
 62
     7
370
    15
390
F
100
AcDbText
 10
301.118652
 20
95.657402
 30
0.0
 40
3.5
  1
DEVE > 90 MPa
 41
1.661026503238075
 72
     5
 11
351.426544
 21
95.657402
 31
0.0
100
AcDbText
  0
ENDBLK
  5
C7F
330
256
100
AcDbEntity
  8
0
100
AcDbBlockEnd
  0
BLOCK
  5
C80
330
257
100
AcDbEntity
  8
0
100
AcDbBlockBegin
  2
BLOCK335
 70
     0
 10
0.0
 20
0.0
 30
0.0
  3
BLOCK335
  1

  0
TEXT
  5
651
330
257
100
AcDbEntity
  8
0
 62
     7
370
    15
390
F
100
AcDbText
 10
301.928955
 20
86.73172
 30
0.0
 40
3.5
  1
(consigliata la verifica con LDSR)
 41
1.959259021778192
 72
     5
 11
434.634216
 21
86.73172
 31
0.0
100
AcDbText
  0
ENDBLK
  5
C81
330
257
100
AcDbEntity
  8
0
100
AcDbBlockEnd
  0
BLOCK
  5
C82
330
258
100
AcDbEntity
  8
0
100
AcDbBlockBegin
  2
BLOCK336
 70
     0
 10
0.0
 20
0.0
 30
0.0
  3
BLOCK336
  1

  0
TEXT
  5
654
330
258
100
AcDbEntity
  8
0
 62
     7
370
    15
390
F
100
AcDbText
 10
350.215973
 20
95.056564
 30
0.0
 40
3.5
  1
SU TUTTA LA SUPERFICIE DEL VETRO
 41
1.625224601366742
 72
     5
 11
475.073853
 21
95.056564
 31
0.0
100
AcDbText
  0
ENDBLK
  5
C83
330
258
100
AcDbEntity
  8
0
100
AcDbBlockEnd
  0
BLOCK
  5
C84
330
259
100
AcDbEntity
  8
0
100
AcDbBlockBegin
  2
BLOCK337
 70
     0
 10
0.0
 20
0.0
 30
0.0
  3
BLOCK337
  1

  0
TEXT
  5
657
330
259
100
AcDbEntity
  8
0
 62
     7
370
    15
390
F
100
AcDbText
 10
293.9151
 20
-68.931999
 30
0.0
 40
2.5
  1
RAGGIO DI MOLATURA R 1,5 +/- 0.2mm
 41
1.322546439461884
 72
     5
 11
367.647064
 21
-68.931999
 31
0.0
100
AcDbText
  0
LWPOLYLINE
  5
658
330
259
100
AcDbEntity
  8
0
 62
     7
370
    15
390
F
100
AcDbPolyline
 90
        3
 70
     0
 43
0.0
 10
268.0
 20
-47.642471
 10
290.9151
 20
-69.782143
 10
367.647064
 20
-69.782143
  0
LWPOLYLINE
  5
65D
330
259
100
AcDbEntity
  8
0
 62
     7
370
    15
390
F
100
AcDbPolyline
 90
        3
 70
     0
 43
0.0
 10
269.810699
 20
-48.646736
 10
268.0
 20
-47.642471
 10
269.065979
 20
-49.417542
  0
ENDBLK
  5
C85
330
259
100
AcDbEntity
  8
0
100
AcDbBlockEnd
  0
BLOCK
  5
C86
330
25A
100
AcDbEntity
  8
0
100
AcDbBlockBegin
  2
BLOCK338
 70
     0
 10
0.0
 20
0.0
 30
0.0
  3
BLOCK338
  1

  0
TEXT
  5
664
330
25A
100
AcDbEntity
  8
0
 62
     7
370
    15
390
F
100
AcDbText
 10
60.751976
 20
152.982391
 30
0.0
 40
3.5
  1
SPESSORE VETRO 4 mm +/- 0,3
 41
1.26598661003861
 72
     5
 11
142.724609
 21
152.982391
 31
0.0
100
AcDbText
  0
LWPOLYLINE
  5
665
330
25A
100
AcDbEntity
  8
0
 62
     7
370
    15
390
F
100
AcDbPolyline
 90
        3
 70
     0
 43
0.0
 10
268.0
 20
63.092316
 10
145.724609
 20
151.792191
 10
60.751976
 20
151.792191
  0
LWPOLYLINE
  5
66A
330
25A
100
AcDbEntity
  8
0
 62
     7
370
    15
390
F
100
AcDbPolyline
 90
        3
 70
     0
 43
0.0
 10
266.066406
 20
63.832901
 10
268.0
 20
63.092316
 10
266.69577
 20
64.70047
  0
ENDBLK
  5
C87
330
25A
100
AcDbEntity
  8
0
100
AcDbBlockEnd
  0
BLOCK
  5
C88
330
25B
100
AcDbEntity
  8
0
100
AcDbBlockBegin
  2
BLOCK339
 70
     0
 10
0.0
 20
0.0
 30
0.0
  3
BLOCK339
  1

  0
TEXT
  5
671
330
25B
100
AcDbEntity
  8
0
 62
     7
370
    15
390
F
100
AcDbText
 10
-224.331711
 20
112.949997
 30
0.0
 40
3.0
  1
439
 50
90.0
 41
1.26613497850475
 72
     5
 11
-224.331711
 21
120.75
 31
0.0
100
AcDbText
  0
TEXT
  5
672
330
25B
100
AcDbEntity
  8
0
 62
     7
370
    15
390
F
100
AcDbText
 10
-224.781708
 20
122.550003
 30
0.0
 40
2.1
  1
%%p1
 50
90.0
 41
1.587301587301587
 72
     5
 11
-224.781708
 21
126.050003
 31
0.0
100
AcDbText
  0
LINE
  5
673
330
25B
100
AcDbEntity
  8
0
 62
     7
370
    13
390
F
100
AcDbLine
 10
-194.0
 20
-100.0
 30
0.0
 11
-223.331711
 21
-100.0
 31
0.0
  0
LINE
  5
674
330
25B
100
AcDbEntity
  8
0
 62
     7
370
    13
390
F
100
AcDbLine
 10
-194.0
 20
339.0
 30
0.0
 11
-223.331711
 21
339.0
 31
0.0
  0
LWPOLYLINE
  5
675
330
25B
100
AcDbEntity
  8
0
 62
     7
370
    40
390
F
100
AcDbPolyline
 90
        3
 70
     0
 43
0.0
 10
-222.84935
 20
-98.068146
 10
-222.331711
 20
-100.0
 10
-221.814072
 20
-98.068146
  0
LWPOLYLINE
  5
67A
330
25B
100
AcDbEntity
  8
0
 62
     7
370
    40
390
F
100
AcDbPolyline
 90
        3
 70
     0
 43
0.0
 10
-221.814072
 20
337.068146
 10
-222.331711
 20
339.0
 10
-222.84935
 20
337.068146
  0
LINE
  5
67F
330
25B
100
AcDbEntity
  8
0
 62
     7
370
    13
390
F
100
AcDbLine
 10
-222.331711
 20
-100.0
 30
0.0
 11
-222.331711
 21
339.0
 31
0.0
  0
ENDBLK
  5
C89
330
25B
100
AcDbEntity
  8
0
100
AcDbBlockEnd
  0
BLOCK
  5
C8A
330
25C
100
AcDbEntity
  8
0
100
AcDbBlockBegin
  2
BLOCK340
 70
     0
 10
0.0
 20
0.0
 30
0.0
  3
BLOCK340
  1

  0
TEXT
  5
682
330
25C
100
AcDbEntity
  8
0
 62
     7
370
    15
390
F
100
AcDbText
 10
25.571692
 20
-113.712318
 30
0.0
 40
3.0
  1
468
 41
1.268447534252145
 72
     5
 11
33.371693
 21
-113.712318
 31
0.0
100
AcDbText
  0
TEXT
  5
683
330
25C
100
AcDbEntity
  8
0
 62
     7
370
    15
390
F
100
AcDbText
 10
35.171692
 20
-113.262321
 30
0.0
 40
2.1
  1
%%p1
 41
1.587301587301587
 72
     5
 11
38.671692
 21
-113.262321
 31
0.0
100
AcDbText
  0
LINE
  5
684
330
25C
100
AcDbEntity
  8
0
 62
     7
370
    13
390
F
100
AcDbLine
 10
-200.0
 20
-94.0
 30
0.0
 11
-200.0
 21
-116.712318
 31
0.0
  0
LINE
  5
685
330
25C
100
AcDbEntity
  8
0
 62
     7
370
    13
390
F
100
AcDbLine
 10
268.0
 20
-94.0
 30
0.0
 11
268.0
 21
-116.712318
 31
0.0
  0
LWPOLYLINE
  5
686
330
25C
100
AcDbEntity
  8
0
 62
     7
370
    40
390
F
100
AcDbPolyline
 90
        3
 70
     0
 43
0.0
 10
-198.068146
 20
-115.194679
 10
-200.0
 20
-115.712318
 10
-198.068146
 20
-116.22995
  0
LWPOLYLINE
  5
68B
330
25C
100
AcDbEntity
  8
0
 62
     7
370
    40
390
F
100
AcDbPolyline
 90
        3
 70
     0
 43
0.0
 10
266.068146
 20
-116.22995
 10
268.0
 20
-115.712318
 10
266.068146
 20
-115.194679
  0
LINE
  5
690
330
25C
100
AcDbEntity
  8
0
 62
     7
370
    13
390
F
100
AcDbLine
 10
-200.0
 20
-115.712318
 30
0.0
 11
268.0
 21
-115.712318
 31
0.0
  0
ENDBLK
  5
C8B
330
25C
100
AcDbEntity
  8
0
100
AcDbBlockEnd
  0
BLOCK
  5
C8C
330
25D
100
AcDbEntity
  8
0
100
AcDbBlockBegin
  2
BLOCK341
 70
     0
 10
0.0
 20
0.0
 30
0.0
  3
BLOCK341
  1

  0
TEXT
  5
693
330
25D
100
AcDbEntity
  8
0
 62
     7
370
    15
390
F
100
AcDbText
 10
287.563782
 20
350.834778
 30
0.0
 40
3.0
  1
6
 50
31.2235631665857
 41
1.333343593593172
 72
     5
 11
289.445129
 21
351.97522
 31
0.0
100
AcDbText
  0
TEXT
  5
694
330
25D
100
AcDbEntity
  8
0
 62
     7
370
    15
390
F
100
AcDbText
 10
290.751129
 20
353.293091
 30
0.0
 40
2.1
  1
%%p0,5
 50
31.22296709010944
 41
1.536235388796698
 72
     5
 11
297.096405
 21
357.139404
 31
0.0
100
AcDbText
  0
TEXT
  5
695
330
25D
100
AcDbEntity
  8
0
 62
     7
370
    15
390
F
100
AcDbText
 10
284.827271
 20
349.175995
 30
0.0
 40
3.0
  1
R
 50
31.2235631665857
 41
1.128213809963454
 72
     5
 11
286.708618
 21
350.316437
 31
0.0
100
AcDbText
  0
LWPOLYLINE
  5
696
330
25D
100
AcDbEntity
  8
0
 62
     7
370
    40
390
F
100
AcDbPolyline
 90
        3
 70
     0
 43
0.0
 10
268.514648
 20
337.554291
 10
267.13092
 20
336.110229
 10
269.0513
 20
336.668976
  0
LINE
  5
69B
330
25D
100
AcDbEntity
  8
0
 62
     7
370
    13
390
F
100
AcDbLine
 10
258.579376
 20
330.926514
 30
0.0
 11
298.366394
 21
355.044281
 31
0.0
  0
ENDBLK
  5
C8D
330
25D
100
AcDbEntity
  8
0
100
AcDbBlockEnd
  0
BLOCK
  5
C8E
330
994
100
AcDbEntity
  8
0
100
AcDbBlockBegin
  2
*D341
 70
     1
 10
0.0
 20
0.0
 30
0.0
  3
*D341
  1

  0
POINT
  5
98B
330
994
100
AcDbEntity
  8
DEFPOINTS
  6
ByBlock
 62
     0
380
     1
100
AcDbPoint
 10
81.29837049999999
 20
524.674246
 30
0.0
  0
POINT
  5
98C
330
994
100
AcDbEntity
  8
DEFPOINTS
  6
ByBlock
 62
     0
380
     1
100
AcDbPoint
 10
81.29837049999999
 20
85.67424600000001
 30
0.0
  0
LINE
  5
98D
330
994
100
AcDbEntity
  8
0
  6
ByBlock
 62
     0
370
    -2
380
     1
100
AcDbLine
 10
80.67337049999999
 20
524.674246
 30
0.0
 11
43.21417810900555
 21
524.674246
 31
0.0
  0
LINE
  5
98E
330
994
100
AcDbEntity
  8
0
  6
ByBlock
 62
     0
370
    -2
380
     1
100
AcDbLine
 10
80.67337049999999
 20
85.67424600000004
 30
0.0
 11
43.21417810900555
 21
85.67424600000004
 31
0.0
  0
LINE
  5
98F
330
994
100
AcDbEntity
  8
0
  6
ByBlock
 62
     0
370
    -2
380
     1
100
AcDbLine
 10
44.46417810900555
 20
522.174246
 30
0.0
 11
44.46417810900555
 21
88.17424600000004
 31
0.0
  0
SOLID
  5
990
330
994
100
AcDbEntity
  8
0
  6
ByBlock
 62
     0
380
     1
100
AcDbTrace
 10
44.46417810900555
 20
524.674246
 30
0.0
 11
44.04751144233889
 21
522.174246
 31
0.0
 12
44.88084477567222
 22
522.174246
 32
0.0
 13
44.88084477567222
 23
522.174246
 33
0.0
  0
SOLID
  5
991
330
994
100
AcDbEntity
  8
0
  6
ByBlock
 62
     0
380
     1
100
AcDbTrace
 10
44.46417810900555
 20
85.67424600000004
 30
0.0
 11
44.04751144233889
 21
88.17424600000004
 31
0.0
 12
44.88084477567222
 22
88.17424600000004
 32
0.0
 13
44.88084477567222
 23
88.17424600000004
 33
0.0
  0
MTEXT
  5
992
330
994
100
AcDbEntity
  8
0
  6
ByBlock
 62
     0
370
    -2
380
     1
100
AcDbMText
 10
42.71357391023093
 20
305.174246
 30
0.0
 40
2.5
 41
0.0
 71
     5
 72
     1
  1
\A1;439
 11
6.123031769111886E-17
 21
1.0
 31
0.0
 73
     1
 44
1.0
  0
ENDBLK
  5
C8F
330
994
100
AcDbEntity
  8
0
100
AcDbBlockEnd
  0
BLOCK
  5
C90
330
9A0
100
AcDbEntity
  8
0
100
AcDbBlockBegin
  2
*D342
 70
     1
 10
0.0
 20
0.0
 30
0.0
  3
*D342
  1

  0
POINT
  5
997
330
9A0
100
AcDbEntity
  8
DEFPOINTS
  6
ByBlock
 62
     0
380
     1
100
AcDbPoint
 10
299.152664391018
 20
524.674246
 30
0.0
  0
POINT
  5
998
330
9A0
100
AcDbEntity
  8
DEFPOINTS
  6
ByBlock
 62
     0
380
     1
100
AcDbPoint
 10
309.7333638297457
 20
85.674246
 30
0.0
  0
LINE
  5
999
330
9A0
100
AcDbEntity
  8
0
  6
ByBlock
 62
     0
370
    -2
380
     1
100
AcDbLine
 10
298.527664391018
 20
524.674246
 30
0.0
 11
56.47034083459599
 21
524.674246
 31
0.0
  0
LINE
  5
99A
330
9A0
100
AcDbEntity
  8
0
  6
ByBlock
 62
     0
370
    -2
380
     1
100
AcDbLine
 10
309.1083638297457
 20
85.67424599999998
 30
0.0
 11
56.47034083459599
 21
85.67424599999998
 31
0.0
  0
LINE
  5
99B
330
9A0
100
AcDbEntity
  8
0
  6
ByBlock
 62
     0
370
    -2
380
     1
100
AcDbLine
 10
57.72034083459599
 20
522.174246
 30
0.0
 11
57.72034083459599
 21
88.17424599999998
 31
0.0
  0
SOLID
  5
99C
330
9A0
100
AcDbEntity
  8
0
  6
ByBlock
 62
     0
380
     1
100
AcDbTrace
 10
57.72034083459599
 20
524.674246
 30
0.0
 11
57.30367416792933
 21
522.174246
 31
0.0
 12
58.13700750126264
 22
522.174246
 32
0.0
 13
58.13700750126264
 23
522.174246
 33
0.0
  0
SOLID
  5
99D
330
9A0
100
AcDbEntity
  8
0
  6
ByBlock
 62
     0
380
     1
100
AcDbTrace
 10
57.72034083459599
 20
85.67424599999998
 30
0.0
 11
57.30367416792933
 21
88.17424599999998
 31
0.0
 12
58.13700750126264
 22
88.17424599999998
 32
0.0
 13
58.13700750126264
 23
88.17424599999998
 33
0.0
  0
MTEXT
  5
99E
330
9A0
100
AcDbEntity
  8
0
  6
ByBlock
 62
     0
370
    -2
380
     1
100
AcDbMText
 10
55.96973663582136
 20
305.174246
 30
0.0
 40
2.5
 41
0.0
 71
     5
 72
     1
  1
\A1;439
 11
6.123031769111886E-17
 21
1.0
 31
0.0
 73
     1
 44
1.0
  0
ENDBLK
  5
C91
330
9A0
100
AcDbEntity
  8
0
100
AcDbBlockEnd
  0
BLOCK
  5
C92
330
9AB
100
AcDbEntity
  8
0
100
AcDbBlockBegin
  2
*D343
 70
     1
 10
0.0
 20
0.0
 30
0.0
  3
*D343
  1

  0
POINT
  5
9A2
330
9AB
100
AcDbEntity
  8
DEFPOINTS
  6
ByBlock
 62
     0
380
     1
100
AcDbPoint
 10
299.152664391018
 20
524.674246
 30
0.0
  0
POINT
  5
9A3
330
9AB
100
AcDbEntity
  8
DEFPOINTS
  6
ByBlock
 62
     0
380
     1
100
AcDbPoint
 10
309.7333638297457
 20
85.674246
 30
0.0
  0
LINE
  5
9A4
330
9AB
100
AcDbEntity
  8
0
  6
ByBlock
 62
     0
370
    -2
380
     1
100
AcDbLine
 10
298.527664391018
 20
524.674246
 30
0.0
 11
56.47034083459599
 21
524.674246
 31
0.0
  0
LINE
  5
9A5
330
9AB
100
AcDbEntity
  8
0
  6
ByBlock
 62
     0
370
    -2
380
     1
100
AcDbLine
 10
309.1083638297457
 20
85.67424599999998
 30
0.0
 11
56.47034083459599
 21
85.67424599999998
 31
0.0
  0
LINE
  5
9A6
330
9AB
100
AcDbEntity
  8
0
  6
ByBlock
 62
     0
370
    -2
380
     1
100
AcDbLine
 10
57.72034083459599
 20
522.174246
 30
0.0
 11
57.72034083459599
 21
88.17424599999998
 31
0.0
  0
SOLID
  5
9A7
330
9AB
100
AcDbEntity
  8
0
  6
ByBlock
 62
     0
380
     1
100
AcDbTrace
 10
57.72034083459599
 20
524.674246
 30
0.0
 11
57.30367416792933
 21
522.174246
 31
0.0
 12
58.13700750126264
 22
522.174246
 32
0.0
 13
58.13700750126264
 23
522.174246
 33
0.0
  0
SOLID
  5
9A8
330
9AB
100
AcDbEntity
  8
0
  6
ByBlock
 62
     0
380
     1
100
AcDbTrace
 10
57.72034083459599
 20
85.67424599999998
 30
0.0
 11
57.30367416792933
 21
88.17424599999998
 31
0.0
 12
58.13700750126264
 22
88.17424599999998
 32
0.0
 13
58.13700750126264
 23
88.17424599999998
 33
0.0
  0
MTEXT
  5
9A9
330
9AB
100
AcDbEntity
  8
0
  6
ByBlock
 62
     0
370
    -2
380
     1
100
AcDbMText
 10
55.96973663582136
 20
305.174246
 30
0.0
 40
2.5
 41
0.0
 71
     5
 72
     1
  1
\A1;439
 11
6.123031769111886E-17
 21
1.0
 31
0.0
 73
     1
 44
1.0
  0
ENDBLK
  5
C93
330
9AB
100
AcDbEntity
  8
0
100
AcDbBlockEnd
  0
BLOCK
  5
C94
330
9B6
100
AcDbEntity
  8
0
100
AcDbBlockBegin
  2
*D344
 70
     1
 10
0.0
 20
0.0
 30
0.0
  3
*D344
  1

  0
POINT
  5
9AD
330
9B6
100
AcDbEntity
  8
DEFPOINTS
  6
ByBlock
 62
     7
380
     1
100
AcDbPoint
 10
299.152664391018
 20
524.674246
 30
0.0
  0
POINT
  5
9AE
330
9B6
100
AcDbEntity
  8
DEFPOINTS
  6
ByBlock
 62
     7
380
     1
100
AcDbPoint
 10
309.7333638297457
 20
85.674246
 30
0.0
  0
LINE
  5
9AF
330
9B6
100
AcDbEntity
  8
0
  6
ByBlock
 62
     7
370
    -2
380
     1
100
AcDbLine
 10
298.527664391018
 20
524.674246
 30
0.0
 11
56.47034083459599
 21
524.674246
 31
0.0
  0
LINE
  5
9B0
330
9B6
100
AcDbEntity
  8
0
  6
ByBlock
 62
     7
370
    -2
380
     1
100
AcDbLine
 10
309.1083638297457
 20
85.67424599999998
 30
0.0
 11
56.47034083459599
 21
85.67424599999998
 31
0.0
  0
LINE
  5
9B1
330
9B6
100
AcDbEntity
  8
0
  6
ByBlock
 62
     7
370
    -2
380
     1
100
AcDbLine
 10
57.72034083459599
 20
514.674246
 30
0.0
 11
57.72034083459599
 21
95.67424599999998
 31
0.0
  0
SOLID
  5
9B2
330
9B6
100
AcDbEntity
  8
0
  6
ByBlock
 62
     7
380
     1
100
AcDbTrace
 10
57.72034083459599
 20
524.674246
 30
0.0
 11
56.05367416792933
 21
514.674246
 31
0.0
 12
59.38700750126264
 22
514.674246
 32
0.0
 13
59.38700750126264
 23
514.674246
 33
0.0
  0
SOLID
  5
9B3
330
9B6
100
AcDbEntity
  8
0
  6
ByBlock
 62
     7
380
     1
100
AcDbTrace
 10
57.72034083459599
 20
85.67424599999998
 30
0.0
 11
56.05367416792933
 21
95.67424599999998
 31
0.0
 12
59.38700750126264
 22
95.67424599999998
 32
0.0
 13
59.38700750126264
 23
95.67424599999998
 33
0.0
  0
MTEXT
  5
9B4
330
9B6
100
AcDbEntity
  8
0
  6
ByBlock
 62
     0
370
    -2
380
     1
100
AcDbMText
 10
46.41695732145814
 20
305.174246
 30
0.0
 40
14.0
 41
0.0
 71
     5
 72
     1
  1
\A1;439
 11
6.123031769111886E-17
 21
1.0
 31
0.0
 73
     1
 44
1.0
  0
ENDBLK
  5
C95
330
9B6
100
AcDbEntity
  8
0
100
AcDbBlockEnd
  0
BLOCK
  5
C96
330
9C2
100
AcDbEntity
  8
0
100
AcDbBlockBegin
  2
*D345
 70
     1
 10
0.0
 20
0.0
 30
0.0
  3
*D345
  1

  0
POINT
  5
9B9
330
9C2
100
AcDbEntity
  8
DEFPOINTS
  6
ByBlock
 62
     0
380
     1
100
AcDbPoint
 10
89.964226
 20
296.2509778173502
 30
0.0
  0
POINT
  5
9BA
330
9C2
100
AcDbEntity
  8
DEFPOINTS
  6
ByBlock
 62
     0
380
     1
100
AcDbPoint
 10
557.964226
 20
305.174246
 30
0.0
  0
LINE
  5
9BB
330
9C2
100
AcDbEntity
  8
0
  6
ByBlock
 62
     0
370
    -2
380
     1
100
AcDbLine
 10
89.964226
 20
295.6259778173502
 30
0.0
 11
89.964226
 21
51.06289061387128
 31
0.0
  0
LINE
  5
9BC
330
9C2
100
AcDbEntity
  8
0
  6
ByBlock
 62
     0
370
    -2
380
     1
100
AcDbLine
 10
557.964226
 20
304.549246
 30
0.0
 11
557.964226
 21
51.06289061387128
 31
0.0
  0
LINE
  5
9BD
330
9C2
100
AcDbEntity
  8
0
  6
ByBlock
 62
     0
370
    -2
380
     1
100
AcDbLine
 10
92.464226
 20
52.31289061387128
 30
0.0
 11
555.464226
 21
52.31289061387128
 31
0.0
  0
SOLID
  5
9BE
330
9C2
100
AcDbEntity
  8
0
  6
ByBlock
 62
     0
380
     1
100
AcDbTrace
 10
89.964226
 20
52.31289061387128
 30
0.0
 11
92.464226
 21
51.89622394720462
 31
0.0
 12
92.464226
 22
52.72955728053793
 32
0.0
 13
92.464226
 23
52.72955728053793
 33
0.0
  0
SOLID
  5
9BF
330
9C2
100
AcDbEntity
  8
0
  6
ByBlock
 62
     0
380
     1
100
AcDbTrace
 10
557.964226
 20
52.31289061387128
 30
0.0
 11
555.464226
 21
51.89622394720462
 31
0.0
 12
555.464226
 22
52.72955728053793
 32
0.0
 13
555.464226
 23
52.72955728053793
 33
0.0
  0
MTEXT
  5
9C0
330
9C2
100
AcDbEntity
  8
0
  6
ByBlock
 62
     0
370
    -2
380
     1
100
AcDbMText
 10
323.9642260000001
 20
54.06289061387128
 30
0.0
 40
2.5
 41
0.0
 71
     5
 72
     1
  1
\A1;468
 73
     1
 44
1.0
  0
ENDBLK
  5
C97
330
9C2
100
AcDbEntity
  8
0
100
AcDbBlockEnd
  0
BLOCK
  5
C98
330
9CD
100
AcDbEntity
  8
0
100
AcDbBlockBegin
  2
*D346
 70
     1
 10
0.0
 20
0.0
 30
0.0
  3
*D346
  1

  0
POINT
  5
9C4
330
9CD
100
AcDbEntity
  8
DEFPOINTS
  6
ByBlock
 62
     0
380
     1
100
AcDbPoint
 10
89.964226
 20
296.2509778173502
 30
0.0
  0
POINT
  5
9C5
330
9CD
100
AcDbEntity
  8
DEFPOINTS
  6
ByBlock
 62
     0
380
     1
100
AcDbPoint
 10
557.964226
 20
305.174246
 30
0.0
  0
LINE
  5
9C6
330
9CD
100
AcDbEntity
  8
0
  6
ByBlock
 62
     0
370
    -2
380
     1
100
AcDbLine
 10
89.964226
 20
295.6259778173502
 30
0.0
 11
89.964226
 21
51.06289061387128
 31
0.0
  0
LINE
  5
9C7
330
9CD
100
AcDbEntity
  8
0
  6
ByBlock
 62
     0
370
    -2
380
     1
100
AcDbLine
 10
557.964226
 20
304.549246
 30
0.0
 11
557.964226
 21
51.06289061387128
 31
0.0
  0
LINE
  5
9C8
330
9CD
100
AcDbEntity
  8
0
  6
ByBlock
 62
     0
370
    -2
380
     1
100
AcDbLine
 10
92.464226
 20
52.31289061387128
 30
0.0
 11
555.464226
 21
52.31289061387128
 31
0.0
  0
SOLID
  5
9C9
330
9CD
100
AcDbEntity
  8
0
  6
ByBlock
 62
     0
380
     1
100
AcDbTrace
 10
89.964226
 20
52.31289061387128
 30
0.0
 11
92.464226
 21
51.89622394720462
 31
0.0
 12
92.464226
 22
52.72955728053793
 32
0.0
 13
92.464226
 23
52.72955728053793
 33
0.0
  0
SOLID
  5
9CA
330
9CD
100
AcDbEntity
  8
0
  6
ByBlock
 62
     0
380
     1
100
AcDbTrace
 10
557.964226
 20
52.31289061387128
 30
0.0
 11
555.464226
 21
51.89622394720462
 31
0.0
 12
555.464226
 22
52.72955728053793
 32
0.0
 13
555.464226
 23
52.72955728053793
 33
0.0
  0
MTEXT
  5
9CB
330
9CD
100
AcDbEntity
  8
0
  6
ByBlock
 62
     0
370
    -2
380
     1
100
AcDbMText
 10
323.9642260000001
 20
54.06289061387128
 30
0.0
 40
2.5
 41
0.0
 71
     5
 72
     1
  1
\A1;468
 73
     1
 44
1.0
  0
ENDBLK
  5
C99
330
9CD
100
AcDbEntity
  8
0
100
AcDbBlockEnd
  0
BLOCK
  5
C9A
330
9D8
100
AcDbEntity
  8
0
100
AcDbBlockBegin
  2
*D347
 70
     1
 10
0.0
 20
0.0
 30
0.0
  3
*D347
  1

  0
POINT
  5
9CF
330
9D8
100
AcDbEntity
  8
DEFPOINTS
  6
ByBlock
 62
     7
380
     1
100
AcDbPoint
 10
89.964226
 20
296.2509778173502
 30
0.0
  0
POINT
  5
9D0
330
9D8
100
AcDbEntity
  8
DEFPOINTS
  6
ByBlock
 62
     7
380
     1
100
AcDbPoint
 10
557.964226
 20
305.174246
 30
0.0
  0
LINE
  5
9D1
330
9D8
100
AcDbEntity
  8
0
  6
ByBlock
 62
     7
370
    -2
380
     1
100
AcDbLine
 10
89.964226
 20
295.6259778173502
 30
0.0
 11
89.964226
 21
51.06289061387128
 31
0.0
  0
LINE
  5
9D2
330
9D8
100
AcDbEntity
  8
0
  6
ByBlock
 62
     7
370
    -2
380
     1
100
AcDbLine
 10
557.964226
 20
304.549246
 30
0.0
 11
557.964226
 21
51.06289061387128
 31
0.0
  0
LINE
  5
9D3
330
9D8
100
AcDbEntity
  8
0
  6
ByBlock
 62
     7
370
    -2
380
     1
100
AcDbLine
 10
99.964226
 20
52.31289061387128
 30
0.0
 11
547.964226
 21
52.31289061387128
 31
0.0
  0
SOLID
  5
9D4
330
9D8
100
AcDbEntity
  8
0
  6
ByBlock
 62
     7
380
     1
100
AcDbTrace
 10
89.964226
 20
52.31289061387128
 30
0.0
 11
99.964226
 21
50.64622394720462
 31
0.0
 12
99.964226
 22
53.97955728053793
 32
0.0
 13
99.964226
 23
53.97955728053793
 33
0.0
  0
SOLID
  5
9D5
330
9D8
100
AcDbEntity
  8
0
  6
ByBlock
 62
     7
380
     1
100
AcDbTrace
 10
557.964226
 20
52.31289061387128
 30
0.0
 11
547.964226
 21
50.64622394720462
 31
0.0
 12
547.964226
 22
53.97955728053793
 32
0.0
 13
547.964226
 23
53.97955728053793
 33
0.0
  0
MTEXT
  5
9D6
330
9D8
100
AcDbEntity
  8
0
  6
ByBlock
 62
     0
370
    -2
380
     1
100
AcDbMText
 10
323.9642260000001
 20
63.61289061387129
 30
0.0
 40
14.0
 41
0.0
 71
     5
 72
     1
  1
\A1;468
 73
     1
 44
1.0
  0
ENDBLK
  5
C9B
330
9D8
100
AcDbEntity
  8
0
100
AcDbBlockEnd
  0
ENDSEC
  0
SECTION
  2
ENTITIES
  0
LINE
  5
100
330
1F
100
AcDbEntity
  8
0
 62
     7
370
    60
390
F
100
AcDbLine
 10
95.964226
 20
85.674246
 30
0.0
 11
551.964226
 21
85.674246
 31
0.0
  0
LINE
  5
101
330
1F
100
AcDbEntity
  8
0
 62
     7
370
    60
390
F
100
AcDbLine
 10
89.964226
 20
91.674246
 30
0.0
 11
89.964226
 21
518.674246
 31
0.0
  0
LINE
  5
102
330
1F
100
AcDbEntity
  8
0
 62
     7
370
    60
390
F
100
AcDbLine
 10
557.964226
 20
91.674246
 30
0.0
 11
557.964226
 21
518.674246
 31
0.0
  0
LINE
  5
103
330
1F
100
AcDbEntity
  8
0
 62
     7
370
    60
390
F
100
AcDbLine
 10
95.964226
 20
524.674246
 30
0.0
 11
551.964226
 21
524.674246
 31
0.0
  0
ARC
  5
104
330
1F
100
AcDbEntity
  8
0
 62
     7
370
    60
390
F
100
AcDbCircle
 10
95.964226
 20
518.674246
 30
0.0
 40
6.0
100
AcDbArc
 50
90.000003
 51
180.000009
  0
ARC
  5
105
330
1F
100
AcDbEntity
  8
0
 62
     7
370
    60
390
F
100
AcDbCircle
 10
551.964226
 20
518.674246
 30
0.0
 40
6.0
100
AcDbArc
 50
0.0
 51
90.000003
  0
ARC
  5
106
330
1F
100
AcDbEntity
  8
0
 62
     7
370
    60
390
F
100
AcDbCircle
 10
551.964226
 20
91.674246
 30
0.0
 40
6.0
100
AcDbArc
 50
269.999997
 51
0.0
  0
ARC
  5
107
330
1F
100
AcDbEntity
  8
0
 62
     7
370
    60
390
F
100
AcDbCircle
 10
95.964226
 20
91.674246
 30
0.0
 40
6.0
100
AcDbArc
 50
180.000009
 51
269.999997
  0
DIMENSION
  5
995
330
1F
100
AcDbEntity
  8
0
370
    25
100
AcDbDimension
  2
*D344
 10
57.72034083459599
 20
85.67424600000001
 30
0.0
 11
46.41695732145814
 21
305.174246
 31
0.0
 70
    32
 71
     5
 41
2.5
 42
439.0000000000001
  3
Standard
100
AcDbAlignedDimension
 13
299.152664391018
 23
524.674246
 33
0.0
 14
309.7333638297457
 24
85.674246
 34
0.0
 50
90.0
100
AcDbRotatedDimension
1001
ACAD
1000
DSTYLE
1002
{
1070
    41
1040
10.0
1070
   140
1040
14.0
1070
   147
1040
5.0
1070
   176
1070
     7
1070
   177
1070
     7
1070
   340
1005
11
1002
}
  0
DIMENSION
  5
9B7
330
1F
100
AcDbEntity
  8
0
370
    25
100
AcDbDimension
  2
*D347
 10
557.964226
 20
52.31289061387128
 30
0.0
 11
323.9642260000001
 21
63.61289061387129
 31
0.0
 70
    32
 71
     5
 41
2.5
 42
468.0000000000001
  3
Standard
100
AcDbAlignedDimension
 13
89.964226
 23
296.2509778173502
 33
0.0
 14
557.964226
 24
305.174246
 34
0.0
100
AcDbRotatedDimension
1001
ACAD
1000
DSTYLE
1002
{
1070
    41
1040
10.0
1070
   140
1040
14.0
1070
   147
1040
5.0
1070
   176
1070
     7
1070
   177
1070
     7
1070
   340
1005
11
1002
}
  0
LINE
  5
9DB
330
1F
100
AcDbEntity
  8
STANDARD_LAYER
370
    60
100
AcDbLine
 10
306.0877544200603
 20
323.2873149116676
 30
0.0
 11
326.7694361800604
 21
351.1999315916669
 31
0.0
  0
LINE
  5
9DC
330
1F
100
AcDbEntity
  8
STANDARD_LAYER
370
    60
100
AcDbLine
 10
294.8595657400606
 20
294.1989366916678
 30
0.0
 11
315.5424898600604
 21
322.1117409316666
 31
0.0
  0
LINE
  5
9DD
330
1F
100
AcDbEntity
  8
STANDARD_LAYER
370
    60
100
AcDbLine
 10
289.8373411000603
 20
314.7653491716678
 30
0.0
 11
310.5194613400604
 21
342.6784972716678
 31
0.0
  0
LINE
  5
9DE
330
1F
100
AcDbEntity
  8
STANDARD_LAYER
370
    60
100
AcDbLine
 10
323.5195999000603
 20
282.1520412516675
 30
0.0
 11
344.2020855400606
 21
310.0648246516666
 31
0.0
  0
LINE
  5
9DF
330
1F
100
AcDbEntity
  8
STANDARD_LAYER
370
    60
100
AcDbLine
 10
340.6566928600605
 20
293.6109048316666
 30
0.0
 11
361.3389175000602
 21
321.5231568116678
 31
0.0
  0
VIEWPORT
  5
108
330
73
100
AcDbEntity
 67
     1
  8
0
 62
     0
370
     0
390
F
100
AcDbViewport
 10
0.0
 20
0.0
 30
0.0
 40
1000.0
 41
1000.0
 68
     1
 69
     1
 12
0.0
 22
0.0
 13
0.0
 23
0.0
 14
1.0
 24
1.0
 15
1.0
 25
1.0
 16
0.0
 26
0.0
 36
1.0
 17
0.0
 27
0.0
 37
0.0
 42
50.0
 43
0.0
 44
0.0
 45
1000.0
 50
0.0
 51
0.0
 72
   100
 90
   557056
  1

281
     0
 71
     0
 74
     0
110
0.0
120
0.0
130
0.0
111
1.0
121
0.0
131
0.0
112
0.0
122
1.0
132
0.0
 79
     0
146
0.0
  0
ENDSEC
  0
SECTION
  2
OBJECTS
  0
DICTIONARY
  5
C
330
0
100
AcDbDictionary
281
     1
  3
ACAD_COLOR
350
6C
  3
ACAD_GROUP
350
D
  3
ACAD_LAYOUT
350
1A
  3
ACAD_MATERIAL
350
6B
  3
ACAD_MLEADERSTYLE
350
C9C
  3
ACAD_MLINESTYLE
350
17
  3
ACAD_PLOTSETTINGS
350
19
  3
ACAD_PLOTSTYLENAME
350
E
  3
ACAD_SCALELIST
350
99
  3
ACAD_TABLESTYLE
350
92
  3
ACAD_WIPEOUT_VARS
350
9E3
  3
ACDBHEADERROUNDTRIPXREC
350
C9D
  3
AcDbVariableDictionary
350
59
  3
DWGPROPS
350
CA0
  0
DICTIONARY
  5
6C
102
{ACAD_REACTORS
330
C
102
}
330
C
100
AcDbDictionary
281
     1
  0
DICTIONARY
  5
D
102
{ACAD_REACTORS
330
C
102
}
330
C
100
AcDbDictionary
281
     1
  0
DICTIONARY
  5
1A
102
{ACAD_REACTORS
330
C
102
}
330
C
100
AcDbDictionary
281
     1
  3
Layout1
350
74
  3
Model
350
22
  0
DICTIONARY
  5
6B
102
{ACAD_REACTORS
330
C
102
}
330
C
100
AcDbDictionary
281
     1
  0
DICTIONARY
  5
C9C
102
{ACAD_REACTORS
330
C
102
}
330
C
100
AcDbDictionary
281
     1
  0
DICTIONARY
  5
17
102
{ACAD_REACTORS
330
C
102
}
330
C
100
AcDbDictionary
281
     1
  3
Standard
350
18
  0
DICTIONARY
  5
19
102
{ACAD_REACTORS
330
C
102
}
330
C
100
AcDbDictionary
281
     1
  0
ACDBDICTIONARYWDFLT
  5
E
102
{ACAD_REACTORS
330
C
102
}
330
C
100
AcDbDictionary
281
     1
  3
Normal
350
F
100
AcDbDictionaryWithDefault
340
F
  0
DICTIONARY
  5
99
102
{ACAD_REACTORS
330
C
102
}
330
C
100
AcDbDictionary
281
     1
  3
A0
350
7F3
  3
A1
350
7F4
  3
A2
350
7F5
  3
A3
350
7F6
  3
A4
350
7F7
  3
A5
350
7F8
  3
A6
350
7F9
  3
A7
350
7FA
  3
A8
350
7FB
  3
A9
350
7FC
  3
B0
350
7FD
  3
B1
350
7FE
  3
B2
350
7FF
  3
B3
350
800
  3
B4
350
801
  3
B5
350
802
  3
B6
350
803
  3
B7
350
804
  3
B8
350
805
  3
B9
350
806
  3
C0
350
807
  3
C1
350
808
  3
C2
350
809
  3
C3
350
80A
  3
C4
350
80B
  3
C5
350
80C
  3
C6
350
80D
  3
C7
350
80E
  3
C8
350
80F
  3
C9
350
810
  3
D0
350
811
  3
D1
350
812
  3
D2
350
813
  0
DICTIONARY
  5
92
102
{ACAD_REACTORS
330
C
102
}
330
C
100
AcDbDictionary
281
     1
  0
WIPEOUTVARIABLES
  5
9E3
102
{ACAD_REACTORS
330
C
102
}
330
C
100
AcDbWipeoutVariables
 70
     1
  0
DICTIONARY
  5
C9D
102
{ACAD_REACTORS
330
C
102
}
330
C
100
AcDbDictionary
281
     1
  3
COLORDICT
350
C9E
  3
MATERIALDICT
350
C9F
  0
DICTIONARY
  5
59
102
{ACAD_REACTORS
330
C
102
}
330
C
100
AcDbDictionary
281
     1
  3
CTABLESTYLE
350
98
  3
DIMASSOC
350
5A
  3
HIDETEXT
350
5E
  0
XRECORD
  5
CA0
102
{ACAD_REACTORS
330
C
102
}
330
C
100
AcDbXrecord
280
     1
  1
DWGPROPS COOKIE
  2

  3

  4

  6

  7

  8
BelottiMc
  9

300
=
301
=
302
=
303
=
304
=
305
=
306
=
307
=
308
=
309
=
 40
0.0
 41
2447893.0
 42
2447893.0
  1

 90
        0
  0
LAYOUT
  5
74
102
{ACAD_REACTORS
330
1A
102
}
330
1A
100
AcDbPlotSettings
  1

  2
none_device
  4
none_user_media
  6

 40
0.0
 41
0.0
 42
0.0
 43
0.0
 44
0.0
 45
0.0
 46
0.0
 47
0.0
 48
0.0
 49
0.0
140
0.0
141
0.0
142
1.0
143
1.0
 70
   544
 72
     0
 73
     0
 74
     0
  7

 75
    16
147
1.0
148
0.0
149
0.0
100
AcDbLayout
  1
Layout1
 70
     1
 71
     0
 10
0.0
 20
0.0
 11
420.0
 21
297.0
 12
0.0
 22
0.0
 32
0.0
 14
0.0
 24
0.0
 34
0.0
 15
540.105835
 25
419.42865
 35
2.0
146
0.0
 13
0.0
 23
0.0
 33
0.0
 16
1.0
 26
0.0
 36
0.0
 17
0.0
 27
1.0
 37
0.0
 76
     0
330
73
331
108
  0
LAYOUT
  5
22
102
{ACAD_REACTORS
330
1A
102
}
330
1A
100
AcDbPlotSettings
  1

  2
none_device
  4
none_user_media
  6

 40
6.349999904632568
 41
6.349999904632568
 42
6.350006103515625
 43
6.350006103515625
 44
215.8999938964844
 45
279.3999938964844
 46
0.0
 47
0.0
 48
0.0
 49
0.0
140
0.0
141
0.0
142
1.0
143
1.0
 70
 11936
 72
     0
 73
     0
 74
     0
  7

 75
     0
147
0.2379486458134196
148
0.0
149
0.0
100
AcDbLayout
  1
Model
 70
     1
 71
     0
 10
0.0
 20
0.0
 11
420.0
 21
297.0
 12
0.0
 22
0.0
 32
0.0
 14
-8.572632
 24
-8.897104
 34
0.0
 15
852.427399
 25
605.102896
 35
0.0
146
0.0
 13
0.0
 23
0.0
 33
0.0
 16
1.0
 26
0.0
 36
0.0
 17
0.0
 27
1.0
 37
0.0
 76
     0
330
1F
331
97
  0
MLINESTYLE
  5
18
102
{ACAD_REACTORS
330
17
102
}
330
17
100
AcDbMlineStyle
  2
Standard
 70
     0
  3

 62
     0
 51
90.0
 52
90.0
 71
     2
 49
0.5
 62
   256
  6
BYLAYER
 49
-0.5
 62
   256
  6
BYLAYER
  0
ACDBPLACEHOLDER
  5
F
102
{ACAD_REACTORS
330
E
102
}
330
E
  0
SCALE
  5
7F3
102
{ACAD_REACTORS
330
99
102
}
330
99
100
AcDbScale
 70
     0
300
1:1
140
1.0
141
1.0
290
     1
  0
SCALE
  5
7F4
102
{ACAD_REACTORS
330
99
102
}
330
99
100
AcDbScale
 70
     0
300
1:2
140
1.0
141
2.0
290
     0
  0
SCALE
  5
7F5
102
{ACAD_REACTORS
330
99
102
}
330
99
100
AcDbScale
 70
     0
300
1:4
140
1.0
141
4.0
290
     0
  0
SCALE
  5
7F6
102
{ACAD_REACTORS
330
99
102
}
330
99
100
AcDbScale
 70
     0
300
1:5
140
1.0
141
5.0
290
     0
  0
SCALE
  5
7F7
102
{ACAD_REACTORS
330
99
102
}
330
99
100
AcDbScale
 70
     0
300
1:8
140
1.0
141
8.0
290
     0
  0
SCALE
  5
7F8
102
{ACAD_REACTORS
330
99
102
}
330
99
100
AcDbScale
 70
     0
300
1:10
140
1.0
141
10.0
290
     0
  0
SCALE
  5
7F9
102
{ACAD_REACTORS
330
99
102
}
330
99
100
AcDbScale
 70
     0
300
1:16
140
1.0
141
16.0
290
     0
  0
SCALE
  5
7FA
102
{ACAD_REACTORS
330
99
102
}
330
99
100
AcDbScale
 70
     0
300
1:20
140
1.0
141
20.0
290
     0
  0
SCALE
  5
7FB
102
{ACAD_REACTORS
330
99
102
}
330
99
100
AcDbScale
 70
     0
300
1:30
140
1.0
141
30.0
290
     0
  0
SCALE
  5
7FC
102
{ACAD_REACTORS
330
99
102
}
330
99
100
AcDbScale
 70
     0
300
1:40
140
1.0
141
40.0
290
     0
  0
SCALE
  5
7FD
102
{ACAD_REACTORS
330
99
102
}
330
99
100
AcDbScale
 70
     0
300
1:50
140
1.0
141
50.0
290
     0
  0
SCALE
  5
7FE
102
{ACAD_REACTORS
330
99
102
}
330
99
100
AcDbScale
 70
     0
300
1:100
140
1.0
141
100.0
290
     0
  0
SCALE
  5
7FF
102
{ACAD_REACTORS
330
99
102
}
330
99
100
AcDbScale
 70
     0
300
2:1
140
2.0
141
1.0
290
     0
  0
SCALE
  5
800
102
{ACAD_REACTORS
330
99
102
}
330
99
100
AcDbScale
 70
     0
300
4:1
140
4.0
141
1.0
290
     0
  0
SCALE
  5
801
102
{ACAD_REACTORS
330
99
102
}
330
99
100
AcDbScale
 70
     0
300
8:1
140
8.0
141
1.0
290
     0
  0
SCALE
  5
802
102
{ACAD_REACTORS
330
99
102
}
330
99
100
AcDbScale
 70
     0
300
10:1
140
10.0
141
1.0
290
     0
  0
SCALE
  5
803
102
{ACAD_REACTORS
330
99
102
}
330
99
100
AcDbScale
 70
     0
300
100:1
140
100.0
141
1.0
290
     0
  0
SCALE
  5
804
102
{ACAD_REACTORS
330
99
102
}
330
99
100
AcDbScale
 70
     0
300
1/128" = 1'-0"
140
0.0078125
141
12.0
290
     0
  0
SCALE
  5
805
102
{ACAD_REACTORS
330
99
102
}
330
99
100
AcDbScale
 70
     0
300
1/64" = 1'-0"
140
0.015625
141
12.0
290
     0
  0
SCALE
  5
806
102
{ACAD_REACTORS
330
99
102
}
330
99
100
AcDbScale
 70
     0
300
1/32" = 1'-0"
140
0.03125
141
12.0
290
     0
  0
SCALE
  5
807
102
{ACAD_REACTORS
330
99
102
}
330
99
100
AcDbScale
 70
     0
300
1/16" = 1'-0"
140
0.0625
141
12.0
290
     0
  0
SCALE
  5
808
102
{ACAD_REACTORS
330
99
102
}
330
99
100
AcDbScale
 70
     0
300
3/32" = 1'-0"
140
0.09375
141
12.0
290
     0
  0
SCALE
  5
809
102
{ACAD_REACTORS
330
99
102
}
330
99
100
AcDbScale
 70
     0
300
1/8" = 1'-0"
140
0.125
141
12.0
290
     0
  0
SCALE
  5
80A
102
{ACAD_REACTORS
330
99
102
}
330
99
100
AcDbScale
 70
     0
300
3/16" = 1'-0"
140
0.1875
141
12.0
290
     0
  0
SCALE
  5
80B
102
{ACAD_REACTORS
330
99
102
}
330
99
100
AcDbScale
 70
     0
300
1/4" = 1'-0"
140
0.25
141
12.0
290
     0
  0
SCALE
  5
80C
102
{ACAD_REACTORS
330
99
102
}
330
99
100
AcDbScale
 70
     0
300
3/8" = 1'-0"
140
0.375
141
12.0
290
     0
  0
SCALE
  5
80D
102
{ACAD_REACTORS
330
99
102
}
330
99
100
AcDbScale
 70
     0
300
1/2" = 1'-0"
140
0.5
141
12.0
290
     0
  0
SCALE
  5
80E
102
{ACAD_REACTORS
330
99
102
}
330
99
100
AcDbScale
 70
     0
300
3/4" = 1'-0"
140
0.75
141
12.0
290
     0
  0
SCALE
  5
80F
102
{ACAD_REACTORS
330
99
102
}
330
99
100
AcDbScale
 70
     0
300
1" = 1'-0"
140
1.0
141
12.0
290
     0
  0
SCALE
  5
810
102
{ACAD_REACTORS
330
99
102
}
330
99
100
AcDbScale
 70
     0
300
1-1/2" = 1'-0"
140
1.5
141
12.0
290
     0
  0
SCALE
  5
811
102
{ACAD_REACTORS
330
99
102
}
330
99
100
AcDbScale
 70
     0
300
3" = 1'-0"
140
3.0
141
12.0
290
     0
  0
SCALE
  5
812
102
{ACAD_REACTORS
330
99
102
}
330
99
100
AcDbScale
 70
     0
300
6" = 1'-0"
140
6.0
141
12.0
290
     0
  0
SCALE
  5
813
102
{ACAD_REACTORS
330
99
102
}
330
99
100
AcDbScale
 70
     0
300
1'-0" = 1'-0"
140
12.0
141
12.0
290
     0
  0
XRECORD
  5
C9E
102
{ACAD_REACTORS
330
C9D
102
}
330
C9D
100
AcDbXrecord
280
     1
340
6C
  0
XRECORD
  5
C9F
102
{ACAD_REACTORS
330
C9D
102
}
330
C9D
100
AcDbXrecord
280
     1
340
6B
  0
DICTIONARYVAR
  5
98
102
{ACAD_REACTORS
330
59
102
}
330
59
100
DictionaryVariables
280
     0
  1
Standard
  0
DICTIONARYVAR
  5
5A
102
{ACAD_REACTORS
330
59
102
}
330
59
100
DictionaryVariables
280
     0
  1
2
  0
DICTIONARYVAR
  5
5E
102
{ACAD_REACTORS
330
59
102
}
330
59
100
DictionaryVariables
280
     0
  1
1
  0
ENDSEC
  0
EOF
