  0
SECTION
  2
HEADER
  9
$ACADVER
  1
AC1015
  9
$ACADMAINTVER
 70
     6
  9
$DWGCODEPAGE
  3
ANSI_1252
  9
$INSBASE
 10
0.0
 20
0.0
 30
0.0
  9
$EXTMIN
 10
0.0
 20
0.0
 30
0.0
  9
$EXTMAX
 10
4564.736931343554
 20
2757.235815759525
 30
0.0
  9
$LIMMIN
 10
0.0
 20
0.0
  9
$LIMMAX
 10
0.0
 20
0.0
  9
$ORTHOMODE
 70
     0
  9
$REGENMODE
 70
     1
  9
$FILLMODE
 70
     1
  9
$QTEXTMODE
 70
     0
  9
$MIRRTEXT
 70
     0
  9
$LTSCALE
 40
1.0
  9
$ATTMODE
 70
     1
  9
$TEXTSIZE
 40
2.5
  9
$TRACEWID
 40
1.0
  9
$TEXTSTYLE
  7
Standard
  9
$CLAYER
  8
0
  9
$CELTYPE
  6
ByLayer
  9
$CECOLOR
 62
   256
  9
$CELTSCALE
 40
1.0
  9
$DISPSILH
 70
     0
  9
$DIMSCALE
 40
1.0
  9
$DIMASZ
 40
2.5
  9
$DIMEXO
 40
0.625
  9
$DIMDLI
 40
3.75
  9
$DIMRND
 40
0.0
  9
$DIMDLE
 40
0.0
  9
$DIMEXE
 40
1.25
  9
$DIMTP
 40
0.0
  9
$DIMTM
 40
0.0
  9
$DIMTXT
 40
2.5
  9
$DIMCEN
 40
2.5
  9
$DIMTSZ
 40
0.0
  9
$DIMTOL
 70
     0
  9
$DIMLIM
 70
     0
  9
$DIMTIH
 70
     0
  9
$DIMTOH
 70
     0
  9
$DIMSE1
 70
     0
  9
$DIMSE2
 70
     0
  9
$DIMTAD
 70
     1
  9
$DIMZIN
 70
     8
  9
$DIMBLK
  1

  9
$DIMASO
 70
     1
  9
$DIMSHO
 70
     1
  9
$DIMPOST
  1

  9
$DIMAPOST
  1

  9
$DIMALT
 70
     0
  9
$DIMALTD
 70
     3
  9
$DIMALTF
 40
0.03937007874016
  9
$DIMLFAC
 40
1.0
  9
$DIMTOFL
 70
     1
  9
$DIMTVP
 40
0.0
  9
$DIMTIX
 70
     0
  9
$DIMSOXD
 70
     0
  9
$DIMSAH
 70
     0
  9
$DIMBLK1
  1

  9
$DIMBLK2
  1

  9
$DIMSTYLE
  2
ISO-25
  9
$DIMCLRD
 70
     0
  9
$DIMCLRE
 70
     0
  9
$DIMCLRT
 70
     0
  9
$DIMTFAC
 40
1.0
  9
$DIMGAP
 40
0.625
  9
$DIMJUST
 70
     0
  9
$DIMSD1
 70
     0
  9
$DIMSD2
 70
     0
  9
$DIMTOLJ
 70
     0
  9
$DIMTZIN
 70
     8
  9
$DIMALTZ
 70
     0
  9
$DIMALTTZ
 70
     0
  9
$DIMUPT
 70
     0
  9
$DIMDEC
 70
     2
  9
$DIMTDEC
 70
     2
  9
$DIMALTU
 70
     2
  9
$DIMALTTD
 70
     3
  9
$DIMTXSTY
  7
Standard
  9
$DIMAUNIT
 70
     0
  9
$DIMADEC
 70
     0
  9
$DIMALTRND
 40
0.0
  9
$DIMAZIN
 70
     0
  9
$DIMDSEP
 70
    44
  9
$DIMATFIT
 70
     3
  9
$DIMFRAC
 70
     0
  9
$DIMLDRBLK
  1

  9
$DIMLUNIT
 70
     2
  9
$DIMLWD
 70
    -2
  9
$DIMLWE
 70
    -2
  9
$DIMTMOVE
 70
     0
  9
$LUNITS
 70
     2
  9
$LUPREC
 70
     4
  9
$SKETCHINC
 40
1.0
  9
$FILLETRAD
 40
0.0
  9
$AUNITS
 70
     0
  9
$AUPREC
 70
     0
  9
$MENU
  1
.
  9
$ELEVATION
 40
0.0
  9
$PELEVATION
 40
0.0
  9
$THICKNESS
 40
0.0
  9
$LIMCHECK
 70
     0
  9
$CHAMFERA
 40
0.0
  9
$CHAMFERB
 40
0.0
  9
$CHAMFERC
 40
0.0
  9
$CHAMFERD
 40
0.0
  9
$SKPOLY
 70
     0
  9
$TDCREATE
 40
2455099.515146215
  9
$TDUCREATE
 40
2455099.431812882
  9
$TDUPDATE
 40
2455099.55681287
  9
$TDUUPDATE
 40
2455099.473479537
  9
$TDINDWG
 40
0.1105835532
  9
$TDUSRTIMER
 40
0.1105811921
  9
$USRTIMER
 70
     1
  9
$ANGBASE
 50
0.0
  9
$ANGDIR
 70
     0
  9
$PDMODE
 70
     0
  9
$PDSIZE
 40
0.0
  9
$PLINEWID
 40
0.0
  9
$SPLFRAME
 70
     0
  9
$SPLINETYPE
 70
     6
  9
$SPLINESEGS
 70
     8
  9
$HANDSEED
  5
707
  9
$SURFTAB1
 70
     6
  9
$SURFTAB2
 70
     6
  9
$SURFTYPE
 70
     6
  9
$SURFU
 70
     6
  9
$SURFV
 70
     6
  9
$UCSBASE
  2

  9
$UCSNAME
  2

  9
$UCSORG
 10
0.0
 20
0.0
 30
0.0
  9
$UCSXDIR
 10
1.0
 20
0.0
 30
0.0
  9
$UCSYDIR
 10
0.0
 20
1.0
 30
0.0
  9
$UCSORTHOREF
  2

  9
$UCSORTHOVIEW
 70
     0
  9
$UCSORGTOP
 10
0.0
 20
0.0
 30
0.0
  9
$UCSORGBOTTOM
 10
0.0
 20
0.0
 30
0.0
  9
$UCSORGLEFT
 10
0.0
 20
0.0
 30
0.0
  9
$UCSORGRIGHT
 10
0.0
 20
0.0
 30
0.0
  9
$UCSORGFRONT
 10
0.0
 20
0.0
 30
0.0
  9
$UCSORGBACK
 10
0.0
 20
0.0
 30
0.0
  9
$PUCSBASE
  2

  9
$PUCSNAME
  2

  9
$PUCSORG
 10
0.0
 20
0.0
 30
0.0
  9
$PUCSXDIR
 10
1.0
 20
0.0
 30
0.0
  9
$PUCSYDIR
 10
0.0
 20
1.0
 30
0.0
  9
$PUCSORTHOREF
  2

  9
$PUCSORTHOVIEW
 70
     0
  9
$PUCSORGTOP
 10
0.0
 20
0.0
 30
0.0
  9
$PUCSORGBOTTOM
 10
0.0
 20
0.0
 30
0.0
  9
$PUCSORGLEFT
 10
0.0
 20
0.0
 30
0.0
  9
$PUCSORGRIGHT
 10
0.0
 20
0.0
 30
0.0
  9
$PUCSORGFRONT
 10
0.0
 20
0.0
 30
0.0
  9
$PUCSORGBACK
 10
0.0
 20
0.0
 30
0.0
  9
$USERI1
 70
     0
  9
$USERI2
 70
     0
  9
$USERI3
 70
     0
  9
$USERI4
 70
     0
  9
$USERI5
 70
     0
  9
$USERR1
 40
0.0
  9
$USERR2
 40
0.0
  9
$USERR3
 40
0.0
  9
$USERR4
 40
0.0
  9
$USERR5
 40
0.0
  9
$WORLDVIEW
 70
     1
  9
$SHADEDGE
 70
     3
  9
$SHADEDIF
 70
    70
  9
$TILEMODE
 70
     1
  9
$MAXACTVP
 70
    64
  9
$PINSBASE
 10
0.0
 20
0.0
 30
0.0
  9
$PLIMCHECK
 70
     0
  9
$PEXTMIN
 10
0.0
 20
0.0
 30
0.0
  9
$PEXTMAX
 10
12.0
 20
9.0
 30
0.0
  9
$PLIMMIN
 10
0.0
 20
0.0
  9
$PLIMMAX
 10
12.0
 20
9.0
  9
$UNITMODE
 70
     0
  9
$VISRETAIN
 70
     1
  9
$PLINEGEN
 70
     0
  9
$PSLTSCALE
 70
     1
  9
$TREEDEPTH
 70
  3020
  9
$CMLSTYLE
  2
Standard
  9
$CMLJUST
 70
     0
  9
$CMLSCALE
 40
20.0
  9
$PROXYGRAPHICS
 70
     1
  9
$MEASUREMENT
 70
     1
  9
$CELWEIGHT
370
    -1
  9
$ENDCAPS
280
     0
  9
$JOINSTYLE
280
     0
  9
$LWDISPLAY
290
     0
  9
$INSUNITS
 70
     4
  9
$HYPERLINKBASE
  1

  9
$STYLESHEET
  1

  9
$XEDIT
290
     1
  9
$CEPSNTYPE
380
     0
  9
$PSTYLEMODE
290
     1
  9
$FINGERPRINTGUID
  2
{5559452E-1E62-4159-8551-BF76FFF3E7E8}
  9
$VERSIONGUID
  2
{3CEB9EF8-4431-4551-B596-6734A9F966A9}
  9
$EXTNAMES
290
     1
  9
$PSVPSCALE
 40
0.0
  9
$OLESTARTUP
290
     0
  0
ENDSEC
  0
SECTION
  2
CLASSES
  0
CLASS
  1
ACDBDICTIONARYWDFLT
  2
AcDbDictionaryWithDefault
  3
ObjectDBX Classes
 90
        0
280
     0
281
     0
  0
CLASS
  1
ACDBPLACEHOLDER
  2
AcDbPlaceHolder
  3
ObjectDBX Classes
 90
        0
280
     0
281
     0
  0
CLASS
  1
LAYOUT
  2
AcDbLayout
  3
ObjectDBX Classes
 90
        0
280
     0
281
     0
  0
CLASS
  1
DICTIONARYVAR
  2
AcDbDictionaryVar
  3
ObjectDBX Classes
 90
        0
280
     0
281
     0
  0
CLASS
  1
TABLESTYLE
  2
AcDbTableStyle
  3
ObjectDBX Classes
 90
     4095
280
     0
281
     0
  0
CLASS
  1
SCALE
  2
AcDbScale
  3
ObjectDBX Classes
 90
     1153
280
     0
281
     0
  0
ENDSEC
  0
SECTION
  2
TABLES
  0
TABLE
  2
VPORT
  5
8
330
0
100
AcDbSymbolTable
 70
     2
  0
VPORT
  5
97
330
8
100
AcDbSymbolTableRecord
100
AcDbViewportTableRecord
  2
*Active
 70
     0
 10
0.0
 20
0.0
 11
1.0
 21
1.0
 12
3486.913198000443
 22
2428.350943564038
 13
0.0
 23
0.0
 14
10.0
 24
10.0
 15
10.0
 25
10.0
 16
0.0
 26
0.0
 36
1.0
 17
0.0
 27
0.0
 37
0.0
 40
1060.628208073191
 41
1.664827586206897
 42
50.0
 43
0.0
 44
0.0
 50
0.0
 51
0.0
 71
     0
 72
  1000
 73
     1
 74
     3
 75
     0
 76
     0
 77
     0
 78
     0
281
     0
 65
     1
110
0.0
120
0.0
130
0.0
111
1.0
121
0.0
131
0.0
112
0.0
122
1.0
132
0.0
 79
     0
146
0.0
  0
ENDTAB
  0
TABLE
  2
LTYPE
  5
5
330
0
100
AcDbSymbolTable
 70
     2
  0
LTYPE
  5
14
330
5
100
AcDbSymbolTableRecord
100
AcDbLinetypeTableRecord
  2
ByBlock
 70
     0
  3

 72
    65
 73
     0
 40
0.0
  0
LTYPE
  5
15
330
5
100
AcDbSymbolTableRecord
100
AcDbLinetypeTableRecord
  2
ByLayer
 70
     0
  3

 72
    65
 73
     0
 40
0.0
  0
LTYPE
  5
16
330
5
100
AcDbSymbolTableRecord
100
AcDbLinetypeTableRecord
  2
Continuous
 70
     0
  3
Solid line
 72
    65
 73
     0
 40
0.0
  0
LTYPE
  5
672
330
5
100
AcDbSymbolTableRecord
100
AcDbLinetypeTableRecord
  2
SOLID
 70
     0
  3

 72
    65
 73
     0
 40
0.0
  0
ENDTAB
  0
TABLE
  2
LAYER
  5
2
330
0
100
AcDbSymbolTable
 70
     3
  0
LAYER
  5
10
330
2
100
AcDbSymbolTableRecord
100
AcDbLayerTableRecord
  2
0
 70
     0
 62
     7
  6
Continuous
370
    -3
390
F
  0
LAYER
  5
FC
330
2
100
AcDbSymbolTableRecord
100
AcDbLayerTableRecord
  2
STANDARD_LAYER
 70
     0
 62
     7
  6
SOLID
370
    -3
390
F
  0
LAYER
  5
FD
330
2
100
AcDbSymbolTableRecord
100
AcDbLayerTableRecord
  2
DEFPOINTS
 70
     0
 62
     7
  6
Continuous
290
     0
370
    -3
390
F
  0
ENDTAB
  0
TABLE
  2
STYLE
  5
3
330
0
100
AcDbSymbolTable
 70
     3
  0
STYLE
  5
11
330
3
100
AcDbSymbolTableRecord
100
AcDbTextStyleTableRecord
  2
Standard
 70
     0
 40
0.0
 41
1.0
 50
0.0
 71
     0
 42
2.5
  3
txt
  4

  0
STYLE
  5
F9
330
3
100
AcDbSymbolTableRecord
100
AcDbTextStyleTableRecord
  2
HB
 70
     0
 40
3.0
 41
1.0
 50
0.0
 71
     0
 42
1.5
  3
swissb.ttf
  4

1001
ACAD
1000
Swis721 BT
1071
 33554466
  0
STYLE
  5
FA
330
3
100
AcDbSymbolTableRecord
100
AcDbTextStyleTableRecord
  2
H
 70
     0
 40
1.75
 41
1.0
 50
0.0
 71
     0
 42
1.75
  3
swiss.ttf
  4

1001
ACAD
1000
Swis721 BT
1071
       34
  0
ENDTAB
  0
TABLE
  2
VIEW
  5
6
330
0
100
AcDbSymbolTable
 70
     0
  0
ENDTAB
  0
TABLE
  2
UCS
  5
7
330
0
100
AcDbSymbolTable
 70
     0
  0
ENDTAB
  0
TABLE
  2
APPID
  5
9
330
0
100
AcDbSymbolTable
 70
     3
  0
APPID
  5
12
330
9
100
AcDbSymbolTableRecord
100
AcDbRegAppTableRecord
  2
ACAD
 70
     0
  0
APPID
  5
670
330
9
100
AcDbSymbolTableRecord
100
AcDbRegAppTableRecord
  2
PROGE_PRINT_SETTINGS
 70
     0
  0
APPID
  5
671
330
9
100
AcDbSymbolTableRecord
100
AcDbRegAppTableRecord
  2
Conv5506CA
 70
     0
  0
ENDTAB
  0
TABLE
  2
DIMSTYLE
  5
A
330
0
100
AcDbSymbolTable
 70
     3
100
AcDbDimStyleTable
  0
DIMSTYLE
105
27
330
A
100
AcDbSymbolTableRecord
100
AcDbDimStyleTableRecord
  2
Standard
 70
     0
278
     0
340
11
  0
DIMSTYLE
105
29
102
{ACAD_REACTORS
330
5AA
330
5D7
330
604
330
631
102
}
330
A
100
AcDbSymbolTableRecord
100
AcDbDimStyleTableRecord
  2
ISO-25
 70
     0
 41
2.5
 42
0.625
 43
3.75
 44
1.25
 73
     0
 74
     0
 77
     1
 78
     8
140
2.5
141
2.5
143
0.03937007874016
147
0.625
171
     3
172
     1
271
     2
272
     2
274
     3
278
    44
283
     0
284
     8
340
11
  0
DIMSTYLE
105
FE
330
A
100
AcDbSymbolTableRecord
100
AcDbDimStyleTableRecord
  2
GEWISS
 70
     0
 41
1.7
 42
1.0
 43
7.0
 44
0.3
 73
     0
 74
     0
 77
     1
140
1.75
141
1.5
147
0.75
172
     1
176
     1
177
     1
340
FA
  0
ENDTAB
  0
TABLE
  2
BLOCK_RECORD
  5
1
330
0
100
AcDbSymbolTable
 70
    70
  0
BLOCK_RECORD
  5
1F
330
1
100
AcDbSymbolTableRecord
100
AcDbBlockTableRecord
  2
*Model_Space
340
22
  0
BLOCK_RECORD
  5
73
330
1
100
AcDbSymbolTableRecord
100
AcDbBlockTableRecord
  2
*Paper_Space
340
674
  0
BLOCK_RECORD
  5
D1
330
1
100
AcDbSymbolTableRecord
100
AcDbBlockTableRecord
  2
*Paper_Space0
340
74
  0
BLOCK_RECORD
  5
109
330
1
100
AcDbSymbolTableRecord
100
AcDbBlockTableRecord
  2
*D1
340
0
  0
BLOCK_RECORD
  5
114
330
1
100
AcDbSymbolTableRecord
100
AcDbBlockTableRecord
  2
*D2
340
0
  0
BLOCK_RECORD
  5
11F
330
1
100
AcDbSymbolTableRecord
100
AcDbBlockTableRecord
  2
*D3
340
0
  0
BLOCK_RECORD
  5
12A
330
1
100
AcDbSymbolTableRecord
100
AcDbBlockTableRecord
  2
*D4
340
0
  0
BLOCK_RECORD
  5
135
330
1
100
AcDbSymbolTableRecord
100
AcDbBlockTableRecord
  2
*D5
340
0
  0
BLOCK_RECORD
  5
142
330
1
100
AcDbSymbolTableRecord
100
AcDbBlockTableRecord
  2
*D6
340
0
  0
BLOCK_RECORD
  5
14F
330
1
100
AcDbSymbolTableRecord
100
AcDbBlockTableRecord
  2
*D7
340
0
  0
BLOCK_RECORD
  5
15C
330
1
100
AcDbSymbolTableRecord
100
AcDbBlockTableRecord
  2
*D8
340
0
  0
BLOCK_RECORD
  5
169
330
1
100
AcDbSymbolTableRecord
100
AcDbBlockTableRecord
  2
*D9
340
0
  0
BLOCK_RECORD
  5
174
330
1
100
AcDbSymbolTableRecord
100
AcDbBlockTableRecord
  2
*D10
340
0
  0
BLOCK_RECORD
  5
17F
330
1
100
AcDbSymbolTableRecord
100
AcDbBlockTableRecord
  2
*D11
340
0
  0
BLOCK_RECORD
  5
18A
330
1
100
AcDbSymbolTableRecord
100
AcDbBlockTableRecord
  2
*D12
340
0
  0
BLOCK_RECORD
  5
195
330
1
100
AcDbSymbolTableRecord
100
AcDbBlockTableRecord
  2
*D13
340
0
  0
BLOCK_RECORD
  5
1A0
330
1
100
AcDbSymbolTableRecord
100
AcDbBlockTableRecord
  2
*D14
340
0
  0
BLOCK_RECORD
  5
1AB
330
1
100
AcDbSymbolTableRecord
100
AcDbBlockTableRecord
  2
*D15
340
0
  0
BLOCK_RECORD
  5
1B6
330
1
100
AcDbSymbolTableRecord
100
AcDbBlockTableRecord
  2
*D16
340
0
  0
BLOCK_RECORD
  5
414
330
1
100
AcDbSymbolTableRecord
100
AcDbBlockTableRecord
  2
*D17
340
0
  0
BLOCK_RECORD
  5
421
330
1
100
AcDbSymbolTableRecord
100
AcDbBlockTableRecord
  2
*D18
340
0
  0
BLOCK_RECORD
  5
42D
330
1
100
AcDbSymbolTableRecord
100
AcDbBlockTableRecord
  2
*D19
340
0
  0
BLOCK_RECORD
  5
43B
330
1
100
AcDbSymbolTableRecord
100
AcDbBlockTableRecord
  2
*D20
340
0
  0
BLOCK_RECORD
  5
447
330
1
100
AcDbSymbolTableRecord
100
AcDbBlockTableRecord
  2
*D21
340
0
  0
BLOCK_RECORD
  5
453
330
1
100
AcDbSymbolTableRecord
100
AcDbBlockTableRecord
  2
*D22
340
0
  0
BLOCK_RECORD
  5
45F
330
1
100
AcDbSymbolTableRecord
100
AcDbBlockTableRecord
  2
*D23
340
0
  0
BLOCK_RECORD
  5
46B
330
1
100
AcDbSymbolTableRecord
100
AcDbBlockTableRecord
  2
*D24
340
0
  0
BLOCK_RECORD
  5
477
330
1
100
AcDbSymbolTableRecord
100
AcDbBlockTableRecord
  2
*D25
340
0
  0
BLOCK_RECORD
  5
482
330
1
100
AcDbSymbolTableRecord
100
AcDbBlockTableRecord
  2
*D26
340
0
  0
BLOCK_RECORD
  5
48D
330
1
100
AcDbSymbolTableRecord
100
AcDbBlockTableRecord
  2
*D27
340
0
  0
BLOCK_RECORD
  5
498
330
1
100
AcDbSymbolTableRecord
100
AcDbBlockTableRecord
  2
*D28
340
0
  0
BLOCK_RECORD
  5
4A3
330
1
100
AcDbSymbolTableRecord
100
AcDbBlockTableRecord
  2
*D29
340
0
  0
BLOCK_RECORD
  5
4AE
330
1
100
AcDbSymbolTableRecord
100
AcDbBlockTableRecord
  2
*D30
340
0
  0
BLOCK_RECORD
  5
4BB
330
1
100
AcDbSymbolTableRecord
100
AcDbBlockTableRecord
  2
*D31
340
0
  0
BLOCK_RECORD
  5
4C6
330
1
100
AcDbSymbolTableRecord
100
AcDbBlockTableRecord
  2
*D32
340
0
  0
BLOCK_RECORD
  5
4D2
330
1
100
AcDbSymbolTableRecord
100
AcDbBlockTableRecord
  2
*D33
340
0
  0
BLOCK_RECORD
  5
4DD
330
1
100
AcDbSymbolTableRecord
100
AcDbBlockTableRecord
  2
*D34
340
0
  0
BLOCK_RECORD
  5
4E8
330
1
100
AcDbSymbolTableRecord
100
AcDbBlockTableRecord
  2
*D35
340
0
  0
BLOCK_RECORD
  5
4F4
330
1
100
AcDbSymbolTableRecord
100
AcDbBlockTableRecord
  2
*D36
340
0
  0
BLOCK_RECORD
  5
4FF
330
1
100
AcDbSymbolTableRecord
100
AcDbBlockTableRecord
  2
*D37
340
0
  0
BLOCK_RECORD
  5
50C
330
1
100
AcDbSymbolTableRecord
100
AcDbBlockTableRecord
  2
*D38
340
0
  0
BLOCK_RECORD
  5
517
330
1
100
AcDbSymbolTableRecord
100
AcDbBlockTableRecord
  2
*D39
340
0
  0
BLOCK_RECORD
  5
522
330
1
100
AcDbSymbolTableRecord
100
AcDbBlockTableRecord
  2
*D40
340
0
  0
BLOCK_RECORD
  5
52D
330
1
100
AcDbSymbolTableRecord
100
AcDbBlockTableRecord
  2
*D41
340
0
  0
BLOCK_RECORD
  5
538
330
1
100
AcDbSymbolTableRecord
100
AcDbBlockTableRecord
  2
*D42
340
0
  0
BLOCK_RECORD
  5
543
330
1
100
AcDbSymbolTableRecord
100
AcDbBlockTableRecord
  2
*D43
340
0
  0
BLOCK_RECORD
  5
54E
330
1
100
AcDbSymbolTableRecord
100
AcDbBlockTableRecord
  2
*D44
340
0
  0
BLOCK_RECORD
  5
559
330
1
100
AcDbSymbolTableRecord
100
AcDbBlockTableRecord
  2
*D45
340
0
  0
BLOCK_RECORD
  5
564
330
1
100
AcDbSymbolTableRecord
100
AcDbBlockTableRecord
  2
*D46
340
0
  0
BLOCK_RECORD
  5
56F
330
1
100
AcDbSymbolTableRecord
100
AcDbBlockTableRecord
  2
*D47
340
0
  0
BLOCK_RECORD
  5
57A
330
1
100
AcDbSymbolTableRecord
100
AcDbBlockTableRecord
  2
*D48
340
0
  0
BLOCK_RECORD
  5
587
330
1
100
AcDbSymbolTableRecord
100
AcDbBlockTableRecord
  2
*D49
340
0
  0
BLOCK_RECORD
  5
592
330
1
100
AcDbSymbolTableRecord
100
AcDbBlockTableRecord
  2
*D50
340
0
  0
BLOCK_RECORD
  5
59E
330
1
100
AcDbSymbolTableRecord
100
AcDbBlockTableRecord
  2
*D51
340
0
  0
BLOCK_RECORD
  5
5A9
330
1
100
AcDbSymbolTableRecord
100
AcDbBlockTableRecord
  2
*D52
340
0
  0
BLOCK_RECORD
  5
5B5
330
1
100
AcDbSymbolTableRecord
100
AcDbBlockTableRecord
  2
*D53
340
0
  0
BLOCK_RECORD
  5
5C0
330
1
100
AcDbSymbolTableRecord
100
AcDbBlockTableRecord
  2
*D54
340
0
  0
BLOCK_RECORD
  5
5CB
330
1
100
AcDbSymbolTableRecord
100
AcDbBlockTableRecord
  2
*D55
340
0
  0
BLOCK_RECORD
  5
5D6
330
1
100
AcDbSymbolTableRecord
100
AcDbBlockTableRecord
  2
*D56
340
0
  0
BLOCK_RECORD
  5
5E2
330
1
100
AcDbSymbolTableRecord
100
AcDbBlockTableRecord
  2
*D57
340
0
  0
BLOCK_RECORD
  5
5ED
330
1
100
AcDbSymbolTableRecord
100
AcDbBlockTableRecord
  2
*D58
340
0
  0
BLOCK_RECORD
  5
5F8
330
1
100
AcDbSymbolTableRecord
100
AcDbBlockTableRecord
  2
*D59
340
0
  0
BLOCK_RECORD
  5
603
330
1
100
AcDbSymbolTableRecord
100
AcDbBlockTableRecord
  2
*D60
340
0
  0
BLOCK_RECORD
  5
60F
330
1
100
AcDbSymbolTableRecord
100
AcDbBlockTableRecord
  2
*D61
340
0
  0
BLOCK_RECORD
  5
61A
330
1
100
AcDbSymbolTableRecord
100
AcDbBlockTableRecord
  2
*D62
340
0
  0
BLOCK_RECORD
  5
625
330
1
100
AcDbSymbolTableRecord
100
AcDbBlockTableRecord
  2
*D63
340
0
  0
BLOCK_RECORD
  5
630
330
1
100
AcDbSymbolTableRecord
100
AcDbBlockTableRecord
  2
*D64
340
0
  0
BLOCK_RECORD
  5
63C
330
1
100
AcDbSymbolTableRecord
100
AcDbBlockTableRecord
  2
*D65
340
0
  0
BLOCK_RECORD
  5
648
330
1
100
AcDbSymbolTableRecord
100
AcDbBlockTableRecord
  2
*D66
340
0
  0
BLOCK_RECORD
  5
653
330
1
100
AcDbSymbolTableRecord
100
AcDbBlockTableRecord
  2
*D67
340
0
  0
BLOCK_RECORD
  5
65E
330
1
100
AcDbSymbolTableRecord
100
AcDbBlockTableRecord
  2
*D68
340
0
  0
BLOCK_RECORD
  5
669
330
1
100
AcDbSymbolTableRecord
100
AcDbBlockTableRecord
  2
*D69
340
0
  0
ENDTAB
  0
ENDSEC
  0
SECTION
  2
BLOCKS
  0
BLOCK
  5
20
330
1F
100
AcDbEntity
  8
0
100
AcDbBlockBegin
  2
*Model_Space
 70
     0
 10
0.0
 20
0.0
 30
0.0
  3
*Model_Space
  1

  0
ENDBLK
  5
21
330
1F
100
AcDbEntity
  8
0
100
AcDbBlockEnd
  0
BLOCK
  5
75
330
73
100
AcDbEntity
 67
     1
  8
0
100
AcDbBlockBegin
  2
*Paper_Space
 70
     0
 10
0.0
 20
0.0
 30
0.0
  3
*Paper_Space
  1

  0
ENDBLK
  5
76
330
73
100
AcDbEntity
 67
     1
  8
0
100
AcDbBlockEnd
  0
BLOCK
  5
675
330
D1
100
AcDbEntity
  8
0
100
AcDbBlockBegin
  2
*Paper_Space0
 70
     0
 10
0.0
 20
0.0
 30
0.0
  3
*Paper_Space0
  1

  0
VIEWPORT
  5
701
330
D1
100
AcDbEntity
  8
0
100
AcDbViewport
 10
7.8
 20
4.5
 30
0.0
 40
15.64
 41
9.0
 68
     1
 69
     1
 12
6.0
 22
4.5
 13
0.0
 23
0.0
 14
0.5
 24
0.5
 15
0.5
 25
0.5
 16
0.0
 26
0.0
 36
1.0
 17
0.0
 27
0.0
 37
0.0
 42
50.0
 43
0.0
 44
0.0
 45
12.0
 50
0.0
 51
0.0
 72
   100
 90
   557152
  1

281
     0
 71
     1
 74
     0
110
0.0
120
0.0
130
0.0
111
1.0
121
0.0
131
0.0
112
0.0
122
1.0
132
0.0
 79
     0
146
0.0
  0
ENDBLK
  5
676
330
D1
100
AcDbEntity
  8
0
100
AcDbBlockEnd
  0
BLOCK
  5
677
330
109
100
AcDbEntity
  8
0
100
AcDbBlockBegin
  2
*D1
 70
     1
 10
0.0
 20
0.0
 30
0.0
  3
*D1
  1

  0
POINT
  5
100
330
109
100
AcDbEntity
  8
DEFPOINTS
  6
ByBlock
 62
     1
100
AcDbPoint
 10
9.999343
 20
41.025943
 30
0.0
  0
POINT
  5
101
330
109
100
AcDbEntity
  8
DEFPOINTS
  6
ByBlock
 62
     1
100
AcDbPoint
 10
46.359359
 20
41.13021
 30
0.0
  0
LINE
  5
102
330
109
100
AcDbEntity
  8
0
  6
ByBlock
 62
     1
370
    -2
100
AcDbLine
 10
9.999343
 20
40.025943
 30
0.0
 11
9.999343
 21
23.796813
 31
0.0
  0
LINE
  5
103
330
109
100
AcDbEntity
  8
0
  6
ByBlock
 62
     1
370
    -2
100
AcDbLine
 10
46.359359
 20
40.13021
 30
0.0
 11
46.359359
 21
23.796813
 31
0.0
  0
LINE
  5
104
330
109
100
AcDbEntity
  8
0
  6
ByBlock
 62
     1
370
    -2
100
AcDbLine
 10
11.699343
 20
24.096813
 30
0.0
 11
44.65935899999999
 21
24.096813
 31
0.0
  0
SOLID
  5
105
330
109
100
AcDbEntity
  8
0
  6
ByBlock
 62
     1
100
AcDbTrace
 10
9.999343
 20
24.096813
 30
0.0
 11
11.699343
 21
23.81347966666667
 31
0.0
 12
11.699343
 22
24.38014633333334
 32
0.0
 13
11.699343
 23
24.38014633333334
 33
0.0
  0
SOLID
  5
106
330
109
100
AcDbEntity
  8
0
  6
ByBlock
 62
     1
100
AcDbTrace
 10
46.359359
 20
24.096813
 30
0.0
 11
44.65935899999999
 21
23.81347966666667
 31
0.0
 12
44.65935899999999
 22
24.38014633333334
 32
0.0
 13
44.65935899999999
 23
24.38014633333334
 33
0.0
  0
MTEXT
  5
107
330
109
100
AcDbEntity
  8
0
  6
ByBlock
 62
     0
370
    -2
100
AcDbMText
 10
28.179351
 20
25.74091259072306
 30
0.0
 40
1.75
 41
0.0
 71
     5
 72
     1
  1
531
  7
H
 73
     1
 44
1.0
  0
ENDBLK
  5
678
330
109
100
AcDbEntity
  8
0
100
AcDbBlockEnd
  0
BLOCK
  5
679
330
114
100
AcDbEntity
  8
0
100
AcDbBlockBegin
  2
*D2
 70
     1
 10
0.0
 20
0.0
 30
0.0
  3
*D2
  1

  0
POINT
  5
10B
330
114
100
AcDbEntity
  8
DEFPOINTS
  6
ByBlock
 62
     1
100
AcDbPoint
 10
74.381257
 20
79.675317
 30
0.0
  0
POINT
  5
10C
330
114
100
AcDbEntity
  8
DEFPOINTS
  6
ByBlock
 62
     1
100
AcDbPoint
 10
74.271572
 20
47.235861
 30
0.0
  0
LINE
  5
10D
330
114
100
AcDbEntity
  8
0
  6
ByBlock
 62
     1
370
    -2
100
AcDbLine
 10
75.381257
 20
79.675317
 30
0.0
 11
82.094741
 21
79.675317
 31
0.0
  0
LINE
  5
10E
330
114
100
AcDbEntity
  8
0
  6
ByBlock
 62
     1
370
    -2
100
AcDbLine
 10
75.271572
 20
47.235861
 30
0.0
 11
82.094741
 21
47.235861
 31
0.0
  0
LINE
  5
10F
330
114
100
AcDbEntity
  8
0
  6
ByBlock
 62
     1
370
    -2
100
AcDbLine
 10
81.794741
 20
77.975317
 30
0.0
 11
81.794741
 21
48.935861
 31
0.0
  0
SOLID
  5
110
330
114
100
AcDbEntity
  8
0
  6
ByBlock
 62
     1
100
AcDbTrace
 10
81.794741
 20
79.675317
 30
0.0
 11
81.51140766666667
 21
77.975317
 31
0.0
 12
82.07807433333333
 22
77.975317
 32
0.0
 13
82.07807433333333
 23
77.975317
 33
0.0
  0
SOLID
  5
111
330
114
100
AcDbEntity
  8
0
  6
ByBlock
 62
     1
100
AcDbTrace
 10
81.794741
 20
47.235861
 30
0.0
 11
81.51140766666667
 21
48.935861
 31
0.0
 12
82.07807433333333
 22
48.935861
 32
0.0
 13
82.07807433333333
 23
48.935861
 33
0.0
  0
MTEXT
  5
112
330
114
100
AcDbEntity
  8
0
  6
ByBlock
 62
     0
370
    -2
100
AcDbMText
 10
80.15123827148705
 20
63.455589
 30
0.0
 40
1.75
 41
0.0
 71
     5
 72
     1
  1
485
  7
H
 11
6.123031769111886E-17
 21
1.0
 31
0.0
 73
     1
 44
1.0
  0
ENDBLK
  5
67A
330
114
100
AcDbEntity
  8
0
100
AcDbBlockEnd
  0
BLOCK
  5
67B
330
11F
100
AcDbEntity
  8
0
100
AcDbBlockBegin
  2
*D3
 70
     1
 10
0.0
 20
0.0
 30
0.0
  3
*D3
  1

  0
POINT
  5
116
330
11F
100
AcDbEntity
  8
DEFPOINTS
  6
ByBlock
 62
     1
100
AcDbPoint
 10
75.935671
 20
61.299103
 30
0.0
  0
POINT
  5
117
330
11F
100
AcDbEntity
  8
DEFPOINTS
  6
ByBlock
 62
     1
100
AcDbPoint
 10
58.212286
 20
58.94568
 30
0.0
  0
LINE
  5
118
330
11F
100
AcDbEntity
  8
0
  6
ByBlock
 62
     1
370
    -2
100
AcDbLine
 10
75.935671
 20
60.299103
 30
0.0
 11
75.935671
 21
28.319971
 31
0.0
  0
LINE
  5
119
330
11F
100
AcDbEntity
  8
0
  6
ByBlock
 62
     1
370
    -2
100
AcDbLine
 10
58.212286
 20
57.94568
 30
0.0
 11
58.212286
 21
28.319971
 31
0.0
  0
LINE
  5
11A
330
11F
100
AcDbEntity
  8
0
  6
ByBlock
 62
     1
370
    -2
100
AcDbLine
 10
74.235671
 20
28.619971
 30
0.0
 11
59.91228599999999
 21
28.619971
 31
0.0
  0
SOLID
  5
11B
330
11F
100
AcDbEntity
  8
0
  6
ByBlock
 62
     1
100
AcDbTrace
 10
75.935671
 20
28.619971
 30
0.0
 11
74.235671
 21
28.90330433333333
 31
0.0
 12
74.235671
 22
28.33663766666667
 32
0.0
 13
74.235671
 23
28.33663766666667
 33
0.0
  0
SOLID
  5
11C
330
11F
100
AcDbEntity
  8
0
  6
ByBlock
 62
     1
100
AcDbTrace
 10
58.212286
 20
28.619971
 30
0.0
 11
59.91228599999999
 21
28.90330433333333
 31
0.0
 12
59.91228599999999
 22
28.33663766666667
 32
0.0
 13
59.91228599999999
 23
28.33663766666667
 33
0.0
  0
MTEXT
  5
11D
330
11F
100
AcDbEntity
  8
0
  6
ByBlock
 62
     0
370
    -2
100
AcDbMText
 10
67.0739785
 20
30.26347372851296
 30
0.0
 40
1.750000000000004
 41
0.0
 71
     5
 72
     1
  1
295
  7
H
 73
     1
 44
1.0
  0
ENDBLK
  5
67C
330
11F
100
AcDbEntity
  8
0
100
AcDbBlockEnd
  0
BLOCK
  5
67D
330
12A
100
AcDbEntity
  8
0
100
AcDbBlockBegin
  2
*D4
 70
     1
 10
0.0
 20
0.0
 30
0.0
  3
*D4
  1

  0
POINT
  5
121
330
12A
100
AcDbEntity
  8
DEFPOINTS
  6
ByBlock
 62
     1
100
AcDbPoint
 10
28.177214
 20
37.065667
 30
0.0
  0
POINT
  5
122
330
12A
100
AcDbEntity
  8
DEFPOINTS
  6
ByBlock
 62
     1
100
AcDbPoint
 10
39.552506
 20
37.065667
 30
0.0
  0
LINE
  5
123
330
12A
100
AcDbEntity
  8
0
  6
ByBlock
 62
     1
370
    -2
100
AcDbLine
 10
39.552506
 20
36.065667
 30
0.0
 11
39.552506
 21
28.319971
 31
0.0
  0
LINE
  5
124
330
12A
100
AcDbEntity
  8
0
  6
ByBlock
 62
     1
370
    -2
100
AcDbLine
 10
28.177214
 20
28.619971
 30
0.0
 11
39.552506
 21
28.619971
 31
0.0
  0
SOLID
  5
125
330
12A
100
AcDbEntity
  8
0
  6
ByBlock
 62
     1
100
AcDbTrace
 10
28.177214
 20
28.619971
 30
0.0
 11
29.877214
 21
28.33663766666667
 31
0.0
 12
29.877214
 22
28.90330433333333
 32
0.0
 13
29.877214
 23
28.90330433333333
 33
0.0
  0
SOLID
  5
126
330
12A
100
AcDbEntity
  8
0
  6
ByBlock
 62
     1
100
AcDbTrace
 10
39.552506
 20
28.619971
 30
0.0
 11
37.85250600000001
 21
28.33663766666667
 31
0.0
 12
37.85250600000001
 22
28.90330433333333
 32
0.0
 13
37.85250600000001
 23
28.90330433333333
 33
0.0
  0
LINE
  5
127
330
12A
100
AcDbEntity
  8
0
  6
ByBlock
 62
     1
370
    -2
100
AcDbLine
 10
28.177214
 20
37.065667
 30
0.0
 11
28.177214
 21
37.065667
 31
0.0
  0
MTEXT
  5
128
330
12A
100
AcDbEntity
  8
0
  6
ByBlock
 62
     0
370
    -2
100
AcDbMText
 10
33.86486
 20
30.269326
 30
0.0
 40
1.75
 41
0.0
 71
     5
 72
     1
  1
170
  7
H
 73
     1
 44
1.0
  0
ENDBLK
  5
67E
330
12A
100
AcDbEntity
  8
0
100
AcDbBlockEnd
  0
BLOCK
  5
67F
330
135
100
AcDbEntity
  8
0
100
AcDbBlockBegin
  2
*D5
 70
     1
 10
0.0
 20
0.0
 30
0.0
  3
*D5
  1

  0
POINT
  5
12C
330
135
100
AcDbEntity
  8
DEFPOINTS
  6
ByBlock
 62
     1
100
AcDbPoint
 10
16.801914
 20
37.065667
 30
0.0
  0
POINT
  5
12D
330
135
100
AcDbEntity
  8
DEFPOINTS
  6
ByBlock
 62
     1
100
AcDbPoint
 10
28.177214
 20
37.065667
 30
0.0
  0
LINE
  5
12E
330
135
100
AcDbEntity
  8
0
  6
ByBlock
 62
     1
370
    -2
100
AcDbLine
 10
16.801914
 20
36.065667
 30
0.0
 11
16.801914
 21
28.319971
 31
0.0
  0
LINE
  5
12F
330
135
100
AcDbEntity
  8
0
  6
ByBlock
 62
     1
370
    -2
100
AcDbLine
 10
28.177214
 20
36.065667
 30
0.0
 11
28.177214
 21
28.319971
 31
0.0
  0
LINE
  5
130
330
135
100
AcDbEntity
  8
0
  6
ByBlock
 62
     1
370
    -2
100
AcDbLine
 10
18.501914
 20
28.619971
 30
0.0
 11
26.477214
 21
28.619971
 31
0.0
  0
SOLID
  5
131
330
135
100
AcDbEntity
  8
0
  6
ByBlock
 62
     1
100
AcDbTrace
 10
16.801914
 20
28.619971
 30
0.0
 11
18.501914
 21
28.33663766666667
 31
0.0
 12
18.501914
 22
28.90330433333333
 32
0.0
 13
18.501914
 23
28.90330433333333
 33
0.0
  0
SOLID
  5
132
330
135
100
AcDbEntity
  8
0
  6
ByBlock
 62
     1
100
AcDbTrace
 10
28.177214
 20
28.619971
 30
0.0
 11
26.477214
 21
28.33663766666667
 31
0.0
 12
26.477214
 22
28.90330433333333
 32
0.0
 13
26.477214
 23
28.90330433333333
 33
0.0
  0
MTEXT
  5
133
330
135
100
AcDbEntity
  8
0
  6
ByBlock
 62
     0
370
    -2
100
AcDbMText
 10
22.489564
 20
30.26347372851296
 30
0.0
 40
1.750000000000004
 41
0.0
 71
     5
 72
     1
  1
170
  7
H
 73
     1
 44
1.0
  0
ENDBLK
  5
680
330
135
100
AcDbEntity
  8
0
100
AcDbBlockEnd
  0
BLOCK
  5
681
330
142
100
AcDbEntity
  8
0
100
AcDbBlockBegin
  2
*D6
 70
     1
 10
0.0
 20
0.0
 30
0.0
  3
*D6
  1

  0
POINT
  5
137
330
142
100
AcDbEntity
  8
DEFPOINTS
  6
ByBlock
 62
     1
100
AcDbPoint
 10
39.084103
 20
38.587603
 30
0.0
  0
POINT
  5
138
330
142
100
AcDbEntity
  8
DEFPOINTS
  6
ByBlock
 62
     1
100
AcDbPoint
 10
40.020914
 20
38.587603
 30
0.0
  0
LINE
  5
139
330
142
100
AcDbEntity
  8
0
  6
ByBlock
 62
     1
370
    -2
100
AcDbLine
 10
39.084103
 20
37.587603
 30
0.0
 11
39.084103
 21
32.253151
 31
0.0
  0
LINE
  5
13A
330
142
100
AcDbEntity
  8
0
  6
ByBlock
 62
     1
370
    -2
100
AcDbLine
 10
40.020914
 20
37.587603
 30
0.0
 11
40.020914
 21
32.253151
 31
0.0
  0
LINE
  5
13B
330
142
100
AcDbEntity
  8
0
  6
ByBlock
 62
     1
370
    -2
100
AcDbLine
 10
37.384103
 20
32.553151
 30
0.0
 11
35.684103
 21
32.553151
 31
0.0
  0
LINE
  5
13C
330
142
100
AcDbEntity
  8
0
  6
ByBlock
 62
     1
370
    -2
100
AcDbLine
 10
41.720914
 20
32.553151
 30
0.0
 11
56.30568077125966
 21
32.553151
 31
0.0
  0
SOLID
  5
13D
330
142
100
AcDbEntity
  8
0
  6
ByBlock
 62
     1
100
AcDbTrace
 10
39.084103
 20
32.553151
 30
0.0
 11
37.384103
 21
32.26981766666667
 31
0.0
 12
37.384103
 22
32.83648433333333
 32
0.0
 13
37.384103
 23
32.83648433333333
 33
0.0
  0
SOLID
  5
13E
330
142
100
AcDbEntity
  8
0
  6
ByBlock
 62
     1
100
AcDbTrace
 10
40.020914
 20
32.553151
 30
0.0
 11
41.720914
 21
32.26981766666667
 31
0.0
 12
41.720914
 22
32.83648433333333
 32
0.0
 13
41.720914
 23
32.83648433333333
 33
0.0
  0
LINE
  5
13F
330
142
100
AcDbEntity
  8
0
  6
ByBlock
 62
     1
370
    -2
100
AcDbLine
 10
39.084103
 20
32.553151
 30
0.0
 11
40.020914
 21
32.553151
 31
0.0
  0
MTEXT
  5
140
330
142
100
AcDbEntity
  8
0
  6
ByBlock
 62
     0
370
    -2
100
AcDbMText
 10
51.370284
 20
34.24559642974079
 30
0.0
 40
1.75
 41
0.0
 71
     5
 72
     1
  1
2 x %%C14
  7
H
 73
     1
 44
1.0
  0
ENDBLK
  5
682
330
142
100
AcDbEntity
  8
0
100
AcDbBlockEnd
  0
BLOCK
  5
683
330
14F
100
AcDbEntity
  8
0
100
AcDbBlockBegin
  2
*D7
 70
     1
 10
0.0
 20
0.0
 30
0.0
  3
*D7
  1

  0
POINT
  5
144
330
14F
100
AcDbEntity
  8
DEFPOINTS
  6
ByBlock
 62
     1
100
AcDbPoint
 10
27.708832
 20
39.122843
 30
0.0
  0
POINT
  5
145
330
14F
100
AcDbEntity
  8
DEFPOINTS
  6
ByBlock
 62
     1
100
AcDbPoint
 10
28.645615
 20
39.122843
 30
0.0
  0
LINE
  5
146
330
14F
100
AcDbEntity
  8
0
  6
ByBlock
 62
     1
370
    -2
100
AcDbLine
 10
27.708832
 20
40.122843
 30
0.0
 11
27.708832
 21
43.372054
 31
0.0
  0
LINE
  5
147
330
14F
100
AcDbEntity
  8
0
  6
ByBlock
 62
     1
370
    -2
100
AcDbLine
 10
28.645615
 20
40.122843
 30
0.0
 11
28.645615
 21
43.372054
 31
0.0
  0
LINE
  5
148
330
14F
100
AcDbEntity
  8
0
  6
ByBlock
 62
     1
370
    -2
100
AcDbLine
 10
26.008832
 20
43.072054
 30
0.0
 11
24.308832
 21
43.072054
 31
0.0
  0
LINE
  5
149
330
14F
100
AcDbEntity
  8
0
  6
ByBlock
 62
     1
370
    -2
100
AcDbLine
 10
30.345615
 20
43.072054
 30
0.0
 11
37.96000790586631
 21
43.072054
 31
0.0
  0
SOLID
  5
14A
330
14F
100
AcDbEntity
  8
0
  6
ByBlock
 62
     1
100
AcDbTrace
 10
27.708832
 20
43.072054
 30
0.0
 11
26.008832
 21
42.78872066666667
 31
0.0
 12
26.008832
 22
43.35538733333333
 32
0.0
 13
26.008832
 23
43.35538733333333
 33
0.0
  0
SOLID
  5
14B
330
14F
100
AcDbEntity
  8
0
  6
ByBlock
 62
     1
100
AcDbTrace
 10
28.645615
 20
43.072054
 30
0.0
 11
30.345615
 21
42.78872066666667
 31
0.0
 12
30.345615
 22
43.35538733333333
 32
0.0
 13
30.345615
 23
43.35538733333333
 33
0.0
  0
LINE
  5
14C
330
14F
100
AcDbEntity
  8
0
  6
ByBlock
 62
     1
370
    -2
100
AcDbLine
 10
27.708832
 20
43.072054
 30
0.0
 11
28.645615
 21
43.072054
 31
0.0
  0
MTEXT
  5
14D
330
14F
100
AcDbEntity
  8
0
  6
ByBlock
 62
     0
370
    -2
100
AcDbMText
 10
35.00281145293315
 20
44.76449942974079
 30
0.0
 40
1.75
 41
0.0
 71
     5
 72
     1
  1
%%C19
  7
H
 73
     1
 44
1.0
  0
ENDBLK
  5
684
330
14F
100
AcDbEntity
  8
0
100
AcDbBlockEnd
  0
BLOCK
  5
685
330
15C
100
AcDbEntity
  8
0
100
AcDbBlockBegin
  2
*D8
 70
     1
 10
0.0
 20
0.0
 30
0.0
  3
*D8
  1

  0
POINT
  5
151
330
15C
100
AcDbEntity
  8
DEFPOINTS
  6
ByBlock
 62
     1
100
AcDbPoint
 10
234.5164898349859
 20
143.8560729184549
 30
0.0
  0
POINT
  5
152
330
15C
100
AcDbEntity
  8
DEFPOINTS
  6
ByBlock
 62
     1
100
AcDbPoint
 10
235.4532728349859
 20
143.8560729184549
 30
0.0
  0
LINE
  5
153
330
15C
100
AcDbEntity
  8
0
  6
ByBlock
 62
     1
370
    -2
100
AcDbLine
 10
234.5164898349859
 20
144.8560729184549
 30
0.0
 11
234.5164898349859
 21
148.1052839184549
 31
0.0
  0
LINE
  5
154
330
15C
100
AcDbEntity
  8
0
  6
ByBlock
 62
     1
370
    -2
100
AcDbLine
 10
235.4532728349859
 20
144.8560729184549
 30
0.0
 11
235.4532728349859
 21
148.1052839184549
 31
0.0
  0
LINE
  5
155
330
15C
100
AcDbEntity
  8
0
  6
ByBlock
 62
     1
370
    -2
100
AcDbLine
 10
232.816489834986
 20
147.8052839184549
 30
0.0
 11
231.1164898349859
 21
147.8052839184549
 31
0.0
  0
LINE
  5
156
330
15C
100
AcDbEntity
  8
0
  6
ByBlock
 62
     1
370
    -2
100
AcDbLine
 10
237.1532728349859
 20
147.8052839184549
 30
0.0
 11
244.7676657408522
 21
147.8052839184549
 31
0.0
  0
SOLID
  5
157
330
15C
100
AcDbEntity
  8
0
  6
ByBlock
 62
     1
100
AcDbTrace
 10
234.5164898349859
 20
147.8052839184549
 30
0.0
 11
232.816489834986
 21
147.5219505851216
 31
0.0
 12
232.816489834986
 22
148.0886172517883
 32
0.0
 13
232.816489834986
 23
148.0886172517883
 33
0.0
  0
SOLID
  5
158
330
15C
100
AcDbEntity
  8
0
  6
ByBlock
 62
     1
100
AcDbTrace
 10
235.4532728349859
 20
147.8052839184549
 30
0.0
 11
237.1532728349859
 21
147.5219505851216
 31
0.0
 12
237.1532728349859
 22
148.0886172517883
 32
0.0
 13
237.1532728349859
 23
148.0886172517883
 33
0.0
  0
LINE
  5
159
330
15C
100
AcDbEntity
  8
0
  6
ByBlock
 62
     1
370
    -2
100
AcDbLine
 10
234.5164898349859
 20
147.8052839184549
 30
0.0
 11
235.4532728349859
 21
147.8052839184549
 31
0.0
  0
MTEXT
  5
15A
330
15C
100
AcDbEntity
  8
0
  6
ByBlock
 62
     0
370
    -2
100
AcDbMText
 10
241.8104692879191
 20
149.4977293481957
 30
0.0
 40
1.75
 41
0.0
 71
     5
 72
     1
  1
%%C19
  7
H
 73
     1
 44
1.0
  0
ENDBLK
  5
686
330
15C
100
AcDbEntity
  8
0
100
AcDbBlockEnd
  0
BLOCK
  5
687
330
169
100
AcDbEntity
  8
0
100
AcDbBlockBegin
  2
*D9
 70
     1
 10
0.0
 20
0.0
 30
0.0
  3
*D9
  1

  0
POINT
  5
15E
330
169
100
AcDbEntity
  8
DEFPOINTS
  6
ByBlock
 62
     1
100
AcDbPoint
 10
245.8917608349859
 20
143.3208329184549
 30
0.0
  0
POINT
  5
15F
330
169
100
AcDbEntity
  8
DEFPOINTS
  6
ByBlock
 62
     1
100
AcDbPoint
 10
246.828571834986
 20
143.3208329184549
 30
0.0
  0
LINE
  5
160
330
169
100
AcDbEntity
  8
0
  6
ByBlock
 62
     1
370
    -2
100
AcDbLine
 10
245.8917608349859
 20
142.3208329184549
 30
0.0
 11
245.8917608349859
 21
136.9863809184549
 31
0.0
  0
LINE
  5
161
330
169
100
AcDbEntity
  8
0
  6
ByBlock
 62
     1
370
    -2
100
AcDbLine
 10
246.828571834986
 20
142.3208329184549
 30
0.0
 11
246.828571834986
 21
136.9863809184549
 31
0.0
  0
LINE
  5
162
330
169
100
AcDbEntity
  8
0
  6
ByBlock
 62
     1
370
    -2
100
AcDbLine
 10
244.191760834986
 20
137.2863809184549
 30
0.0
 11
242.4917608349859
 21
137.2863809184549
 31
0.0
  0
LINE
  5
163
330
169
100
AcDbEntity
  8
0
  6
ByBlock
 62
     1
370
    -2
100
AcDbLine
 10
248.5285718349859
 20
137.2863809184549
 30
0.0
 11
263.1133386062456
 21
137.2863809184549
 31
0.0
  0
SOLID
  5
164
330
169
100
AcDbEntity
  8
0
  6
ByBlock
 62
     1
100
AcDbTrace
 10
245.8917608349859
 20
137.2863809184549
 30
0.0
 11
244.191760834986
 21
137.0030475851216
 31
0.0
 12
244.191760834986
 22
137.5697142517883
 32
0.0
 13
244.191760834986
 23
137.5697142517883
 33
0.0
  0
SOLID
  5
165
330
169
100
AcDbEntity
  8
0
  6
ByBlock
 62
     1
100
AcDbTrace
 10
246.828571834986
 20
137.2863809184549
 30
0.0
 11
248.5285718349859
 21
137.0030475851216
 31
0.0
 12
248.5285718349859
 22
137.5697142517883
 32
0.0
 13
248.5285718349859
 23
137.5697142517883
 33
0.0
  0
LINE
  5
166
330
169
100
AcDbEntity
  8
0
  6
ByBlock
 62
     1
370
    -2
100
AcDbLine
 10
245.8917608349859
 20
137.2863809184549
 30
0.0
 11
246.828571834986
 21
137.2863809184549
 31
0.0
  0
MTEXT
  5
167
330
169
100
AcDbEntity
  8
0
  6
ByBlock
 62
     0
370
    -2
100
AcDbMText
 10
258.177941834986
 20
138.9788263481957
 30
0.0
 40
1.75
 41
0.0
 71
     5
 72
     1
  1
2 x %%C14
  7
H
 73
     1
 44
1.0
  0
ENDBLK
  5
688
330
169
100
AcDbEntity
  8
0
100
AcDbBlockEnd
  0
BLOCK
  5
689
330
174
100
AcDbEntity
  8
0
100
AcDbBlockBegin
  2
*D10
 70
     1
 10
0.0
 20
0.0
 30
0.0
  3
*D10
  1

  0
POINT
  5
16B
330
174
100
AcDbEntity
  8
DEFPOINTS
  6
ByBlock
 62
     1
100
AcDbPoint
 10
223.609571834986
 20
141.7988969184549
 30
0.0
  0
POINT
  5
16C
330
174
100
AcDbEntity
  8
DEFPOINTS
  6
ByBlock
 62
     1
100
AcDbPoint
 10
234.9848718349859
 20
141.7988969184549
 30
0.0
  0
LINE
  5
16D
330
174
100
AcDbEntity
  8
0
  6
ByBlock
 62
     1
370
    -2
100
AcDbLine
 10
223.609571834986
 20
140.7988969184549
 30
0.0
 11
223.609571834986
 21
133.0532009184549
 31
0.0
  0
LINE
  5
16E
330
174
100
AcDbEntity
  8
0
  6
ByBlock
 62
     1
370
    -2
100
AcDbLine
 10
234.9848718349859
 20
140.7988969184549
 30
0.0
 11
234.9848718349859
 21
133.0532009184549
 31
0.0
  0
LINE
  5
16F
330
174
100
AcDbEntity
  8
0
  6
ByBlock
 62
     1
370
    -2
100
AcDbLine
 10
225.3095718349859
 20
133.3532009184549
 30
0.0
 11
233.2848718349859
 21
133.3532009184549
 31
0.0
  0
SOLID
  5
170
330
174
100
AcDbEntity
  8
0
  6
ByBlock
 62
     1
100
AcDbTrace
 10
223.609571834986
 20
133.3532009184549
 30
0.0
 11
225.3095718349859
 21
133.0698675851216
 31
0.0
 12
225.3095718349859
 22
133.6365342517883
 32
0.0
 13
225.3095718349859
 23
133.6365342517883
 33
0.0
  0
SOLID
  5
171
330
174
100
AcDbEntity
  8
0
  6
ByBlock
 62
     1
100
AcDbTrace
 10
234.9848718349859
 20
133.3532009184549
 30
0.0
 11
233.2848718349859
 21
133.0698675851216
 31
0.0
 12
233.2848718349859
 22
133.6365342517883
 32
0.0
 13
233.2848718349859
 23
133.6365342517883
 33
0.0
  0
MTEXT
  5
172
330
174
100
AcDbEntity
  8
0
  6
ByBlock
 62
     0
370
    -2
100
AcDbMText
 10
229.2972218349859
 20
134.9967036469679
 30
0.0
 40
1.75
 41
0.0
 71
     5
 72
     1
  1
170
  7
H
 73
     1
 44
1.0
  0
ENDBLK
  5
68A
330
174
100
AcDbEntity
  8
0
100
AcDbBlockEnd
  0
BLOCK
  5
68B
330
17F
100
AcDbEntity
  8
0
100
AcDbBlockBegin
  2
*D11
 70
     1
 10
0.0
 20
0.0
 30
0.0
  3
*D11
  1

  0
POINT
  5
176
330
17F
100
AcDbEntity
  8
DEFPOINTS
  6
ByBlock
 62
     1
100
AcDbPoint
 10
234.9848718349859
 20
141.7988969184549
 30
0.0
  0
POINT
  5
177
330
17F
100
AcDbEntity
  8
DEFPOINTS
  6
ByBlock
 62
     1
100
AcDbPoint
 10
246.3601638349859
 20
141.7988969184549
 30
0.0
  0
LINE
  5
178
330
17F
100
AcDbEntity
  8
0
  6
ByBlock
 62
     1
370
    -2
100
AcDbLine
 10
246.3601638349859
 20
140.7988969184549
 30
0.0
 11
246.3601638349859
 21
133.0532009184549
 31
0.0
  0
LINE
  5
179
330
17F
100
AcDbEntity
  8
0
  6
ByBlock
 62
     1
370
    -2
100
AcDbLine
 10
234.9848718349859
 20
133.3532009184549
 30
0.0
 11
246.3601638349859
 21
133.3532009184549
 31
0.0
  0
SOLID
  5
17A
330
17F
100
AcDbEntity
  8
0
  6
ByBlock
 62
     1
100
AcDbTrace
 10
234.9848718349859
 20
133.3532009184549
 30
0.0
 11
236.6848718349859
 21
133.0698675851216
 31
0.0
 12
236.6848718349859
 22
133.6365342517883
 32
0.0
 13
236.6848718349859
 23
133.6365342517883
 33
0.0
  0
SOLID
  5
17B
330
17F
100
AcDbEntity
  8
0
  6
ByBlock
 62
     1
100
AcDbTrace
 10
246.3601638349859
 20
133.3532009184549
 30
0.0
 11
244.660163834986
 21
133.0698675851216
 31
0.0
 12
244.660163834986
 22
133.6365342517883
 32
0.0
 13
244.660163834986
 23
133.6365342517883
 33
0.0
  0
LINE
  5
17C
330
17F
100
AcDbEntity
  8
0
  6
ByBlock
 62
     1
370
    -2
100
AcDbLine
 10
234.9848718349859
 20
141.7988969184549
 30
0.0
 11
234.9848718349859
 21
141.7988969184549
 31
0.0
  0
MTEXT
  5
17D
330
17F
100
AcDbEntity
  8
0
  6
ByBlock
 62
     0
370
    -2
100
AcDbMText
 10
240.6725178349859
 20
135.0025559184549
 30
0.0
 40
1.75
 41
0.0
 71
     5
 72
     1
  1
170
  7
H
 73
     1
 44
1.0
  0
ENDBLK
  5
68C
330
17F
100
AcDbEntity
  8
0
100
AcDbBlockEnd
  0
BLOCK
  5
68D
330
18A
100
AcDbEntity
  8
0
100
AcDbBlockBegin
  2
*D12
 70
     1
 10
0.0
 20
0.0
 30
0.0
  3
*D12
  1

  0
POINT
  5
181
330
18A
100
AcDbEntity
  8
DEFPOINTS
  6
ByBlock
 62
     1
100
AcDbPoint
 10
216.807000834986
 20
145.7591729184549
 30
0.0
  0
POINT
  5
182
330
18A
100
AcDbEntity
  8
DEFPOINTS
  6
ByBlock
 62
     1
100
AcDbPoint
 10
253.1670168349859
 20
145.8634399184549
 30
0.0
  0
LINE
  5
183
330
18A
100
AcDbEntity
  8
0
  6
ByBlock
 62
     1
370
    -2
100
AcDbLine
 10
216.807000834986
 20
144.7591729184549
 30
0.0
 11
216.807000834986
 21
128.5300429184549
 31
0.0
  0
LINE
  5
184
330
18A
100
AcDbEntity
  8
0
  6
ByBlock
 62
     1
370
    -2
100
AcDbLine
 10
253.1670168349859
 20
144.8634399184549
 30
0.0
 11
253.1670168349859
 21
128.5300429184549
 31
0.0
  0
LINE
  5
185
330
18A
100
AcDbEntity
  8
0
  6
ByBlock
 62
     1
370
    -2
100
AcDbLine
 10
218.5070008349859
 20
128.830042918455
 30
0.0
 11
251.4670168349859
 21
128.830042918455
 31
0.0
  0
SOLID
  5
186
330
18A
100
AcDbEntity
  8
0
  6
ByBlock
 62
     1
100
AcDbTrace
 10
216.807000834986
 20
128.830042918455
 30
0.0
 11
218.5070008349859
 21
128.5467095851216
 31
0.0
 12
218.5070008349859
 22
129.1133762517883
 32
0.0
 13
218.5070008349859
 23
129.1133762517883
 33
0.0
  0
SOLID
  5
187
330
18A
100
AcDbEntity
  8
0
  6
ByBlock
 62
     1
100
AcDbTrace
 10
253.1670168349859
 20
128.830042918455
 30
0.0
 11
251.4670168349859
 21
128.5467095851216
 31
0.0
 12
251.4670168349859
 22
129.1133762517883
 32
0.0
 13
251.4670168349859
 23
129.1133762517883
 33
0.0
  0
MTEXT
  5
188
330
18A
100
AcDbEntity
  8
0
  6
ByBlock
 62
     0
370
    -2
100
AcDbMText
 10
234.9870088349859
 20
130.474142509178
 30
0.0
 40
1.75
 41
0.0
 71
     5
 72
     1
  1
531
  7
H
 73
     1
 44
1.0
  0
ENDBLK
  5
68E
330
18A
100
AcDbEntity
  8
0
100
AcDbBlockEnd
  0
BLOCK
  5
68F
330
195
100
AcDbEntity
  8
0
100
AcDbBlockBegin
  2
*D13
 70
     1
 10
0.0
 20
0.0
 30
0.0
  3
*D13
  1

  0
POINT
  5
18C
330
195
100
AcDbEntity
  8
DEFPOINTS
  6
ByBlock
 62
     1
100
AcDbPoint
 10
282.743328834986
 20
166.0323329184549
 30
0.0
  0
POINT
  5
18D
330
195
100
AcDbEntity
  8
DEFPOINTS
  6
ByBlock
 62
     1
100
AcDbPoint
 10
265.019943834986
 20
163.6789099184549
 30
0.0
  0
LINE
  5
18E
330
195
100
AcDbEntity
  8
0
  6
ByBlock
 62
     1
370
    -2
100
AcDbLine
 10
282.743328834986
 20
165.0323329184549
 30
0.0
 11
282.743328834986
 21
133.0532009184549
 31
0.0
  0
LINE
  5
18F
330
195
100
AcDbEntity
  8
0
  6
ByBlock
 62
     1
370
    -2
100
AcDbLine
 10
265.019943834986
 20
162.6789099184549
 30
0.0
 11
265.019943834986
 21
133.0532009184549
 31
0.0
  0
LINE
  5
190
330
195
100
AcDbEntity
  8
0
  6
ByBlock
 62
     1
370
    -2
100
AcDbLine
 10
281.043328834986
 20
133.3532009184549
 30
0.0
 11
266.7199438349859
 21
133.3532009184549
 31
0.0
  0
SOLID
  5
191
330
195
100
AcDbEntity
  8
0
  6
ByBlock
 62
     1
100
AcDbTrace
 10
282.743328834986
 20
133.3532009184549
 30
0.0
 11
281.043328834986
 21
133.6365342517883
 31
0.0
 12
281.043328834986
 22
133.0698675851216
 32
0.0
 13
281.043328834986
 23
133.0698675851216
 33
0.0
  0
SOLID
  5
192
330
195
100
AcDbEntity
  8
0
  6
ByBlock
 62
     1
100
AcDbTrace
 10
265.019943834986
 20
133.3532009184549
 30
0.0
 11
266.7199438349859
 21
133.6365342517883
 31
0.0
 12
266.7199438349859
 22
133.0698675851216
 32
0.0
 13
266.7199438349859
 23
133.0698675851216
 33
0.0
  0
MTEXT
  5
193
330
195
100
AcDbEntity
  8
0
  6
ByBlock
 62
     0
370
    -2
100
AcDbMText
 10
273.881636334986
 20
134.9967036469679
 30
0.0
 40
1.75
 41
0.0
 71
     5
 72
     1
  1
295
  7
H
 73
     1
 44
1.0
  0
ENDBLK
  5
690
330
195
100
AcDbEntity
  8
0
100
AcDbBlockEnd
  0
BLOCK
  5
691
330
1A0
100
AcDbEntity
  8
0
100
AcDbBlockBegin
  2
*D14
 70
     1
 10
0.0
 20
0.0
 30
0.0
  3
*D14
  1

  0
POINT
  5
197
330
1A0
100
AcDbEntity
  8
DEFPOINTS
  6
ByBlock
 62
     1
100
AcDbPoint
 10
281.188914834986
 20
184.4085469184549
 30
0.0
  0
POINT
  5
198
330
1A0
100
AcDbEntity
  8
DEFPOINTS
  6
ByBlock
 62
     1
100
AcDbPoint
 10
281.0792298349859
 20
151.9690909184549
 30
0.0
  0
LINE
  5
199
330
1A0
100
AcDbEntity
  8
0
  6
ByBlock
 62
     1
370
    -2
100
AcDbLine
 10
282.188914834986
 20
184.4085469184549
 30
0.0
 11
288.9023988349859
 21
184.4085469184549
 31
0.0
  0
LINE
  5
19A
330
1A0
100
AcDbEntity
  8
0
  6
ByBlock
 62
     1
370
    -2
100
AcDbLine
 10
282.0792298349859
 20
151.9690909184549
 30
0.0
 11
288.9023988349859
 21
151.9690909184549
 31
0.0
  0
LINE
  5
19B
330
1A0
100
AcDbEntity
  8
0
  6
ByBlock
 62
     1
370
    -2
100
AcDbLine
 10
288.6023988349859
 20
182.7085469184549
 30
0.0
 11
288.6023988349859
 21
153.6690909184549
 31
0.0
  0
SOLID
  5
19C
330
1A0
100
AcDbEntity
  8
0
  6
ByBlock
 62
     1
100
AcDbTrace
 10
288.6023988349859
 20
184.4085469184549
 30
0.0
 11
288.3190655016526
 21
182.7085469184549
 31
0.0
 12
288.8857321683193
 22
182.7085469184549
 32
0.0
 13
288.8857321683193
 23
182.7085469184549
 33
0.0
  0
SOLID
  5
19D
330
1A0
100
AcDbEntity
  8
0
  6
ByBlock
 62
     1
100
AcDbTrace
 10
288.6023988349859
 20
151.9690909184549
 30
0.0
 11
288.3190655016526
 21
153.6690909184549
 31
0.0
 12
288.8857321683193
 22
153.6690909184549
 32
0.0
 13
288.8857321683193
 23
153.6690909184549
 33
0.0
  0
MTEXT
  5
19E
330
1A0
100
AcDbEntity
  8
0
  6
ByBlock
 62
     0
370
    -2
100
AcDbMText
 10
286.958896106473
 20
168.1888189184549
 30
0.0
 40
1.75
 41
0.0
 71
     5
 72
     1
  1
485
  7
H
 11
6.123031769111886E-17
 21
1.0
 31
0.0
 73
     1
 44
1.0
  0
ENDBLK
  5
692
330
1A0
100
AcDbEntity
  8
0
100
AcDbBlockEnd
  0
BLOCK
  5
693
330
1AB
100
AcDbEntity
  8
0
100
AcDbBlockBegin
  2
*D15
 70
     1
 10
0.0
 20
0.0
 30
0.0
  3
*D15
  1

  0
POINT
  5
1A2
330
1AB
100
AcDbEntity
  8
DEFPOINTS
  6
ByBlock
 62
     0
100
AcDbPoint
 10
216.807000834986
 20
132.1493270810771
 30
0.0
  0
POINT
  5
1A3
330
1AB
100
AcDbEntity
  8
DEFPOINTS
  6
ByBlock
 62
     0
100
AcDbPoint
 10
253.1670168349859
 20
132.1493270810771
 30
0.0
  0
LINE
  5
1A4
330
1AB
100
AcDbEntity
  8
0
  6
ByBlock
 62
     0
370
    -2
100
AcDbLine
 10
216.807000834986
 20
131.5243270810771
 30
0.0
 11
216.807000834986
 21
122.566462791907
 31
0.0
  0
LINE
  5
1A5
330
1AB
100
AcDbEntity
  8
0
  6
ByBlock
 62
     0
370
    -2
100
AcDbLine
 10
253.1670168349859
 20
131.5243270810771
 30
0.0
 11
253.1670168349859
 21
122.566462791907
 31
0.0
  0
LINE
  5
1A6
330
1AB
100
AcDbEntity
  8
0
  6
ByBlock
 62
     0
370
    -2
100
AcDbLine
 10
219.307000834986
 20
123.816462791907
 30
0.0
 11
250.6670168349859
 21
123.816462791907
 31
0.0
  0
SOLID
  5
1A7
330
1AB
100
AcDbEntity
  8
0
  6
ByBlock
 62
     0
100
AcDbTrace
 10
216.807000834986
 20
123.816462791907
 30
0.0
 11
219.307000834986
 21
123.3997961252404
 31
0.0
 12
219.307000834986
 22
124.2331294585737
 32
0.0
 13
219.307000834986
 23
124.2331294585737
 33
0.0
  0
SOLID
  5
1A8
330
1AB
100
AcDbEntity
  8
0
  6
ByBlock
 62
     0
100
AcDbTrace
 10
253.1670168349859
 20
123.816462791907
 30
0.0
 11
250.6670168349859
 21
123.3997961252404
 31
0.0
 12
250.6670168349859
 22
124.2331294585737
 32
0.0
 13
250.6670168349859
 23
124.2331294585737
 33
0.0
  0
MTEXT
  5
1A9
330
1AB
100
AcDbEntity
  8
0
  6
ByBlock
 62
     0
370
    -2
100
AcDbMText
 10
234.9870088349859
 20
125.8997961252404
 30
0.0
 40
2.500000000000014
 41
0.0
 71
     5
 72
     1
  1
\A1;36,36
 73
     1
 44
1.0
  0
ENDBLK
  5
694
330
1AB
100
AcDbEntity
  8
0
100
AcDbBlockEnd
  0
BLOCK
  5
695
330
1B6
100
AcDbEntity
  8
0
100
AcDbBlockBegin
  2
*D16
 70
     1
 10
0.0
 20
0.0
 30
0.0
  3
*D16
  1

  0
POINT
  5
1AD
330
1B6
100
AcDbEntity
  8
DEFPOINTS
  6
ByBlock
 62
     0
100
AcDbPoint
 10
285.5456568349859
 20
184.4085469184549
 30
0.0
  0
POINT
  5
1AE
330
1B6
100
AcDbEntity
  8
DEFPOINTS
  6
ByBlock
 62
     0
100
AcDbPoint
 10
285.4908143349859
 20
151.9690909184549
 30
0.0
  0
LINE
  5
1AF
330
1B6
100
AcDbEntity
  8
0
  6
ByBlock
 62
     0
370
    -2
100
AcDbLine
 10
286.1706568349859
 20
184.4085469184549
 30
0.0
 11
296.8920236269207
 21
184.4085469184549
 31
0.0
  0
LINE
  5
1B0
330
1B6
100
AcDbEntity
  8
0
  6
ByBlock
 62
     0
370
    -2
100
AcDbLine
 10
286.1158143349859
 20
151.9690909184549
 30
0.0
 11
296.8920236269207
 21
151.9690909184549
 31
0.0
  0
LINE
  5
1B1
330
1B6
100
AcDbEntity
  8
0
  6
ByBlock
 62
     0
370
    -2
100
AcDbLine
 10
295.6420236269207
 20
181.9085469184549
 30
0.0
 11
295.6420236269207
 21
154.4690909184549
 31
0.0
  0
SOLID
  5
1B2
330
1B6
100
AcDbEntity
  8
0
  6
ByBlock
 62
     0
100
AcDbTrace
 10
295.6420236269207
 20
184.4085469184549
 30
0.0
 11
295.225356960254
 21
181.9085469184549
 31
0.0
 12
296.0586902935874
 22
181.9085469184549
 32
0.0
 13
296.0586902935874
 23
181.9085469184549
 33
0.0
  0
SOLID
  5
1B3
330
1B6
100
AcDbEntity
  8
0
  6
ByBlock
 62
     0
100
AcDbTrace
 10
295.6420236269207
 20
151.9690909184549
 30
0.0
 11
295.225356960254
 21
154.4690909184549
 31
0.0
 12
296.0586902935874
 22
154.4690909184549
 32
0.0
 13
296.0586902935874
 23
154.4690909184549
 33
0.0
  0
MTEXT
  5
1B4
330
1B6
100
AcDbEntity
  8
0
  6
ByBlock
 62
     0
370
    -2
100
AcDbMText
 10
293.5586902935874
 20
168.1888189184549
 30
0.0
 40
2.5
 41
0.0
 71
     5
 72
     1
  1
\A1;32,44
 11
6.123031769111886E-17
 21
1.0
 31
0.0
 73
     1
 44
1.0
  0
ENDBLK
  5
696
330
1B6
100
AcDbEntity
  8
0
100
AcDbBlockEnd
  0
BLOCK
  5
697
330
414
100
AcDbEntity
  8
0
100
AcDbBlockBegin
  2
*D17
 70
     1
 10
0.0
 20
0.0
 30
0.0
  3
*D17
  1

  0
POINT
  5
40B
330
414
100
AcDbEntity
  8
DEFPOINTS
  6
ByBlock
 62
     1
380
     1
100
AcDbPoint
 10
3424.869436890541
 20
2150.746112260485
 30
0.0
  0
POINT
  5
40C
330
414
100
AcDbEntity
  8
DEFPOINTS
  6
ByBlock
 62
     1
380
     1
100
AcDbPoint
 10
3438.550178351221
 20
2150.746112260485
 30
0.0
  0
LINE
  5
40D
330
414
100
AcDbEntity
  8
0
  6
ByBlock
 62
     1
370
    -2
380
     1
100
AcDbLine
 10
3424.869436890541
 20
2151.746112260485
 30
0.0
 11
3424.869436890541
 21
2210.089502173966
 31
0.0
  0
LINE
  5
40E
330
414
100
AcDbEntity
  8
0
  6
ByBlock
 62
     1
370
    -2
380
     1
100
AcDbLine
 10
3438.550178351221
 20
2151.746112260485
 30
0.0
 11
3438.550178351221
 21
2210.089502173966
 31
0.0
  0
LINE
  5
40F
330
414
100
AcDbEntity
  8
0
  6
ByBlock
 62
     1
370
    -2
380
     1
100
AcDbLine
 10
3426.569436890541
 20
2209.789502173966
 30
0.0
 11
3436.850178351221
 21
2209.789502173966
 31
0.0
  0
SOLID
  5
410
330
414
100
AcDbEntity
  8
0
  6
ByBlock
 62
     1
380
     1
100
AcDbTrace
 10
3424.869436890541
 20
2209.789502173966
 30
0.0
 11
3426.569436890541
 21
2209.506168840632
 31
0.0
 12
3426.569436890541
 22
2210.072835507299
 32
0.0
 13
3426.569436890541
 23
2210.072835507299
 33
0.0
  0
SOLID
  5
411
330
414
100
AcDbEntity
  8
0
  6
ByBlock
 62
     1
380
     1
100
AcDbTrace
 10
3438.550178351221
 20
2209.789502173966
 30
0.0
 11
3436.850178351221
 21
2209.506168840632
 31
0.0
 12
3436.850178351221
 22
2210.072835507299
 32
0.0
 13
3436.850178351221
 23
2210.072835507299
 33
0.0
  0
MTEXT
  5
412
330
414
100
AcDbEntity
  8
0
  6
ByBlock
 62
     0
370
    -2
380
     1
100
AcDbMText
 10
3431.709807620881
 20
2211.481947603706
 30
0.0
 40
1.75
 41
0.0
 71
     5
 72
     1
  1
%%C19
  7
H
 73
     1
 44
1.0
  0
ENDBLK
  5
698
330
414
100
AcDbEntity
  8
0
100
AcDbBlockEnd
  0
BLOCK
  5
699
330
421
100
AcDbEntity
  8
0
100
AcDbBlockBegin
  2
*D18
 70
     1
 10
0.0
 20
0.0
 30
0.0
  3
*D18
  1

  0
POINT
  5
417
330
421
100
AcDbEntity
  8
DEFPOINTS
  6
ByBlock
 62
     1
380
     1
100
AcDbPoint
 10
3590.993439563701
 20
2142.743910297285
 30
0.0
  0
POINT
  5
418
330
421
100
AcDbEntity
  8
DEFPOINTS
  6
ByBlock
 62
     1
380
     1
100
AcDbPoint
 10
3604.674589935262
 20
2142.743910297285
 30
0.0
  0
LINE
  5
419
330
421
100
AcDbEntity
  8
0
  6
ByBlock
 62
     1
370
    -2
380
     1
100
AcDbLine
 10
3590.993439563701
 20
2141.743910297285
 30
0.0
 11
3590.993439563701
 21
2052.224749469925
 31
0.0
  0
LINE
  5
41A
330
421
100
AcDbEntity
  8
0
  6
ByBlock
 62
     1
370
    -2
380
     1
100
AcDbLine
 10
3604.674589935262
 20
2141.743910297285
 30
0.0
 11
3604.674589935262
 21
2052.224749469925
 31
0.0
  0
LINE
  5
41B
330
421
100
AcDbEntity
  8
0
  6
ByBlock
 62
     1
370
    -2
380
     1
100
AcDbLine
 10
3592.6934395637
 20
2052.524749469926
 30
0.0
 11
3602.974589935262
 21
2052.524749469926
 31
0.0
  0
LINE
  5
41C
330
421
100
AcDbEntity
  8
0
  6
ByBlock
 62
     1
370
    -2
380
     1
100
AcDbLine
 10
3604.674589935262
 20
2052.524749469926
 30
0.0
 11
3775.355732211721
 21
2052.524749469926
 31
0.0
  0
SOLID
  5
41D
330
421
100
AcDbEntity
  8
0
  6
ByBlock
 62
     1
380
     1
100
AcDbTrace
 10
3590.993439563701
 20
2052.524749469926
 30
0.0
 11
3592.6934395637
 21
2052.241416136592
 31
0.0
 12
3592.6934395637
 22
2052.808082803259
 32
0.0
 13
3592.6934395637
 23
2052.808082803259
 33
0.0
  0
SOLID
  5
41E
330
421
100
AcDbEntity
  8
0
  6
ByBlock
 62
     1
380
     1
100
AcDbTrace
 10
3604.674589935262
 20
2052.524749469926
 30
0.0
 11
3602.974589935262
 21
2052.241416136592
 31
0.0
 12
3602.974589935262
 22
2052.808082803259
 32
0.0
 13
3602.974589935262
 23
2052.808082803259
 33
0.0
  0
MTEXT
  5
41F
330
421
100
AcDbEntity
  8
0
  6
ByBlock
 62
     0
370
    -2
380
     1
100
AcDbMText
 10
3770.420335440462
 20
2054.217194899667
 30
0.0
 40
1.75
 41
0.0
 71
     5
 72
     1
  1
2 x %%C14
  7
H
 73
     1
 44
1.0
  0
ENDBLK
  5
69A
330
421
100
AcDbEntity
  8
0
100
AcDbBlockEnd
  0
BLOCK
  5
69B
330
42D
100
AcDbEntity
  8
0
100
AcDbBlockBegin
  2
*D19
 70
     1
 10
0.0
 20
0.0
 30
0.0
  3
*D19
  1

  0
POINT
  5
424
330
42D
100
AcDbEntity
  8
DEFPOINTS
  6
ByBlock
 62
     1
380
     1
100
AcDbPoint
 10
3265.585242695262
 20
2119.989932180805
 30
0.0
  0
POINT
  5
425
330
42D
100
AcDbEntity
  8
DEFPOINTS
  6
ByBlock
 62
     1
380
     1
100
AcDbPoint
 10
3431.709668883261
 20
2119.989932180805
 30
0.0
  0
LINE
  5
426
330
42D
100
AcDbEntity
  8
0
  6
ByBlock
 62
     1
370
    -2
380
     1
100
AcDbLine
 10
3265.585242695262
 20
2118.989932180805
 30
0.0
 11
3265.585242695262
 21
1993.421033907525
 31
0.0
  0
LINE
  5
427
330
42D
100
AcDbEntity
  8
0
  6
ByBlock
 62
     1
370
    -2
380
     1
100
AcDbLine
 10
3431.709668883261
 20
2118.989932180805
 30
0.0
 11
3431.709668883261
 21
1993.421033907525
 31
0.0
  0
LINE
  5
428
330
42D
100
AcDbEntity
  8
0
  6
ByBlock
 62
     1
370
    -2
380
     1
100
AcDbLine
 10
3267.285242695262
 20
1993.721033907525
 30
0.0
 11
3430.009668883261
 21
1993.721033907525
 31
0.0
  0
SOLID
  5
429
330
42D
100
AcDbEntity
  8
0
  6
ByBlock
 62
     1
380
     1
100
AcDbTrace
 10
3265.585242695262
 20
1993.721033907525
 30
0.0
 11
3267.285242695262
 21
1993.437700574192
 31
0.0
 12
3267.285242695262
 22
1994.004367240859
 32
0.0
 13
3267.285242695262
 23
1994.004367240859
 33
0.0
  0
SOLID
  5
42A
330
42D
100
AcDbEntity
  8
0
  6
ByBlock
 62
     1
380
     1
100
AcDbTrace
 10
3431.709668883261
 20
1993.721033907525
 30
0.0
 11
3430.009668883261
 21
1993.437700574192
 31
0.0
 12
3430.009668883261
 22
1994.004367240859
 32
0.0
 13
3430.009668883261
 23
1994.004367240859
 33
0.0
  0
MTEXT
  5
42B
330
42D
100
AcDbEntity
  8
0
  6
ByBlock
 62
     0
370
    -2
380
     1
100
AcDbMText
 10
3348.647455789262
 20
1995.364536636038
 30
0.0
 40
1.75
 41
0.0
 71
     5
 72
     1
  1
170
  7
H
 73
     1
 44
1.0
  0
ENDBLK
  5
69C
330
42D
100
AcDbEntity
  8
0
100
AcDbBlockEnd
  0
BLOCK
  5
69D
330
43B
100
AcDbEntity
  8
0
100
AcDbBlockBegin
  2
*D20
 70
     1
 10
0.0
 20
0.0
 30
0.0
  3
*D20
  1

  0
POINT
  5
430
330
43B
100
AcDbEntity
  8
DEFPOINTS
  6
ByBlock
 62
     1
380
     1
100
AcDbPoint
 10
3431.709668883261
 20
2119.989932180805
 30
0.0
  0
POINT
  5
431
330
43B
100
AcDbEntity
  8
DEFPOINTS
  6
ByBlock
 62
     1
380
     1
100
AcDbPoint
 10
3597.833978239581
 20
2119.989932180805
 30
0.0
  0
LINE
  5
432
330
43B
100
AcDbEntity
  8
0
  6
ByBlock
 62
     1
370
    -2
380
     1
100
AcDbLine
 10
3597.833978239581
 20
2118.989932180805
 30
0.0
 11
3597.833978239581
 21
1993.421033907525
 31
0.0
  0
LINE
  5
433
330
43B
100
AcDbEntity
  8
0
  6
ByBlock
 62
     1
370
    -2
380
     1
100
AcDbLine
 10
3514.771823561421
 20
1993.721033907525
 30
0.0
 11
3517.369708963877
 21
2020.023515447439
 31
0.0
  0
LINE
  5
434
330
43B
100
AcDbEntity
  8
0
  6
ByBlock
 62
     1
370
    -2
380
     1
100
AcDbLine
 10
3517.369708963877
 20
2020.023515447439
 30
0.0
 11
3512.173938158965
 21
2020.023515447439
 31
0.0
  0
LINE
  5
435
330
43B
100
AcDbEntity
  8
0
  6
ByBlock
 62
     1
370
    -2
380
     1
100
AcDbLine
 10
3431.709668883261
 20
1993.721033907525
 30
0.0
 11
3597.833978239581
 21
1993.721033907525
 31
0.0
  0
SOLID
  5
436
330
43B
100
AcDbEntity
  8
0
  6
ByBlock
 62
     1
380
     1
100
AcDbTrace
 10
3431.709668883261
 20
1993.721033907525
 30
0.0
 11
3433.409668883261
 21
1993.437700574192
 31
0.0
 12
3433.409668883261
 22
1994.004367240859
 32
0.0
 13
3433.409668883261
 23
1994.004367240859
 33
0.0
  0
SOLID
  5
437
330
43B
100
AcDbEntity
  8
0
  6
ByBlock
 62
     1
380
     1
100
AcDbTrace
 10
3597.833978239581
 20
1993.721033907525
 30
0.0
 11
3596.133978239581
 21
1993.437700574192
 31
0.0
 12
3596.133978239581
 22
1994.004367240859
 32
0.0
 13
3596.133978239581
 23
1994.004367240859
 33
0.0
  0
LINE
  5
438
330
43B
100
AcDbEntity
  8
0
  6
ByBlock
 62
     1
370
    -2
380
     1
100
AcDbLine
 10
3431.709668883261
 20
2119.989932180805
 30
0.0
 11
3431.709668883261
 21
2119.989932180805
 31
0.0
  0
MTEXT
  5
439
330
43B
100
AcDbEntity
  8
0
  6
ByBlock
 62
     0
370
    -2
380
     1
100
AcDbMText
 10
3514.771823561421
 20
2018.380012718925
 30
0.0
 40
1.75
 41
0.0
 71
     5
 72
     1
  1
170
  7
H
 73
     1
 44
1.0
  0
ENDBLK
  5
69E
330
43B
100
AcDbEntity
  8
0
100
AcDbBlockEnd
  0
BLOCK
  5
69F
330
447
100
AcDbEntity
  8
0
100
AcDbBlockBegin
  2
*D21
 70
     1
 10
0.0
 20
0.0
 30
0.0
  3
*D21
  1

  0
POINT
  5
43E
330
447
100
AcDbEntity
  8
DEFPOINTS
  6
ByBlock
 62
     1
380
     1
100
AcDbPoint
 10
3166.240767914102
 20
2179.198751368485
 30
0.0
  0
POINT
  5
43F
330
447
100
AcDbEntity
  8
DEFPOINTS
  6
ByBlock
 62
     1
380
     1
100
AcDbPoint
 10
3697.240987177461
 20
2180.757613920046
 30
0.0
  0
LINE
  5
440
330
447
100
AcDbEntity
  8
0
  6
ByBlock
 62
     1
370
    -2
380
     1
100
AcDbLine
 10
3166.240767914102
 20
2178.198751368485
 30
0.0
 11
3166.240767914102
 21
1925.796746060087
 31
0.0
  0
LINE
  5
441
330
447
100
AcDbEntity
  8
0
  6
ByBlock
 62
     1
370
    -2
380
     1
100
AcDbLine
 10
3697.240987177461
 20
2179.757613920046
 30
0.0
 11
3697.240987177461
 21
1925.796746060087
 31
0.0
  0
LINE
  5
442
330
447
100
AcDbEntity
  8
0
  6
ByBlock
 62
     1
370
    -2
380
     1
100
AcDbLine
 10
3167.940767914102
 20
1926.096746060087
 30
0.0
 11
3695.540987177461
 21
1926.096746060087
 31
0.0
  0
SOLID
  5
443
330
447
100
AcDbEntity
  8
0
  6
ByBlock
 62
     1
380
     1
100
AcDbTrace
 10
3166.240767914102
 20
1926.096746060087
 30
0.0
 11
3167.940767914102
 21
1925.813412726754
 31
0.0
 12
3167.940767914102
 22
1926.38007939342
 32
0.0
 13
3167.940767914102
 23
1926.38007939342
 33
0.0
  0
SOLID
  5
444
330
447
100
AcDbEntity
  8
0
  6
ByBlock
 62
     1
380
     1
100
AcDbTrace
 10
3697.240987177461
 20
1926.096746060087
 30
0.0
 11
3695.540987177461
 21
1925.813412726754
 31
0.0
 12
3695.540987177461
 22
1926.38007939342
 32
0.0
 13
3695.540987177461
 23
1926.38007939342
 33
0.0
  0
MTEXT
  5
445
330
447
100
AcDbEntity
  8
0
  6
ByBlock
 62
     0
370
    -2
380
     1
100
AcDbMText
 10
3431.740877545782
 20
1927.74084565081
 30
0.0
 40
1.75
 41
0.0
 71
     5
 72
     1
  1
531
  7
H
 73
     1
 44
1.0
  0
ENDBLK
  5
6A0
330
447
100
AcDbEntity
  8
0
100
AcDbBlockEnd
  0
BLOCK
  5
6A1
330
453
100
AcDbEntity
  8
0
100
AcDbBlockBegin
  2
*D22
 70
     1
 10
0.0
 20
0.0
 30
0.0
  3
*D22
  1

  0
POINT
  5
44A
330
453
100
AcDbEntity
  8
DEFPOINTS
  6
ByBlock
 62
     1
380
     1
100
AcDbPoint
 10
4129.172264572982
 20
2482.296279117285
 30
0.0
  0
POINT
  5
44B
330
453
100
AcDbEntity
  8
DEFPOINTS
  6
ByBlock
 62
     1
380
     1
100
AcDbPoint
 10
3870.340658968382
 20
2447.111004939645
 30
0.0
  0
LINE
  5
44C
330
453
100
AcDbEntity
  8
0
  6
ByBlock
 62
     1
370
    -2
380
     1
100
AcDbLine
 10
4129.172264572982
 20
2481.296279117285
 30
0.0
 11
4129.172264572982
 21
1993.421033907525
 31
0.0
  0
LINE
  5
44D
330
453
100
AcDbEntity
  8
0
  6
ByBlock
 62
     1
370
    -2
380
     1
100
AcDbLine
 10
3870.340658968382
 20
2446.111004939645
 30
0.0
 11
3870.340658968382
 21
1993.421033907525
 31
0.0
  0
LINE
  5
44E
330
453
100
AcDbEntity
  8
0
  6
ByBlock
 62
     1
370
    -2
380
     1
100
AcDbLine
 10
4127.472264572983
 20
1993.721033907525
 30
0.0
 11
3872.040658968382
 21
1993.721033907525
 31
0.0
  0
SOLID
  5
44F
330
453
100
AcDbEntity
  8
0
  6
ByBlock
 62
     1
380
     1
100
AcDbTrace
 10
4129.172264572982
 20
1993.721033907525
 30
0.0
 11
4127.472264572983
 21
1994.004367240859
 31
0.0
 12
4127.472264572983
 22
1993.437700574192
 32
0.0
 13
4127.472264572983
 23
1993.437700574192
 33
0.0
  0
SOLID
  5
450
330
453
100
AcDbEntity
  8
0
  6
ByBlock
 62
     1
380
     1
100
AcDbTrace
 10
3870.340658968382
 20
1993.721033907525
 30
0.0
 11
3872.040658968382
 21
1994.004367240859
 31
0.0
 12
3872.040658968382
 22
1993.437700574192
 32
0.0
 13
3872.040658968382
 23
1993.437700574192
 33
0.0
  0
MTEXT
  5
451
330
453
100
AcDbEntity
  8
0
  6
ByBlock
 62
     0
370
    -2
380
     1
100
AcDbMText
 10
3999.756461770682
 20
1995.364536636038
 30
0.0
 40
1.75
 41
0.0
 71
     5
 72
     1
  1
295
  7
H
 73
     1
 44
1.0
  0
ENDBLK
  5
6A2
330
453
100
AcDbEntity
  8
0
100
AcDbBlockEnd
  0
BLOCK
  5
6A3
330
45F
100
AcDbEntity
  8
0
100
AcDbBlockBegin
  2
*D23
 70
     1
 10
0.0
 20
0.0
 30
0.0
  3
*D23
  1

  0
POINT
  5
456
330
45F
100
AcDbEntity
  8
DEFPOINTS
  6
ByBlock
 62
     1
380
     1
100
AcDbPoint
 10
4106.471664693542
 20
2757.033174242805
 30
0.0
  0
POINT
  5
457
330
45F
100
AcDbEntity
  8
DEFPOINTS
  6
ByBlock
 62
     1
380
     1
100
AcDbPoint
 10
4104.869829340941
 20
2272.041248212725
 30
0.0
  0
LINE
  5
458
330
45F
100
AcDbEntity
  8
0
  6
ByBlock
 62
     1
370
    -2
380
     1
100
AcDbLine
 10
4107.471664693542
 20
2757.033174242805
 30
0.0
 11
4215.037888490181
 21
2757.033174242805
 31
0.0
  0
LINE
  5
459
330
45F
100
AcDbEntity
  8
0
  6
ByBlock
 62
     1
370
    -2
380
     1
100
AcDbLine
 10
4105.869829340941
 20
2272.041248212725
 30
0.0
 11
4215.037888490181
 21
2272.041248212725
 31
0.0
  0
LINE
  5
45A
330
45F
100
AcDbEntity
  8
0
  6
ByBlock
 62
     1
370
    -2
380
     1
100
AcDbLine
 10
4214.737888490181
 20
2755.333174242805
 30
0.0
 11
4214.737888490181
 21
2273.741248212725
 31
0.0
  0
SOLID
  5
45B
330
45F
100
AcDbEntity
  8
0
  6
ByBlock
 62
     1
380
     1
100
AcDbTrace
 10
4214.737888490181
 20
2757.033174242805
 30
0.0
 11
4214.454555156847
 21
2755.333174242805
 31
0.0
 12
4215.021221823515
 22
2755.333174242805
 32
0.0
 13
4215.021221823515
 23
2755.333174242805
 33
0.0
  0
SOLID
  5
45C
330
45F
100
AcDbEntity
  8
0
  6
ByBlock
 62
     1
380
     1
100
AcDbTrace
 10
4214.737888490181
 20
2272.041248212725
 30
0.0
 11
4214.454555156847
 21
2273.741248212725
 31
0.0
 12
4215.021221823515
 22
2273.741248212725
 32
0.0
 13
4215.021221823515
 23
2273.741248212725
 33
0.0
  0
MTEXT
  5
45D
330
45F
100
AcDbEntity
  8
0
  6
ByBlock
 62
     0
370
    -2
380
     1
100
AcDbMText
 10
4213.094385761668
 20
2514.537211227766
 30
0.0
 40
1.75
 41
0.0
 71
     5
 72
     1
  1
485
  7
H
 11
6.123031769111886E-17
 21
1.0
 31
0.0
 73
     1
 44
1.0
  0
ENDBLK
  5
6A4
330
45F
100
AcDbEntity
  8
0
100
AcDbBlockEnd
  0
BLOCK
  5
6A5
330
46B
100
AcDbEntity
  8
0
100
AcDbBlockBegin
  2
*D24
 70
     1
 10
0.0
 20
0.0
 30
0.0
  3
*D24
  1

  0
POINT
  5
462
330
46B
100
AcDbEntity
  8
DEFPOINTS
  6
ByBlock
 62
     0
380
     1
100
AcDbPoint
 10
3166.240767914102
 20
1975.722301404518
 30
0.0
  0
POINT
  5
463
330
46B
100
AcDbEntity
  8
DEFPOINTS
  6
ByBlock
 62
     0
380
     1
100
AcDbPoint
 10
3697.240987177461
 20
1975.722301404518
 30
0.0
  0
LINE
  5
464
330
46B
100
AcDbEntity
  8
0
  6
ByBlock
 62
     0
370
    -2
380
     1
100
AcDbLine
 10
3166.240767914102
 20
1975.097301404518
 30
0.0
 11
3166.240767914102
 21
1849.890313933708
 31
0.0
  0
LINE
  5
465
330
46B
100
AcDbEntity
  8
0
  6
ByBlock
 62
     0
370
    -2
380
     1
100
AcDbLine
 10
3697.240987177461
 20
1975.097301404518
 30
0.0
 11
3697.240987177461
 21
1849.890313933708
 31
0.0
  0
LINE
  5
466
330
46B
100
AcDbEntity
  8
0
  6
ByBlock
 62
     0
370
    -2
380
     1
100
AcDbLine
 10
3168.740767914102
 20
1851.140313933708
 30
0.0
 11
3694.740987177461
 21
1851.140313933708
 31
0.0
  0
SOLID
  5
467
330
46B
100
AcDbEntity
  8
0
  6
ByBlock
 62
     0
380
     1
100
AcDbTrace
 10
3166.240767914102
 20
1851.140313933708
 30
0.0
 11
3168.740767914102
 21
1850.723647267041
 31
0.0
 12
3168.740767914102
 22
1851.556980600375
 32
0.0
 13
3168.740767914102
 23
1851.556980600375
 33
0.0
  0
SOLID
  5
468
330
46B
100
AcDbEntity
  8
0
  6
ByBlock
 62
     0
380
     1
100
AcDbTrace
 10
3697.240987177461
 20
1851.140313933708
 30
0.0
 11
3694.740987177461
 21
1850.723647267041
 31
0.0
 12
3694.740987177461
 22
1851.556980600375
 32
0.0
 13
3694.740987177461
 23
1851.556980600375
 33
0.0
  0
MTEXT
  5
469
330
46B
100
AcDbEntity
  8
0
  6
ByBlock
 62
     0
370
    -2
380
     1
100
AcDbMText
 10
3431.740877545782
 20
1853.015313933708
 30
0.0
 40
2.5
 41
0.0
 71
     5
 72
     1
  1
\A1;531
 73
     1
 44
1.0
  0
ENDBLK
  5
6A6
330
46B
100
AcDbEntity
  8
0
100
AcDbBlockEnd
  0
BLOCK
  5
6A7
330
477
100
AcDbEntity
  8
0
100
AcDbBlockBegin
  2
*D25
 70
     1
 10
0.0
 20
0.0
 30
0.0
  3
*D25
  1

  0
POINT
  5
46E
330
477
100
AcDbEntity
  8
DEFPOINTS
  6
ByBlock
 62
     0
380
     1
100
AcDbPoint
 10
4170.097350591861
 20
2757.033174242805
 30
0.0
  0
POINT
  5
46F
330
477
100
AcDbEntity
  8
DEFPOINTS
  6
ByBlock
 62
     0
380
     1
100
AcDbPoint
 10
4169.29643291556
 20
2272.041248212725
 30
0.0
  0
LINE
  5
470
330
477
100
AcDbEntity
  8
0
  6
ByBlock
 62
     0
370
    -2
380
     1
100
AcDbLine
 10
4170.722350591861
 20
2757.033174242805
 30
0.0
 11
4318.794287366605
 21
2757.033174242805
 31
0.0
  0
LINE
  5
471
330
477
100
AcDbEntity
  8
0
  6
ByBlock
 62
     0
370
    -2
380
     1
100
AcDbLine
 10
4169.92143291556
 20
2272.041248212725
 30
0.0
 11
4318.794287366605
 21
2272.041248212725
 31
0.0
  0
LINE
  5
472
330
477
100
AcDbEntity
  8
0
  6
ByBlock
 62
     0
370
    -2
380
     1
100
AcDbLine
 10
4317.544287366605
 20
2754.533174242805
 30
0.0
 11
4317.544287366605
 21
2274.541248212725
 31
0.0
  0
SOLID
  5
473
330
477
100
AcDbEntity
  8
0
  6
ByBlock
 62
     0
380
     1
100
AcDbTrace
 10
4317.544287366605
 20
2757.033174242805
 30
0.0
 11
4317.127620699938
 21
2754.533174242805
 31
0.0
 12
4317.960954033272
 22
2754.533174242805
 32
0.0
 13
4317.960954033272
 23
2754.533174242805
 33
0.0
  0
SOLID
  5
474
330
477
100
AcDbEntity
  8
0
  6
ByBlock
 62
     0
380
     1
100
AcDbTrace
 10
4317.544287366605
 20
2272.041248212725
 30
0.0
 11
4317.127620699938
 21
2274.541248212725
 31
0.0
 12
4317.960954033272
 22
2274.541248212725
 32
0.0
 13
4317.960954033272
 23
2274.541248212725
 33
0.0
  0
MTEXT
  5
475
330
477
100
AcDbEntity
  8
0
  6
ByBlock
 62
     0
370
    -2
380
     1
100
AcDbMText
 10
4315.460954033272
 20
2514.537211227766
 30
0.0
 40
2.5
 41
0.0
 71
     5
 72
     1
  1
\A1;484,99
 11
6.123031769111886E-17
 21
1.0
 31
0.0
 73
     1
 44
1.0
  0
ENDBLK
  5
6A8
330
477
100
AcDbEntity
  8
0
100
AcDbBlockEnd
  0
BLOCK
  5
6A9
330
482
100
AcDbEntity
  8
0
100
AcDbBlockBegin
  2
*D26
 70
     1
 10
0.0
 20
0.0
 30
0.0
  3
*D26
  1

  0
POINT
  5
479
330
482
100
AcDbEntity
  8
DEFPOINTS
  6
ByBlock
 62
     0
380
     1
100
AcDbPoint
 10
4170.097350591861
 20
2757.033174242805
 30
0.0
  0
POINT
  5
47A
330
482
100
AcDbEntity
  8
DEFPOINTS
  6
ByBlock
 62
     0
380
     1
100
AcDbPoint
 10
4169.29643291556
 20
2272.041248212725
 30
0.0
  0
LINE
  5
47B
330
482
100
AcDbEntity
  8
0
  6
ByBlock
 62
     0
370
    -2
380
     1
100
AcDbLine
 10
4170.722350591861
 20
2757.033174242805
 30
0.0
 11
4318.794287366605
 21
2757.033174242805
 31
0.0
  0
LINE
  5
47C
330
482
100
AcDbEntity
  8
0
  6
ByBlock
 62
     0
370
    -2
380
     1
100
AcDbLine
 10
4169.92143291556
 20
2272.041248212725
 30
0.0
 11
4318.794287366605
 21
2272.041248212725
 31
0.0
  0
LINE
  5
47D
330
482
100
AcDbEntity
  8
0
  6
ByBlock
 62
     0
370
    -2
380
     1
100
AcDbLine
 10
4317.544287366605
 20
2754.533174242805
 30
0.0
 11
4317.544287366605
 21
2274.541248212725
 31
0.0
  0
SOLID
  5
47E
330
482
100
AcDbEntity
  8
0
  6
ByBlock
 62
     0
380
     1
100
AcDbTrace
 10
4317.544287366605
 20
2757.033174242805
 30
0.0
 11
4317.127620699938
 21
2754.533174242805
 31
0.0
 12
4317.960954033272
 22
2754.533174242805
 32
0.0
 13
4317.960954033272
 23
2754.533174242805
 33
0.0
  0
SOLID
  5
47F
330
482
100
AcDbEntity
  8
0
  6
ByBlock
 62
     0
380
     1
100
AcDbTrace
 10
4317.544287366605
 20
2272.041248212725
 30
0.0
 11
4317.127620699938
 21
2274.541248212725
 31
0.0
 12
4317.960954033272
 22
2274.541248212725
 32
0.0
 13
4317.960954033272
 23
2274.541248212725
 33
0.0
  0
MTEXT
  5
480
330
482
100
AcDbEntity
  8
0
  6
ByBlock
 62
     0
370
    -2
380
     1
100
AcDbMText
 10
4315.460954033272
 20
2514.537211227766
 30
0.0
 40
2.5
 41
0.0
 71
     5
 72
     1
  1
\A1;484,99
 11
6.123031769111886E-17
 21
1.0
 31
0.0
 73
     1
 44
1.0
  0
ENDBLK
  5
6AA
330
482
100
AcDbEntity
  8
0
100
AcDbBlockEnd
  0
BLOCK
  5
6AB
330
48D
100
AcDbEntity
  8
0
100
AcDbBlockBegin
  2
*D27
 70
     1
 10
0.0
 20
0.0
 30
0.0
  3
*D27
  1

  0
POINT
  5
484
330
48D
100
AcDbEntity
  8
DEFPOINTS
  6
ByBlock
 62
     0
380
     1
100
AcDbPoint
 10
3166.240767914102
 20
1975.722301404518
 30
0.0
  0
POINT
  5
485
330
48D
100
AcDbEntity
  8
DEFPOINTS
  6
ByBlock
 62
     0
380
     1
100
AcDbPoint
 10
3697.240987177461
 20
1975.722301404518
 30
0.0
  0
LINE
  5
486
330
48D
100
AcDbEntity
  8
0
  6
ByBlock
 62
     0
370
    -2
380
     1
100
AcDbLine
 10
3166.240767914102
 20
1975.097301404518
 30
0.0
 11
3166.240767914102
 21
1849.890313933708
 31
0.0
  0
LINE
  5
487
330
48D
100
AcDbEntity
  8
0
  6
ByBlock
 62
     0
370
    -2
380
     1
100
AcDbLine
 10
3697.240987177461
 20
1975.097301404518
 30
0.0
 11
3697.240987177461
 21
1849.890313933708
 31
0.0
  0
LINE
  5
488
330
48D
100
AcDbEntity
  8
0
  6
ByBlock
 62
     0
370
    -2
380
     1
100
AcDbLine
 10
3168.740767914102
 20
1851.140313933708
 30
0.0
 11
3694.740987177461
 21
1851.140313933708
 31
0.0
  0
SOLID
  5
489
330
48D
100
AcDbEntity
  8
0
  6
ByBlock
 62
     0
380
     1
100
AcDbTrace
 10
3166.240767914102
 20
1851.140313933708
 30
0.0
 11
3168.740767914102
 21
1850.723647267041
 31
0.0
 12
3168.740767914102
 22
1851.556980600375
 32
0.0
 13
3168.740767914102
 23
1851.556980600375
 33
0.0
  0
SOLID
  5
48A
330
48D
100
AcDbEntity
  8
0
  6
ByBlock
 62
     0
380
     1
100
AcDbTrace
 10
3697.240987177461
 20
1851.140313933708
 30
0.0
 11
3694.740987177461
 21
1850.723647267041
 31
0.0
 12
3694.740987177461
 22
1851.556980600375
 32
0.0
 13
3694.740987177461
 23
1851.556980600375
 33
0.0
  0
MTEXT
  5
48B
330
48D
100
AcDbEntity
  8
0
  6
ByBlock
 62
     0
370
    -2
380
     1
100
AcDbMText
 10
3431.740877545782
 20
1853.015313933708
 30
0.0
 40
2.5
 41
0.0
 71
     5
 72
     1
  1
\A1;531
 73
     1
 44
1.0
  0
ENDBLK
  5
6AC
330
48D
100
AcDbEntity
  8
0
100
AcDbBlockEnd
  0
BLOCK
  5
6AD
330
498
100
AcDbEntity
  8
0
100
AcDbBlockBegin
  2
*D28
 70
     1
 10
0.0
 20
0.0
 30
0.0
  3
*D28
  1

  0
POINT
  5
48F
330
498
100
AcDbEntity
  8
DEFPOINTS
  6
ByBlock
 62
     1
380
     1
100
AcDbPoint
 10
4106.471664693542
 20
2757.033174242805
 30
0.0
  0
POINT
  5
490
330
498
100
AcDbEntity
  8
DEFPOINTS
  6
ByBlock
 62
     1
380
     1
100
AcDbPoint
 10
4104.869829340941
 20
2272.041248212725
 30
0.0
  0
LINE
  5
491
330
498
100
AcDbEntity
  8
0
  6
ByBlock
 62
     1
370
    -2
380
     1
100
AcDbLine
 10
4107.471664693542
 20
2757.033174242805
 30
0.0
 11
4215.037888490181
 21
2757.033174242805
 31
0.0
  0
LINE
  5
492
330
498
100
AcDbEntity
  8
0
  6
ByBlock
 62
     1
370
    -2
380
     1
100
AcDbLine
 10
4105.869829340941
 20
2272.041248212725
 30
0.0
 11
4215.037888490181
 21
2272.041248212725
 31
0.0
  0
LINE
  5
493
330
498
100
AcDbEntity
  8
0
  6
ByBlock
 62
     1
370
    -2
380
     1
100
AcDbLine
 10
4214.737888490181
 20
2755.333174242805
 30
0.0
 11
4214.737888490181
 21
2273.741248212725
 31
0.0
  0
SOLID
  5
494
330
498
100
AcDbEntity
  8
0
  6
ByBlock
 62
     1
380
     1
100
AcDbTrace
 10
4214.737888490181
 20
2757.033174242805
 30
0.0
 11
4214.454555156847
 21
2755.333174242805
 31
0.0
 12
4215.021221823515
 22
2755.333174242805
 32
0.0
 13
4215.021221823515
 23
2755.333174242805
 33
0.0
  0
SOLID
  5
495
330
498
100
AcDbEntity
  8
0
  6
ByBlock
 62
     1
380
     1
100
AcDbTrace
 10
4214.737888490181
 20
2272.041248212725
 30
0.0
 11
4214.454555156847
 21
2273.741248212725
 31
0.0
 12
4215.021221823515
 22
2273.741248212725
 32
0.0
 13
4215.021221823515
 23
2273.741248212725
 33
0.0
  0
MTEXT
  5
496
330
498
100
AcDbEntity
  8
0
  6
ByBlock
 62
     0
370
    -2
380
     1
100
AcDbMText
 10
4213.094385761668
 20
2514.537211227766
 30
0.0
 40
1.75
 41
0.0
 71
     5
 72
     1
  1
485
  7
H
 11
6.123031769111886E-17
 21
1.0
 31
0.0
 73
     1
 44
1.0
  0
ENDBLK
  5
6AE
330
498
100
AcDbEntity
  8
0
100
AcDbBlockEnd
  0
BLOCK
  5
6AF
330
4A3
100
AcDbEntity
  8
0
100
AcDbBlockBegin
  2
*D29
 70
     1
 10
0.0
 20
0.0
 30
0.0
  3
*D29
  1

  0
POINT
  5
49A
330
4A3
100
AcDbEntity
  8
DEFPOINTS
  6
ByBlock
 62
     1
380
     1
100
AcDbPoint
 10
4129.172264572982
 20
2482.296279117285
 30
0.0
  0
POINT
  5
49B
330
4A3
100
AcDbEntity
  8
DEFPOINTS
  6
ByBlock
 62
     1
380
     1
100
AcDbPoint
 10
3870.340658968382
 20
2447.111004939645
 30
0.0
  0
LINE
  5
49C
330
4A3
100
AcDbEntity
  8
0
  6
ByBlock
 62
     1
370
    -2
380
     1
100
AcDbLine
 10
4129.172264572982
 20
2481.296279117285
 30
0.0
 11
4129.172264572982
 21
1993.421033907525
 31
0.0
  0
LINE
  5
49D
330
4A3
100
AcDbEntity
  8
0
  6
ByBlock
 62
     1
370
    -2
380
     1
100
AcDbLine
 10
3870.340658968382
 20
2446.111004939645
 30
0.0
 11
3870.340658968382
 21
1993.421033907525
 31
0.0
  0
LINE
  5
49E
330
4A3
100
AcDbEntity
  8
0
  6
ByBlock
 62
     1
370
    -2
380
     1
100
AcDbLine
 10
4127.472264572983
 20
1993.721033907525
 30
0.0
 11
3872.040658968382
 21
1993.721033907525
 31
0.0
  0
SOLID
  5
49F
330
4A3
100
AcDbEntity
  8
0
  6
ByBlock
 62
     1
380
     1
100
AcDbTrace
 10
4129.172264572982
 20
1993.721033907525
 30
0.0
 11
4127.472264572983
 21
1994.004367240859
 31
0.0
 12
4127.472264572983
 22
1993.437700574192
 32
0.0
 13
4127.472264572983
 23
1993.437700574192
 33
0.0
  0
SOLID
  5
4A0
330
4A3
100
AcDbEntity
  8
0
  6
ByBlock
 62
     1
380
     1
100
AcDbTrace
 10
3870.340658968382
 20
1993.721033907525
 30
0.0
 11
3872.040658968382
 21
1994.004367240859
 31
0.0
 12
3872.040658968382
 22
1993.437700574192
 32
0.0
 13
3872.040658968382
 23
1993.437700574192
 33
0.0
  0
MTEXT
  5
4A1
330
4A3
100
AcDbEntity
  8
0
  6
ByBlock
 62
     0
370
    -2
380
     1
100
AcDbMText
 10
3999.756461770682
 20
1995.364536636038
 30
0.0
 40
1.75
 41
0.0
 71
     5
 72
     1
  1
295
  7
H
 73
     1
 44
1.0
  0
ENDBLK
  5
6B0
330
4A3
100
AcDbEntity
  8
0
100
AcDbBlockEnd
  0
BLOCK
  5
6B1
330
4AE
100
AcDbEntity
  8
0
100
AcDbBlockBegin
  2
*D30
 70
     1
 10
0.0
 20
0.0
 30
0.0
  3
*D30
  1

  0
POINT
  5
4A5
330
4AE
100
AcDbEntity
  8
DEFPOINTS
  6
ByBlock
 62
     1
380
     1
100
AcDbPoint
 10
3166.240767914102
 20
2179.198751368485
 30
0.0
  0
POINT
  5
4A6
330
4AE
100
AcDbEntity
  8
DEFPOINTS
  6
ByBlock
 62
     1
380
     1
100
AcDbPoint
 10
3697.240987177461
 20
2180.757613920046
 30
0.0
  0
LINE
  5
4A7
330
4AE
100
AcDbEntity
  8
0
  6
ByBlock
 62
     1
370
    -2
380
     1
100
AcDbLine
 10
3166.240767914102
 20
2178.198751368485
 30
0.0
 11
3166.240767914102
 21
1925.796746060087
 31
0.0
  0
LINE
  5
4A8
330
4AE
100
AcDbEntity
  8
0
  6
ByBlock
 62
     1
370
    -2
380
     1
100
AcDbLine
 10
3697.240987177461
 20
2179.757613920046
 30
0.0
 11
3697.240987177461
 21
1925.796746060087
 31
0.0
  0
LINE
  5
4A9
330
4AE
100
AcDbEntity
  8
0
  6
ByBlock
 62
     1
370
    -2
380
     1
100
AcDbLine
 10
3167.940767914102
 20
1926.096746060087
 30
0.0
 11
3695.540987177461
 21
1926.096746060087
 31
0.0
  0
SOLID
  5
4AA
330
4AE
100
AcDbEntity
  8
0
  6
ByBlock
 62
     1
380
     1
100
AcDbTrace
 10
3166.240767914102
 20
1926.096746060087
 30
0.0
 11
3167.940767914102
 21
1925.813412726754
 31
0.0
 12
3167.940767914102
 22
1926.38007939342
 32
0.0
 13
3167.940767914102
 23
1926.38007939342
 33
0.0
  0
SOLID
  5
4AB
330
4AE
100
AcDbEntity
  8
0
  6
ByBlock
 62
     1
380
     1
100
AcDbTrace
 10
3697.240987177461
 20
1926.096746060087
 30
0.0
 11
3695.540987177461
 21
1925.813412726754
 31
0.0
 12
3695.540987177461
 22
1926.38007939342
 32
0.0
 13
3695.540987177461
 23
1926.38007939342
 33
0.0
  0
MTEXT
  5
4AC
330
4AE
100
AcDbEntity
  8
0
  6
ByBlock
 62
     0
370
    -2
380
     1
100
AcDbMText
 10
3431.740877545782
 20
1927.74084565081
 30
0.0
 40
1.75
 41
0.0
 71
     5
 72
     1
  1
531
  7
H
 73
     1
 44
1.0
  0
ENDBLK
  5
6B2
330
4AE
100
AcDbEntity
  8
0
100
AcDbBlockEnd
  0
BLOCK
  5
6B3
330
4BB
100
AcDbEntity
  8
0
100
AcDbBlockBegin
  2
*D31
 70
     1
 10
0.0
 20
0.0
 30
0.0
  3
*D31
  1

  0
POINT
  5
4B0
330
4BB
100
AcDbEntity
  8
DEFPOINTS
  6
ByBlock
 62
     1
380
     1
100
AcDbPoint
 10
3431.709668883261
 20
2119.989932180805
 30
0.0
  0
POINT
  5
4B1
330
4BB
100
AcDbEntity
  8
DEFPOINTS
  6
ByBlock
 62
     1
380
     1
100
AcDbPoint
 10
3597.833978239581
 20
2119.989932180805
 30
0.0
  0
LINE
  5
4B2
330
4BB
100
AcDbEntity
  8
0
  6
ByBlock
 62
     1
370
    -2
380
     1
100
AcDbLine
 10
3597.833978239581
 20
2118.989932180805
 30
0.0
 11
3597.833978239581
 21
1993.421033907525
 31
0.0
  0
LINE
  5
4B3
330
4BB
100
AcDbEntity
  8
0
  6
ByBlock
 62
     1
370
    -2
380
     1
100
AcDbLine
 10
3514.771823561421
 20
1993.721033907525
 30
0.0
 11
3517.369708963877
 21
2020.023515447439
 31
0.0
  0
LINE
  5
4B4
330
4BB
100
AcDbEntity
  8
0
  6
ByBlock
 62
     1
370
    -2
380
     1
100
AcDbLine
 10
3517.369708963877
 20
2020.023515447439
 30
0.0
 11
3512.173938158965
 21
2020.023515447439
 31
0.0
  0
LINE
  5
4B5
330
4BB
100
AcDbEntity
  8
0
  6
ByBlock
 62
     1
370
    -2
380
     1
100
AcDbLine
 10
3431.709668883261
 20
1993.721033907525
 30
0.0
 11
3597.833978239581
 21
1993.721033907525
 31
0.0
  0
SOLID
  5
4B6
330
4BB
100
AcDbEntity
  8
0
  6
ByBlock
 62
     1
380
     1
100
AcDbTrace
 10
3431.709668883261
 20
1993.721033907525
 30
0.0
 11
3433.409668883261
 21
1993.437700574192
 31
0.0
 12
3433.409668883261
 22
1994.004367240859
 32
0.0
 13
3433.409668883261
 23
1994.004367240859
 33
0.0
  0
SOLID
  5
4B7
330
4BB
100
AcDbEntity
  8
0
  6
ByBlock
 62
     1
380
     1
100
AcDbTrace
 10
3597.833978239581
 20
1993.721033907525
 30
0.0
 11
3596.133978239581
 21
1993.437700574192
 31
0.0
 12
3596.133978239581
 22
1994.004367240859
 32
0.0
 13
3596.133978239581
 23
1994.004367240859
 33
0.0
  0
LINE
  5
4B8
330
4BB
100
AcDbEntity
  8
0
  6
ByBlock
 62
     1
370
    -2
380
     1
100
AcDbLine
 10
3431.709668883261
 20
2119.989932180805
 30
0.0
 11
3431.709668883261
 21
2119.989932180805
 31
0.0
  0
MTEXT
  5
4B9
330
4BB
100
AcDbEntity
  8
0
  6
ByBlock
 62
     0
370
    -2
380
     1
100
AcDbMText
 10
3514.771823561421
 20
2018.380012718925
 30
0.0
 40
1.75
 41
0.0
 71
     5
 72
     1
  1
170
  7
H
 73
     1
 44
1.0
  0
ENDBLK
  5
6B4
330
4BB
100
AcDbEntity
  8
0
100
AcDbBlockEnd
  0
BLOCK
  5
6B5
330
4C6
100
AcDbEntity
  8
0
100
AcDbBlockBegin
  2
*D32
 70
     1
 10
0.0
 20
0.0
 30
0.0
  3
*D32
  1

  0
POINT
  5
4BD
330
4C6
100
AcDbEntity
  8
DEFPOINTS
  6
ByBlock
 62
     1
380
     1
100
AcDbPoint
 10
3265.585242695262
 20
2119.989932180805
 30
0.0
  0
POINT
  5
4BE
330
4C6
100
AcDbEntity
  8
DEFPOINTS
  6
ByBlock
 62
     1
380
     1
100
AcDbPoint
 10
3431.709668883261
 20
2119.989932180805
 30
0.0
  0
LINE
  5
4BF
330
4C6
100
AcDbEntity
  8
0
  6
ByBlock
 62
     1
370
    -2
380
     1
100
AcDbLine
 10
3265.585242695262
 20
2118.989932180805
 30
0.0
 11
3265.585242695262
 21
1993.421033907525
 31
0.0
  0
LINE
  5
4C0
330
4C6
100
AcDbEntity
  8
0
  6
ByBlock
 62
     1
370
    -2
380
     1
100
AcDbLine
 10
3431.709668883261
 20
2118.989932180805
 30
0.0
 11
3431.709668883261
 21
1993.421033907525
 31
0.0
  0
LINE
  5
4C1
330
4C6
100
AcDbEntity
  8
0
  6
ByBlock
 62
     1
370
    -2
380
     1
100
AcDbLine
 10
3267.285242695262
 20
1993.721033907525
 30
0.0
 11
3430.009668883261
 21
1993.721033907525
 31
0.0
  0
SOLID
  5
4C2
330
4C6
100
AcDbEntity
  8
0
  6
ByBlock
 62
     1
380
     1
100
AcDbTrace
 10
3265.585242695262
 20
1993.721033907525
 30
0.0
 11
3267.285242695262
 21
1993.437700574192
 31
0.0
 12
3267.285242695262
 22
1994.004367240859
 32
0.0
 13
3267.285242695262
 23
1994.004367240859
 33
0.0
  0
SOLID
  5
4C3
330
4C6
100
AcDbEntity
  8
0
  6
ByBlock
 62
     1
380
     1
100
AcDbTrace
 10
3431.709668883261
 20
1993.721033907525
 30
0.0
 11
3430.009668883261
 21
1993.437700574192
 31
0.0
 12
3430.009668883261
 22
1994.004367240859
 32
0.0
 13
3430.009668883261
 23
1994.004367240859
 33
0.0
  0
MTEXT
  5
4C4
330
4C6
100
AcDbEntity
  8
0
  6
ByBlock
 62
     0
370
    -2
380
     1
100
AcDbMText
 10
3348.647455789262
 20
1995.364536636038
 30
0.0
 40
1.75
 41
0.0
 71
     5
 72
     1
  1
170
  7
H
 73
     1
 44
1.0
  0
ENDBLK
  5
6B6
330
4C6
100
AcDbEntity
  8
0
100
AcDbBlockEnd
  0
BLOCK
  5
6B7
330
4D2
100
AcDbEntity
  8
0
100
AcDbBlockBegin
  2
*D33
 70
     1
 10
0.0
 20
0.0
 30
0.0
  3
*D33
  1

  0
POINT
  5
4C8
330
4D2
100
AcDbEntity
  8
DEFPOINTS
  6
ByBlock
 62
     1
380
     1
100
AcDbPoint
 10
3590.993439563701
 20
2142.743910297285
 30
0.0
  0
POINT
  5
4C9
330
4D2
100
AcDbEntity
  8
DEFPOINTS
  6
ByBlock
 62
     1
380
     1
100
AcDbPoint
 10
3604.674589935262
 20
2142.743910297285
 30
0.0
  0
LINE
  5
4CA
330
4D2
100
AcDbEntity
  8
0
  6
ByBlock
 62
     1
370
    -2
380
     1
100
AcDbLine
 10
3590.993439563701
 20
2141.743910297285
 30
0.0
 11
3590.993439563701
 21
2052.224749469925
 31
0.0
  0
LINE
  5
4CB
330
4D2
100
AcDbEntity
  8
0
  6
ByBlock
 62
     1
370
    -2
380
     1
100
AcDbLine
 10
3604.674589935262
 20
2141.743910297285
 30
0.0
 11
3604.674589935262
 21
2052.224749469925
 31
0.0
  0
LINE
  5
4CC
330
4D2
100
AcDbEntity
  8
0
  6
ByBlock
 62
     1
370
    -2
380
     1
100
AcDbLine
 10
3592.6934395637
 20
2052.524749469926
 30
0.0
 11
3602.974589935262
 21
2052.524749469926
 31
0.0
  0
LINE
  5
4CD
330
4D2
100
AcDbEntity
  8
0
  6
ByBlock
 62
     1
370
    -2
380
     1
100
AcDbLine
 10
3604.674589935262
 20
2052.524749469926
 30
0.0
 11
3775.355732211721
 21
2052.524749469926
 31
0.0
  0
SOLID
  5
4CE
330
4D2
100
AcDbEntity
  8
0
  6
ByBlock
 62
     1
380
     1
100
AcDbTrace
 10
3590.993439563701
 20
2052.524749469926
 30
0.0
 11
3592.6934395637
 21
2052.241416136592
 31
0.0
 12
3592.6934395637
 22
2052.808082803259
 32
0.0
 13
3592.6934395637
 23
2052.808082803259
 33
0.0
  0
SOLID
  5
4CF
330
4D2
100
AcDbEntity
  8
0
  6
ByBlock
 62
     1
380
     1
100
AcDbTrace
 10
3604.674589935262
 20
2052.524749469926
 30
0.0
 11
3602.974589935262
 21
2052.241416136592
 31
0.0
 12
3602.974589935262
 22
2052.808082803259
 32
0.0
 13
3602.974589935262
 23
2052.808082803259
 33
0.0
  0
MTEXT
  5
4D0
330
4D2
100
AcDbEntity
  8
0
  6
ByBlock
 62
     0
370
    -2
380
     1
100
AcDbMText
 10
3770.420335440462
 20
2054.217194899667
 30
0.0
 40
1.75
 41
0.0
 71
     5
 72
     1
  1
2 x %%C14
  7
H
 73
     1
 44
1.0
  0
ENDBLK
  5
6B8
330
4D2
100
AcDbEntity
  8
0
100
AcDbBlockEnd
  0
BLOCK
  5
6B9
330
4DD
100
AcDbEntity
  8
0
100
AcDbBlockBegin
  2
*D34
 70
     1
 10
0.0
 20
0.0
 30
0.0
  3
*D34
  1

  0
POINT
  5
4D4
330
4DD
100
AcDbEntity
  8
DEFPOINTS
  6
ByBlock
 62
     1
380
     1
100
AcDbPoint
 10
3424.869436890541
 20
2150.746112260485
 30
0.0
  0
POINT
  5
4D5
330
4DD
100
AcDbEntity
  8
DEFPOINTS
  6
ByBlock
 62
     1
380
     1
100
AcDbPoint
 10
3438.550178351221
 20
2150.746112260485
 30
0.0
  0
LINE
  5
4D6
330
4DD
100
AcDbEntity
  8
0
  6
ByBlock
 62
     1
370
    -2
380
     1
100
AcDbLine
 10
3424.869436890541
 20
2151.746112260485
 30
0.0
 11
3424.869436890541
 21
2210.089502173966
 31
0.0
  0
LINE
  5
4D7
330
4DD
100
AcDbEntity
  8
0
  6
ByBlock
 62
     1
370
    -2
380
     1
100
AcDbLine
 10
3438.550178351221
 20
2151.746112260485
 30
0.0
 11
3438.550178351221
 21
2210.089502173966
 31
0.0
  0
LINE
  5
4D8
330
4DD
100
AcDbEntity
  8
0
  6
ByBlock
 62
     1
370
    -2
380
     1
100
AcDbLine
 10
3426.569436890541
 20
2209.789502173966
 30
0.0
 11
3436.850178351221
 21
2209.789502173966
 31
0.0
  0
SOLID
  5
4D9
330
4DD
100
AcDbEntity
  8
0
  6
ByBlock
 62
     1
380
     1
100
AcDbTrace
 10
3424.869436890541
 20
2209.789502173966
 30
0.0
 11
3426.569436890541
 21
2209.506168840632
 31
0.0
 12
3426.569436890541
 22
2210.072835507299
 32
0.0
 13
3426.569436890541
 23
2210.072835507299
 33
0.0
  0
SOLID
  5
4DA
330
4DD
100
AcDbEntity
  8
0
  6
ByBlock
 62
     1
380
     1
100
AcDbTrace
 10
3438.550178351221
 20
2209.789502173966
 30
0.0
 11
3436.850178351221
 21
2209.506168840632
 31
0.0
 12
3436.850178351221
 22
2210.072835507299
 32
0.0
 13
3436.850178351221
 23
2210.072835507299
 33
0.0
  0
MTEXT
  5
4DB
330
4DD
100
AcDbEntity
  8
0
  6
ByBlock
 62
     0
370
    -2
380
     1
100
AcDbMText
 10
3431.709807620881
 20
2211.481947603706
 30
0.0
 40
1.75
 41
0.0
 71
     5
 72
     1
  1
%%C19
  7
H
 73
     1
 44
1.0
  0
ENDBLK
  5
6BA
330
4DD
100
AcDbEntity
  8
0
100
AcDbBlockEnd
  0
BLOCK
  5
6BB
330
4E8
100
AcDbEntity
  8
0
100
AcDbBlockBegin
  2
*D35
 70
     1
 10
0.0
 20
0.0
 30
0.0
  3
*D35
  1

  0
POINT
  5
4DF
330
4E8
100
AcDbEntity
  8
DEFPOINTS
  6
ByBlock
 62
     1
380
     1
100
AcDbPoint
 10
3424.869436890541
 20
2150.746112260485
 30
0.0
  0
POINT
  5
4E0
330
4E8
100
AcDbEntity
  8
DEFPOINTS
  6
ByBlock
 62
     1
380
     1
100
AcDbPoint
 10
3438.550178351221
 20
2150.746112260485
 30
0.0
  0
LINE
  5
4E1
330
4E8
100
AcDbEntity
  8
0
  6
ByBlock
 62
     1
370
    -2
380
     1
100
AcDbLine
 10
3424.869436890541
 20
2151.746112260485
 30
0.0
 11
3424.869436890541
 21
2210.089502173966
 31
0.0
  0
LINE
  5
4E2
330
4E8
100
AcDbEntity
  8
0
  6
ByBlock
 62
     1
370
    -2
380
     1
100
AcDbLine
 10
3438.550178351221
 20
2151.746112260485
 30
0.0
 11
3438.550178351221
 21
2210.089502173966
 31
0.0
  0
LINE
  5
4E3
330
4E8
100
AcDbEntity
  8
0
  6
ByBlock
 62
     1
370
    -2
380
     1
100
AcDbLine
 10
3426.569436890541
 20
2209.789502173966
 30
0.0
 11
3436.850178351221
 21
2209.789502173966
 31
0.0
  0
SOLID
  5
4E4
330
4E8
100
AcDbEntity
  8
0
  6
ByBlock
 62
     1
380
     1
100
AcDbTrace
 10
3424.869436890541
 20
2209.789502173966
 30
0.0
 11
3426.569436890541
 21
2209.506168840632
 31
0.0
 12
3426.569436890541
 22
2210.072835507299
 32
0.0
 13
3426.569436890541
 23
2210.072835507299
 33
0.0
  0
SOLID
  5
4E5
330
4E8
100
AcDbEntity
  8
0
  6
ByBlock
 62
     1
380
     1
100
AcDbTrace
 10
3438.550178351221
 20
2209.789502173966
 30
0.0
 11
3436.850178351221
 21
2209.506168840632
 31
0.0
 12
3436.850178351221
 22
2210.072835507299
 32
0.0
 13
3436.850178351221
 23
2210.072835507299
 33
0.0
  0
MTEXT
  5
4E6
330
4E8
100
AcDbEntity
  8
0
  6
ByBlock
 62
     0
370
    -2
380
     1
100
AcDbMText
 10
3431.709807620881
 20
2211.481947603706
 30
0.0
 40
1.75
 41
0.0
 71
     5
 72
     1
  1
%%C19
  7
H
 73
     1
 44
1.0
  0
ENDBLK
  5
6BC
330
4E8
100
AcDbEntity
  8
0
100
AcDbBlockEnd
  0
BLOCK
  5
6BD
330
4F4
100
AcDbEntity
  8
0
100
AcDbBlockBegin
  2
*D36
 70
     1
 10
0.0
 20
0.0
 30
0.0
  3
*D36
  1

  0
POINT
  5
4EA
330
4F4
100
AcDbEntity
  8
DEFPOINTS
  6
ByBlock
 62
     1
380
     1
100
AcDbPoint
 10
3590.993439563701
 20
2142.743910297285
 30
0.0
  0
POINT
  5
4EB
330
4F4
100
AcDbEntity
  8
DEFPOINTS
  6
ByBlock
 62
     1
380
     1
100
AcDbPoint
 10
3604.674589935262
 20
2142.743910297285
 30
0.0
  0
LINE
  5
4EC
330
4F4
100
AcDbEntity
  8
0
  6
ByBlock
 62
     1
370
    -2
380
     1
100
AcDbLine
 10
3590.993439563701
 20
2141.743910297285
 30
0.0
 11
3590.993439563701
 21
2052.224749469925
 31
0.0
  0
LINE
  5
4ED
330
4F4
100
AcDbEntity
  8
0
  6
ByBlock
 62
     1
370
    -2
380
     1
100
AcDbLine
 10
3604.674589935262
 20
2141.743910297285
 30
0.0
 11
3604.674589935262
 21
2052.224749469925
 31
0.0
  0
LINE
  5
4EE
330
4F4
100
AcDbEntity
  8
0
  6
ByBlock
 62
     1
370
    -2
380
     1
100
AcDbLine
 10
3592.6934395637
 20
2052.524749469926
 30
0.0
 11
3602.974589935262
 21
2052.524749469926
 31
0.0
  0
LINE
  5
4EF
330
4F4
100
AcDbEntity
  8
0
  6
ByBlock
 62
     1
370
    -2
380
     1
100
AcDbLine
 10
3604.674589935262
 20
2052.524749469926
 30
0.0
 11
3775.355732211721
 21
2052.524749469926
 31
0.0
  0
SOLID
  5
4F0
330
4F4
100
AcDbEntity
  8
0
  6
ByBlock
 62
     1
380
     1
100
AcDbTrace
 10
3590.993439563701
 20
2052.524749469926
 30
0.0
 11
3592.6934395637
 21
2052.241416136592
 31
0.0
 12
3592.6934395637
 22
2052.808082803259
 32
0.0
 13
3592.6934395637
 23
2052.808082803259
 33
0.0
  0
SOLID
  5
4F1
330
4F4
100
AcDbEntity
  8
0
  6
ByBlock
 62
     1
380
     1
100
AcDbTrace
 10
3604.674589935262
 20
2052.524749469926
 30
0.0
 11
3602.974589935262
 21
2052.241416136592
 31
0.0
 12
3602.974589935262
 22
2052.808082803259
 32
0.0
 13
3602.974589935262
 23
2052.808082803259
 33
0.0
  0
MTEXT
  5
4F2
330
4F4
100
AcDbEntity
  8
0
  6
ByBlock
 62
     0
370
    -2
380
     1
100
AcDbMText
 10
3770.420335440462
 20
2054.217194899667
 30
0.0
 40
1.75
 41
0.0
 71
     5
 72
     1
  1
2 x %%C14
  7
H
 73
     1
 44
1.0
  0
ENDBLK
  5
6BE
330
4F4
100
AcDbEntity
  8
0
100
AcDbBlockEnd
  0
BLOCK
  5
6BF
330
4FF
100
AcDbEntity
  8
0
100
AcDbBlockBegin
  2
*D37
 70
     1
 10
0.0
 20
0.0
 30
0.0
  3
*D37
  1

  0
POINT
  5
4F6
330
4FF
100
AcDbEntity
  8
DEFPOINTS
  6
ByBlock
 62
     1
380
     1
100
AcDbPoint
 10
3265.585242695262
 20
2119.989932180805
 30
0.0
  0
POINT
  5
4F7
330
4FF
100
AcDbEntity
  8
DEFPOINTS
  6
ByBlock
 62
     1
380
     1
100
AcDbPoint
 10
3431.709668883261
 20
2119.989932180805
 30
0.0
  0
LINE
  5
4F8
330
4FF
100
AcDbEntity
  8
0
  6
ByBlock
 62
     1
370
    -2
380
     1
100
AcDbLine
 10
3265.585242695262
 20
2118.989932180805
 30
0.0
 11
3265.585242695262
 21
1993.421033907525
 31
0.0
  0
LINE
  5
4F9
330
4FF
100
AcDbEntity
  8
0
  6
ByBlock
 62
     1
370
    -2
380
     1
100
AcDbLine
 10
3431.709668883261
 20
2118.989932180805
 30
0.0
 11
3431.709668883261
 21
1993.421033907525
 31
0.0
  0
LINE
  5
4FA
330
4FF
100
AcDbEntity
  8
0
  6
ByBlock
 62
     1
370
    -2
380
     1
100
AcDbLine
 10
3267.285242695262
 20
1993.721033907525
 30
0.0
 11
3430.009668883261
 21
1993.721033907525
 31
0.0
  0
SOLID
  5
4FB
330
4FF
100
AcDbEntity
  8
0
  6
ByBlock
 62
     1
380
     1
100
AcDbTrace
 10
3265.585242695262
 20
1993.721033907525
 30
0.0
 11
3267.285242695262
 21
1993.437700574192
 31
0.0
 12
3267.285242695262
 22
1994.004367240859
 32
0.0
 13
3267.285242695262
 23
1994.004367240859
 33
0.0
  0
SOLID
  5
4FC
330
4FF
100
AcDbEntity
  8
0
  6
ByBlock
 62
     1
380
     1
100
AcDbTrace
 10
3431.709668883261
 20
1993.721033907525
 30
0.0
 11
3430.009668883261
 21
1993.437700574192
 31
0.0
 12
3430.009668883261
 22
1994.004367240859
 32
0.0
 13
3430.009668883261
 23
1994.004367240859
 33
0.0
  0
MTEXT
  5
4FD
330
4FF
100
AcDbEntity
  8
0
  6
ByBlock
 62
     0
370
    -2
380
     1
100
AcDbMText
 10
3348.647455789262
 20
1995.364536636038
 30
0.0
 40
1.75
 41
0.0
 71
     5
 72
     1
  1
170
  7
H
 73
     1
 44
1.0
  0
ENDBLK
  5
6C0
330
4FF
100
AcDbEntity
  8
0
100
AcDbBlockEnd
  0
BLOCK
  5
6C1
330
50C
100
AcDbEntity
  8
0
100
AcDbBlockBegin
  2
*D38
 70
     1
 10
0.0
 20
0.0
 30
0.0
  3
*D38
  1

  0
POINT
  5
501
330
50C
100
AcDbEntity
  8
DEFPOINTS
  6
ByBlock
 62
     1
380
     1
100
AcDbPoint
 10
3431.709668883261
 20
2119.989932180805
 30
0.0
  0
POINT
  5
502
330
50C
100
AcDbEntity
  8
DEFPOINTS
  6
ByBlock
 62
     1
380
     1
100
AcDbPoint
 10
3597.833978239581
 20
2119.989932180805
 30
0.0
  0
LINE
  5
503
330
50C
100
AcDbEntity
  8
0
  6
ByBlock
 62
     1
370
    -2
380
     1
100
AcDbLine
 10
3597.833978239581
 20
2118.989932180805
 30
0.0
 11
3597.833978239581
 21
1993.421033907525
 31
0.0
  0
LINE
  5
504
330
50C
100
AcDbEntity
  8
0
  6
ByBlock
 62
     1
370
    -2
380
     1
100
AcDbLine
 10
3514.771823561421
 20
1993.721033907525
 30
0.0
 11
3517.369708963877
 21
2020.023515447439
 31
0.0
  0
LINE
  5
505
330
50C
100
AcDbEntity
  8
0
  6
ByBlock
 62
     1
370
    -2
380
     1
100
AcDbLine
 10
3517.369708963877
 20
2020.023515447439
 30
0.0
 11
3512.173938158965
 21
2020.023515447439
 31
0.0
  0
LINE
  5
506
330
50C
100
AcDbEntity
  8
0
  6
ByBlock
 62
     1
370
    -2
380
     1
100
AcDbLine
 10
3431.709668883261
 20
1993.721033907525
 30
0.0
 11
3597.833978239581
 21
1993.721033907525
 31
0.0
  0
SOLID
  5
507
330
50C
100
AcDbEntity
  8
0
  6
ByBlock
 62
     1
380
     1
100
AcDbTrace
 10
3431.709668883261
 20
1993.721033907525
 30
0.0
 11
3433.409668883261
 21
1993.437700574192
 31
0.0
 12
3433.409668883261
 22
1994.004367240859
 32
0.0
 13
3433.409668883261
 23
1994.004367240859
 33
0.0
  0
SOLID
  5
508
330
50C
100
AcDbEntity
  8
0
  6
ByBlock
 62
     1
380
     1
100
AcDbTrace
 10
3597.833978239581
 20
1993.721033907525
 30
0.0
 11
3596.133978239581
 21
1993.437700574192
 31
0.0
 12
3596.133978239581
 22
1994.004367240859
 32
0.0
 13
3596.133978239581
 23
1994.004367240859
 33
0.0
  0
LINE
  5
509
330
50C
100
AcDbEntity
  8
0
  6
ByBlock
 62
     1
370
    -2
380
     1
100
AcDbLine
 10
3431.709668883261
 20
2119.989932180805
 30
0.0
 11
3431.709668883261
 21
2119.989932180805
 31
0.0
  0
MTEXT
  5
50A
330
50C
100
AcDbEntity
  8
0
  6
ByBlock
 62
     0
370
    -2
380
     1
100
AcDbMText
 10
3514.771823561421
 20
2018.380012718925
 30
0.0
 40
1.75
 41
0.0
 71
     5
 72
     1
  1
170
  7
H
 73
     1
 44
1.0
  0
ENDBLK
  5
6C2
330
50C
100
AcDbEntity
  8
0
100
AcDbBlockEnd
  0
BLOCK
  5
6C3
330
517
100
AcDbEntity
  8
0
100
AcDbBlockBegin
  2
*D39
 70
     1
 10
0.0
 20
0.0
 30
0.0
  3
*D39
  1

  0
POINT
  5
50E
330
517
100
AcDbEntity
  8
DEFPOINTS
  6
ByBlock
 62
     1
380
     1
100
AcDbPoint
 10
3166.240767914102
 20
2179.198751368485
 30
0.0
  0
POINT
  5
50F
330
517
100
AcDbEntity
  8
DEFPOINTS
  6
ByBlock
 62
     1
380
     1
100
AcDbPoint
 10
3697.240987177461
 20
2180.757613920046
 30
0.0
  0
LINE
  5
510
330
517
100
AcDbEntity
  8
0
  6
ByBlock
 62
     1
370
    -2
380
     1
100
AcDbLine
 10
3166.240767914102
 20
2178.198751368485
 30
0.0
 11
3166.240767914102
 21
1925.796746060087
 31
0.0
  0
LINE
  5
511
330
517
100
AcDbEntity
  8
0
  6
ByBlock
 62
     1
370
    -2
380
     1
100
AcDbLine
 10
3697.240987177461
 20
2179.757613920046
 30
0.0
 11
3697.240987177461
 21
1925.796746060087
 31
0.0
  0
LINE
  5
512
330
517
100
AcDbEntity
  8
0
  6
ByBlock
 62
     1
370
    -2
380
     1
100
AcDbLine
 10
3167.940767914102
 20
1926.096746060087
 30
0.0
 11
3695.540987177461
 21
1926.096746060087
 31
0.0
  0
SOLID
  5
513
330
517
100
AcDbEntity
  8
0
  6
ByBlock
 62
     1
380
     1
100
AcDbTrace
 10
3166.240767914102
 20
1926.096746060087
 30
0.0
 11
3167.940767914102
 21
1925.813412726754
 31
0.0
 12
3167.940767914102
 22
1926.38007939342
 32
0.0
 13
3167.940767914102
 23
1926.38007939342
 33
0.0
  0
SOLID
  5
514
330
517
100
AcDbEntity
  8
0
  6
ByBlock
 62
     1
380
     1
100
AcDbTrace
 10
3697.240987177461
 20
1926.096746060087
 30
0.0
 11
3695.540987177461
 21
1925.813412726754
 31
0.0
 12
3695.540987177461
 22
1926.38007939342
 32
0.0
 13
3695.540987177461
 23
1926.38007939342
 33
0.0
  0
MTEXT
  5
515
330
517
100
AcDbEntity
  8
0
  6
ByBlock
 62
     0
370
    -2
380
     1
100
AcDbMText
 10
3431.740877545782
 20
1927.74084565081
 30
0.0
 40
1.75
 41
0.0
 71
     5
 72
     1
  1
531
  7
H
 73
     1
 44
1.0
  0
ENDBLK
  5
6C4
330
517
100
AcDbEntity
  8
0
100
AcDbBlockEnd
  0
BLOCK
  5
6C5
330
522
100
AcDbEntity
  8
0
100
AcDbBlockBegin
  2
*D40
 70
     1
 10
0.0
 20
0.0
 30
0.0
  3
*D40
  1

  0
POINT
  5
519
330
522
100
AcDbEntity
  8
DEFPOINTS
  6
ByBlock
 62
     1
380
     1
100
AcDbPoint
 10
4129.172264572982
 20
2482.296279117285
 30
0.0
  0
POINT
  5
51A
330
522
100
AcDbEntity
  8
DEFPOINTS
  6
ByBlock
 62
     1
380
     1
100
AcDbPoint
 10
3870.340658968382
 20
2447.111004939645
 30
0.0
  0
LINE
  5
51B
330
522
100
AcDbEntity
  8
0
  6
ByBlock
 62
     1
370
    -2
380
     1
100
AcDbLine
 10
4129.172264572982
 20
2481.296279117285
 30
0.0
 11
4129.172264572982
 21
1993.421033907525
 31
0.0
  0
LINE
  5
51C
330
522
100
AcDbEntity
  8
0
  6
ByBlock
 62
     1
370
    -2
380
     1
100
AcDbLine
 10
3870.340658968382
 20
2446.111004939645
 30
0.0
 11
3870.340658968382
 21
1993.421033907525
 31
0.0
  0
LINE
  5
51D
330
522
100
AcDbEntity
  8
0
  6
ByBlock
 62
     1
370
    -2
380
     1
100
AcDbLine
 10
4127.472264572983
 20
1993.721033907525
 30
0.0
 11
3872.040658968382
 21
1993.721033907525
 31
0.0
  0
SOLID
  5
51E
330
522
100
AcDbEntity
  8
0
  6
ByBlock
 62
     1
380
     1
100
AcDbTrace
 10
4129.172264572982
 20
1993.721033907525
 30
0.0
 11
4127.472264572983
 21
1994.004367240859
 31
0.0
 12
4127.472264572983
 22
1993.437700574192
 32
0.0
 13
4127.472264572983
 23
1993.437700574192
 33
0.0
  0
SOLID
  5
51F
330
522
100
AcDbEntity
  8
0
  6
ByBlock
 62
     1
380
     1
100
AcDbTrace
 10
3870.340658968382
 20
1993.721033907525
 30
0.0
 11
3872.040658968382
 21
1994.004367240859
 31
0.0
 12
3872.040658968382
 22
1993.437700574192
 32
0.0
 13
3872.040658968382
 23
1993.437700574192
 33
0.0
  0
MTEXT
  5
520
330
522
100
AcDbEntity
  8
0
  6
ByBlock
 62
     0
370
    -2
380
     1
100
AcDbMText
 10
3999.756461770682
 20
1995.364536636038
 30
0.0
 40
1.75
 41
0.0
 71
     5
 72
     1
  1
295
  7
H
 73
     1
 44
1.0
  0
ENDBLK
  5
6C6
330
522
100
AcDbEntity
  8
0
100
AcDbBlockEnd
  0
BLOCK
  5
6C7
330
52D
100
AcDbEntity
  8
0
100
AcDbBlockBegin
  2
*D41
 70
     1
 10
0.0
 20
0.0
 30
0.0
  3
*D41
  1

  0
POINT
  5
524
330
52D
100
AcDbEntity
  8
DEFPOINTS
  6
ByBlock
 62
     1
380
     1
100
AcDbPoint
 10
4106.471664693542
 20
2757.033174242805
 30
0.0
  0
POINT
  5
525
330
52D
100
AcDbEntity
  8
DEFPOINTS
  6
ByBlock
 62
     1
380
     1
100
AcDbPoint
 10
4104.869829340941
 20
2272.041248212725
 30
0.0
  0
LINE
  5
526
330
52D
100
AcDbEntity
  8
0
  6
ByBlock
 62
     1
370
    -2
380
     1
100
AcDbLine
 10
4107.471664693542
 20
2757.033174242805
 30
0.0
 11
4215.037888490181
 21
2757.033174242805
 31
0.0
  0
LINE
  5
527
330
52D
100
AcDbEntity
  8
0
  6
ByBlock
 62
     1
370
    -2
380
     1
100
AcDbLine
 10
4105.869829340941
 20
2272.041248212725
 30
0.0
 11
4215.037888490181
 21
2272.041248212725
 31
0.0
  0
LINE
  5
528
330
52D
100
AcDbEntity
  8
0
  6
ByBlock
 62
     1
370
    -2
380
     1
100
AcDbLine
 10
4214.737888490181
 20
2755.333174242805
 30
0.0
 11
4214.737888490181
 21
2273.741248212725
 31
0.0
  0
SOLID
  5
529
330
52D
100
AcDbEntity
  8
0
  6
ByBlock
 62
     1
380
     1
100
AcDbTrace
 10
4214.737888490181
 20
2757.033174242805
 30
0.0
 11
4214.454555156847
 21
2755.333174242805
 31
0.0
 12
4215.021221823515
 22
2755.333174242805
 32
0.0
 13
4215.021221823515
 23
2755.333174242805
 33
0.0
  0
SOLID
  5
52A
330
52D
100
AcDbEntity
  8
0
  6
ByBlock
 62
     1
380
     1
100
AcDbTrace
 10
4214.737888490181
 20
2272.041248212725
 30
0.0
 11
4214.454555156847
 21
2273.741248212725
 31
0.0
 12
4215.021221823515
 22
2273.741248212725
 32
0.0
 13
4215.021221823515
 23
2273.741248212725
 33
0.0
  0
MTEXT
  5
52B
330
52D
100
AcDbEntity
  8
0
  6
ByBlock
 62
     0
370
    -2
380
     1
100
AcDbMText
 10
4213.094385761668
 20
2514.537211227766
 30
0.0
 40
1.75
 41
0.0
 71
     5
 72
     1
  1
485
  7
H
 11
6.123031769111886E-17
 21
1.0
 31
0.0
 73
     1
 44
1.0
  0
ENDBLK
  5
6C8
330
52D
100
AcDbEntity
  8
0
100
AcDbBlockEnd
  0
BLOCK
  5
6C9
330
538
100
AcDbEntity
  8
0
100
AcDbBlockBegin
  2
*D42
 70
     1
 10
0.0
 20
0.0
 30
0.0
  3
*D42
  1

  0
POINT
  5
52F
330
538
100
AcDbEntity
  8
DEFPOINTS
  6
ByBlock
 62
     0
380
     1
100
AcDbPoint
 10
3166.240767914102
 20
1975.722301404518
 30
0.0
  0
POINT
  5
530
330
538
100
AcDbEntity
  8
DEFPOINTS
  6
ByBlock
 62
     0
380
     1
100
AcDbPoint
 10
3697.240987177461
 20
1975.722301404518
 30
0.0
  0
LINE
  5
531
330
538
100
AcDbEntity
  8
0
  6
ByBlock
 62
     0
370
    -2
380
     1
100
AcDbLine
 10
3166.240767914102
 20
1975.097301404518
 30
0.0
 11
3166.240767914102
 21
1849.890313933708
 31
0.0
  0
LINE
  5
532
330
538
100
AcDbEntity
  8
0
  6
ByBlock
 62
     0
370
    -2
380
     1
100
AcDbLine
 10
3697.240987177461
 20
1975.097301404518
 30
0.0
 11
3697.240987177461
 21
1849.890313933708
 31
0.0
  0
LINE
  5
533
330
538
100
AcDbEntity
  8
0
  6
ByBlock
 62
     0
370
    -2
380
     1
100
AcDbLine
 10
3168.740767914102
 20
1851.140313933708
 30
0.0
 11
3694.740987177461
 21
1851.140313933708
 31
0.0
  0
SOLID
  5
534
330
538
100
AcDbEntity
  8
0
  6
ByBlock
 62
     0
380
     1
100
AcDbTrace
 10
3166.240767914102
 20
1851.140313933708
 30
0.0
 11
3168.740767914102
 21
1850.723647267041
 31
0.0
 12
3168.740767914102
 22
1851.556980600375
 32
0.0
 13
3168.740767914102
 23
1851.556980600375
 33
0.0
  0
SOLID
  5
535
330
538
100
AcDbEntity
  8
0
  6
ByBlock
 62
     0
380
     1
100
AcDbTrace
 10
3697.240987177461
 20
1851.140313933708
 30
0.0
 11
3694.740987177461
 21
1850.723647267041
 31
0.0
 12
3694.740987177461
 22
1851.556980600375
 32
0.0
 13
3694.740987177461
 23
1851.556980600375
 33
0.0
  0
MTEXT
  5
536
330
538
100
AcDbEntity
  8
0
  6
ByBlock
 62
     0
370
    -2
380
     1
100
AcDbMText
 10
3431.740877545782
 20
1853.015313933708
 30
0.0
 40
2.5
 41
0.0
 71
     5
 72
     1
  1
\A1;531
 73
     1
 44
1.0
  0
ENDBLK
  5
6CA
330
538
100
AcDbEntity
  8
0
100
AcDbBlockEnd
  0
BLOCK
  5
6CB
330
543
100
AcDbEntity
  8
0
100
AcDbBlockBegin
  2
*D43
 70
     1
 10
0.0
 20
0.0
 30
0.0
  3
*D43
  1

  0
POINT
  5
53A
330
543
100
AcDbEntity
  8
DEFPOINTS
  6
ByBlock
 62
     0
380
     1
100
AcDbPoint
 10
4170.097350591861
 20
2757.033174242805
 30
0.0
  0
POINT
  5
53B
330
543
100
AcDbEntity
  8
DEFPOINTS
  6
ByBlock
 62
     0
380
     1
100
AcDbPoint
 10
4169.29643291556
 20
2272.041248212725
 30
0.0
  0
LINE
  5
53C
330
543
100
AcDbEntity
  8
0
  6
ByBlock
 62
     0
370
    -2
380
     1
100
AcDbLine
 10
4170.722350591861
 20
2757.033174242805
 30
0.0
 11
4318.794287366605
 21
2757.033174242805
 31
0.0
  0
LINE
  5
53D
330
543
100
AcDbEntity
  8
0
  6
ByBlock
 62
     0
370
    -2
380
     1
100
AcDbLine
 10
4169.92143291556
 20
2272.041248212725
 30
0.0
 11
4318.794287366605
 21
2272.041248212725
 31
0.0
  0
LINE
  5
53E
330
543
100
AcDbEntity
  8
0
  6
ByBlock
 62
     0
370
    -2
380
     1
100
AcDbLine
 10
4317.544287366605
 20
2754.533174242805
 30
0.0
 11
4317.544287366605
 21
2274.541248212725
 31
0.0
  0
SOLID
  5
53F
330
543
100
AcDbEntity
  8
0
  6
ByBlock
 62
     0
380
     1
100
AcDbTrace
 10
4317.544287366605
 20
2757.033174242805
 30
0.0
 11
4317.127620699938
 21
2754.533174242805
 31
0.0
 12
4317.960954033272
 22
2754.533174242805
 32
0.0
 13
4317.960954033272
 23
2754.533174242805
 33
0.0
  0
SOLID
  5
540
330
543
100
AcDbEntity
  8
0
  6
ByBlock
 62
     0
380
     1
100
AcDbTrace
 10
4317.544287366605
 20
2272.041248212725
 30
0.0
 11
4317.127620699938
 21
2274.541248212725
 31
0.0
 12
4317.960954033272
 22
2274.541248212725
 32
0.0
 13
4317.960954033272
 23
2274.541248212725
 33
0.0
  0
MTEXT
  5
541
330
543
100
AcDbEntity
  8
0
  6
ByBlock
 62
     0
370
    -2
380
     1
100
AcDbMText
 10
4315.460954033272
 20
2514.537211227766
 30
0.0
 40
2.5
 41
0.0
 71
     5
 72
     1
  1
\A1;484,99
 11
6.123031769111886E-17
 21
1.0
 31
0.0
 73
     1
 44
1.0
  0
ENDBLK
  5
6CC
330
543
100
AcDbEntity
  8
0
100
AcDbBlockEnd
  0
BLOCK
  5
6CD
330
54E
100
AcDbEntity
  8
0
100
AcDbBlockBegin
  2
*D44
 70
     1
 10
0.0
 20
0.0
 30
0.0
  3
*D44
  1

  0
POINT
  5
545
330
54E
100
AcDbEntity
  8
DEFPOINTS
  6
ByBlock
 62
     0
380
     1
100
AcDbPoint
 10
4170.097350591861
 20
2757.033174242805
 30
0.0
  0
POINT
  5
546
330
54E
100
AcDbEntity
  8
DEFPOINTS
  6
ByBlock
 62
     0
380
     1
100
AcDbPoint
 10
4169.29643291556
 20
2272.041248212725
 30
0.0
  0
LINE
  5
547
330
54E
100
AcDbEntity
  8
0
  6
ByBlock
 62
     0
370
    -2
380
     1
100
AcDbLine
 10
4170.722350591861
 20
2757.033174242805
 30
0.0
 11
4318.794287366605
 21
2757.033174242805
 31
0.0
  0
LINE
  5
548
330
54E
100
AcDbEntity
  8
0
  6
ByBlock
 62
     0
370
    -2
380
     1
100
AcDbLine
 10
4169.92143291556
 20
2272.041248212725
 30
0.0
 11
4318.794287366605
 21
2272.041248212725
 31
0.0
  0
LINE
  5
549
330
54E
100
AcDbEntity
  8
0
  6
ByBlock
 62
     0
370
    -2
380
     1
100
AcDbLine
 10
4317.544287366605
 20
2754.533174242805
 30
0.0
 11
4317.544287366605
 21
2274.541248212725
 31
0.0
  0
SOLID
  5
54A
330
54E
100
AcDbEntity
  8
0
  6
ByBlock
 62
     0
380
     1
100
AcDbTrace
 10
4317.544287366605
 20
2757.033174242805
 30
0.0
 11
4317.127620699938
 21
2754.533174242805
 31
0.0
 12
4317.960954033272
 22
2754.533174242805
 32
0.0
 13
4317.960954033272
 23
2754.533174242805
 33
0.0
  0
SOLID
  5
54B
330
54E
100
AcDbEntity
  8
0
  6
ByBlock
 62
     0
380
     1
100
AcDbTrace
 10
4317.544287366605
 20
2272.041248212725
 30
0.0
 11
4317.127620699938
 21
2274.541248212725
 31
0.0
 12
4317.960954033272
 22
2274.541248212725
 32
0.0
 13
4317.960954033272
 23
2274.541248212725
 33
0.0
  0
MTEXT
  5
54C
330
54E
100
AcDbEntity
  8
0
  6
ByBlock
 62
     0
370
    -2
380
     1
100
AcDbMText
 10
4315.460954033272
 20
2514.537211227766
 30
0.0
 40
2.5
 41
0.0
 71
     5
 72
     1
  1
\A1;484,99
 11
6.123031769111886E-17
 21
1.0
 31
0.0
 73
     1
 44
1.0
  0
ENDBLK
  5
6CE
330
54E
100
AcDbEntity
  8
0
100
AcDbBlockEnd
  0
BLOCK
  5
6CF
330
559
100
AcDbEntity
  8
0
100
AcDbBlockBegin
  2
*D45
 70
     1
 10
0.0
 20
0.0
 30
0.0
  3
*D45
  1

  0
POINT
  5
550
330
559
100
AcDbEntity
  8
DEFPOINTS
  6
ByBlock
 62
     0
380
     1
100
AcDbPoint
 10
3166.240767914102
 20
1975.722301404518
 30
0.0
  0
POINT
  5
551
330
559
100
AcDbEntity
  8
DEFPOINTS
  6
ByBlock
 62
     0
380
     1
100
AcDbPoint
 10
3697.240987177461
 20
1975.722301404518
 30
0.0
  0
LINE
  5
552
330
559
100
AcDbEntity
  8
0
  6
ByBlock
 62
     0
370
    -2
380
     1
100
AcDbLine
 10
3166.240767914102
 20
1975.097301404518
 30
0.0
 11
3166.240767914102
 21
1849.890313933708
 31
0.0
  0
LINE
  5
553
330
559
100
AcDbEntity
  8
0
  6
ByBlock
 62
     0
370
    -2
380
     1
100
AcDbLine
 10
3697.240987177461
 20
1975.097301404518
 30
0.0
 11
3697.240987177461
 21
1849.890313933708
 31
0.0
  0
LINE
  5
554
330
559
100
AcDbEntity
  8
0
  6
ByBlock
 62
     0
370
    -2
380
     1
100
AcDbLine
 10
3168.740767914102
 20
1851.140313933708
 30
0.0
 11
3694.740987177461
 21
1851.140313933708
 31
0.0
  0
SOLID
  5
555
330
559
100
AcDbEntity
  8
0
  6
ByBlock
 62
     0
380
     1
100
AcDbTrace
 10
3166.240767914102
 20
1851.140313933708
 30
0.0
 11
3168.740767914102
 21
1850.723647267041
 31
0.0
 12
3168.740767914102
 22
1851.556980600375
 32
0.0
 13
3168.740767914102
 23
1851.556980600375
 33
0.0
  0
SOLID
  5
556
330
559
100
AcDbEntity
  8
0
  6
ByBlock
 62
     0
380
     1
100
AcDbTrace
 10
3697.240987177461
 20
1851.140313933708
 30
0.0
 11
3694.740987177461
 21
1850.723647267041
 31
0.0
 12
3694.740987177461
 22
1851.556980600375
 32
0.0
 13
3694.740987177461
 23
1851.556980600375
 33
0.0
  0
MTEXT
  5
557
330
559
100
AcDbEntity
  8
0
  6
ByBlock
 62
     0
370
    -2
380
     1
100
AcDbMText
 10
3431.740877545782
 20
1853.015313933708
 30
0.0
 40
2.5
 41
0.0
 71
     5
 72
     1
  1
\A1;531
 73
     1
 44
1.0
  0
ENDBLK
  5
6D0
330
559
100
AcDbEntity
  8
0
100
AcDbBlockEnd
  0
BLOCK
  5
6D1
330
564
100
AcDbEntity
  8
0
100
AcDbBlockBegin
  2
*D46
 70
     1
 10
0.0
 20
0.0
 30
0.0
  3
*D46
  1

  0
POINT
  5
55B
330
564
100
AcDbEntity
  8
DEFPOINTS
  6
ByBlock
 62
     1
380
     1
100
AcDbPoint
 10
4106.471664693542
 20
2757.033174242805
 30
0.0
  0
POINT
  5
55C
330
564
100
AcDbEntity
  8
DEFPOINTS
  6
ByBlock
 62
     1
380
     1
100
AcDbPoint
 10
4104.869829340941
 20
2272.041248212725
 30
0.0
  0
LINE
  5
55D
330
564
100
AcDbEntity
  8
0
  6
ByBlock
 62
     1
370
    -2
380
     1
100
AcDbLine
 10
4107.471664693542
 20
2757.033174242805
 30
0.0
 11
4215.037888490181
 21
2757.033174242805
 31
0.0
  0
LINE
  5
55E
330
564
100
AcDbEntity
  8
0
  6
ByBlock
 62
     1
370
    -2
380
     1
100
AcDbLine
 10
4105.869829340941
 20
2272.041248212725
 30
0.0
 11
4215.037888490181
 21
2272.041248212725
 31
0.0
  0
LINE
  5
55F
330
564
100
AcDbEntity
  8
0
  6
ByBlock
 62
     1
370
    -2
380
     1
100
AcDbLine
 10
4214.737888490181
 20
2755.333174242805
 30
0.0
 11
4214.737888490181
 21
2273.741248212725
 31
0.0
  0
SOLID
  5
560
330
564
100
AcDbEntity
  8
0
  6
ByBlock
 62
     1
380
     1
100
AcDbTrace
 10
4214.737888490181
 20
2757.033174242805
 30
0.0
 11
4214.454555156847
 21
2755.333174242805
 31
0.0
 12
4215.021221823515
 22
2755.333174242805
 32
0.0
 13
4215.021221823515
 23
2755.333174242805
 33
0.0
  0
SOLID
  5
561
330
564
100
AcDbEntity
  8
0
  6
ByBlock
 62
     1
380
     1
100
AcDbTrace
 10
4214.737888490181
 20
2272.041248212725
 30
0.0
 11
4214.454555156847
 21
2273.741248212725
 31
0.0
 12
4215.021221823515
 22
2273.741248212725
 32
0.0
 13
4215.021221823515
 23
2273.741248212725
 33
0.0
  0
MTEXT
  5
562
330
564
100
AcDbEntity
  8
0
  6
ByBlock
 62
     0
370
    -2
380
     1
100
AcDbMText
 10
4213.094385761668
 20
2514.537211227766
 30
0.0
 40
1.75
 41
0.0
 71
     5
 72
     1
  1
485
  7
H
 11
6.123031769111886E-17
 21
1.0
 31
0.0
 73
     1
 44
1.0
  0
ENDBLK
  5
6D2
330
564
100
AcDbEntity
  8
0
100
AcDbBlockEnd
  0
BLOCK
  5
6D3
330
56F
100
AcDbEntity
  8
0
100
AcDbBlockBegin
  2
*D47
 70
     1
 10
0.0
 20
0.0
 30
0.0
  3
*D47
  1

  0
POINT
  5
566
330
56F
100
AcDbEntity
  8
DEFPOINTS
  6
ByBlock
 62
     1
380
     1
100
AcDbPoint
 10
4129.172264572982
 20
2482.296279117285
 30
0.0
  0
POINT
  5
567
330
56F
100
AcDbEntity
  8
DEFPOINTS
  6
ByBlock
 62
     1
380
     1
100
AcDbPoint
 10
3870.340658968382
 20
2447.111004939645
 30
0.0
  0
LINE
  5
568
330
56F
100
AcDbEntity
  8
0
  6
ByBlock
 62
     1
370
    -2
380
     1
100
AcDbLine
 10
4129.172264572982
 20
2481.296279117285
 30
0.0
 11
4129.172264572982
 21
1993.421033907525
 31
0.0
  0
LINE
  5
569
330
56F
100
AcDbEntity
  8
0
  6
ByBlock
 62
     1
370
    -2
380
     1
100
AcDbLine
 10
3870.340658968382
 20
2446.111004939645
 30
0.0
 11
3870.340658968382
 21
1993.421033907525
 31
0.0
  0
LINE
  5
56A
330
56F
100
AcDbEntity
  8
0
  6
ByBlock
 62
     1
370
    -2
380
     1
100
AcDbLine
 10
4127.472264572983
 20
1993.721033907525
 30
0.0
 11
3872.040658968382
 21
1993.721033907525
 31
0.0
  0
SOLID
  5
56B
330
56F
100
AcDbEntity
  8
0
  6
ByBlock
 62
     1
380
     1
100
AcDbTrace
 10
4129.172264572982
 20
1993.721033907525
 30
0.0
 11
4127.472264572983
 21
1994.004367240859
 31
0.0
 12
4127.472264572983
 22
1993.437700574192
 32
0.0
 13
4127.472264572983
 23
1993.437700574192
 33
0.0
  0
SOLID
  5
56C
330
56F
100
AcDbEntity
  8
0
  6
ByBlock
 62
     1
380
     1
100
AcDbTrace
 10
3870.340658968382
 20
1993.721033907525
 30
0.0
 11
3872.040658968382
 21
1994.004367240859
 31
0.0
 12
3872.040658968382
 22
1993.437700574192
 32
0.0
 13
3872.040658968382
 23
1993.437700574192
 33
0.0
  0
MTEXT
  5
56D
330
56F
100
AcDbEntity
  8
0
  6
ByBlock
 62
     0
370
    -2
380
     1
100
AcDbMText
 10
3999.756461770682
 20
1995.364536636038
 30
0.0
 40
1.75
 41
0.0
 71
     5
 72
     1
  1
295
  7
H
 73
     1
 44
1.0
  0
ENDBLK
  5
6D4
330
56F
100
AcDbEntity
  8
0
100
AcDbBlockEnd
  0
BLOCK
  5
6D5
330
57A
100
AcDbEntity
  8
0
100
AcDbBlockBegin
  2
*D48
 70
     1
 10
0.0
 20
0.0
 30
0.0
  3
*D48
  1

  0
POINT
  5
571
330
57A
100
AcDbEntity
  8
DEFPOINTS
  6
ByBlock
 62
     1
380
     1
100
AcDbPoint
 10
3166.240767914102
 20
2179.198751368485
 30
0.0
  0
POINT
  5
572
330
57A
100
AcDbEntity
  8
DEFPOINTS
  6
ByBlock
 62
     1
380
     1
100
AcDbPoint
 10
3697.240987177461
 20
2180.757613920046
 30
0.0
  0
LINE
  5
573
330
57A
100
AcDbEntity
  8
0
  6
ByBlock
 62
     1
370
    -2
380
     1
100
AcDbLine
 10
3166.240767914102
 20
2178.198751368485
 30
0.0
 11
3166.240767914102
 21
1925.796746060087
 31
0.0
  0
LINE
  5
574
330
57A
100
AcDbEntity
  8
0
  6
ByBlock
 62
     1
370
    -2
380
     1
100
AcDbLine
 10
3697.240987177461
 20
2179.757613920046
 30
0.0
 11
3697.240987177461
 21
1925.796746060087
 31
0.0
  0
LINE
  5
575
330
57A
100
AcDbEntity
  8
0
  6
ByBlock
 62
     1
370
    -2
380
     1
100
AcDbLine
 10
3167.940767914102
 20
1926.096746060087
 30
0.0
 11
3695.540987177461
 21
1926.096746060087
 31
0.0
  0
SOLID
  5
576
330
57A
100
AcDbEntity
  8
0
  6
ByBlock
 62
     1
380
     1
100
AcDbTrace
 10
3166.240767914102
 20
1926.096746060087
 30
0.0
 11
3167.940767914102
 21
1925.813412726754
 31
0.0
 12
3167.940767914102
 22
1926.38007939342
 32
0.0
 13
3167.940767914102
 23
1926.38007939342
 33
0.0
  0
SOLID
  5
577
330
57A
100
AcDbEntity
  8
0
  6
ByBlock
 62
     1
380
     1
100
AcDbTrace
 10
3697.240987177461
 20
1926.096746060087
 30
0.0
 11
3695.540987177461
 21
1925.813412726754
 31
0.0
 12
3695.540987177461
 22
1926.38007939342
 32
0.0
 13
3695.540987177461
 23
1926.38007939342
 33
0.0
  0
MTEXT
  5
578
330
57A
100
AcDbEntity
  8
0
  6
ByBlock
 62
     0
370
    -2
380
     1
100
AcDbMText
 10
3431.740877545782
 20
1927.74084565081
 30
0.0
 40
1.75
 41
0.0
 71
     5
 72
     1
  1
531
  7
H
 73
     1
 44
1.0
  0
ENDBLK
  5
6D6
330
57A
100
AcDbEntity
  8
0
100
AcDbBlockEnd
  0
BLOCK
  5
6D7
330
587
100
AcDbEntity
  8
0
100
AcDbBlockBegin
  2
*D49
 70
     1
 10
0.0
 20
0.0
 30
0.0
  3
*D49
  1

  0
POINT
  5
57C
330
587
100
AcDbEntity
  8
DEFPOINTS
  6
ByBlock
 62
     1
380
     1
100
AcDbPoint
 10
3431.709668883261
 20
2119.989932180805
 30
0.0
  0
POINT
  5
57D
330
587
100
AcDbEntity
  8
DEFPOINTS
  6
ByBlock
 62
     1
380
     1
100
AcDbPoint
 10
3597.833978239581
 20
2119.989932180805
 30
0.0
  0
LINE
  5
57E
330
587
100
AcDbEntity
  8
0
  6
ByBlock
 62
     1
370
    -2
380
     1
100
AcDbLine
 10
3597.833978239581
 20
2118.989932180805
 30
0.0
 11
3597.833978239581
 21
1993.421033907525
 31
0.0
  0
LINE
  5
57F
330
587
100
AcDbEntity
  8
0
  6
ByBlock
 62
     1
370
    -2
380
     1
100
AcDbLine
 10
3514.771823561421
 20
1993.721033907525
 30
0.0
 11
3517.369708963877
 21
2020.023515447439
 31
0.0
  0
LINE
  5
580
330
587
100
AcDbEntity
  8
0
  6
ByBlock
 62
     1
370
    -2
380
     1
100
AcDbLine
 10
3517.369708963877
 20
2020.023515447439
 30
0.0
 11
3512.173938158965
 21
2020.023515447439
 31
0.0
  0
LINE
  5
581
330
587
100
AcDbEntity
  8
0
  6
ByBlock
 62
     1
370
    -2
380
     1
100
AcDbLine
 10
3431.709668883261
 20
1993.721033907525
 30
0.0
 11
3597.833978239581
 21
1993.721033907525
 31
0.0
  0
SOLID
  5
582
330
587
100
AcDbEntity
  8
0
  6
ByBlock
 62
     1
380
     1
100
AcDbTrace
 10
3431.709668883261
 20
1993.721033907525
 30
0.0
 11
3433.409668883261
 21
1993.437700574192
 31
0.0
 12
3433.409668883261
 22
1994.004367240859
 32
0.0
 13
3433.409668883261
 23
1994.004367240859
 33
0.0
  0
SOLID
  5
583
330
587
100
AcDbEntity
  8
0
  6
ByBlock
 62
     1
380
     1
100
AcDbTrace
 10
3597.833978239581
 20
1993.721033907525
 30
0.0
 11
3596.133978239581
 21
1993.437700574192
 31
0.0
 12
3596.133978239581
 22
1994.004367240859
 32
0.0
 13
3596.133978239581
 23
1994.004367240859
 33
0.0
  0
LINE
  5
584
330
587
100
AcDbEntity
  8
0
  6
ByBlock
 62
     1
370
    -2
380
     1
100
AcDbLine
 10
3431.709668883261
 20
2119.989932180805
 30
0.0
 11
3431.709668883261
 21
2119.989932180805
 31
0.0
  0
MTEXT
  5
585
330
587
100
AcDbEntity
  8
0
  6
ByBlock
 62
     0
370
    -2
380
     1
100
AcDbMText
 10
3514.771823561421
 20
2018.380012718925
 30
0.0
 40
1.75
 41
0.0
 71
     5
 72
     1
  1
170
  7
H
 73
     1
 44
1.0
  0
ENDBLK
  5
6D8
330
587
100
AcDbEntity
  8
0
100
AcDbBlockEnd
  0
BLOCK
  5
6D9
330
592
100
AcDbEntity
  8
0
100
AcDbBlockBegin
  2
*D50
 70
     1
 10
0.0
 20
0.0
 30
0.0
  3
*D50
  1

  0
POINT
  5
589
330
592
100
AcDbEntity
  8
DEFPOINTS
  6
ByBlock
 62
     1
380
     1
100
AcDbPoint
 10
3265.585242695262
 20
2119.989932180805
 30
0.0
  0
POINT
  5
58A
330
592
100
AcDbEntity
  8
DEFPOINTS
  6
ByBlock
 62
     1
380
     1
100
AcDbPoint
 10
3431.709668883261
 20
2119.989932180805
 30
0.0
  0
LINE
  5
58B
330
592
100
AcDbEntity
  8
0
  6
ByBlock
 62
     1
370
    -2
380
     1
100
AcDbLine
 10
3265.585242695262
 20
2118.989932180805
 30
0.0
 11
3265.585242695262
 21
1993.421033907525
 31
0.0
  0
LINE
  5
58C
330
592
100
AcDbEntity
  8
0
  6
ByBlock
 62
     1
370
    -2
380
     1
100
AcDbLine
 10
3431.709668883261
 20
2118.989932180805
 30
0.0
 11
3431.709668883261
 21
1993.421033907525
 31
0.0
  0
LINE
  5
58D
330
592
100
AcDbEntity
  8
0
  6
ByBlock
 62
     1
370
    -2
380
     1
100
AcDbLine
 10
3267.285242695262
 20
1993.721033907525
 30
0.0
 11
3430.009668883261
 21
1993.721033907525
 31
0.0
  0
SOLID
  5
58E
330
592
100
AcDbEntity
  8
0
  6
ByBlock
 62
     1
380
     1
100
AcDbTrace
 10
3265.585242695262
 20
1993.721033907525
 30
0.0
 11
3267.285242695262
 21
1993.437700574192
 31
0.0
 12
3267.285242695262
 22
1994.004367240859
 32
0.0
 13
3267.285242695262
 23
1994.004367240859
 33
0.0
  0
SOLID
  5
58F
330
592
100
AcDbEntity
  8
0
  6
ByBlock
 62
     1
380
     1
100
AcDbTrace
 10
3431.709668883261
 20
1993.721033907525
 30
0.0
 11
3430.009668883261
 21
1993.437700574192
 31
0.0
 12
3430.009668883261
 22
1994.004367240859
 32
0.0
 13
3430.009668883261
 23
1994.004367240859
 33
0.0
  0
MTEXT
  5
590
330
592
100
AcDbEntity
  8
0
  6
ByBlock
 62
     0
370
    -2
380
     1
100
AcDbMText
 10
3348.647455789262
 20
1995.364536636038
 30
0.0
 40
1.75
 41
0.0
 71
     5
 72
     1
  1
170
  7
H
 73
     1
 44
1.0
  0
ENDBLK
  5
6DA
330
592
100
AcDbEntity
  8
0
100
AcDbBlockEnd
  0
BLOCK
  5
6DB
330
59E
100
AcDbEntity
  8
0
100
AcDbBlockBegin
  2
*D51
 70
     1
 10
0.0
 20
0.0
 30
0.0
  3
*D51
  1

  0
POINT
  5
594
330
59E
100
AcDbEntity
  8
DEFPOINTS
  6
ByBlock
 62
     1
380
     1
100
AcDbPoint
 10
3590.993439563701
 20
2142.743910297285
 30
0.0
  0
POINT
  5
595
330
59E
100
AcDbEntity
  8
DEFPOINTS
  6
ByBlock
 62
     1
380
     1
100
AcDbPoint
 10
3604.674589935262
 20
2142.743910297285
 30
0.0
  0
LINE
  5
596
330
59E
100
AcDbEntity
  8
0
  6
ByBlock
 62
     1
370
    -2
380
     1
100
AcDbLine
 10
3590.993439563701
 20
2141.743910297285
 30
0.0
 11
3590.993439563701
 21
2052.224749469925
 31
0.0
  0
LINE
  5
597
330
59E
100
AcDbEntity
  8
0
  6
ByBlock
 62
     1
370
    -2
380
     1
100
AcDbLine
 10
3604.674589935262
 20
2141.743910297285
 30
0.0
 11
3604.674589935262
 21
2052.224749469925
 31
0.0
  0
LINE
  5
598
330
59E
100
AcDbEntity
  8
0
  6
ByBlock
 62
     1
370
    -2
380
     1
100
AcDbLine
 10
3592.6934395637
 20
2052.524749469926
 30
0.0
 11
3602.974589935262
 21
2052.524749469926
 31
0.0
  0
LINE
  5
599
330
59E
100
AcDbEntity
  8
0
  6
ByBlock
 62
     1
370
    -2
380
     1
100
AcDbLine
 10
3604.674589935262
 20
2052.524749469926
 30
0.0
 11
3775.355732211721
 21
2052.524749469926
 31
0.0
  0
SOLID
  5
59A
330
59E
100
AcDbEntity
  8
0
  6
ByBlock
 62
     1
380
     1
100
AcDbTrace
 10
3590.993439563701
 20
2052.524749469926
 30
0.0
 11
3592.6934395637
 21
2052.241416136592
 31
0.0
 12
3592.6934395637
 22
2052.808082803259
 32
0.0
 13
3592.6934395637
 23
2052.808082803259
 33
0.0
  0
SOLID
  5
59B
330
59E
100
AcDbEntity
  8
0
  6
ByBlock
 62
     1
380
     1
100
AcDbTrace
 10
3604.674589935262
 20
2052.524749469926
 30
0.0
 11
3602.974589935262
 21
2052.241416136592
 31
0.0
 12
3602.974589935262
 22
2052.808082803259
 32
0.0
 13
3602.974589935262
 23
2052.808082803259
 33
0.0
  0
MTEXT
  5
59C
330
59E
100
AcDbEntity
  8
0
  6
ByBlock
 62
     0
370
    -2
380
     1
100
AcDbMText
 10
3770.420335440462
 20
2054.217194899667
 30
0.0
 40
1.75
 41
0.0
 71
     5
 72
     1
  1
2 x %%C14
  7
H
 73
     1
 44
1.0
  0
ENDBLK
  5
6DC
330
59E
100
AcDbEntity
  8
0
100
AcDbBlockEnd
  0
BLOCK
  5
6DD
330
5A9
100
AcDbEntity
  8
0
100
AcDbBlockBegin
  2
*D52
 70
     1
 10
0.0
 20
0.0
 30
0.0
  3
*D52
  1

  0
POINT
  5
5A0
330
5A9
100
AcDbEntity
  8
DEFPOINTS
  6
ByBlock
 62
     1
380
     1
100
AcDbPoint
 10
3424.869436890541
 20
2150.746112260485
 30
0.0
  0
POINT
  5
5A1
330
5A9
100
AcDbEntity
  8
DEFPOINTS
  6
ByBlock
 62
     1
380
     1
100
AcDbPoint
 10
3438.550178351221
 20
2150.746112260485
 30
0.0
  0
LINE
  5
5A2
330
5A9
100
AcDbEntity
  8
0
  6
ByBlock
 62
     1
370
    -2
380
     1
100
AcDbLine
 10
3424.869436890541
 20
2151.746112260485
 30
0.0
 11
3424.869436890541
 21
2210.089502173966
 31
0.0
  0
LINE
  5
5A3
330
5A9
100
AcDbEntity
  8
0
  6
ByBlock
 62
     1
370
    -2
380
     1
100
AcDbLine
 10
3438.550178351221
 20
2151.746112260485
 30
0.0
 11
3438.550178351221
 21
2210.089502173966
 31
0.0
  0
LINE
  5
5A4
330
5A9
100
AcDbEntity
  8
0
  6
ByBlock
 62
     1
370
    -2
380
     1
100
AcDbLine
 10
3426.569436890541
 20
2209.789502173966
 30
0.0
 11
3436.850178351221
 21
2209.789502173966
 31
0.0
  0
SOLID
  5
5A5
330
5A9
100
AcDbEntity
  8
0
  6
ByBlock
 62
     1
380
     1
100
AcDbTrace
 10
3424.869436890541
 20
2209.789502173966
 30
0.0
 11
3426.569436890541
 21
2209.506168840632
 31
0.0
 12
3426.569436890541
 22
2210.072835507299
 32
0.0
 13
3426.569436890541
 23
2210.072835507299
 33
0.0
  0
SOLID
  5
5A6
330
5A9
100
AcDbEntity
  8
0
  6
ByBlock
 62
     1
380
     1
100
AcDbTrace
 10
3438.550178351221
 20
2209.789502173966
 30
0.0
 11
3436.850178351221
 21
2209.506168840632
 31
0.0
 12
3436.850178351221
 22
2210.072835507299
 32
0.0
 13
3436.850178351221
 23
2210.072835507299
 33
0.0
  0
MTEXT
  5
5A7
330
5A9
100
AcDbEntity
  8
0
  6
ByBlock
 62
     0
370
    -2
380
     1
100
AcDbMText
 10
3431.709807620881
 20
2211.481947603706
 30
0.0
 40
1.75
 41
0.0
 71
     5
 72
     1
  1
%%C19
  7
H
 73
     1
 44
1.0
  0
ENDBLK
  5
6DE
330
5A9
100
AcDbEntity
  8
0
100
AcDbBlockEnd
  0
BLOCK
  5
6DF
330
5B5
100
AcDbEntity
  8
0
100
AcDbBlockBegin
  2
*D53
 70
     1
 10
0.0
 20
0.0
 30
0.0
  3
*D53
  1

  0
POINT
  5
5AC
330
5B5
100
AcDbEntity
  8
DEFPOINTS
  6
ByBlock
 62
     0
380
     1
100
AcDbPoint
 10
3166.178832519741
 20
2218.732298637751
 30
0.0
  0
POINT
  5
5AD
330
5B5
100
AcDbEntity
  8
DEFPOINTS
  6
ByBlock
 62
     0
380
     1
100
AcDbPoint
 10
3697.240987177461
 20
2231.19012147001
 30
0.0
  0
LINE
  5
5AE
330
5B5
100
AcDbEntity
  8
0
  6
ByBlock
 62
     0
370
    -2
380
     1
100
AcDbLine
 10
3166.178832519741
 20
2218.107298637751
 30
0.0
 11
3166.178832519741
 21
2082.711306179679
 31
0.0
  0
LINE
  5
5AF
330
5B5
100
AcDbEntity
  8
0
  6
ByBlock
 62
     0
370
    -2
380
     1
100
AcDbLine
 10
3697.240987177461
 20
2230.56512147001
 30
0.0
 11
3697.240987177461
 21
2082.711306179679
 31
0.0
  0
LINE
  5
5B0
330
5B5
100
AcDbEntity
  8
0
  6
ByBlock
 62
     0
370
    -2
380
     1
100
AcDbLine
 10
3168.678832519741
 20
2083.961306179679
 30
0.0
 11
3694.740987177461
 21
2083.961306179679
 31
0.0
  0
SOLID
  5
5B1
330
5B5
100
AcDbEntity
  8
0
  6
ByBlock
 62
     0
380
     1
100
AcDbTrace
 10
3166.178832519741
 20
2083.961306179679
 30
0.0
 11
3168.678832519741
 21
2083.544639513012
 31
0.0
 12
3168.678832519741
 22
2084.377972846346
 32
0.0
 13
3168.678832519741
 23
2084.377972846346
 33
0.0
  0
SOLID
  5
5B2
330
5B5
100
AcDbEntity
  8
0
  6
ByBlock
 62
     0
380
     1
100
AcDbTrace
 10
3697.240987177461
 20
2083.961306179679
 30
0.0
 11
3694.740987177461
 21
2083.544639513012
 31
0.0
 12
3694.740987177461
 22
2084.377972846346
 32
0.0
 13
3694.740987177461
 23
2084.377972846346
 33
0.0
  0
MTEXT
  5
5B3
330
5B5
100
AcDbEntity
  8
0
  6
ByBlock
 62
     0
370
    -2
380
     1
100
AcDbMText
 10
3431.709909848601
 20
2086.044639513012
 30
0.0
 40
2.5
 41
0.0
 71
     5
 72
     1
  1
\A1;531,06
 73
     1
 44
1.0
  0
ENDBLK
  5
6E0
330
5B5
100
AcDbEntity
  8
0
100
AcDbBlockEnd
  0
BLOCK
  5
6E1
330
5C0
100
AcDbEntity
  8
0
100
AcDbBlockBegin
  2
*D54
 70
     1
 10
0.0
 20
0.0
 30
0.0
  3
*D54
  1

  0
POINT
  5
5B7
330
5C0
100
AcDbEntity
  8
DEFPOINTS
  6
ByBlock
 62
     0
380
     1
100
AcDbPoint
 10
3166.178832519741
 20
2218.732298637751
 30
0.0
  0
POINT
  5
5B8
330
5C0
100
AcDbEntity
  8
DEFPOINTS
  6
ByBlock
 62
     0
380
     1
100
AcDbPoint
 10
3697.240987177461
 20
2231.19012147001
 30
0.0
  0
LINE
  5
5B9
330
5C0
100
AcDbEntity
  8
0
  6
ByBlock
 62
     0
370
    -2
380
     1
100
AcDbLine
 10
3166.178832519741
 20
2218.107298637751
 30
0.0
 11
3166.178832519741
 21
2082.711306179679
 31
0.0
  0
LINE
  5
5BA
330
5C0
100
AcDbEntity
  8
0
  6
ByBlock
 62
     0
370
    -2
380
     1
100
AcDbLine
 10
3697.240987177461
 20
2230.56512147001
 30
0.0
 11
3697.240987177461
 21
2082.711306179679
 31
0.0
  0
LINE
  5
5BB
330
5C0
100
AcDbEntity
  8
0
  6
ByBlock
 62
     0
370
    -2
380
     1
100
AcDbLine
 10
3168.678832519741
 20
2083.961306179679
 30
0.0
 11
3694.740987177461
 21
2083.961306179679
 31
0.0
  0
SOLID
  5
5BC
330
5C0
100
AcDbEntity
  8
0
  6
ByBlock
 62
     0
380
     1
100
AcDbTrace
 10
3166.178832519741
 20
2083.961306179679
 30
0.0
 11
3168.678832519741
 21
2083.544639513012
 31
0.0
 12
3168.678832519741
 22
2084.377972846346
 32
0.0
 13
3168.678832519741
 23
2084.377972846346
 33
0.0
  0
SOLID
  5
5BD
330
5C0
100
AcDbEntity
  8
0
  6
ByBlock
 62
     0
380
     1
100
AcDbTrace
 10
3697.240987177461
 20
2083.961306179679
 30
0.0
 11
3694.740987177461
 21
2083.544639513012
 31
0.0
 12
3694.740987177461
 22
2084.377972846346
 32
0.0
 13
3694.740987177461
 23
2084.377972846346
 33
0.0
  0
MTEXT
  5
5BE
330
5C0
100
AcDbEntity
  8
0
  6
ByBlock
 62
     0
370
    -2
380
     1
100
AcDbMText
 10
3431.709909848601
 20
2086.044639513012
 30
0.0
 40
2.5
 41
0.0
 71
     5
 72
     1
  1
\A1;531,06
 73
     1
 44
1.0
  0
ENDBLK
  5
6E2
330
5C0
100
AcDbEntity
  8
0
100
AcDbBlockEnd
  0
BLOCK
  5
6E3
330
5CB
100
AcDbEntity
  8
0
100
AcDbBlockBegin
  2
*D55
 70
     1
 10
0.0
 20
0.0
 30
0.0
  3
*D55
  1

  0
POINT
  5
5C2
330
5CB
100
AcDbEntity
  8
DEFPOINTS
  6
ByBlock
 62
     7
380
     1
100
AcDbPoint
 10
3166.178832519741
 20
2218.732298637751
 30
0.0
  0
POINT
  5
5C3
330
5CB
100
AcDbEntity
  8
DEFPOINTS
  6
ByBlock
 62
     7
380
     1
100
AcDbPoint
 10
3697.240987177461
 20
2231.19012147001
 30
0.0
  0
LINE
  5
5C4
330
5CB
100
AcDbEntity
  8
0
  6
ByBlock
 62
     7
370
    -2
380
     1
100
AcDbLine
 10
3166.178832519741
 20
2218.107298637751
 30
0.0
 11
3166.178832519741
 21
2082.711306179679
 31
0.0
  0
LINE
  5
5C5
330
5CB
100
AcDbEntity
  8
0
  6
ByBlock
 62
     7
370
    -2
380
     1
100
AcDbLine
 10
3697.240987177461
 20
2230.56512147001
 30
0.0
 11
3697.240987177461
 21
2082.711306179679
 31
0.0
  0
LINE
  5
5C6
330
5CB
100
AcDbEntity
  8
0
  6
ByBlock
 62
     7
370
    -2
380
     1
100
AcDbLine
 10
3176.178832519741
 20
2083.961306179679
 30
0.0
 11
3687.240987177461
 21
2083.961306179679
 31
0.0
  0
SOLID
  5
5C7
330
5CB
100
AcDbEntity
  8
0
  6
ByBlock
 62
     7
380
     1
100
AcDbTrace
 10
3166.178832519741
 20
2083.961306179679
 30
0.0
 11
3176.178832519741
 21
2082.294639513012
 31
0.0
 12
3176.178832519741
 22
2085.627972846346
 32
0.0
 13
3176.178832519741
 23
2085.627972846346
 33
0.0
  0
SOLID
  5
5C8
330
5CB
100
AcDbEntity
  8
0
  6
ByBlock
 62
     7
380
     1
100
AcDbTrace
 10
3697.240987177461
 20
2083.961306179679
 30
0.0
 11
3687.240987177461
 21
2082.294639513012
 31
0.0
 12
3687.240987177461
 22
2085.627972846346
 32
0.0
 13
3687.240987177461
 23
2085.627972846346
 33
0.0
  0
MTEXT
  5
5C9
330
5CB
100
AcDbEntity
  8
0
  6
ByBlock
 62
     0
370
    -2
380
     1
100
AcDbMText
 10
3431.709909848601
 20
2097.127972846346
 30
0.0
 40
14.0
 41
0.0
 71
     5
 72
     1
  1
\A1;531,06
 73
     1
 44
1.0
  0
ENDBLK
  5
6E4
330
5CB
100
AcDbEntity
  8
0
100
AcDbBlockEnd
  0
BLOCK
  5
6E5
330
5D6
100
AcDbEntity
  8
0
100
AcDbBlockBegin
  2
*D56
 70
     1
 10
0.0
 20
0.0
 30
0.0
  3
*D56
  1

  0
POINT
  5
5CD
330
5D6
100
AcDbEntity
  8
DEFPOINTS
  6
ByBlock
 62
     7
380
     1
100
AcDbPoint
 10
3166.178832519741
 20
2218.732298637751
 30
0.0
  0
POINT
  5
5CE
330
5D6
100
AcDbEntity
  8
DEFPOINTS
  6
ByBlock
 62
     7
380
     1
100
AcDbPoint
 10
3697.240987177461
 20
2231.19012147001
 30
0.0
  0
LINE
  5
5CF
330
5D6
100
AcDbEntity
  8
0
  6
ByBlock
 62
     7
370
    -2
380
     1
100
AcDbLine
 10
3166.178832519741
 20
2218.107298637751
 30
0.0
 11
3166.178832519741
 21
2082.711306179679
 31
0.0
  0
LINE
  5
5D0
330
5D6
100
AcDbEntity
  8
0
  6
ByBlock
 62
     7
370
    -2
380
     1
100
AcDbLine
 10
3697.240987177461
 20
2230.56512147001
 30
0.0
 11
3697.240987177461
 21
2082.711306179679
 31
0.0
  0
LINE
  5
5D1
330
5D6
100
AcDbEntity
  8
0
  6
ByBlock
 62
     7
370
    -2
380
     1
100
AcDbLine
 10
3176.178832519741
 20
2083.961306179679
 30
0.0
 11
3687.240987177461
 21
2083.961306179679
 31
0.0
  0
SOLID
  5
5D2
330
5D6
100
AcDbEntity
  8
0
  6
ByBlock
 62
     7
380
     1
100
AcDbTrace
 10
3166.178832519741
 20
2083.961306179679
 30
0.0
 11
3176.178832519741
 21
2082.294639513012
 31
0.0
 12
3176.178832519741
 22
2085.627972846346
 32
0.0
 13
3176.178832519741
 23
2085.627972846346
 33
0.0
  0
SOLID
  5
5D3
330
5D6
100
AcDbEntity
  8
0
  6
ByBlock
 62
     7
380
     1
100
AcDbTrace
 10
3697.240987177461
 20
2083.961306179679
 30
0.0
 11
3687.240987177461
 21
2082.294639513012
 31
0.0
 12
3687.240987177461
 22
2085.627972846346
 32
0.0
 13
3687.240987177461
 23
2085.627972846346
 33
0.0
  0
MTEXT
  5
5D4
330
5D6
100
AcDbEntity
  8
0
  6
ByBlock
 62
     0
370
    -2
380
     1
100
AcDbMText
 10
3431.709909848601
 20
2095.961306179679
 30
0.0
 40
14.0
 41
0.0
 71
     5
 72
     1
  1
531
 73
     1
 44
1.0
  0
ENDBLK
  5
6E6
330
5D6
100
AcDbEntity
  8
0
100
AcDbBlockEnd
  0
BLOCK
  5
6E7
330
5E2
100
AcDbEntity
  8
0
100
AcDbBlockBegin
  2
*D57
 70
     1
 10
0.0
 20
0.0
 30
0.0
  3
*D57
  1

  0
POINT
  5
5D9
330
5E2
100
AcDbEntity
  8
DEFPOINTS
  6
ByBlock
 62
     0
380
     1
100
AcDbPoint
 10
3101.672191942341
 20
2342.177997611948
 30
0.0
  0
POINT
  5
5DA
330
5E2
100
AcDbEntity
  8
DEFPOINTS
  6
ByBlock
 62
     0
380
     1
100
AcDbPoint
 10
3709.944241783461
 20
2427.103040644785
 30
0.0
  0
LINE
  5
5DB
330
5E2
100
AcDbEntity
  8
0
  6
ByBlock
 62
     0
370
    -2
380
     1
100
AcDbLine
 10
3101.672191942341
 20
2341.552997611948
 30
0.0
 11
3101.672191942341
 21
2019.289662669995
 31
0.0
  0
LINE
  5
5DC
330
5E2
100
AcDbEntity
  8
0
  6
ByBlock
 62
     0
370
    -2
380
     1
100
AcDbLine
 10
3709.944241783461
 20
2426.478040644785
 30
0.0
 11
3709.944241783461
 21
2019.289662669995
 31
0.0
  0
LINE
  5
5DD
330
5E2
100
AcDbEntity
  8
0
  6
ByBlock
 62
     0
370
    -2
380
     1
100
AcDbLine
 10
3104.172191942341
 20
2020.539662669995
 30
0.0
 11
3707.444241783461
 21
2020.539662669995
 31
0.0
  0
SOLID
  5
5DE
330
5E2
100
AcDbEntity
  8
0
  6
ByBlock
 62
     0
380
     1
100
AcDbTrace
 10
3101.672191942341
 20
2020.539662669995
 30
0.0
 11
3104.172191942341
 21
2020.122996003328
 31
0.0
 12
3104.172191942341
 22
2020.956329336662
 32
0.0
 13
3104.172191942341
 23
2020.956329336662
 33
0.0
  0
SOLID
  5
5DF
330
5E2
100
AcDbEntity
  8
0
  6
ByBlock
 62
     0
380
     1
100
AcDbTrace
 10
3709.944241783461
 20
2020.539662669995
 30
0.0
 11
3707.444241783461
 21
2020.122996003328
 31
0.0
 12
3707.444241783461
 22
2020.956329336662
 32
0.0
 13
3707.444241783461
 23
2020.956329336662
 33
0.0
  0
MTEXT
  5
5E0
330
5E2
100
AcDbEntity
  8
0
  6
ByBlock
 62
     0
370
    -2
380
     1
100
AcDbMText
 10
3405.808216862901
 20
2022.622996003328
 30
0.0
 40
2.5
 41
0.0
 71
     5
 72
     1
  1
\A1;608,27
 73
     1
 44
1.0
  0
ENDBLK
  5
6E8
330
5E2
100
AcDbEntity
  8
0
100
AcDbBlockEnd
  0
BLOCK
  5
6E9
330
5ED
100
AcDbEntity
  8
0
100
AcDbBlockBegin
  2
*D58
 70
     1
 10
0.0
 20
0.0
 30
0.0
  3
*D58
  1

  0
POINT
  5
5E4
330
5ED
100
AcDbEntity
  8
DEFPOINTS
  6
ByBlock
 62
     0
380
     1
100
AcDbPoint
 10
3101.672191942341
 20
2342.177997611948
 30
0.0
  0
POINT
  5
5E5
330
5ED
100
AcDbEntity
  8
DEFPOINTS
  6
ByBlock
 62
     0
380
     1
100
AcDbPoint
 10
3709.944241783461
 20
2427.103040644785
 30
0.0
  0
LINE
  5
5E6
330
5ED
100
AcDbEntity
  8
0
  6
ByBlock
 62
     0
370
    -2
380
     1
100
AcDbLine
 10
3101.672191942341
 20
2341.552997611948
 30
0.0
 11
3101.672191942341
 21
2019.289662669995
 31
0.0
  0
LINE
  5
5E7
330
5ED
100
AcDbEntity
  8
0
  6
ByBlock
 62
     0
370
    -2
380
     1
100
AcDbLine
 10
3709.944241783461
 20
2426.478040644785
 30
0.0
 11
3709.944241783461
 21
2019.289662669995
 31
0.0
  0
LINE
  5
5E8
330
5ED
100
AcDbEntity
  8
0
  6
ByBlock
 62
     0
370
    -2
380
     1
100
AcDbLine
 10
3104.172191942341
 20
2020.539662669995
 30
0.0
 11
3707.444241783461
 21
2020.539662669995
 31
0.0
  0
SOLID
  5
5E9
330
5ED
100
AcDbEntity
  8
0
  6
ByBlock
 62
     0
380
     1
100
AcDbTrace
 10
3101.672191942341
 20
2020.539662669995
 30
0.0
 11
3104.172191942341
 21
2020.122996003328
 31
0.0
 12
3104.172191942341
 22
2020.956329336662
 32
0.0
 13
3104.172191942341
 23
2020.956329336662
 33
0.0
  0
SOLID
  5
5EA
330
5ED
100
AcDbEntity
  8
0
  6
ByBlock
 62
     0
380
     1
100
AcDbTrace
 10
3709.944241783461
 20
2020.539662669995
 30
0.0
 11
3707.444241783461
 21
2020.122996003328
 31
0.0
 12
3707.444241783461
 22
2020.956329336662
 32
0.0
 13
3707.444241783461
 23
2020.956329336662
 33
0.0
  0
MTEXT
  5
5EB
330
5ED
100
AcDbEntity
  8
0
  6
ByBlock
 62
     0
370
    -2
380
     1
100
AcDbMText
 10
3405.808216862901
 20
2022.622996003328
 30
0.0
 40
2.5
 41
0.0
 71
     5
 72
     1
  1
\A1;608,27
 73
     1
 44
1.0
  0
ENDBLK
  5
6EA
330
5ED
100
AcDbEntity
  8
0
100
AcDbBlockEnd
  0
BLOCK
  5
6EB
330
5F8
100
AcDbEntity
  8
0
100
AcDbBlockBegin
  2
*D59
 70
     1
 10
0.0
 20
0.0
 30
0.0
  3
*D59
  1

  0
POINT
  5
5EF
330
5F8
100
AcDbEntity
  8
DEFPOINTS
  6
ByBlock
 62
     7
380
     1
100
AcDbPoint
 10
3101.672191942341
 20
2342.177997611948
 30
0.0
  0
POINT
  5
5F0
330
5F8
100
AcDbEntity
  8
DEFPOINTS
  6
ByBlock
 62
     7
380
     1
100
AcDbPoint
 10
3709.944241783461
 20
2427.103040644785
 30
0.0
  0
LINE
  5
5F1
330
5F8
100
AcDbEntity
  8
0
  6
ByBlock
 62
     7
370
    -2
380
     1
100
AcDbLine
 10
3101.672191942341
 20
2341.552997611948
 30
0.0
 11
3101.672191942341
 21
2019.289662669995
 31
0.0
  0
LINE
  5
5F2
330
5F8
100
AcDbEntity
  8
0
  6
ByBlock
 62
     7
370
    -2
380
     1
100
AcDbLine
 10
3709.944241783461
 20
2426.478040644785
 30
0.0
 11
3709.944241783461
 21
2019.289662669995
 31
0.0
  0
LINE
  5
5F3
330
5F8
100
AcDbEntity
  8
0
  6
ByBlock
 62
     7
370
    -2
380
     1
100
AcDbLine
 10
3111.672191942341
 20
2020.539662669995
 30
0.0
 11
3699.944241783461
 21
2020.539662669995
 31
0.0
  0
SOLID
  5
5F4
330
5F8
100
AcDbEntity
  8
0
  6
ByBlock
 62
     7
380
     1
100
AcDbTrace
 10
3101.672191942341
 20
2020.539662669995
 30
0.0
 11
3111.672191942341
 21
2018.872996003328
 31
0.0
 12
3111.672191942341
 22
2022.206329336662
 32
0.0
 13
3111.672191942341
 23
2022.206329336662
 33
0.0
  0
SOLID
  5
5F5
330
5F8
100
AcDbEntity
  8
0
  6
ByBlock
 62
     7
380
     1
100
AcDbTrace
 10
3709.944241783461
 20
2020.539662669995
 30
0.0
 11
3699.944241783461
 21
2018.872996003328
 31
0.0
 12
3699.944241783461
 22
2022.206329336662
 32
0.0
 13
3699.944241783461
 23
2022.206329336662
 33
0.0
  0
MTEXT
  5
5F6
330
5F8
100
AcDbEntity
  8
0
  6
ByBlock
 62
     0
370
    -2
380
     1
100
AcDbMText
 10
3405.808216862901
 20
2033.706329336662
 30
0.0
 40
14.0
 41
0.0
 71
     5
 72
     1
  1
\A1;608,27
 73
     1
 44
1.0
  0
ENDBLK
  5
6EC
330
5F8
100
AcDbEntity
  8
0
100
AcDbBlockEnd
  0
BLOCK
  5
6ED
330
603
100
AcDbEntity
  8
0
100
AcDbBlockBegin
  2
*D60
 70
     1
 10
0.0
 20
0.0
 30
0.0
  3
*D60
  1

  0
POINT
  5
5FA
330
603
100
AcDbEntity
  8
DEFPOINTS
  6
ByBlock
 62
     7
380
     1
100
AcDbPoint
 10
3101.672191942341
 20
2342.177997611948
 30
0.0
  0
POINT
  5
5FB
330
603
100
AcDbEntity
  8
DEFPOINTS
  6
ByBlock
 62
     7
380
     1
100
AcDbPoint
 10
3709.944241783461
 20
2427.103040644785
 30
0.0
  0
LINE
  5
5FC
330
603
100
AcDbEntity
  8
0
  6
ByBlock
 62
     7
370
    -2
380
     1
100
AcDbLine
 10
3101.672191942341
 20
2341.552997611948
 30
0.0
 11
3101.672191942341
 21
2019.289662669995
 31
0.0
  0
LINE
  5
5FD
330
603
100
AcDbEntity
  8
0
  6
ByBlock
 62
     7
370
    -2
380
     1
100
AcDbLine
 10
3709.944241783461
 20
2426.478040644785
 30
0.0
 11
3709.944241783461
 21
2019.289662669995
 31
0.0
  0
LINE
  5
5FE
330
603
100
AcDbEntity
  8
0
  6
ByBlock
 62
     7
370
    -2
380
     1
100
AcDbLine
 10
3111.672191942341
 20
2020.539662669995
 30
0.0
 11
3699.944241783461
 21
2020.539662669995
 31
0.0
  0
SOLID
  5
5FF
330
603
100
AcDbEntity
  8
0
  6
ByBlock
 62
     7
380
     1
100
AcDbTrace
 10
3101.672191942341
 20
2020.539662669995
 30
0.0
 11
3111.672191942341
 21
2018.872996003328
 31
0.0
 12
3111.672191942341
 22
2022.206329336662
 32
0.0
 13
3111.672191942341
 23
2022.206329336662
 33
0.0
  0
SOLID
  5
600
330
603
100
AcDbEntity
  8
0
  6
ByBlock
 62
     7
380
     1
100
AcDbTrace
 10
3709.944241783461
 20
2020.539662669995
 30
0.0
 11
3699.944241783461
 21
2018.872996003328
 31
0.0
 12
3699.944241783461
 22
2022.206329336662
 32
0.0
 13
3699.944241783461
 23
2022.206329336662
 33
0.0
  0
MTEXT
  5
601
330
603
100
AcDbEntity
  8
0
  6
ByBlock
 62
     0
370
    -2
380
     1
100
AcDbMText
 10
3405.808216862901
 20
2032.539662669995
 30
0.0
 40
14.0
 41
0.0
 71
     5
 72
     1
  1
608
 73
     1
 44
1.0
  0
ENDBLK
  5
6EE
330
603
100
AcDbEntity
  8
0
100
AcDbBlockEnd
  0
BLOCK
  5
6EF
330
60F
100
AcDbEntity
  8
0
100
AcDbBlockBegin
  2
*D61
 70
     1
 10
0.0
 20
0.0
 30
0.0
  3
*D61
  1

  0
POINT
  5
606
330
60F
100
AcDbEntity
  8
DEFPOINTS
  6
ByBlock
 62
     0
380
     1
100
AcDbPoint
 10
4087.769315076963
 20
2757.235815759525
 30
0.0
  0
POINT
  5
607
330
60F
100
AcDbEntity
  8
DEFPOINTS
  6
ByBlock
 62
     0
380
     1
100
AcDbPoint
 10
4091.175046172721
 20
2272.037876834385
 30
0.0
  0
LINE
  5
608
330
60F
100
AcDbEntity
  8
0
  6
ByBlock
 62
     0
370
    -2
380
     1
100
AcDbLine
 10
4088.394315076963
 20
2757.235815759525
 30
0.0
 11
4183.256711100514
 21
2757.235815759525
 31
0.0
  0
LINE
  5
609
330
60F
100
AcDbEntity
  8
0
  6
ByBlock
 62
     0
370
    -2
380
     1
100
AcDbLine
 10
4091.800046172721
 20
2272.037876834385
 30
0.0
 11
4183.256711100514
 21
2272.037876834385
 31
0.0
  0
LINE
  5
60A
330
60F
100
AcDbEntity
  8
0
  6
ByBlock
 62
     0
370
    -2
380
     1
100
AcDbLine
 10
4182.006711100514
 20
2754.735815759525
 30
0.0
 11
4182.006711100514
 21
2274.537876834385
 31
0.0
  0
SOLID
  5
60B
330
60F
100
AcDbEntity
  8
0
  6
ByBlock
 62
     0
380
     1
100
AcDbTrace
 10
4182.006711100514
 20
2757.235815759525
 30
0.0
 11
4181.590044433847
 21
2754.735815759525
 31
0.0
 12
4182.423377767181
 22
2754.735815759525
 32
0.0
 13
4182.423377767181
 23
2754.735815759525
 33
0.0
  0
SOLID
  5
60C
330
60F
100
AcDbEntity
  8
0
  6
ByBlock
 62
     0
380
     1
100
AcDbTrace
 10
4182.006711100514
 20
2272.037876834385
 30
0.0
 11
4181.590044433847
 21
2274.537876834385
 31
0.0
 12
4182.423377767181
 22
2274.537876834385
 32
0.0
 13
4182.423377767181
 23
2274.537876834385
 33
0.0
  0
MTEXT
  5
60D
330
60F
100
AcDbEntity
  8
0
  6
ByBlock
 62
     0
370
    -2
380
     1
100
AcDbMText
 10
4179.923377767181
 20
2514.636846296955
 30
0.0
 40
2.5
 41
0.0
 71
     5
 72
     1
  1
\A1;485,2
 11
6.123031769111886E-17
 21
1.0
 31
0.0
 73
     1
 44
1.0
  0
ENDBLK
  5
6F0
330
60F
100
AcDbEntity
  8
0
100
AcDbBlockEnd
  0
BLOCK
  5
6F1
330
61A
100
AcDbEntity
  8
0
100
AcDbBlockBegin
  2
*D62
 70
     1
 10
0.0
 20
0.0
 30
0.0
  3
*D62
  1

  0
POINT
  5
611
330
61A
100
AcDbEntity
  8
DEFPOINTS
  6
ByBlock
 62
     0
380
     1
100
AcDbPoint
 10
4087.769315076963
 20
2757.235815759525
 30
0.0
  0
POINT
  5
612
330
61A
100
AcDbEntity
  8
DEFPOINTS
  6
ByBlock
 62
     0
380
     1
100
AcDbPoint
 10
4091.175046172721
 20
2272.037876834385
 30
0.0
  0
LINE
  5
613
330
61A
100
AcDbEntity
  8
0
  6
ByBlock
 62
     0
370
    -2
380
     1
100
AcDbLine
 10
4088.394315076963
 20
2757.235815759525
 30
0.0
 11
4183.256711100514
 21
2757.235815759525
 31
0.0
  0
LINE
  5
614
330
61A
100
AcDbEntity
  8
0
  6
ByBlock
 62
     0
370
    -2
380
     1
100
AcDbLine
 10
4091.800046172721
 20
2272.037876834385
 30
0.0
 11
4183.256711100514
 21
2272.037876834385
 31
0.0
  0
LINE
  5
615
330
61A
100
AcDbEntity
  8
0
  6
ByBlock
 62
     0
370
    -2
380
     1
100
AcDbLine
 10
4182.006711100514
 20
2754.735815759525
 30
0.0
 11
4182.006711100514
 21
2274.537876834385
 31
0.0
  0
SOLID
  5
616
330
61A
100
AcDbEntity
  8
0
  6
ByBlock
 62
     0
380
     1
100
AcDbTrace
 10
4182.006711100514
 20
2757.235815759525
 30
0.0
 11
4181.590044433847
 21
2754.735815759525
 31
0.0
 12
4182.423377767181
 22
2754.735815759525
 32
0.0
 13
4182.423377767181
 23
2754.735815759525
 33
0.0
  0
SOLID
  5
617
330
61A
100
AcDbEntity
  8
0
  6
ByBlock
 62
     0
380
     1
100
AcDbTrace
 10
4182.006711100514
 20
2272.037876834385
 30
0.0
 11
4181.590044433847
 21
2274.537876834385
 31
0.0
 12
4182.423377767181
 22
2274.537876834385
 32
0.0
 13
4182.423377767181
 23
2274.537876834385
 33
0.0
  0
MTEXT
  5
618
330
61A
100
AcDbEntity
  8
0
  6
ByBlock
 62
     0
370
    -2
380
     1
100
AcDbMText
 10
4179.923377767181
 20
2514.636846296955
 30
0.0
 40
2.5
 41
0.0
 71
     5
 72
     1
  1
\A1;485,2
 11
6.123031769111886E-17
 21
1.0
 31
0.0
 73
     1
 44
1.0
  0
ENDBLK
  5
6F2
330
61A
100
AcDbEntity
  8
0
100
AcDbBlockEnd
  0
BLOCK
  5
6F3
330
625
100
AcDbEntity
  8
0
100
AcDbBlockBegin
  2
*D63
 70
     1
 10
0.0
 20
0.0
 30
0.0
  3
*D63
  1

  0
POINT
  5
61C
330
625
100
AcDbEntity
  8
DEFPOINTS
  6
ByBlock
 62
     7
380
     1
100
AcDbPoint
 10
4087.769315076963
 20
2757.235815759525
 30
0.0
  0
POINT
  5
61D
330
625
100
AcDbEntity
  8
DEFPOINTS
  6
ByBlock
 62
     7
380
     1
100
AcDbPoint
 10
4091.175046172721
 20
2272.037876834385
 30
0.0
  0
LINE
  5
61E
330
625
100
AcDbEntity
  8
0
  6
ByBlock
 62
     7
370
    -2
380
     1
100
AcDbLine
 10
4088.394315076963
 20
2757.235815759525
 30
0.0
 11
4183.256711100514
 21
2757.235815759525
 31
0.0
  0
LINE
  5
61F
330
625
100
AcDbEntity
  8
0
  6
ByBlock
 62
     7
370
    -2
380
     1
100
AcDbLine
 10
4091.800046172721
 20
2272.037876834385
 30
0.0
 11
4183.256711100514
 21
2272.037876834385
 31
0.0
  0
LINE
  5
620
330
625
100
AcDbEntity
  8
0
  6
ByBlock
 62
     7
370
    -2
380
     1
100
AcDbLine
 10
4182.006711100514
 20
2747.235815759525
 30
0.0
 11
4182.006711100514
 21
2282.037876834385
 31
0.0
  0
SOLID
  5
621
330
625
100
AcDbEntity
  8
0
  6
ByBlock
 62
     7
380
     1
100
AcDbTrace
 10
4182.006711100514
 20
2757.235815759525
 30
0.0
 11
4180.340044433847
 21
2747.235815759525
 31
0.0
 12
4183.673377767181
 22
2747.235815759525
 32
0.0
 13
4183.673377767181
 23
2747.235815759525
 33
0.0
  0
SOLID
  5
622
330
625
100
AcDbEntity
  8
0
  6
ByBlock
 62
     7
380
     1
100
AcDbTrace
 10
4182.006711100514
 20
2272.037876834385
 30
0.0
 11
4180.340044433847
 21
2282.037876834385
 31
0.0
 12
4183.673377767181
 22
2282.037876834385
 32
0.0
 13
4183.673377767181
 23
2282.037876834385
 33
0.0
  0
MTEXT
  5
623
330
625
100
AcDbEntity
  8
0
  6
ByBlock
 62
     0
370
    -2
380
     1
100
AcDbMText
 10
4168.840044433847
 20
2514.636846296955
 30
0.0
 40
14.0
 41
0.0
 71
     5
 72
     1
  1
\A1;485,2
 11
6.123031769111886E-17
 21
1.0
 31
0.0
 73
     1
 44
1.0
  0
ENDBLK
  5
6F4
330
625
100
AcDbEntity
  8
0
100
AcDbBlockEnd
  0
BLOCK
  5
6F5
330
630
100
AcDbEntity
  8
0
100
AcDbBlockBegin
  2
*D64
 70
     1
 10
0.0
 20
0.0
 30
0.0
  3
*D64
  1

  0
POINT
  5
627
330
630
100
AcDbEntity
  8
DEFPOINTS
  6
ByBlock
 62
     7
380
     1
100
AcDbPoint
 10
4087.769315076963
 20
2757.235815759525
 30
0.0
  0
POINT
  5
628
330
630
100
AcDbEntity
  8
DEFPOINTS
  6
ByBlock
 62
     7
380
     1
100
AcDbPoint
 10
4091.175046172721
 20
2272.037876834385
 30
0.0
  0
LINE
  5
629
330
630
100
AcDbEntity
  8
0
  6
ByBlock
 62
     7
370
    -2
380
     1
100
AcDbLine
 10
4088.394315076963
 20
2757.235815759525
 30
0.0
 11
4183.256711100514
 21
2757.235815759525
 31
0.0
  0
LINE
  5
62A
330
630
100
AcDbEntity
  8
0
  6
ByBlock
 62
     7
370
    -2
380
     1
100
AcDbLine
 10
4091.800046172721
 20
2272.037876834385
 30
0.0
 11
4183.256711100514
 21
2272.037876834385
 31
0.0
  0
LINE
  5
62B
330
630
100
AcDbEntity
  8
0
  6
ByBlock
 62
     7
370
    -2
380
     1
100
AcDbLine
 10
4182.006711100514
 20
2747.235815759525
 30
0.0
 11
4182.006711100514
 21
2282.037876834385
 31
0.0
  0
SOLID
  5
62C
330
630
100
AcDbEntity
  8
0
  6
ByBlock
 62
     7
380
     1
100
AcDbTrace
 10
4182.006711100514
 20
2757.235815759525
 30
0.0
 11
4180.340044433847
 21
2747.235815759525
 31
0.0
 12
4183.673377767181
 22
2747.235815759525
 32
0.0
 13
4183.673377767181
 23
2747.235815759525
 33
0.0
  0
SOLID
  5
62D
330
630
100
AcDbEntity
  8
0
  6
ByBlock
 62
     7
380
     1
100
AcDbTrace
 10
4182.006711100514
 20
2272.037876834385
 30
0.0
 11
4180.340044433847
 21
2282.037876834385
 31
0.0
 12
4183.673377767181
 22
2282.037876834385
 32
0.0
 13
4183.673377767181
 23
2282.037876834385
 33
0.0
  0
MTEXT
  5
62E
330
630
100
AcDbEntity
  8
0
  6
ByBlock
 62
     0
370
    -2
380
     1
100
AcDbMText
 10
4170.006711100514
 20
2514.636846296955
 30
0.0
 40
14.0
 41
0.0
 71
     5
 72
     1
  1
485
 11
6.123031769111886E-17
 21
1.0
 31
0.0
 73
     1
 44
1.0
  0
ENDBLK
  5
6F6
330
630
100
AcDbEntity
  8
0
100
AcDbBlockEnd
  0
BLOCK
  5
6F7
330
63C
100
AcDbEntity
  8
0
100
AcDbBlockBegin
  2
*D65
 70
     1
 10
0.0
 20
0.0
 30
0.0
  3
*D65
  1

  0
POINT
  5
633
330
63C
100
AcDbEntity
  8
DEFPOINTS
  6
ByBlock
 62
     0
380
     1
100
AcDbPoint
 10
3870.340658968382
 20
2522.140895340225
 30
0.0
  0
POINT
  5
634
330
63C
100
AcDbEntity
  8
DEFPOINTS
  6
ByBlock
 62
     0
380
     1
100
AcDbPoint
 10
4129.281166302701
 20
2520.780375984886
 30
0.0
  0
LINE
  5
635
330
63C
100
AcDbEntity
  8
0
  6
ByBlock
 62
     0
370
    -2
380
     1
100
AcDbLine
 10
3870.340658968382
 20
2521.515895340225
 30
0.0
 11
3870.340658968382
 21
2115.358091525237
 31
0.0
  0
LINE
  5
636
330
63C
100
AcDbEntity
  8
0
  6
ByBlock
 62
     0
370
    -2
380
     1
100
AcDbLine
 10
4129.281166302701
 20
2520.155375984886
 30
0.0
 11
4129.281166302701
 21
2115.358091525237
 31
0.0
  0
LINE
  5
637
330
63C
100
AcDbEntity
  8
0
  6
ByBlock
 62
     0
370
    -2
380
     1
100
AcDbLine
 10
3872.840658968382
 20
2116.608091525237
 30
0.0
 11
4126.781166302701
 21
2116.608091525237
 31
0.0
  0
SOLID
  5
638
330
63C
100
AcDbEntity
  8
0
  6
ByBlock
 62
     0
380
     1
100
AcDbTrace
 10
3870.340658968382
 20
2116.608091525237
 30
0.0
 11
3872.840658968382
 21
2116.191424858571
 31
0.0
 12
3872.840658968382
 22
2117.024758191904
 32
0.0
 13
3872.840658968382
 23
2117.024758191904
 33
0.0
  0
SOLID
  5
639
330
63C
100
AcDbEntity
  8
0
  6
ByBlock
 62
     0
380
     1
100
AcDbTrace
 10
4129.281166302701
 20
2116.608091525237
 30
0.0
 11
4126.781166302701
 21
2116.191424858571
 31
0.0
 12
4126.781166302701
 22
2117.024758191904
 32
0.0
 13
4126.781166302701
 23
2117.024758191904
 33
0.0
  0
MTEXT
  5
63A
330
63C
100
AcDbEntity
  8
0
  6
ByBlock
 62
     0
370
    -2
380
     1
100
AcDbMText
 10
3999.810912635542
 20
2118.691424858571
 30
0.0
 40
2.5
 41
0.0
 71
     5
 72
     1
  1
\A1;258,94
 73
     1
 44
1.0
  0
ENDBLK
  5
6F8
330
63C
100
AcDbEntity
  8
0
100
AcDbBlockEnd
  0
BLOCK
  5
6F9
330
648
100
AcDbEntity
  8
0
100
AcDbBlockBegin
  2
*D66
 70
     1
 10
0.0
 20
0.0
 30
0.0
  3
*D66
  1

  0
POINT
  5
63F
330
648
100
AcDbEntity
  8
DEFPOINTS
  6
ByBlock
 62
     0
380
     1
100
AcDbPoint
 10
3870.340658968382
 20
2522.140895340225
 30
0.0
  0
POINT
  5
640
330
648
100
AcDbEntity
  8
DEFPOINTS
  6
ByBlock
 62
     0
380
     1
100
AcDbPoint
 10
4129.281166302701
 20
2520.780375984886
 30
0.0
  0
LINE
  5
641
330
648
100
AcDbEntity
  8
0
  6
ByBlock
 62
     0
370
    -2
380
     1
100
AcDbLine
 10
3870.340658968382
 20
2521.515895340225
 30
0.0
 11
3870.340658968382
 21
2082.711306179679
 31
0.0
  0
LINE
  5
642
330
648
100
AcDbEntity
  8
0
  6
ByBlock
 62
     0
370
    -2
380
     1
100
AcDbLine
 10
4129.281166302701
 20
2520.155375984886
 30
0.0
 11
4129.281166302701
 21
2082.711306179679
 31
0.0
  0
LINE
  5
643
330
648
100
AcDbEntity
  8
0
  6
ByBlock
 62
     0
370
    -2
380
     1
100
AcDbLine
 10
3872.840658968382
 20
2083.961306179679
 30
0.0
 11
4126.781166302701
 21
2083.961306179679
 31
0.0
  0
SOLID
  5
644
330
648
100
AcDbEntity
  8
0
  6
ByBlock
 62
     0
380
     1
100
AcDbTrace
 10
3870.340658968382
 20
2083.961306179679
 30
0.0
 11
3872.840658968382
 21
2083.544639513012
 31
0.0
 12
3872.840658968382
 22
2084.377972846346
 32
0.0
 13
3872.840658968382
 23
2084.377972846346
 33
0.0
  0
SOLID
  5
645
330
648
100
AcDbEntity
  8
0
  6
ByBlock
 62
     0
380
     1
100
AcDbTrace
 10
4129.281166302701
 20
2083.961306179679
 30
0.0
 11
4126.781166302701
 21
2083.544639513012
 31
0.0
 12
4126.781166302701
 22
2084.377972846346
 32
0.0
 13
4126.781166302701
 23
2084.377972846346
 33
0.0
  0
MTEXT
  5
646
330
648
100
AcDbEntity
  8
0
  6
ByBlock
 62
     0
370
    -2
380
     1
100
AcDbMText
 10
3999.810912635542
 20
2086.044639513012
 30
0.0
 40
2.5
 41
0.0
 71
     5
 72
     1
  1
\A1;258,94
 73
     1
 44
1.0
  0
ENDBLK
  5
6FA
330
648
100
AcDbEntity
  8
0
100
AcDbBlockEnd
  0
BLOCK
  5
6FB
330
653
100
AcDbEntity
  8
0
100
AcDbBlockBegin
  2
*D67
 70
     1
 10
0.0
 20
0.0
 30
0.0
  3
*D67
  1

  0
POINT
  5
64A
330
653
100
AcDbEntity
  8
DEFPOINTS
  6
ByBlock
 62
     0
380
     1
100
AcDbPoint
 10
3870.340658968382
 20
2522.140895340225
 30
0.0
  0
POINT
  5
64B
330
653
100
AcDbEntity
  8
DEFPOINTS
  6
ByBlock
 62
     0
380
     1
100
AcDbPoint
 10
4129.281166302701
 20
2520.780375984886
 30
0.0
  0
LINE
  5
64C
330
653
100
AcDbEntity
  8
0
  6
ByBlock
 62
     0
370
    -2
380
     1
100
AcDbLine
 10
3870.340658968382
 20
2521.515895340225
 30
0.0
 11
3870.340658968382
 21
2082.711306179679
 31
0.0
  0
LINE
  5
64D
330
653
100
AcDbEntity
  8
0
  6
ByBlock
 62
     0
370
    -2
380
     1
100
AcDbLine
 10
4129.281166302701
 20
2520.155375984886
 30
0.0
 11
4129.281166302701
 21
2082.711306179679
 31
0.0
  0
LINE
  5
64E
330
653
100
AcDbEntity
  8
0
  6
ByBlock
 62
     0
370
    -2
380
     1
100
AcDbLine
 10
3872.840658968382
 20
2083.961306179679
 30
0.0
 11
4126.781166302701
 21
2083.961306179679
 31
0.0
  0
SOLID
  5
64F
330
653
100
AcDbEntity
  8
0
  6
ByBlock
 62
     0
380
     1
100
AcDbTrace
 10
3870.340658968382
 20
2083.961306179679
 30
0.0
 11
3872.840658968382
 21
2083.544639513012
 31
0.0
 12
3872.840658968382
 22
2084.377972846346
 32
0.0
 13
3872.840658968382
 23
2084.377972846346
 33
0.0
  0
SOLID
  5
650
330
653
100
AcDbEntity
  8
0
  6
ByBlock
 62
     0
380
     1
100
AcDbTrace
 10
4129.281166302701
 20
2083.961306179679
 30
0.0
 11
4126.781166302701
 21
2083.544639513012
 31
0.0
 12
4126.781166302701
 22
2084.377972846346
 32
0.0
 13
4126.781166302701
 23
2084.377972846346
 33
0.0
  0
MTEXT
  5
651
330
653
100
AcDbEntity
  8
0
  6
ByBlock
 62
     0
370
    -2
380
     1
100
AcDbMText
 10
3999.810912635542
 20
2086.044639513012
 30
0.0
 40
2.5
 41
0.0
 71
     5
 72
     1
  1
\A1;258,94
 73
     1
 44
1.0
  0
ENDBLK
  5
6FC
330
653
100
AcDbEntity
  8
0
100
AcDbBlockEnd
  0
BLOCK
  5
6FD
330
65E
100
AcDbEntity
  8
0
100
AcDbBlockBegin
  2
*D68
 70
     1
 10
0.0
 20
0.0
 30
0.0
  3
*D68
  1

  0
POINT
  5
655
330
65E
100
AcDbEntity
  8
DEFPOINTS
  6
ByBlock
 62
     7
380
     1
100
AcDbPoint
 10
3870.340658968382
 20
2522.140895340225
 30
0.0
  0
POINT
  5
656
330
65E
100
AcDbEntity
  8
DEFPOINTS
  6
ByBlock
 62
     7
380
     1
100
AcDbPoint
 10
4129.281166302701
 20
2520.780375984886
 30
0.0
  0
LINE
  5
657
330
65E
100
AcDbEntity
  8
0
  6
ByBlock
 62
     7
370
    -2
380
     1
100
AcDbLine
 10
3870.340658968382
 20
2521.515895340225
 30
0.0
 11
3870.340658968382
 21
2082.711306179679
 31
0.0
  0
LINE
  5
658
330
65E
100
AcDbEntity
  8
0
  6
ByBlock
 62
     7
370
    -2
380
     1
100
AcDbLine
 10
4129.281166302701
 20
2520.155375984886
 30
0.0
 11
4129.281166302701
 21
2082.711306179679
 31
0.0
  0
LINE
  5
659
330
65E
100
AcDbEntity
  8
0
  6
ByBlock
 62
     7
370
    -2
380
     1
100
AcDbLine
 10
3880.340658968382
 20
2083.961306179679
 30
0.0
 11
4119.281166302701
 21
2083.961306179679
 31
0.0
  0
SOLID
  5
65A
330
65E
100
AcDbEntity
  8
0
  6
ByBlock
 62
     7
380
     1
100
AcDbTrace
 10
3870.340658968382
 20
2083.961306179679
 30
0.0
 11
3880.340658968382
 21
2082.294639513012
 31
0.0
 12
3880.340658968382
 22
2085.627972846346
 32
0.0
 13
3880.340658968382
 23
2085.627972846346
 33
0.0
  0
SOLID
  5
65B
330
65E
100
AcDbEntity
  8
0
  6
ByBlock
 62
     7
380
     1
100
AcDbTrace
 10
4129.281166302701
 20
2083.961306179679
 30
0.0
 11
4119.281166302701
 21
2082.294639513012
 31
0.0
 12
4119.281166302701
 22
2085.627972846346
 32
0.0
 13
4119.281166302701
 23
2085.627972846346
 33
0.0
  0
MTEXT
  5
65C
330
65E
100
AcDbEntity
  8
0
  6
ByBlock
 62
     0
370
    -2
380
     1
100
AcDbMText
 10
3999.810912635542
 20
2097.127972846346
 30
0.0
 40
14.0
 41
0.0
 71
     5
 72
     1
  1
\A1;258,94
 73
     1
 44
1.0
  0
ENDBLK
  5
6FE
330
65E
100
AcDbEntity
  8
0
100
AcDbBlockEnd
  0
BLOCK
  5
6FF
330
669
100
AcDbEntity
  8
0
100
AcDbBlockBegin
  2
*D69
 70
     1
 10
0.0
 20
0.0
 30
0.0
  3
*D69
  1

  0
POINT
  5
660
330
669
100
AcDbEntity
  8
DEFPOINTS
  6
ByBlock
 62
     7
380
     1
100
AcDbPoint
 10
3870.340658968382
 20
2522.140895340225
 30
0.0
  0
POINT
  5
661
330
669
100
AcDbEntity
  8
DEFPOINTS
  6
ByBlock
 62
     7
380
     1
100
AcDbPoint
 10
4129.281166302701
 20
2520.780375984886
 30
0.0
  0
LINE
  5
662
330
669
100
AcDbEntity
  8
0
  6
ByBlock
 62
     7
370
    -2
380
     1
100
AcDbLine
 10
3870.340658968382
 20
2521.515895340225
 30
0.0
 11
3870.340658968382
 21
2082.711306179679
 31
0.0
  0
LINE
  5
663
330
669
100
AcDbEntity
  8
0
  6
ByBlock
 62
     7
370
    -2
380
     1
100
AcDbLine
 10
4129.281166302701
 20
2520.155375984886
 30
0.0
 11
4129.281166302701
 21
2082.711306179679
 31
0.0
  0
LINE
  5
664
330
669
100
AcDbEntity
  8
0
  6
ByBlock
 62
     7
370
    -2
380
     1
100
AcDbLine
 10
3880.340658968382
 20
2083.961306179679
 30
0.0
 11
4119.281166302701
 21
2083.961306179679
 31
0.0
  0
SOLID
  5
665
330
669
100
AcDbEntity
  8
0
  6
ByBlock
 62
     7
380
     1
100
AcDbTrace
 10
3870.340658968382
 20
2083.961306179679
 30
0.0
 11
3880.340658968382
 21
2082.294639513012
 31
0.0
 12
3880.340658968382
 22
2085.627972846346
 32
0.0
 13
3880.340658968382
 23
2085.627972846346
 33
0.0
  0
SOLID
  5
666
330
669
100
AcDbEntity
  8
0
  6
ByBlock
 62
     7
380
     1
100
AcDbTrace
 10
4129.281166302701
 20
2083.961306179679
 30
0.0
 11
4119.281166302701
 21
2082.294639513012
 31
0.0
 12
4119.281166302701
 22
2085.627972846346
 32
0.0
 13
4119.281166302701
 23
2085.627972846346
 33
0.0
  0
MTEXT
  5
667
330
669
100
AcDbEntity
  8
0
  6
ByBlock
 62
     0
370
    -2
380
     1
100
AcDbMText
 10
3999.810912635542
 20
2095.961306179679
 30
0.0
 40
14.0
 41
0.0
 71
     5
 72
     1
  1
259
 73
     1
 44
1.0
  0
ENDBLK
  5
700
330
669
100
AcDbEntity
  8
0
100
AcDbBlockEnd
  0
ENDSEC
  0
SECTION
  2
ENTITIES
  0
LINE
  5
2ED
330
1F
100
AcDbEntity
  8
STANDARD_LAYER
370
    60
100
AcDbLine
 10
3639.364573647983
 20
2312.056593725925
 30
0.0
 11
3248.484531277822
 21
2312.056593725925
 31
0.0
  0
LINE
  5
2EE
330
1F
100
AcDbEntity
  8
STANDARD_LAYER
370
    60
100
AcDbLine
 10
3660.106563432023
 20
2150.746112260485
 30
0.0
 11
3203.312263195903
 21
2150.746112260485
 31
0.0
  0
LINE
  5
2EF
330
1F
100
AcDbEntity
  8
STANDARD_LAYER
370
    60
100
AcDbLine
 10
3660.106563432023
 20
2142.743910297285
 30
0.0
 11
3203.312263195903
 21
2142.743910297285
 31
0.0
  0
LINE
  5
2F0
330
1F
100
AcDbEntity
  8
STANDARD_LAYER
370
    60
100
AcDbLine
 10
3639.364982558861
 20
2312.056190057565
 30
0.0
 11
3248.484531277822
 21
2312.056190057565
 31
0.0
  0
LINE
  5
2F1
330
1F
100
AcDbEntity
  8
STANDARD_LAYER
370
    60
100
AcDbLine
 10
3639.364982558861
 20
2717.218422003165
 30
0.0
 11
3248.484531277822
 21
2717.218422003165
 31
0.0
  0
LINE
  5
2F2
330
1F
100
AcDbEntity
  8
STANDARD_LAYER
370
    60
100
AcDbLine
 10
3654.022728943542
 20
2272.040440876005
 30
0.0
 11
3209.396185308142
 21
2272.040440876005
 31
0.0
  0
LINE
  5
2F3
330
1F
100
AcDbEntity
  8
STANDARD_LAYER
370
    60
100
AcDbLine
 10
3654.022728943542
 20
2757.235815759525
 30
0.0
 11
3209.396185308142
 21
2757.235815759525
 31
0.0
  0
LINE
  5
2F4
330
1F
100
AcDbEntity
  8
STANDARD_LAYER
370
    60
100
AcDbLine
 10
3166.178832519741
 20
2449.611565972365
 30
0.0
 11
3166.178832519741
 21
2180.757613920046
 31
0.0
  0
LINE
  5
2F5
330
1F
100
AcDbEntity
  8
STANDARD_LAYER
370
    60
100
AcDbLine
 10
3173.996799634462
 20
2459.615394875325
 30
0.0
 11
3173.996799634462
 21
2180.757613920046
 31
0.0
  0
LINE
  5
2F6
330
1F
100
AcDbEntity
  8
STANDARD_LAYER
370
    60
100
AcDbLine
 10
3165.191590219782
 20
2259.592310349165
 30
0.0
 11
3165.078029826821
 21
2389.490022721365
 31
0.0
  0
LINE
  5
2F7
330
1F
100
AcDbEntity
  8
STANDARD_LAYER
370
    60
100
AcDbLine
 10
3117.795606356583
 20
2249.588675805045
 30
0.0
 11
3117.795606356583
 21
2399.649278893605
 31
0.0
  0
LINE
  5
2F8
330
1F
100
AcDbEntity
  8
STANDARD_LAYER
370
    60
100
AcDbLine
 10
3114.376454221582
 20
2249.588675805045
 30
0.0
 11
3114.376454221582
 21
2399.649278893605
 31
0.0
  0
LINE
  5
2F9
330
1F
100
AcDbEntity
  8
STANDARD_LAYER
370
    60
100
AcDbLine
 10
3111.444183509022
 20
2249.588675805045
 30
0.0
 11
3111.444183509022
 21
2399.649278893605
 31
0.0
  0
LINE
  5
2FA
330
1F
100
AcDbEntity
  8
STANDARD_LAYER
370
    60
100
AcDbLine
 10
3101.672191942341
 20
2254.591008875565
 30
0.0
 11
3101.672191942341
 21
2394.646945823085
 31
0.0
  0
LINE
  5
2FB
330
1F
100
AcDbEntity
  8
STANDARD_LAYER
370
    60
100
AcDbLine
 10
3180.080181400181
 20
2727.223073193525
 30
0.0
 11
3180.080181400181
 21
2302.052136894406
 31
0.0
  0
LWPOLYLINE
  5
2FC
330
1F
100
AcDbEntity
  8
STANDARD_LAYER
370
    60
100
AcDbPolyline
 90
       21
 70
     0
 43
0.0
 10
3166.179226826661
 20
2180.757613920046
 10
3166.302309001541
 20
2177.639888816925
 10
3166.665275823382
 20
2174.591355460847
 10
3167.258459470661
 20
2171.622270018285
 10
3168.072367369382
 20
2168.742096269686
 10
3169.097390113862
 20
2165.960462452967
 10
3170.324049734061
 20
2163.287654635965
 10
3171.742766032222
 20
2160.733106697765
 10
3173.343900394741
 20
2158.306476777645
 10
3175.118004059502
 20
2156.017811732567
 10
3177.055409204981
 20
2153.876979011327
 10
3179.14669627698
 20
2151.893412493005
 10
3181.382182850022
 20
2150.077188935925
 10
3183.752434765941
 20
2148.438145887525
 10
3186.247740391343
 20
2146.985732177565
 10
3188.858680172021
 20
2145.730039515046
 10
3191.575586286462
 20
2144.680456927005
 10
3194.388980764622
 20
2143.847285431965
 10
3197.289195784981
 20
2143.239958909005
 10
3200.266826397301
 20
2142.868539165765
 10
3203.312263195903
 20
2142.742475032006
  0
LWPOLYLINE
  5
2FD
330
1F
100
AcDbEntity
  8
STANDARD_LAYER
370
    60
100
AcDbPolyline
 90
       21
 70
     0
 43
0.0
 10
3173.996799634462
 20
2180.757613920046
 10
3174.093974384302
 20
2178.296268520965
 10
3174.380460267621
 20
2175.889762216125
 10
3174.848750848982
 20
2173.545675000285
 10
3175.491295881061
 20
2171.271781227045
 10
3176.300530512581
 20
2169.075944954085
 10
3177.268904496223
 20
2166.965701324125
 10
3178.388911396542
 20
2164.948869542805
 10
3179.652898738501
 20
2163.033268815765
 10
3181.053476918341
 20
2161.226479137765
 10
3182.583008064981
 20
2159.536319714447
 10
3184.233971139022
 20
2157.970370540565
 10
3185.998859705022
 20
2156.536435871085
 10
3187.870035891902
 20
2155.242334911646
 10
3189.839993264221
 20
2154.095647657005
 10
3191.901298406342
 20
2153.104387671645
 10
3194.046211219462
 20
2152.275716331285
 10
3196.267356703781
 20
2151.617886411285
 10
3198.557096988221
 20
2151.138477906406
 10
3200.907911033382
 20
2150.845280120926
 10
3203.312263195903
 20
2150.745708592125
  0
LINE
  5
2FE
330
1F
100
AcDbEntity
  8
STANDARD_LAYER
370
    60
100
AcDbLine
 10
3125.124443039021
 20
2219.576366808767
 30
0.0
 11
3151.508526729461
 21
2219.576366808767
 31
0.0
  0
LINE
  5
2FF
330
1F
100
AcDbEntity
  8
STANDARD_LAYER
370
    60
100
AcDbLine
 10
3125.124443039021
 20
2249.588675805045
 30
0.0
 11
3151.508526729461
 21
2249.588675805045
 31
0.0
  0
LINE
  5
300
330
1F
100
AcDbEntity
  8
STANDARD_LAYER
370
    60
100
AcDbLine
 10
3125.124443039021
 20
2224.578699879285
 30
0.0
 11
3151.508526729461
 21
2224.578699879285
 31
0.0
  0
LINE
  5
301
330
1F
100
AcDbEntity
  8
STANDARD_LAYER
370
    60
100
AcDbLine
 10
3126.591542256661
 20
2244.586552044045
 30
0.0
 11
3150.044728006781
 21
2244.586552044045
 31
0.0
  0
LINE
  5
302
330
1F
100
AcDbEntity
  8
STANDARD_LAYER
370
    60
100
AcDbLine
 10
3117.795606356583
 20
2254.591008875565
 30
0.0
 11
3160.305368075061
 21
2254.591008875565
 31
0.0
  0
LINE
  5
303
330
1F
100
AcDbEntity
  8
STANDARD_LAYER
370
    60
100
AcDbLine
 10
3111.444183509022
 20
2254.591008875565
 30
0.0
 11
3114.375548776061
 21
2254.591008875565
 31
0.0
  0
LINE
  5
304
330
1F
100
AcDbEntity
  8
STANDARD_LAYER
370
    60
100
AcDbLine
 10
3111.444183509022
 20
2249.588675805045
 30
0.0
 11
3106.557975968261
 21
2249.588675805045
 31
0.0
  0
LWPOLYLINE
  5
305
330
1F
100
AcDbEntity
  8
STANDARD_LAYER
370
    60
100
AcDbPolyline
 90
       21
 70
     0
 43
0.0
 10
3101.672191942341
 20
2254.591008875565
 10
3101.688402337943
 20
2254.180792117727
 10
3101.736186495061
 20
2253.779605570605
 10
3101.814200849381
 20
2253.388884499485
 10
3101.921291688061
 20
2253.009869810805
 10
3102.056159258662
 20
2252.643787460325
 10
3102.217562224582
 20
2252.292087664007
 10
3102.404288457141
 20
2251.955981426925
 10
3102.614906768261
 20
2251.636724606207
 10
3102.848365672822
 20
2251.335513256246
 10
3103.103307002541
 20
2251.053827494366
 10
3103.37847481686
 20
2250.792863374965
 10
3103.672583967301
 20
2250.553876755165
 10
3103.984451533101
 20
2250.338093590727
 10
3104.312748553901
 20
2250.146949146925
 10
3104.656306712902
 20
2249.981863738366
 10
3105.013797049741
 20
2249.843689553806
 10
3105.383934415942
 20
2249.734056217365
 10
3105.765521286783
 20
2249.654189684805
 10
3106.157301721701
 20
2249.605315911885
 10
3106.557975968261
 20
2249.588675805045
  0
LINE
  5
306
330
1F
100
AcDbEntity
  8
STANDARD_LAYER
370
    60
100
AcDbLine
 10
3117.795606356583
 20
2249.588675805045
 30
0.0
 11
3114.375548776061
 21
2249.588675805045
 31
0.0
  0
LINE
  5
307
330
1F
100
AcDbEntity
  8
STANDARD_LAYER
370
    60
100
AcDbLine
 10
3132.826542335102
 20
2244.586552044045
 30
0.0
 11
3132.826542335102
 21
2224.578699879285
 31
0.0
  0
LINE
  5
308
330
1F
100
AcDbEntity
  8
STANDARD_LAYER
370
    60
100
AcDbLine
 10
3125.124443039021
 20
2219.576366808767
 30
0.0
 11
3125.124443039021
 21
2224.578699879285
 31
0.0
  0
LINE
  5
309
330
1F
100
AcDbEntity
  8
STANDARD_LAYER
370
    60
100
AcDbLine
 10
3125.124443039021
 20
2249.588675805045
 30
0.0
 11
3125.124443039021
 21
2254.591008875565
 31
0.0
  0
LINE
  5
30A
330
1F
100
AcDbEntity
  8
STANDARD_LAYER
370
    60
100
AcDbLine
 10
3126.591542256661
 20
2244.586552044045
 30
0.0
 11
3126.591542256661
 21
2224.578699879285
 31
0.0
  0
LINE
  5
30B
330
1F
100
AcDbEntity
  8
STANDARD_LAYER
370
    60
100
AcDbLine
 10
3130.011161718382
 20
2249.588675805045
 30
0.0
 11
3130.011161718382
 21
2244.586552044045
 31
0.0
  0
LINE
  5
30C
330
1F
100
AcDbEntity
  8
STANDARD_LAYER
370
    60
100
AcDbLine
 10
3143.809231393702
 20
2244.586552044045
 30
0.0
 11
3143.809231393702
 21
2224.578699879285
 31
0.0
  0
LINE
  5
30D
330
1F
100
AcDbEntity
  8
STANDARD_LAYER
370
    60
100
AcDbLine
 10
3151.508526729461
 20
2224.578699879285
 30
0.0
 11
3151.508526729461
 21
2219.576366808767
 31
0.0
  0
LINE
  5
30E
330
1F
100
AcDbEntity
  8
STANDARD_LAYER
370
    60
100
AcDbLine
 10
3138.317441443622
 20
2219.576366808767
 30
0.0
 11
3138.317441443622
 21
2224.578699879285
 31
0.0
  0
LINE
  5
30F
330
1F
100
AcDbEntity
  8
STANDARD_LAYER
370
    60
100
AcDbLine
 10
3151.508526729461
 20
2254.591008875565
 30
0.0
 11
3151.508526729461
 21
2249.588675805045
 31
0.0
  0
LINE
  5
310
330
1F
100
AcDbEntity
  8
STANDARD_LAYER
370
    60
100
AcDbLine
 10
3138.317441443622
 20
2249.588675805045
 30
0.0
 11
3138.317441443622
 21
2254.591008875565
 31
0.0
  0
LINE
  5
311
330
1F
100
AcDbEntity
  8
STANDARD_LAYER
370
    60
100
AcDbLine
 10
3150.043822561261
 20
2244.586552044045
 30
0.0
 11
3150.043822561261
 21
2224.578699879285
 31
0.0
  0
LINE
  5
312
330
1F
100
AcDbEntity
  8
STANDARD_LAYER
370
    60
100
AcDbLine
 10
3146.623721168861
 20
2249.588675805045
 30
0.0
 11
3146.623721168861
 21
2244.586552044045
 31
0.0
  0
LWPOLYLINE
  5
313
330
1F
100
AcDbEntity
  8
STANDARD_LAYER
370
    60
100
AcDbPolyline
 90
       21
 70
     0
 43
0.0
 10
3160.305368075061
 20
2254.590395897686
 10
3160.706129945381
 20
2254.607036004526
 10
3161.097968796141
 20
2254.655894826765
 10
3161.479614082823
 20
2254.735761359325
 10
3161.849795260901
 20
2254.845394695765
 10
3162.207344013581
 20
2254.983374521486
 10
3162.550887568621
 20
2255.148654288885
 10
3162.879243005261
 20
2255.339798732685
 10
3163.191110571061
 20
2255.555387538286
 10
3163.485278137342
 20
2255.794374158086
 10
3163.760475159582
 20
2256.055323326807
 10
3164.015387281381
 20
2256.337024039366
 10
3164.248831581981
 20
2256.638220438645
 10
3164.459522912902
 20
2256.957492210045
 10
3164.646176125661
 20
2257.293598447125
 10
3164.807622903461
 20
2257.645298243445
 10
3164.942505078022
 20
2258.011171284405
 10
3165.049595916701
 20
2258.390185973085
 10
3165.12766868686
 20
2258.780907044205
 10
3165.175394428141
 20
2259.182093591325
 10
3165.191590219782
 20
2259.592310349165
  0
LWPOLYLINE
  5
315
330
1F
100
AcDbEntity
  8
STANDARD_LAYER
370
    60
100
AcDbPolyline
 90
       21
 70
     0
 43
0.0
 10
3180.080181400181
 20
2302.052136894406
 10
3180.177356150021
 20
2299.590806446005
 10
3180.463944261061
 20
2297.184090831645
 10
3180.932234842421
 20
2294.840197974645
 10
3181.574809082421
 20
2292.566319152085
 10
3182.384058317901
 20
2290.370467928445
 10
3183.352534529261
 20
2288.260224298485
 10
3184.472541429583
 20
2286.243392517165
 10
3185.736630999263
 20
2284.327806740805
 10
3187.137296802863
 20
2282.521017062805
 10
3188.666827949501
 20
2280.830857639487
 10
3190.317907855221
 20
2279.264893514925
 10
3192.082796421223
 20
2277.831183105645
 10
3193.954074835821
 20
2276.537067195525
 10
3195.924017604181
 20
2275.390379940885
 10
3197.985322746301
 20
2274.398910646005
 10
3200.130250163381
 20
2273.570463565845
 10
3202.351395647701
 20
2272.912633645845
 10
3204.641135932142
 20
2272.433210190287
 10
3206.991949977301
 20
2272.140012404805
 10
3209.396185308142
 20
2272.040440876005
  0
LINE
  5
316
330
1F
100
AcDbEntity
  8
STANDARD_LAYER
370
    60
100
AcDbLine
 10
3272.425883598861
 20
2142.743910297285
 30
0.0
 11
3272.425883598861
 21
2150.746112260485
 31
0.0
  0
LINE
  5
317
330
1F
100
AcDbEntity
  8
STANDARD_LAYER
370
    60
100
AcDbLine
 10
3258.744733227302
 20
2142.743910297285
 30
0.0
 11
3258.744733227302
 21
2150.746112260485
 31
0.0
  0
LWPOLYLINE
  5
318
330
1F
100
AcDbEntity
  8
STANDARD_LAYER
370
    60
100
AcDbPolyline
 90
       21
 70
     0
 43
0.0
 10
3276.183979041501
 20
2278.043677120485
 10
3275.526654801902
 20
2278.066880575845
 10
3274.818596405262
 20
2278.135264986166
 10
3274.068916722622
 20
2278.247155875285
 10
3273.286757832941
 20
2278.400729260245
 10
3272.481334834983
 20
2278.593936897885
 10
3271.661658372062
 20
2278.825313621565
 10
3270.836972750861
 20
2279.092646730647
 10
3270.016303218662
 20
2279.394665417326
 10
3269.208777250462
 20
2279.729127079605
 10
3268.423595341062
 20
2280.094581501525
 10
3267.669914173381
 20
2280.488801031765
 10
3266.956744390741
 20
2280.910514862525
 10
3266.293301091901
 20
2281.357495342485
 10
3265.688740959781
 20
2281.828067995485
 10
3265.152147657501
 20
2282.320423789246
 10
3264.692575640262
 20
2282.832678938085
 10
3264.319342234542
 20
2283.363218768566
 10
3264.041370459902
 20
2283.910189396365
 10
3263.867890019061
 20
2284.471946246685
 10
3263.808042990981
 20
2285.046201865485
  0
LWPOLYLINE
  5
319
330
1F
100
AcDbEntity
  8
STANDARD_LAYER
370
    60
100
AcDbPolyline
 90
       21
 70
     0
 43
0.0
 10
3263.808042990981
 20
2285.046201865485
 10
3263.867890019061
 20
2285.620472434965
 10
3264.041370459902
 20
2286.182019975765
 10
3264.319342234542
 20
2286.728975652885
 10
3264.692575640262
 20
2287.259515483365
 10
3265.152147657501
 20
2287.771785582886
 10
3265.688740959781
 20
2288.264335735485
 10
3266.293301091901
 20
2288.734714029647
 10
3266.956744390741
 20
2289.181679558925
 10
3267.669914173381
 20
2289.603393389686
 10
3268.423595341062
 20
2289.997822229445
 10
3269.208777250462
 20
2290.363082292525
 10
3270.016303218662
 20
2290.697543954805
 10
3270.836972750861
 20
2290.999547690805
 10
3271.661658372062
 20
2291.267075158726
 10
3272.481334834983
 20
2291.498466833085
 10
3273.286757832941
 20
2291.691689421405
 10
3274.068916722622
 20
2291.845247855686
 10
3274.818596405262
 20
2291.957153695485
 10
3275.526654801902
 20
2292.025523155125
 10
3276.183979041501
 20
2292.048726610485
  0
LWPOLYLINE
  5
31A
330
1F
100
AcDbEntity
  8
STANDARD_LAYER
370
    60
100
AcDbPolyline
 90
       21
 70
     0
 43
0.0
 10
3289.359321258461
 20
2285.046201865485
 10
3289.293647250342
 20
2284.471946246685
 10
3289.103620522822
 20
2283.910189396365
 10
3288.799478451862
 20
2283.363218768566
 10
3288.391633660942
 20
2282.832678938085
 10
3287.890352733943
 20
2282.320423789246
 10
3287.306048294342
 20
2281.828067995485
 10
3286.648928510181
 20
2281.357495342485
 10
3285.929332985141
 20
2280.910514862525
 10
3285.157688946662
 20
2280.488801031765
 10
3284.344248374663
 20
2280.094581501525
 10
3283.499321664901
 20
2279.729127079605
 10
3282.633306836901
 20
2279.394665417326
 10
3281.756499682461
 20
2279.092646730647
 10
3280.879166785461
 20
2278.825313621565
 10
3280.011764581261
 20
2278.593936897885
 10
3279.164515841862
 20
2278.400729260245
 10
3278.347760170942
 20
2278.247155875285
 10
3277.571910191981
 20
2278.135264986166
 10
3276.847203280941
 20
2278.066880575845
 10
3276.183979041501
 20
2278.043677120485
  0
LWPOLYLINE
  5
31B
330
1F
100
AcDbEntity
  8
STANDARD_LAYER
370
    60
100
AcDbPolyline
 90
       21
 70
     0
 43
0.0
 10
3276.183979041501
 20
2292.048726610485
 10
3276.847203280941
 20
2292.025523155125
 10
3277.571910191981
 20
2291.957153695485
 10
3278.347760170942
 20
2291.845247855686
 10
3279.164515841862
 20
2291.691689421405
 10
3280.011764581261
 20
2291.498466833085
 10
3280.879166785461
 20
2291.267075158726
 10
3281.756499682461
 20
2290.999547690805
 10
3282.633306836901
 20
2290.697543954805
 10
3283.499321664901
 20
2290.363082292525
 10
3284.344248374663
 20
2289.997612919925
 10
3285.157688946662
 20
2289.603393389686
 10
3285.929332985141
 20
2289.181679558925
 10
3286.648928510181
 20
2288.734714029647
 10
3287.306048294342
 20
2288.264335735485
 10
3287.890352733943
 20
2287.771785582886
 10
3288.391633660942
 20
2287.259515483365
 10
3288.799478451862
 20
2286.728975652885
 10
3289.103620522822
 20
2286.182019975765
 10
3289.293647250342
 20
2285.620472434965
 10
3289.359321258461
 20
2285.046201865485
  0
LINE
  5
31C
330
1F
100
AcDbEntity
  8
STANDARD_LAYER
370
    60
100
AcDbLine
 10
3238.712510503221
 20
2707.215415387605
 30
0.0
 11
3238.712510503221
 21
2322.060213319365
 31
0.0
  0
LINE
  5
31D
330
1F
100
AcDbEntity
  8
STANDARD_LAYER
370
    60
100
AcDbLine
 10
3173.996799634462
 20
2394.589864126845
 30
0.0
 11
3180.080181400181
 21
2394.589864126845
 31
0.0
  0
LINE
  5
31E
330
1F
100
AcDbEntity
  8
STANDARD_LAYER
370
    60
100
AcDbLine
 10
3173.996799634462
 20
2459.615394875325
 30
0.0
 11
3180.080181400181
 21
2459.615394875325
 31
0.0
  0
LWPOLYLINE
  5
31F
330
1F
100
AcDbEntity
  8
STANDARD_LAYER
370
    60
100
AcDbPolyline
 90
       21
 70
     0
 43
0.0
 10
3133.939919037581
 20
2363.596327051485
 10
3133.962336116182
 20
2363.028634781207
 10
3134.028419035181
 20
2362.473456230085
 10
3134.136473735222
 20
2361.932660233127
 10
3134.284674721301
 20
2361.408070773285
 10
3134.471400953861
 20
2360.901571636246
 10
3134.694768522063
 20
2360.414747594085
 10
3134.953141782381
 20
2359.949512333845
 10
3135.2447390517
 20
2359.507674887805
 10
3135.567837062741
 20
2359.090864880085
 10
3135.920654132381
 20
2358.700981047045
 10
3136.30151080522
 20
2358.339623111446
 10
3136.708640002102
 20
2358.008854267125
 10
3137.140333059701
 20
2357.710319088885
 10
3137.594793690942
 20
2357.445886411725
 10
3138.070254816661
 20
2357.217155958405
 10
3138.565080793343
 20
2357.026011514606
 10
3139.077446125981
 20
2356.874277063285
 10
3139.605656755221
 20
2356.763612129925
 10
3140.147960205861
 20
2356.696064957687
 10
3140.702589398742
 20
2356.673070811845
  0
LWPOLYLINE
  5
320
330
1F
100
AcDbEntity
  8
STANDARD_LAYER
370
    60
100
AcDbPolyline
 90
       21
 70
     0
 43
0.0
 10
3140.702589398742
 20
2370.519613192485
 10
3140.147960205861
 20
2370.496619046645
 10
3139.605656755221
 20
2370.429056923726
 10
3139.077446125981
 20
2370.318391990365
 10
3138.565080793343
 20
2370.166672489725
 10
3138.070254816661
 20
2369.975722404765
 10
3137.594793690942
 20
2369.747006902125
 10
3137.140333059701
 20
2369.482544323605
 10
3136.708640002102
 20
2369.184024096045
 10
3136.30151080522
 20
2368.853255251727
 10
3135.920654132381
 20
2368.492106625645
 10
3135.567837062741
 20
2368.102207841926
 10
3135.2447390517
 20
2367.685412784885
 10
3134.953141782381
 20
2367.243575338845
 10
3134.694768522063
 20
2366.778325127926
 10
3134.471400953861
 20
2366.291516036446
 10
3134.284674721301
 20
2365.784807589885
 10
3134.136473735222
 20
2365.260218130045
 10
3134.028419035181
 20
2364.719422133087
 10
3133.962336116182
 20
2364.164243581965
 10
3133.939919037581
 20
2363.596327051485
  0
LWPOLYLINE
  5
321
330
1F
100
AcDbEntity
  8
STANDARD_LAYER
370
    60
100
AcDbPolyline
 90
       21
 70
     0
 43
0.0
 10
3127.784539749062
 20
2363.596327051485
 10
3127.827358559781
 20
2362.511655217485
 10
3127.953609793981
 20
2361.451188534405
 10
3128.159992956701
 20
2360.418246053207
 10
3128.443119929223
 20
2359.416296331645
 10
3128.799719424503
 20
2358.448643470005
 10
3129.226432531741
 20
2357.518770976725
 10
3129.719944152021
 20
2356.630162360245
 10
3130.276939186421
 20
2355.785897460647
 10
3130.894102536021
 20
2354.989878405406
 10
3131.568119101901
 20
2354.244990675766
 10
3132.295629973261
 20
2353.555136399205
 10
3133.073334655141
 20
2352.923171155605
 10
3133.897859632781
 20
2352.353012023125
 10
3134.765962827063
 20
2351.847723891166
 10
3135.674270723222
 20
2351.411014528367
 10
3136.619439014421
 20
2351.045963774805
 10
3137.598196413621
 20
2350.756055138926
 10
3138.607184010021
 20
2350.544787079845
 10
3139.643101308661
 20
2350.415643106006
 10
3140.702589398742
 20
2350.371703057485
  0
LWPOLYLINE
  5
322
330
1F
100
AcDbEntity
  8
STANDARD_LAYER
370
    60
100
AcDbPolyline
 90
       21
 70
     0
 43
0.0
 10
3140.702589398742
 20
2376.821578974045
 10
3139.643101308661
 20
2376.777638925527
 10
3138.607184010021
 20
2376.648509902365
 10
3137.598196413621
 20
2376.437226892605
 10
3136.619439014421
 20
2376.147318256725
 10
3135.674270723222
 20
2375.782267503165
 10
3134.765962827063
 20
2375.345363781527
 10
3133.897859632781
 20
2374.840075649565
 10
3133.073334655141
 20
2374.269916517087
 10
3132.295629973261
 20
2373.637951273485
 10
3131.568119101901
 20
2372.947872736725
 10
3130.894102536021
 20
2372.203209267285
 10
3130.276939186421
 20
2371.406980902525
 10
3129.719944152021
 20
2370.562716002925
 10
3129.226432531741
 20
2369.674107386445
 10
3128.799719424503
 20
2368.744040534325
 10
3128.443119929223
 20
2367.776372722005
 10
3128.159992956701
 20
2366.774423000445
 10
3127.953609793981
 20
2365.741480519245
 10
3127.827358559781
 20
2364.681013836167
 10
3127.784539749062
 20
2363.596327051485
  0
LINE
  5
325
330
1F
100
AcDbEntity
  8
STANDARD_LAYER
370
    60
100
AcDbLine
 10
3117.795606356583
 20
2394.646945823085
 30
0.0
 11
3160.192260404861
 21
2394.491727863325
 31
0.0
  0
LINE
  5
328
330
1F
100
AcDbEntity
  8
STANDARD_LAYER
370
    60
100
AcDbLine
 10
3111.444183509022
 20
2394.646945823085
 30
0.0
 11
3114.375548776061
 21
2394.646945823085
 31
0.0
  0
LINE
  5
329
330
1F
100
AcDbEntity
  8
STANDARD_LAYER
370
    60
100
AcDbLine
 10
3111.444183509022
 20
2399.649278893605
 30
0.0
 11
3106.557975968261
 21
2399.649278893605
 31
0.0
  0
LWPOLYLINE
  5
32A
330
1F
100
AcDbEntity
  8
STANDARD_LAYER
370
    60
100
AcDbPolyline
 90
       21
 70
     0
 43
0.0
 10
3106.557975968261
 20
2399.648650965047
 10
3106.157301721701
 20
2399.632025808885
 10
3105.765521286783
 20
2399.583152035965
 10
3105.383934415942
 20
2399.503300454086
 10
3105.013797049741
 20
2399.393652166965
 10
3104.656306712902
 20
2399.255687291925
 10
3104.312748553901
 20
2399.090392573845
 10
3103.984451533101
 20
2398.899457439566
 10
3103.672583967301
 20
2398.683674275126
 10
3103.37847481686
 20
2398.444672704646
 10
3103.103307002541
 20
2398.183723535927
 10
3102.848365672822
 20
2397.902232132886
 10
3102.614906768261
 20
2397.601035733605
 10
3102.404288457141
 20
2397.281778912885
 10
3102.217562224582
 20
2396.945657725125
 10
3102.056159258662
 20
2396.593957928807
 10
3101.921291688061
 20
2396.228084887845
 10
3101.814200849381
 20
2395.849070199165
 10
3101.736186495061
 20
2395.458349128045
 10
3101.688402337943
 20
2395.057162580925
 10
3101.672191942341
 20
2394.646945823085
  0
LINE
  5
32B
330
1F
100
AcDbEntity
  8
STANDARD_LAYER
370
    60
100
AcDbLine
 10
3117.795606356583
 20
2399.649278893605
 30
0.0
 11
3114.375548776061
 21
2399.649278893605
 31
0.0
  0
LWPOLYLINE
  5
32F
330
1F
100
AcDbEntity
  8
STANDARD_LAYER
370
    60
100
AcDbPolyline
 90
       21
 70
     0
 43
0.0
 10
3140.702589398742
 20
2356.673070811845
 10
3141.257218591621
 20
2356.696064957687
 10
3141.799522042261
 20
2356.763612129925
 10
3142.327732671501
 20
2356.874277063285
 10
3142.840098004142
 20
2357.026011514606
 10
3143.334923980822
 20
2357.217155958405
 10
3143.810443522381
 20
2357.445886411725
 10
3144.264889549661
 20
2357.710319088885
 10
3144.696538795382
 20
2358.008854267125
 10
3145.103653388301
 20
2358.339623111446
 10
3145.484524665101
 20
2358.700981047045
 10
3145.837400150581
 20
2359.090864880085
 10
3146.160498161622
 20
2359.507674887805
 10
3146.452095430941
 20
2359.949512333845
 10
3146.710454087301
 20
2360.414747594085
 10
3146.933821655502
 20
2360.901571636246
 10
3147.120533284101
 20
2361.408070773285
 10
3147.2687634781
 20
2361.932660233127
 10
3147.376803574181
 20
2362.473456230085
 10
3147.442886493181
 20
2363.028634781207
 10
3147.465288967821
 20
2363.596327051485
  0
LWPOLYLINE
  5
330
330
1F
100
AcDbEntity
  8
STANDARD_LAYER
370
    60
100
AcDbPolyline
 90
       21
 70
     0
 43
0.0
 10
3140.702589398742
 20
2350.371703057485
 10
3141.762062884861
 20
2350.415643106006
 10
3142.797994787462
 20
2350.544787079845
 10
3143.806982383861
 20
2350.756055138926
 10
3144.785725179101
 20
2351.045963774805
 10
3145.730951886141
 20
2351.411014528367
 10
3146.639215970422
 20
2351.847723891166
 10
3147.507319164701
 20
2352.353012023125
 10
3148.331844142341
 20
2352.923171155605
 10
3149.109548824221
 20
2353.555136399205
 10
3149.837059695581
 20
2354.244990675766
 10
3150.511032449582
 20
2354.989878405406
 10
3151.128181195223
 20
2355.785897460647
 10
3151.685220041501
 20
2356.630162360245
 10
3152.178731661781
 20
2357.518770976725
 10
3152.605415561101
 20
2358.448643470005
 10
3152.962000452421
 20
2359.416296331645
 10
3153.245142028903
 20
2360.418246053207
 10
3153.451510587661
 20
2361.451188534405
 10
3153.577761821861
 20
2362.511655217485
 10
3153.620580632581
 20
2363.596327051485
  0
LINE
  5
333
330
1F
100
AcDbEntity
  8
STANDARD_LAYER
370
    60
100
AcDbLine
 10
3147.465288967821
 20
2363.596327051485
 30
0.0
 11
3147.465288967821
 21
2363.596327051485
 31
0.0
  0
LINE
  5
334
330
1F
100
AcDbEntity
  8
STANDARD_LAYER
370
    60
100
AcDbLine
 10
3147.465288967821
 20
2363.596327051485
 30
0.0
 11
3147.465288967821
 21
2363.596327051485
 31
0.0
  0
LWPOLYLINE
  5
335
330
1F
100
AcDbEntity
  8
STANDARD_LAYER
370
    60
100
AcDbPolyline
 90
       21
 70
     0
 43
0.0
 10
3147.465288967821
 20
2363.596327051485
 10
3147.442886493181
 20
2364.164243581965
 10
3147.376803574181
 20
2364.719422133087
 10
3147.2687634781
 20
2365.260218130045
 10
3147.120533284101
 20
2365.784807589885
 10
3146.933821655502
 20
2366.291516036446
 10
3146.710454087301
 20
2366.778325127926
 10
3146.452095430941
 20
2367.243575338845
 10
3146.160498161622
 20
2367.685412784885
 10
3145.837400150581
 20
2368.102207841926
 10
3145.484524665101
 20
2368.492106625645
 10
3145.103653388301
 20
2368.853255251727
 10
3144.696538795382
 20
2369.184024096045
 10
3144.264889549661
 20
2369.482544323605
 10
3143.810443522381
 20
2369.747006902125
 10
3143.334923980822
 20
2369.975722404765
 10
3142.840098004142
 20
2370.166672489725
 10
3142.327732671501
 20
2370.318391990365
 10
3141.799522042261
 20
2370.429056923726
 10
3141.257218591621
 20
2370.496619046645
 10
3140.702589398742
 20
2370.519613192485
  0
LINE
  5
336
330
1F
100
AcDbEntity
  8
STANDARD_LAYER
370
    60
100
AcDbLine
 10
3153.620580632581
 20
2363.596327051485
 30
0.0
 11
3153.620580632581
 21
2363.596327051485
 31
0.0
  0
LINE
  5
337
330
1F
100
AcDbEntity
  8
STANDARD_LAYER
370
    60
100
AcDbLine
 10
3153.620580632581
 20
2363.596327051485
 30
0.0
 11
3153.620580632581
 21
2363.596327051485
 31
0.0
  0
LWPOLYLINE
  5
338
330
1F
100
AcDbEntity
  8
STANDARD_LAYER
370
    60
100
AcDbPolyline
 90
       21
 70
     0
 43
0.0
 10
3153.620580632581
 20
2363.596327051485
 10
3153.577761821861
 20
2364.681013836167
 10
3153.451510587661
 20
2365.741480519245
 10
3153.245142028903
 20
2366.774423000445
 10
3152.962000452421
 20
2367.776372722005
 10
3152.605415561101
 20
2368.744040534325
 10
3152.178731661781
 20
2369.674107386445
 10
3151.685220041501
 20
2370.562716002925
 10
3151.128181195223
 20
2371.406980902525
 10
3150.511032449582
 20
2372.203209267285
 10
3149.837059695581
 20
2372.947872736725
 10
3149.109548824221
 20
2373.637951273485
 10
3148.331844142341
 20
2374.269916517087
 10
3147.507319164701
 20
2374.840075649565
 10
3146.639215970422
 20
2375.345363781527
 10
3145.730951886141
 20
2375.782267503165
 10
3144.785725179101
 20
2376.147318256725
 10
3143.806982383861
 20
2376.437226892605
 10
3142.797994787462
 20
2376.648509902365
 10
3141.762062884861
 20
2376.777638925527
 10
3140.702589398742
 20
2376.821578974045
  0
LWPOLYLINE
  5
33D
330
1F
100
AcDbEntity
  8
STANDARD_LAYER
370
    60
100
AcDbPolyline
 90
       21
 70
     0
 43
0.0
 10
3165.078029826821
 20
2389.490022721365
 10
3165.061834035181
 20
2389.900239479205
 10
3165.014093689941
 20
2390.301411075645
 10
3164.936035523741
 20
2390.691937787925
 10
3164.828988496941
 20
2391.070937525927
 10
3164.694120926342
 20
2391.437034827085
 10
3164.532717960421
 20
2391.788734623405
 10
3164.346093955583
 20
2392.124840860487
 10
3164.135417228621
 20
2392.444097681205
 10
3163.902016739903
 20
2392.745084770965
 10
3163.647119222061
 20
2393.026800434205
 10
3163.371951407741
 20
2393.287749602925
 10
3163.077842257301
 20
2393.526736222726
 10
3162.765974691501
 20
2393.742310077645
 10
3162.437663066741
 20
2393.933469472125
 10
3162.094119511703
 20
2394.098749239525
 10
3161.736629174861
 20
2394.236729065245
 10
3161.366447996781
 20
2394.346362401685
 10
3160.984802710101
 20
2394.426228934245
 10
3160.593022275181
 20
2394.475087756486
 10
3160.192260404861
 20
2394.491727863325
  0
LINE
  5
33E
330
1F
100
AcDbEntity
  8
STANDARD_LAYER
370
    60
100
AcDbLine
 10
3155.429836029063
 20
2411.096267035607
 30
0.0
 11
3166.178832519741
 21
2411.096267035607
 31
0.0
  0
LINE
  5
33F
330
1F
100
AcDbEntity
  8
STANDARD_LAYER
370
    60
100
AcDbLine
 10
3166.178832519741
 20
2443.109410585605
 30
0.0
 11
3155.429836029063
 21
2443.109410585605
 31
0.0
  0
LWPOLYLINE
  5
340
330
1F
100
AcDbEntity
  8
STANDARD_LAYER
370
    60
100
AcDbPolyline
 90
       21
 70
     0
 43
0.0
 10
3155.429836029063
 20
2443.109410585605
 10
3155.269542964102
 20
2443.102832286405
 10
3155.112813265381
 20
2443.083127290165
 10
3154.960143467542
 20
2443.051297292445
 10
3154.812073917101
 20
2443.007357243925
 10
3154.669071940781
 20
2442.952129432005
 10
3154.531648677181
 20
2442.886017525045
 10
3154.400344472822
 20
2442.809440142085
 10
3154.275597446503
 20
2442.723204619846
 10
3154.157918736821
 20
2442.627729577366
 10
3154.047848690301
 20
2442.523224324165
 10
3153.945869237621
 20
2442.410511147645
 10
3153.852520725301
 20
2442.289993716166
 10
3153.768285084022
 20
2442.162285007607
 10
3153.693585828621
 20
2442.028012950525
 10
3153.629050929381
 20
2441.887147643565
 10
3153.575103901142
 20
2441.740765535686
 10
3153.532285090421
 20
2441.589240393885
 10
3153.501047219981
 20
2441.433005787885
 10
3153.481945240301
 20
2441.272644794207
 10
3153.475475686022
 20
2441.108590982565
  0
LWPOLYLINE
  5
341
330
1F
100
AcDbEntity
  8
STANDARD_LAYER
370
    60
100
AcDbPolyline
 90
       21
 70
     0
 43
0.0
 10
3153.475475686022
 20
2413.097490307006
 10
3153.481945240301
 20
2412.933227185845
 10
3153.501047219981
 20
2412.772881142845
 10
3153.532285090421
 20
2412.616437227325
 10
3153.575103901142
 20
2412.464702776005
 10
3153.629050929381
 20
2412.318305717445
 10
3153.693585828621
 20
2412.177679621365
 10
3153.768285084022
 20
2412.043198254765
 10
3153.852520725301
 20
2411.915489546206
 10
3153.945869237621
 20
2411.794972114726
 10
3154.047848690301
 20
2411.682243987525
 10
3154.157918736821
 20
2411.577948043847
 10
3154.275597446503
 20
2411.482278642526
 10
3154.400344472822
 20
2411.396043120285
 10
3154.531648677181
 20
2411.319660096165
 10
3154.669071940781
 20
2411.253548189206
 10
3154.812073917101
 20
2411.198320377285
 10
3154.960143467542
 20
2411.154380328765
 10
3155.112813265381
 20
2411.122550331045
 10
3155.269542964102
 20
2411.102845334805
 10
3155.429836029063
 20
2411.096267035607
  0
LINE
  5
342
330
1F
100
AcDbEntity
  8
STANDARD_LAYER
370
    60
100
AcDbLine
 10
3153.475475686022
 20
2441.108590982565
 30
0.0
 11
3153.475475686022
 21
2413.097490307006
 31
0.0
  0
LINE
  5
343
330
1F
100
AcDbEntity
  8
STANDARD_LAYER
370
    60
100
AcDbLine
 10
3173.996799634462
 20
2449.611565972365
 30
0.0
 11
3166.178832519741
 21
2449.611565972365
 31
0.0
  0
LWPOLYLINE
  5
344
330
1F
100
AcDbEntity
  8
STANDARD_LAYER
370
    60
100
AcDbPolyline
 90
       21
 70
     0
 43
0.0
 10
3238.711999364622
 20
2322.060213319365
 10
3238.744390947901
 20
2321.239779803685
 10
3238.839959262141
 20
2320.437601068285
 10
3238.995987970781
 20
2319.656368235565
 10
3239.21016964814
 20
2318.898548167725
 10
3239.479919393301
 20
2318.166607726966
 10
3239.802812948901
 20
2317.463193183645
 10
3240.176148582341
 20
2316.790980709485
 10
3240.597516640221
 20
2316.152452117365
 10
3241.064405241421
 20
2315.550059318807
 10
3241.574317108782
 20
2314.986672844365
 10
3242.124638133461
 20
2314.464759556246
 10
3242.712973266022
 20
2313.986771365966
 10
3243.336796021381
 20
2313.555414346606
 10
3243.993506894662
 20
2313.173304867167
 10
3244.680608608701
 20
2312.842745332367
 10
3245.395691510101
 20
2312.566591322085
 10
3246.136039262301
 20
2312.347324649205
 10
3246.899359043581
 20
2312.187576633405
 10
3247.683007537181
 20
2312.089858988925
 10
3248.484531277822
 20
2312.056593725925
  0
LWPOLYLINE
  5
346
330
1F
100
AcDbEntity
  8
STANDARD_LAYER
370
    60
100
AcDbPolyline
 90
       21
 70
     0
 43
0.0
 10
3199.624149929581
 20
2514.637515339885
 10
3199.601484583661
 20
2514.063244770405
 10
3199.534598446861
 20
2513.501697229605
 10
3199.425302410221
 20
2512.954741552486
 10
3199.275378156861
 20
2512.424007363167
 10
3199.086563558021
 20
2511.911737263645
 10
3198.860640296823
 20
2511.419381469886
 10
3198.59931703658
 20
2510.948793866206
 10
3198.304302440622
 20
2510.501619027405
 10
3197.977495023742
 20
2510.080099555485
 10
3197.620603449262
 20
2509.685685666405
 10
3197.235350984461
 20
2509.320440554005
 10
3196.823504708501
 20
2508.985769582205
 10
3196.386904720342
 20
2508.683750895525
 10
3195.927230475381
 20
2508.416223427605
 10
3195.446190636941
 20
2508.184816802567
 10
3194.945712927741
 20
2507.991624115605
 10
3194.427476803181
 20
2507.838050730646
 10
3193.893088698861
 20
2507.726144890845
 10
3193.344578565221
 20
2507.657775431206
 10
3192.783523629941
 20
2507.634586926526
  0
LWPOLYLINE
  5
347
330
1F
100
AcDbEntity
  8
STANDARD_LAYER
370
    60
100
AcDbPolyline
 90
       21
 70
     0
 43
0.0
 10
3192.783523629941
 20
2521.640234443726
 10
3193.344578565221
 20
2521.617030988366
 10
3193.893088698861
 20
2521.548661528725
 10
3194.427476803181
 20
2521.436770639606
 10
3194.945712927741
 20
2521.283182303965
 10
3195.446190636941
 20
2521.089989617005
 10
3195.927230475381
 20
2520.858597942646
 10
3196.386904720342
 20
2520.591279784245
 10
3196.823504708501
 20
2520.289246146885
 10
3197.235350984461
 20
2519.954799435286
 10
3197.620603449262
 20
2519.589330062687
 10
3197.977495023742
 20
2519.194916173606
 10
3198.304302440622
 20
2518.773411652367
 10
3198.59931703658
 20
2518.326431172405
 10
3198.860640296823
 20
2517.855843568725
 10
3199.086563558021
 20
2517.363502725646
 10
3199.275378156861
 20
2516.851038267287
 10
3199.425302410221
 20
2516.320483486125
 10
3199.534598446861
 20
2515.773512858325
 10
3199.601484583661
 20
2515.211995218885
 10
3199.624149929581
 20
2514.637515339885
  0
LWPOLYLINE
  5
348
330
1F
100
AcDbEntity
  8
STANDARD_LAYER
370
    60
100
AcDbPolyline
 90
       21
 70
     0
 43
0.0
 10
3192.783523629941
 20
2507.634586926526
 10
3192.222570922381
 20
2507.657775431206
 10
3191.674060788742
 20
2507.726144890845
 10
3191.139774912142
 20
2507.838050730646
 10
3190.621538787581
 20
2507.991624115605
 10
3190.121163306103
 20
2508.184816802567
 10
3189.640225695381
 20
2508.416223427605
 10
3189.180566054381
 20
2508.683750895525
 10
3188.743951462261
 20
2508.985769582205
 10
3188.332119790261
 20
2509.320440554005
 10
3187.946940345261
 20
2509.685685666405
 10
3187.590063374742
 20
2510.080099555485
 10
3187.263255957862
 20
2510.501619027405
 10
3186.968343589621
 20
2510.948793866206
 10
3186.707020329381
 20
2511.419381469886
 10
3186.480994840462
 20
2511.911737263645
 10
3186.292267865382
 20
2512.424007363167
 10
3186.142255988261
 20
2512.954741552486
 10
3186.033047575383
 20
2513.501697229605
 10
3185.966176042541
 20
2514.063244770405
 10
3185.943496092661
 20
2514.637515339885
  0
LWPOLYLINE
  5
349
330
1F
100
AcDbEntity
  8
STANDARD_LAYER
370
    60
100
AcDbPolyline
 90
       21
 70
     0
 43
0.0
 10
3185.943496092661
 20
2514.637515339885
 10
3185.966176042541
 20
2515.211995218885
 10
3186.033047575383
 20
2515.773512858325
 10
3186.142255988261
 20
2516.320483486125
 10
3186.292267865382
 20
2516.851038267287
 10
3186.480994840462
 20
2517.363502725646
 10
3186.707020329381
 20
2517.855843568725
 10
3186.968343589621
 20
2518.326431172405
 10
3187.263255957862
 20
2518.773411652367
 10
3187.590063374742
 20
2519.194916173606
 10
3187.946940345261
 20
2519.589330062687
 10
3188.332119790261
 20
2519.954799435286
 10
3188.743951462261
 20
2520.289246146885
 10
3189.180566054381
 20
2520.591279784245
 10
3189.640225695381
 20
2520.858597942646
 10
3190.121163306103
 20
2521.089989617005
 10
3190.621538787581
 20
2521.283182303965
 10
3191.139774912142
 20
2521.436770639606
 10
3191.674060788742
 20
2521.548661528725
 10
3192.222570922381
 20
2521.617030988366
 10
3192.783523629941
 20
2521.640234443726
  0
LWPOLYLINE
  5
34A
330
1F
100
AcDbEntity
  8
STANDARD_LAYER
370
    60
100
AcDbPolyline
 90
       21
 70
     0
 43
0.0
 10
3209.396185308142
 20
2757.235815759525
 10
3206.991949977301
 20
2757.136244230725
 10
3204.641135932142
 20
2756.843046445245
 10
3202.351395647701
 20
2756.363622989686
 10
3200.130250163381
 20
2755.705793069687
 10
3197.985322746301
 20
2754.877136680005
 10
3195.924017604181
 20
2753.885876694646
 10
3193.954074835821
 20
2752.739189440005
 10
3192.082796421223
 20
2751.445058579207
 10
3190.317907855221
 20
2750.011138860405
 10
3188.666827949501
 20
2748.445189686527
 10
3187.137296802863
 20
2746.755030263205
 10
3185.736630999263
 20
2744.948031275685
 10
3184.472541429583
 20
2743.032445499325
 10
3183.352534529261
 20
2741.015613718006
 10
3182.384058317901
 20
2738.905370088045
 10
3181.574809082421
 20
2736.709309554885
 10
3180.932234842421
 20
2734.435430732326
 10
3180.463944261061
 20
2732.091328565805
 10
3180.177356150021
 20
2729.684627902126
 10
3180.080181400181
 20
2727.223073193525
  0
LWPOLYLINE
  5
34B
330
1F
100
AcDbEntity
  8
STANDARD_LAYER
370
    60
100
AcDbPolyline
 90
       21
 70
     0
 43
0.0
 10
3248.484531277822
 20
2717.219453600085
 10
3247.683007537181
 20
2717.186188337085
 10
3246.899359043581
 20
2717.088455741925
 10
3246.136039262301
 20
2716.928722676806
 10
3245.395691510101
 20
2716.709441053245
 10
3244.680608608701
 20
2716.433287042965
 10
3243.993506894662
 20
2716.102742458846
 10
3243.336796021381
 20
2715.720647930086
 10
3242.712973266022
 20
2715.289275960045
 10
3242.124638133461
 20
2714.811302720445
 10
3241.574317108782
 20
2714.289389432325
 10
3241.064405241421
 20
2713.726002957887
 10
3240.597516640221
 20
2713.123610159325
 10
3240.176148582341
 20
2712.485066616525
 10
3239.802812948901
 20
2711.812854142365
 10
3239.479919393301
 20
2711.109439599045
 10
3239.21016964814
 20
2710.377484207607
 10
3238.995987970781
 20
2709.619469780925
 10
3238.839959262141
 20
2708.838027638685
 10
3238.744390947901
 20
2708.035863853965
 10
3238.711999364622
 20
2707.215415387605
  0
LWPOLYLINE
  5
34C
330
1F
100
AcDbEntity
  8
STANDARD_LAYER
370
    60
100
AcDbPolyline
 90
       21
 70
     0
 43
0.0
 10
3276.183979041501
 20
2737.226917047165
 10
3275.526654801902
 20
2737.250120502526
 10
3274.818596405262
 20
2737.318489962166
 10
3274.068916722622
 20
2737.430380851285
 10
3273.286757832941
 20
2737.583954236247
 10
3272.481334834983
 20
2737.777161873887
 10
3271.661658372062
 20
2738.008553548245
 10
3270.836972750861
 20
2738.276081016165
 10
3270.016303218662
 20
2738.578099702846
 10
3269.208777250462
 20
2738.912770674645
 10
3268.423595341062
 20
2739.278030737726
 10
3267.669914173381
 20
2739.672444626805
 10
3266.956744390741
 20
2740.093949148045
 10
3266.293301091901
 20
2740.541138937525
 10
3265.688740959781
 20
2741.011711590525
 10
3265.152147657501
 20
2741.504052433607
 10
3264.692575640262
 20
2742.016322533125
 10
3264.319342234542
 20
2742.547071673125
 10
3264.041370459902
 20
2743.094027350245
 10
3263.867890019061
 20
2743.655574891045
 10
3263.808042990981
 20
2744.229845460526
  0
LWPOLYLINE
  5
34D
330
1F
100
AcDbEntity
  8
STANDARD_LAYER
370
    60
100
AcDbPolyline
 90
       21
 70
     0
 43
0.0
 10
3263.808042990981
 20
2744.229845460526
 10
3263.867890019061
 20
2744.804116030005
 10
3264.041370459902
 20
2745.365663570805
 10
3264.319342234542
 20
2745.912619247925
 10
3264.692575640262
 20
2746.443159078406
 10
3265.152147657501
 20
2746.955623536765
 10
3265.688740959781
 20
2747.447964379845
 10
3266.293301091901
 20
2747.918342674006
 10
3266.956744390741
 20
2748.365338104645
 10
3267.669914173381
 20
2748.787036984725
 10
3268.423595341062
 20
2749.181450873806
 10
3269.208777250462
 20
2749.546725887566
 10
3270.016303218662
 20
2749.881172599167
 10
3270.836972750861
 20
2750.183191285846
 10
3271.661658372062
 20
2750.450718753767
 10
3272.481334834983
 20
2750.682125378805
 10
3273.286757832941
 20
2750.875318065765
 10
3274.068916722622
 20
2751.028891450725
 10
3274.818596405262
 20
2751.140797290525
 10
3275.526654801902
 20
2751.209166750165
 10
3276.183979041501
 20
2751.232355254845
  0
LWPOLYLINE
  5
34E
330
1F
100
AcDbEntity
  8
STANDARD_LAYER
370
    60
100
AcDbPolyline
 90
       21
 70
     0
 43
0.0
 10
3289.359321258461
 20
2744.229845460526
 10
3289.293647250342
 20
2743.655574891045
 10
3289.103620522822
 20
2743.094027350245
 10
3288.799478451862
 20
2742.547071673125
 10
3288.391633660942
 20
2742.016322533125
 10
3287.890352733943
 20
2741.504052433607
 10
3287.306048294342
 20
2741.011711590525
 10
3286.648928510181
 20
2740.541138937525
 10
3285.929332985141
 20
2740.093949148045
 10
3285.157688946662
 20
2739.672444626805
 10
3284.344248374663
 20
2739.278030737726
 10
3283.499321664901
 20
2738.912770674645
 10
3282.633306836901
 20
2738.578099702846
 10
3281.756499682461
 20
2738.276081016165
 10
3280.879166785461
 20
2738.008553548245
 10
3280.011764581261
 20
2737.777161873887
 10
3279.164515841862
 20
2737.583954236247
 10
3278.347760170942
 20
2737.430380851285
 10
3277.571910191981
 20
2737.318489962166
 10
3276.847203280941
 20
2737.250120502526
 10
3276.183979041501
 20
2737.226917047165
  0
LWPOLYLINE
  5
34F
330
1F
100
AcDbEntity
  8
STANDARD_LAYER
370
    60
100
AcDbPolyline
 90
       21
 70
     0
 43
0.0
 10
3276.183979041501
 20
2751.232355254845
 10
3276.847203280941
 20
2751.209166750165
 10
3277.571910191981
 20
2751.140797290525
 10
3278.347760170942
 20
2751.028891450725
 10
3279.164515841862
 20
2750.875318065765
 10
3280.011764581261
 20
2750.682125378805
 10
3280.879166785461
 20
2750.450718753767
 10
3281.756499682461
 20
2750.183191285846
 10
3282.633306836901
 20
2749.881172599167
 10
3283.499321664901
 20
2749.546725887566
 10
3284.344248374663
 20
2749.181256514965
 10
3285.157688946662
 20
2748.787036984725
 10
3285.929332985141
 20
2748.365338104645
 10
3286.648928510181
 20
2747.918342674006
 10
3287.306048294342
 20
2747.447964379845
 10
3287.890352733943
 20
2746.955429177925
 10
3288.391633660942
 20
2746.443159078406
 10
3288.799478451862
 20
2745.912619247925
 10
3289.103620522822
 20
2745.365663570805
 10
3289.293647250342
 20
2744.804116030005
 10
3289.359321258461
 20
2744.229845460526
  0
LINE
  5
350
330
1F
100
AcDbEntity
  8
STANDARD_LAYER
370
    60
100
AcDbLine
 10
3697.240987177461
 20
2449.611565972365
 30
0.0
 11
3697.240987177461
 21
2180.757613920046
 31
0.0
  0
LINE
  5
351
330
1F
100
AcDbEntity
  8
STANDARD_LAYER
370
    60
100
AcDbLine
 10
3689.422961646902
 20
2459.615394875325
 30
0.0
 11
3689.422961646902
 21
2180.757613920046
 31
0.0
  0
LINE
  5
352
330
1F
100
AcDbEntity
  8
STANDARD_LAYER
370
    60
100
AcDbLine
 10
3683.339433841581
 20
2727.223073193525
 30
0.0
 11
3683.339433841581
 21
2302.052136894406
 31
0.0
  0
LINE
  5
354
330
1F
100
AcDbEntity
  8
STANDARD_LAYER
370
    60
100
AcDbLine
 10
3424.869436890541
 20
2142.743910297285
 30
0.0
 11
3424.869436890541
 21
2150.746112260485
 31
0.0
  0
LINE
  5
355
330
1F
100
AcDbEntity
  8
STANDARD_LAYER
370
    60
100
AcDbLine
 10
3438.550178351221
 20
2142.743910297285
 30
0.0
 11
3438.550178351221
 21
2150.746112260485
 31
0.0
  0
LINE
  5
357
330
1F
100
AcDbEntity
  8
STANDARD_LAYER
370
    60
100
AcDbLine
 10
3604.674589935262
 20
2142.743910297285
 30
0.0
 11
3604.674589935262
 21
2150.746112260485
 31
0.0
  0
LINE
  5
358
330
1F
100
AcDbEntity
  8
STANDARD_LAYER
370
    60
100
AcDbLine
 10
3590.993439563701
 20
2142.743910297285
 30
0.0
 11
3590.993439563701
 21
2150.746112260485
 31
0.0
  0
LWPOLYLINE
  5
359
330
1F
100
AcDbEntity
  8
STANDARD_LAYER
370
    60
100
AcDbPolyline
 90
       21
 70
     0
 43
0.0
 10
3608.430392556182
 20
2278.043677120485
 10
3607.772980692821
 20
2278.066880575845
 10
3607.064820068461
 20
2278.135264986166
 10
3606.315038158101
 20
2278.247155875285
 10
3605.532864664461
 20
2278.400729260245
 10
3604.727354042742
 20
2278.593936897885
 10
3603.907677579821
 20
2278.825313621565
 10
3603.082889730901
 20
2279.092646730647
 10
3602.262220198701
 20
2279.394665417326
 10
3601.454694230501
 20
2279.729127079605
 10
3600.669512321101
 20
2280.094581501525
 10
3599.915831153422
 20
2280.488801031765
 10
3599.202661370782
 20
2280.910514862525
 10
3598.539232675901
 20
2281.357495342485
 10
3597.934541108141
 20
2281.828067995485
 10
3597.397962409821
 20
2282.320423789246
 10
3596.938390392581
 20
2282.832678938085
 10
3596.565156986861
 20
2283.363218768566
 10
3596.287199816182
 20
2283.910189396365
 10
3596.113719375341
 20
2284.471946246685
 10
3596.053843139341
 20
2285.046201865485
  0
LWPOLYLINE
  5
35A
330
1F
100
AcDbEntity
  8
STANDARD_LAYER
370
    60
100
AcDbPolyline
 90
       21
 70
     0
 43
0.0
 10
3596.053843139341
 20
2285.046201865485
 10
3596.113719375341
 20
2285.620472434965
 10
3596.287199816182
 20
2286.182019975765
 10
3596.565156986861
 20
2286.728975652885
 10
3596.938390392581
 20
2287.259515483365
 10
3597.397962409821
 20
2287.771785582886
 10
3597.934541108141
 20
2288.264335735485
 10
3598.539232675901
 20
2288.734714029647
 10
3599.202661370782
 20
2289.181679558925
 10
3599.915831153422
 20
2289.603393389686
 10
3600.669512321101
 20
2289.997822229445
 10
3601.454694230501
 20
2290.363082292525
 10
3602.262220198701
 20
2290.697543954805
 10
3603.082889730901
 20
2290.999547690805
 10
3603.907677579821
 20
2291.267075158726
 10
3604.727354042742
 20
2291.498466833085
 10
3605.532864664461
 20
2291.691689421405
 10
3606.315038158101
 20
2291.845247855686
 10
3607.064820068461
 20
2291.957153695485
 10
3607.772980692821
 20
2292.025523155125
 10
3608.430392556182
 20
2292.048726610485
  0
LWPOLYLINE
  5
35B
330
1F
100
AcDbEntity
  8
STANDARD_LAYER
370
    60
100
AcDbPolyline
 90
       21
 70
     0
 43
0.0
 10
3621.605238238501
 20
2285.046201865485
 10
3621.539564230381
 20
2284.471946246685
 10
3621.349522898901
 20
2283.910189396365
 10
3621.045497659622
 20
2283.363218768566
 10
3620.637565244941
 20
2282.832678938085
 10
3620.136269713981
 20
2282.320423789246
 10
3619.551965274381
 20
2281.828067995485
 10
3618.894830886262
 20
2281.357495342485
 10
3618.175249965183
 20
2280.910514862525
 10
3617.403620530661
 20
2280.488801031765
 10
3616.590165354701
 20
2280.094581501525
 10
3615.745326268701
 20
2279.729127079605
 10
3614.879340648621
 20
2279.394665417326
 10
3614.002504286261
 20
2279.092646730647
 10
3613.125273616981
 20
2278.825313621565
 10
3612.257871412781
 20
2278.593936897885
 10
3611.410739505061
 20
2278.400729260245
 10
3610.593983834141
 20
2278.247155875285
 10
3609.818236082901
 20
2278.135264986166
 10
3609.093529171861
 20
2278.066880575845
 10
3608.430392556182
 20
2278.043677120485
  0
LWPOLYLINE
  5
35C
330
1F
100
AcDbEntity
  8
STANDARD_LAYER
370
    60
100
AcDbPolyline
 90
       21
 70
     0
 43
0.0
 10
3608.430392556182
 20
2292.048726610485
 10
3609.093529171861
 20
2292.025523155125
 10
3609.818236082901
 20
2291.957153695485
 10
3610.593983834141
 20
2291.845247855686
 10
3611.410739505061
 20
2291.691689421405
 10
3612.257871412781
 20
2291.498466833085
 10
3613.125273616981
 20
2291.267075158726
 10
3614.002504286261
 20
2290.999547690805
 10
3614.879340648621
 20
2290.697543954805
 10
3615.745326268701
 20
2290.363082292525
 10
3616.590165354701
 20
2289.997612919925
 10
3617.403620530661
 20
2289.603393389686
 10
3618.175249965183
 20
2289.181679558925
 10
3618.894830886262
 20
2288.734714029647
 10
3619.551965274381
 20
2288.264335735485
 10
3620.136269713981
 20
2287.771785582886
 10
3620.637565244941
 20
2287.259515483365
 10
3621.045497659622
 20
2286.728975652885
 10
3621.349522898901
 20
2286.182019975765
 10
3621.539564230381
 20
2285.620472434965
 10
3621.605238238501
 20
2285.046201865485
  0
LWPOLYLINE
  5
35D
330
1F
100
AcDbEntity
  8
STANDARD_LAYER
370
    60
100
AcDbPolyline
 90
       21
 70
     0
 43
0.0
 10
3660.106563432023
 20
2142.742475032006
 10
3663.152087854381
 20
2142.868539165765
 10
3666.129733070661
 20
2143.239958909005
 10
3669.030050318741
 20
2143.847285431965
 10
3671.843532420661
 20
2144.680456927005
 10
3674.560453139061
 20
2145.730039515046
 10
3677.171465939541
 20
2146.985732177565
 10
3679.666771564941
 20
2148.438145887525
 10
3682.037038084821
 20
2150.077188935925
 10
3684.272510053902
 20
2151.893412493005
 10
3686.363797125902
 20
2153.876979011327
 10
3688.301260687221
 20
2156.017811732567
 10
3690.075378955941
 20
2158.306476777645
 10
3691.676513318461
 20
2160.733106697765
 10
3693.095229616621
 20
2163.287654635965
 10
3694.321816217021
 20
2165.960462452967
 10
3695.346868169421
 20
2168.742096269686
 10
3696.160819880021
 20
2171.622270018285
 10
3696.753959715421
 20
2174.591355460847
 10
3697.116853517462
 20
2177.639888816925
 10
3697.239994108181
 20
2180.757613920046
  0
LWPOLYLINE
  5
35E
330
1F
100
AcDbEntity
  8
STANDARD_LAYER
370
    60
100
AcDbPolyline
 90
       21
 70
     0
 43
0.0
 10
3660.106563432023
 20
2150.745708592125
 10
3662.510915594542
 20
2150.845280120926
 10
3664.861715035741
 20
2151.138477906406
 10
3667.151440716221
 20
2151.617886411285
 10
3669.372600804501
 20
2152.275716331285
 10
3671.517630449301
 20
2153.104387671645
 10
3673.578833363701
 20
2154.095647657005
 10
3675.548878359781
 20
2155.242334911646
 10
3677.420156774383
 20
2156.536435871085
 10
3679.185045340381
 20
2157.970370540565
 10
3680.836008414422
 20
2159.536319714447
 10
3682.365641788782
 20
2161.226479137765
 10
3683.766219968621
 20
2163.033268815765
 10
3685.030324142261
 20
2164.948869542805
 10
3686.150316438621
 20
2166.965701324125
 10
3687.118792649981
 20
2169.075944954085
 10
3687.928027281501
 20
2171.271781227045
 10
3688.570513897741
 20
2173.545675000285
 10
3689.038906706822
 20
2175.889762216125
 10
3689.325407194101
 20
2178.296268520965
 10
3689.422567339981
 20
2180.757613920046
  0
LWPOLYLINE
  5
35F
330
1F
100
AcDbEntity
  8
STANDARD_LAYER
370
    60
100
AcDbPolyline
 90
       21
 70
     0
 43
0.0
 10
3654.022728943542
 20
2272.040440876005
 10
3656.427081106061
 20
2272.140012404805
 10
3658.777895151222
 20
2272.433210190287
 10
3661.067620831703
 20
2272.912633645845
 10
3663.288766316021
 20
2273.570463565845
 10
3665.433810564781
 20
2274.398910646005
 10
3667.495101102941
 20
2275.390379940885
 10
3669.465146099022
 20
2276.537067195525
 10
3671.336336889862
 20
2277.831183105645
 10
3673.101313079621
 20
2279.264893514925
 10
3674.752276153662
 20
2280.830857639487
 10
3676.281909528021
 20
2282.521017062805
 10
3677.682575331621
 20
2284.327806740805
 10
3678.946694109221
 20
2286.243392517165
 10
3680.066686405581
 20
2288.260224298485
 10
3681.035162616941
 20
2290.370467928445
 10
3681.844397248461
 20
2292.566319152085
 10
3682.486971488463
 20
2294.840197974645
 10
3682.955276673781
 20
2297.184090831645
 10
3683.241864784823
 20
2299.590806446005
 10
3683.339039534662
 20
2302.052136894406
  0
LWPOLYLINE
  5
360
330
1F
100
AcDbEntity
  8
STANDARD_LAYER
370
    60
100
AcDbPolyline
 90
       21
 70
     0
 43
0.0
 10
3639.364982558861
 20
2312.056593725925
 10
3640.166506299503
 20
2312.089858988925
 10
3640.950154793101
 20
2312.187576633405
 10
3641.713372346661
 20
2312.347324649205
 10
3642.453822326582
 20
2312.566591322085
 10
3643.168803000261
 20
2312.842745332367
 10
3643.855904714301
 20
2313.173304867167
 10
3644.512513359861
 20
2313.555414346606
 10
3645.136350719181
 20
2313.986771365966
 10
3645.724569020061
 20
2314.464759556246
 10
3646.274890044742
 20
2314.986672844365
 10
3646.784699684381
 20
2315.550059318807
 10
3647.251588285581
 20
2316.152452117365
 10
3647.672956343462
 20
2316.790980709485
 10
3648.046291976901
 20
2317.463193183645
 10
3648.368995681021
 20
2318.166607726966
 10
3648.638730822221
 20
2318.898548167725
 10
3648.852927103541
 20
2319.656368235565
 10
3649.009058039901
 20
2320.437601068285
 10
3649.104524126421
 20
2321.239779803685
 10
3649.136915709701
 20
2322.060213319365
  0
LWPOLYLINE
  5
361
330
1F
100
AcDbEntity
  8
STANDARD_LAYER
370
    60
100
AcDbPolyline
 90
       21
 70
     0
 43
0.0
 10
3649.136915709701
 20
2707.215415387605
 10
3649.104524126421
 20
2708.035863853965
 10
3649.009058039901
 20
2708.838027638685
 10
3648.852927103541
 20
2709.619469780925
 10
3648.638730822221
 20
2710.377484207607
 10
3648.368995681021
 20
2711.109439599045
 10
3648.046291976901
 20
2711.812854142365
 10
3647.672956343462
 20
2712.485066616525
 10
3647.251588285581
 20
2713.123610159325
 10
3646.784699684381
 20
2713.726002957887
 10
3646.274890044742
 20
2714.289389432325
 10
3645.724569020061
 20
2714.811302720445
 10
3645.136350719181
 20
2715.289275960045
 10
3644.512513359861
 20
2715.720647930086
 10
3643.855904714301
 20
2716.102742458846
 10
3643.168803000261
 20
2716.433287042965
 10
3642.453822326582
 20
2716.709441053245
 10
3641.713372346661
 20
2716.928722676806
 10
3640.950154793101
 20
2717.088455741925
 10
3640.166506299503
 20
2717.186188337085
 10
3639.364982558861
 20
2717.219453600085
  0
LWPOLYLINE
  5
36C
330
1F
100
AcDbEntity
  8
STANDARD_LAYER
370
    60
100
AcDbPolyline
 90
       21
 70
     0
 43
0.0
 10
3608.430392556182
 20
2737.226917047165
 10
3607.772980692821
 20
2737.250120502526
 10
3607.064820068461
 20
2737.318489962166
 10
3606.315038158101
 20
2737.430380851285
 10
3605.532864664461
 20
2737.583954236247
 10
3604.727354042742
 20
2737.777161873887
 10
3603.907677579821
 20
2738.008553548245
 10
3603.082889730901
 20
2738.276081016165
 10
3602.262220198701
 20
2738.578099702846
 10
3601.454694230501
 20
2738.912770674645
 10
3600.669512321101
 20
2739.278030737726
 10
3599.915831153422
 20
2739.672444626805
 10
3599.202661370782
 20
2740.093949148045
 10
3598.539232675901
 20
2740.541138937525
 10
3597.934541108141
 20
2741.011711590525
 10
3597.397962409821
 20
2741.504052433607
 10
3596.938390392581
 20
2742.016322533125
 10
3596.565156986861
 20
2742.547071673125
 10
3596.287199816182
 20
2743.094027350245
 10
3596.113719375341
 20
2743.655574891045
 10
3596.053843139341
 20
2744.229845460526
  0
LWPOLYLINE
  5
36D
330
1F
100
AcDbEntity
  8
STANDARD_LAYER
370
    60
100
AcDbPolyline
 90
       21
 70
     0
 43
0.0
 10
3596.053843139341
 20
2744.229845460526
 10
3596.113719375341
 20
2744.804116030005
 10
3596.287199816182
 20
2745.365663570805
 10
3596.565156986861
 20
2745.912619247925
 10
3596.938390392581
 20
2746.443159078406
 10
3597.397962409821
 20
2746.955623536765
 10
3597.934541108141
 20
2747.447964379845
 10
3598.539232675901
 20
2747.918342674006
 10
3599.202661370782
 20
2748.365338104645
 10
3599.915831153422
 20
2748.787036984725
 10
3600.669512321101
 20
2749.181450873806
 10
3601.454694230501
 20
2749.546725887566
 10
3602.262220198701
 20
2749.881172599167
 10
3603.082889730901
 20
2750.183191285846
 10
3603.907677579821
 20
2750.450718753767
 10
3604.727354042742
 20
2750.682125378805
 10
3605.532864664461
 20
2750.875318065765
 10
3606.315038158101
 20
2751.028891450725
 10
3607.064820068461
 20
2751.140797290525
 10
3607.772980692821
 20
2751.209166750165
 10
3608.430392556182
 20
2751.232355254845
  0
LWPOLYLINE
  5
36E
330
1F
100
AcDbEntity
  8
STANDARD_LAYER
370
    60
100
AcDbPolyline
 90
       21
 70
     0
 43
0.0
 10
3621.605238238501
 20
2744.229845460526
 10
3621.539564230381
 20
2743.655574891045
 10
3621.349522898901
 20
2743.094027350245
 10
3621.045497659622
 20
2742.547071673125
 10
3620.637565244941
 20
2742.016322533125
 10
3620.136269713981
 20
2741.504052433607
 10
3619.551965274381
 20
2741.011711590525
 10
3618.894830886262
 20
2740.541138937525
 10
3618.175249965183
 20
2740.093949148045
 10
3617.403620530661
 20
2739.672444626805
 10
3616.590165354701
 20
2739.278030737726
 10
3615.745326268701
 20
2738.912770674645
 10
3614.879340648621
 20
2738.578099702846
 10
3614.002504286261
 20
2738.276081016165
 10
3613.125273616981
 20
2738.008553548245
 10
3612.257871412781
 20
2737.777161873887
 10
3611.410739505061
 20
2737.583954236247
 10
3610.593983834141
 20
2737.430380851285
 10
3609.818236082901
 20
2737.318489962166
 10
3609.093529171861
 20
2737.250120502526
 10
3608.430392556182
 20
2737.226917047165
  0
LWPOLYLINE
  5
36F
330
1F
100
AcDbEntity
  8
STANDARD_LAYER
370
    60
100
AcDbPolyline
 90
       21
 70
     0
 43
0.0
 10
3608.430392556182
 20
2751.232355254845
 10
3609.093529171861
 20
2751.209166750165
 10
3609.818236082901
 20
2751.140797290525
 10
3610.593983834141
 20
2751.028891450725
 10
3611.410739505061
 20
2750.875318065765
 10
3612.257871412781
 20
2750.682125378805
 10
3613.125273616981
 20
2750.450718753767
 10
3614.002504286261
 20
2750.183191285846
 10
3614.879340648621
 20
2749.881172599167
 10
3615.745326268701
 20
2749.546725887566
 10
3616.590165354701
 20
2749.181256514965
 10
3617.403620530661
 20
2748.787036984725
 10
3618.175249965183
 20
2748.365338104645
 10
3618.894830886262
 20
2747.918342674006
 10
3619.551965274381
 20
2747.447964379845
 10
3620.136269713981
 20
2746.955429177925
 10
3620.637565244941
 20
2746.443159078406
 10
3621.045497659622
 20
2745.912619247925
 10
3621.349522898901
 20
2745.365663570805
 10
3621.539564230381
 20
2744.804116030005
 10
3621.605238238501
 20
2744.229845460526
  0
LINE
  5
370
330
1F
100
AcDbEntity
  8
STANDARD_LAYER
370
    60
100
AcDbLine
 10
3649.136915709701
 20
2707.215415387605
 30
0.0
 11
3649.136915709701
 21
2322.060213319365
 31
0.0
  0
LINE
  5
371
330
1F
100
AcDbEntity
  8
STANDARD_LAYER
370
    60
100
AcDbLine
 10
3689.422961646902
 20
2394.589864126845
 30
0.0
 11
3683.339433841581
 21
2394.589864126845
 31
0.0
  0
LINE
  5
372
330
1F
100
AcDbEntity
  8
STANDARD_LAYER
370
    60
100
AcDbLine
 10
3689.422961646902
 20
2459.615394875325
 30
0.0
 11
3683.339433841581
 21
2459.615394875325
 31
0.0
  0
LINE
  5
373
330
1F
100
AcDbEntity
  8
STANDARD_LAYER
370
    60
100
AcDbLine
 10
3707.988932183022
 20
2411.096267035607
 30
0.0
 11
3697.238694355743
 21
2411.096267035607
 31
0.0
  0
LINE
  5
374
330
1F
100
AcDbEntity
  8
STANDARD_LAYER
370
    60
100
AcDbLine
 10
3697.240987177461
 20
2443.109410585605
 30
0.0
 11
3707.989939856262
 21
2443.109410585605
 31
0.0
  0
LINE
  5
375
330
1F
100
AcDbEntity
  8
STANDARD_LAYER
370
    60
100
AcDbLine
 10
3689.422961646902
 20
2449.611565972365
 30
0.0
 11
3697.240987177461
 21
2449.611565972365
 31
0.0
  0
LWPOLYLINE
  5
376
330
1F
100
AcDbEntity
  8
STANDARD_LAYER
370
    60
100
AcDbPolyline
 90
       21
 70
     0
 43
0.0
 10
3709.942343268662
 20
2441.108590982565
 10
3709.935829902501
 20
2441.272644794207
 10
3709.916771734701
 20
2441.433005787885
 10
3709.885592280101
 20
2441.589240393885
 10
3709.842773469381
 20
2441.740765535686
 10
3709.788811837182
 20
2441.887147643565
 10
3709.724349957742
 20
2442.027788690325
 10
3709.649723722142
 20
2442.162285007607
 10
3709.565502684821
 20
2442.289784406646
 10
3709.472139568542
 20
2442.410286887446
 10
3709.370262343582
 20
2442.522805705127
 10
3709.260250712901
 20
2442.627325909005
 10
3709.142615815101
 20
2442.722786000805
 10
3709.017985620461
 20
2442.809021523045
 10
3708.886710624021
 20
2442.885613856685
 10
3708.749345776261
 20
2442.951516454125
 10
3708.606446027663
 20
2443.006744266046
 10
3708.458434893061
 20
2443.050684314565
 10
3708.305808907101
 20
2443.082514312285
 10
3708.149181436101
 20
2443.102219308525
 10
3707.988932183022
 20
2443.108782657046
  0
LWPOLYLINE
  5
377
330
1F
100
AcDbEntity
  8
STANDARD_LAYER
370
    60
100
AcDbPolyline
 90
       21
 70
     0
 43
0.0
 10
3707.988932183022
 20
2411.096685654646
 10
3708.149181436101
 20
2411.103249003166
 10
3708.305808907101
 20
2411.122759640566
 10
3708.458434893061
 20
2411.154783997125
 10
3708.606446027663
 20
2411.198724045646
 10
3708.749345776261
 20
2411.253757498725
 10
3708.886710624021
 20
2411.319869405685
 10
3709.017985620461
 20
2411.396237479125
 10
3709.142615815101
 20
2411.482473001366
 10
3709.260250712901
 20
2411.578142402685
 10
3709.370262343582
 20
2411.682453297045
 10
3709.472139568542
 20
2411.795166473566
 10
3709.565502684821
 20
2411.915489546206
 10
3709.649723722142
 20
2412.043198254765
 10
3709.724349957742
 20
2412.177679621365
 10
3709.788811837182
 20
2412.318529977645
 10
3709.842773469381
 20
2412.464912085527
 10
3709.885592280101
 20
2412.616437227325
 10
3709.916771734701
 20
2412.772881142845
 10
3709.935829902501
 20
2412.933227185845
 10
3709.942343268662
 20
2413.097490307006
  0
LINE
  5
378
330
1F
100
AcDbEntity
  8
STANDARD_LAYER
370
    60
100
AcDbLine
 10
3709.944241783461
 20
2441.108590982565
 30
0.0
 11
3709.944241783461
 21
2413.097490307006
 31
0.0
  0
LWPOLYLINE
  5
379
330
1F
100
AcDbEntity
  8
STANDARD_LAYER
370
    60
100
AcDbPolyline
 90
       21
 70
     0
 43
0.0
 10
3670.635784928661
 20
2507.634586926526
 10
3670.074744597342
 20
2507.657775431206
 10
3669.526117632021
 20
2507.726144890845
 10
3668.991846359381
 20
2507.838050730646
 10
3668.473508007102
 20
2507.991624115605
 10
3667.973030297902
 20
2508.184816802567
 10
3667.492107291141
 20
2508.416223427605
 10
3667.032330818461
 20
2508.683750895525
 10
3666.595716226342
 20
2508.985769582205
 10
3666.183869950381
 20
2509.320440554005
 10
3665.798705109342
 20
2509.685685666405
 10
3665.441711307141
 20
2510.080099555485
 10
3665.114918494221
 20
2510.501619027405
 10
3664.820006125981
 20
2510.948793866206
 10
3664.558682865742
 20
2511.419381469886
 10
3664.332759604541
 20
2511.911737263645
 10
3664.143930401741
 20
2512.424007363167
 10
3663.993918524622
 20
2512.954741552486
 10
3663.884724715701
 20
2513.501697229605
 10
3663.817823974941
 20
2514.063244770405
 10
3663.795173232981
 20
2514.637515339885
  0
LWPOLYLINE
  5
37A
330
1F
100
AcDbEntity
  8
STANDARD_LAYER
370
    60
100
AcDbPolyline
 90
       21
 70
     0
 43
0.0
 10
3663.795173232981
 20
2514.637515339885
 10
3663.817823974941
 20
2515.211995218885
 10
3663.884724715701
 20
2515.773512858325
 10
3663.993918524622
 20
2516.320483486125
 10
3664.143930401741
 20
2516.851038267287
 10
3664.332759604541
 20
2517.363502725646
 10
3664.558682865742
 20
2517.855843568725
 10
3664.820006125981
 20
2518.326431172405
 10
3665.114918494221
 20
2518.773411652367
 10
3665.441711307141
 20
2519.194916173606
 10
3665.798705109342
 20
2519.589330062687
 10
3666.183869950381
 20
2519.954799435286
 10
3666.595716226342
 20
2520.289246146885
 10
3667.032330818461
 20
2520.591279784245
 10
3667.492107291141
 20
2520.858597942646
 10
3667.973030297902
 20
2521.089989617005
 10
3668.473508007102
 20
2521.283182303965
 10
3668.991846359381
 20
2521.436770639606
 10
3669.526117632021
 20
2521.548661528725
 10
3670.074744597342
 20
2521.617030988366
 10
3670.635784928661
 20
2521.640234443726
  0
LWPOLYLINE
  5
37B
330
1F
100
AcDbEntity
  8
STANDARD_LAYER
370
    60
100
AcDbPolyline
 90
       21
 70
     0
 43
0.0
 10
3677.475914693661
 20
2514.637515339885
 10
3677.453249347741
 20
2514.063244770405
 10
3677.386363210941
 20
2513.501697229605
 10
3677.277067174301
 20
2512.954741552486
 10
3677.127142920942
 20
2512.424007363167
 10
3676.938328322101
 20
2511.911737263645
 10
3676.712405060903
 20
2511.419381469886
 10
3676.451081800661
 20
2510.948793866206
 10
3676.156169432421
 20
2510.501619027405
 10
3675.829362015541
 20
2510.080099555485
 10
3675.472485045021
 20
2509.685685666405
 10
3675.087203372301
 20
2509.320440554005
 10
3674.675371700301
 20
2508.985769582205
 10
3674.238859335902
 20
2508.683750895525
 10
3673.779199694903
 20
2508.416223427605
 10
3673.298262084181
 20
2508.184816802567
 10
3672.797769771021
 20
2507.991624115605
 10
3672.279533646462
 20
2507.838050730646
 10
3671.745262373821
 20
2507.726144890845
 10
3671.196752240181
 20
2507.657775431206
 10
3670.635784928661
 20
2507.634586926526
  0
LWPOLYLINE
  5
37C
330
1F
100
AcDbEntity
  8
STANDARD_LAYER
370
    60
100
AcDbPolyline
 90
       21
 70
     0
 43
0.0
 10
3670.635784928661
 20
2521.640234443726
 10
3671.196752240181
 20
2521.617030988366
 10
3671.745262373821
 20
2521.548661528725
 10
3672.279533646462
 20
2521.436770639606
 10
3672.797769771021
 20
2521.283182303965
 10
3673.298262084181
 20
2521.089989617005
 10
3673.779199694903
 20
2520.858597942646
 10
3674.238859335902
 20
2520.591279784245
 10
3674.675371700301
 20
2520.289246146885
 10
3675.087203372301
 20
2519.954799435286
 10
3675.472485045021
 20
2519.589330062687
 10
3675.829362015541
 20
2519.194916173606
 10
3676.156169432421
 20
2518.773411652367
 10
3676.451081800661
 20
2518.326431172405
 10
3676.712405060903
 20
2517.855843568725
 10
3676.938328322101
 20
2517.363502725646
 10
3677.127142920942
 20
2516.851038267287
 10
3677.277067174301
 20
2516.320483486125
 10
3677.386363210941
 20
2515.773512858325
 10
3677.453249347741
 20
2515.211995218885
 10
3677.475914693661
 20
2514.637515339885
  0
LWPOLYLINE
  5
37D
330
1F
100
AcDbEntity
  8
STANDARD_LAYER
370
    60
100
AcDbPolyline
 90
       21
 70
     0
 43
0.0
 10
3683.339039534662
 20
2727.223073193525
 10
3683.241864784823
 20
2729.684627902126
 10
3682.955276673781
 20
2732.091328565805
 10
3682.486971488463
 20
2734.435430732326
 10
3681.844397248461
 20
2736.709309554885
 10
3681.035162616941
 20
2738.905370088045
 10
3680.066686405581
 20
2741.015613718006
 10
3678.946694109221
 20
2743.032445499325
 10
3677.682575331621
 20
2744.948031275685
 10
3676.281909528021
 20
2746.755030263205
 10
3674.752276153662
 20
2748.445189686527
 10
3673.101313079621
 20
2750.011138860405
 10
3671.336336889862
 20
2751.445058579207
 10
3669.465146099022
 20
2752.739189440005
 10
3667.495101102941
 20
2753.885876694646
 10
3665.433810564781
 20
2754.877136680005
 10
3663.288766316021
 20
2755.705793069687
 10
3661.067620831703
 20
2756.363622989686
 10
3658.777895151222
 20
2756.843046445245
 10
3656.427081106061
 20
2757.136244230725
 10
3654.022728943542
 20
2757.235815759525
  0
LINE
  5
37E
330
1F
100
AcDbEntity
  8
STANDARD_LAYER
370
    60
100
AcDbLine
 10
4072.634041106221
 20
2385.909902987205
 30
0.0
 11
4072.634041106221
 21
2263.326601495486
 31
0.0
  0
LINE
  5
37F
330
1F
100
AcDbEntity
  8
STANDARD_LAYER
370
    60
100
AcDbLine
 10
3977.825746152542
 20
2385.909902987205
 30
0.0
 11
3977.825746152542
 21
2263.326601495486
 31
0.0
  0
LINE
  5
380
330
1F
100
AcDbEntity
  8
STANDARD_LAYER
370
    60
100
AcDbLine
 10
3987.890795384541
 20
2389.228445624085
 30
0.0
 11
3987.890795384541
 21
2260.009509074565
 31
0.0
  0
LINE
  5
381
330
1F
100
AcDbEntity
  8
STANDARD_LAYER
370
    60
100
AcDbLine
 10
4062.891695578341
 20
2389.228445624085
 30
0.0
 11
4062.891695578341
 21
2260.009509074565
 31
0.0
  0
LWPOLYLINE
  5
382
330
1F
100
AcDbEntity
  8
STANDARD_LAYER
370
    60
100
AcDbPolyline
 90
       21
 70
     0
 43
0.0
 10
4115.828743152661
 20
2282.036674833525
 10
4117.210379996381
 20
2294.240885016167
 10
4118.517186149063
 20
2306.428873711006
 10
4119.749205422582
 20
2318.593658950487
 10
4120.906394005061
 20
2330.727645789165
 10
4121.989000163822
 20
2342.823448591126
 10
4122.996980086981
 20
2354.873681720447
 10
4123.930173130982
 20
2366.870929639846
 10
4124.788944394822
 20
2378.807612354566
 10
4125.573308482461
 20
2390.676538587526
 10
4126.283075542423
 20
2402.470322702805
 10
4126.918625277663
 20
2414.181354804286
 10
4127.479782440661
 20
2425.802264206725
 10
4127.966532427463
 20
2437.325650323525
 10
4128.379269544981
 20
2448.744112568085
 10
4128.717614090261
 20
2460.050459663325
 10
4128.982150221703
 20
2471.236917255645
 10
4129.172264572982
 20
2482.296279117285
 10
4129.288585114382
 20
2493.221174563005
 10
4129.33090739046
 20
2504.003978746005
 10
4129.299421252701
 20
2514.637515339885
  0
LINE
  5
383
330
1F
100
AcDbEntity
  8
STANDARD_LAYER
370
    60
100
AcDbLine
 10
3983.514689562623
 20
2249.588675805045
 30
0.0
 11
4066.946718735701
 21
2249.588675805045
 31
0.0
  0
LINE
  5
384
330
1F
100
AcDbEntity
  8
STANDARD_LAYER
370
    60
100
AcDbLine
 10
3989.926821071901
 20
2257.925548740045
 30
0.0
 11
4060.855859742461
 21
2257.925548740045
 31
0.0
  0
LWPOLYLINE
  5
385
330
1F
100
AcDbEntity
  8
STANDARD_LAYER
370
    60
100
AcDbPolyline
 90
       21
 70
     0
 43
0.0
 10
3964.685993786103
 20
2256.456928492965
 10
3964.708250221141
 20
2255.893542018525
 10
3964.773836605502
 20
2255.342878572765
 10
3964.880927444182
 20
2254.806388371645
 10
3965.028135360981
 20
2254.285910348805
 10
3965.213240553981
 20
2253.783507698085
 10
3965.43485564698
 20
2253.300406375245
 10
3965.691169748943
 20
2252.838848982286
 10
3965.980561820302
 20
2252.400495044685
 10
3966.301060326462
 20
2251.986989137245
 10
3966.651015019941
 20
2251.599960884085
 10
3967.02887788098
 20
2251.241697739245
 10
3967.432779602703
 20
2250.913380806445
 10
3967.861172165343
 20
2250.617118131567
 10
3968.312025618462
 20
2250.354718746885
 10
3968.783718922501
 20
2250.127647819045
 10
3969.274484998301
 20
2249.937923689845
 10
3969.78289265778
 20
2249.787235786125
 10
3970.306941158421
 20
2249.677378189485
 10
3970.844834213141
 20
2249.610234685605
 10
3971.395155237823
 20
2249.587240539765
  0
LWPOLYLINE
  5
386
330
1F
100
AcDbEntity
  8
STANDARD_LAYER
370
    60
100
AcDbPolyline
 90
       21
 70
     0
 43
0.0
 10
3971.395958455621
 20
2263.326601495486
 10
3970.845637430941
 20
2263.303816659167
 10
3970.307539920782
 20
2263.236688105965
 10
3969.7835060241
 20
2263.127039818845
 10
3969.275083760663
 20
2262.976336964445
 10
3968.784127833381
 20
2262.786837095445
 10
3968.312419925381
 20
2262.559751216925
 10
3967.861581076223
 20
2262.297366782927
 10
3967.433188513583
 20
2262.001074206686
 10
3967.029272187902
 20
2261.672996484765
 10
3966.65142393082
 20
2261.314509079725
 10
3966.30125017794
 20
2260.927690136087
 10
3965.980561820302
 20
2260.513974919125
 10
3965.691374204381
 20
2260.075620981525
 10
3965.435060102423
 20
2259.613869229725
 10
3965.213240553981
 20
2259.130977216405
 10
3965.028135360981
 20
2258.628350305487
 10
3964.880927444182
 20
2258.107872282646
 10
3964.773836605502
 20
2257.571187722685
 10
3964.708250221141
 20
2257.020314967405
 10
3964.685993786103
 20
2256.456928492965
  0
LWPOLYLINE
  5
387
330
1F
100
AcDbEntity
  8
STANDARD_LAYER
370
    60
100
AcDbPolyline
 90
       21
 70
     0
 43
0.0
 10
3971.395958455621
 20
2252.575014332325
 10
3971.084894107621
 20
2252.587946670527
 10
3970.780839660421
 20
2252.625727038886
 10
3970.484627539741
 20
2252.687936818367
 10
3970.197440666341
 20
2252.772946384845
 10
3969.919863198622
 20
2252.880112859085
 10
3969.653340928621
 20
2253.008434545525
 10
3969.398428806822
 20
2253.156685488405
 10
3969.156353565862
 20
2253.323998548285
 10
3968.928122878981
 20
2253.509611240485
 10
3968.714539963981
 20
2253.712058398365
 10
3968.516787741622
 20
2253.930712093365
 10
3968.335684033663
 20
2254.164570629925
 10
3968.172032057901
 20
2254.412378150927
 10
3968.027233794501
 20
2254.673147911486
 10
3967.902092461261
 20
2254.946207131007
 10
3967.797396672023
 20
2255.230165396245
 10
3967.714168703981
 20
2255.524379827965
 10
3967.653591477901
 20
2255.827639421085
 10
3967.616701874941
 20
2256.138882677325
 10
3967.604054845583
 20
2256.457347112005
  0
LWPOLYLINE
  5
388
330
1F
100
AcDbEntity
  8
STANDARD_LAYER
370
    60
100
AcDbPolyline
 90
       21
 70
     0
 43
0.0
 10
3967.604054845583
 20
2256.457347112005
 10
3967.616701874941
 20
2256.775781645325
 10
3967.653591477901
 20
2257.087054802925
 10
3967.714168703981
 20
2257.390299445367
 10
3967.797396672023
 20
2257.684513877087
 10
3967.902092461261
 20
2257.968472142325
 10
3968.027233794501
 20
2258.241546312525
 10
3968.172032057901
 20
2258.502495481245
 10
3968.335684033663
 20
2258.750317952925
 10
3968.516787741622
 20
2258.983952229285
 10
3968.714539963981
 20
2259.202620874965
 10
3968.928122878981
 20
2259.405277342365
 10
3969.156353565862
 20
2259.590665774365
 10
3969.398428806822
 20
2259.758203094445
 10
3969.653340928621
 20
2259.906439086647
 10
3969.919863198622
 20
2260.034775723766
 10
3970.197440666341
 20
2260.141942198005
 10
3970.484627539741
 20
2260.226951764485
 10
3970.780839660421
 20
2260.288952234445
 10
3971.084894107621
 20
2260.326926961645
 10
3971.395958455621
 20
2260.339874250525
  0
LWPOLYLINE
  5
389
330
1F
100
AcDbEntity
  8
STANDARD_LAYER
370
    60
100
AcDbPolyline
 90
       21
 70
     0
 43
0.0
 10
3971.395958455621
 20
2254.500676867005
 10
3971.239316380663
 20
2254.507240215526
 10
3971.086091632343
 20
2254.526347184565
 10
3970.936693121541
 20
2254.557549253725
 10
3970.791880254183
 20
2254.600457705325
 10
3970.652091149062
 20
2254.654444610806
 10
3970.5177201131
 20
2254.719136203165
 10
3970.389365908663
 20
2254.793859701806
 10
3970.267437446622
 20
2254.878046980885
 10
3970.152314429943
 20
2254.971668139045
 10
3970.044814680382
 20
2255.073721480725
 10
3969.945142653383
 20
2255.183773436206
 10
3969.853692655862
 20
2255.301614695965
 10
3969.771457757102
 20
2255.426437923285
 10
3969.698467165022
 20
2255.557854400485
 10
3969.6352758301
 20
2255.695400656486
 10
3969.582540930543
 20
2255.838523516125
 10
3969.540612961381
 20
2255.986759508326
 10
3969.510134496863
 20
2256.139704964725
 10
3969.491485239941
 20
2256.296567499285
 10
3969.485059497541
 20
2256.456928492965
  0
LWPOLYLINE
  5
38A
330
1F
100
AcDbEntity
  8
STANDARD_LAYER
370
    60
100
AcDbPolyline
 90
       21
 70
     0
 43
0.0
 10
3969.485059497541
 20
2256.456928492965
 10
3969.491485239941
 20
2256.617274535965
 10
3969.510134496863
 20
2256.774137070525
 10
3969.540612961381
 20
2256.927097477605
 10
3969.582540930543
 20
2257.075139110965
 10
3969.6352758301
 20
2257.218441378765
 10
3969.698467165022
 20
2257.355793275925
 10
3969.771457757102
 20
2257.487404111965
 10
3969.853692655862
 20
2257.612257240645
 10
3969.945142653383
 20
2257.729889190885
 10
3970.044814680382
 20
2257.840150455886
 10
3970.152314429943
 20
2257.942188846885
 10
3970.267437446622
 20
2258.035600695527
 10
3970.389365908663
 20
2258.119982333445
 10
3970.5177201131
 20
2258.194735733445
 10
3970.652091149062
 20
2258.259203065606
 10
3970.791880254183
 20
2258.313189971086
 10
3970.936693121541
 20
2258.356098422686
 10
3971.086091632343
 20
2258.387300491846
 10
3971.239316380663
 20
2258.406407460885
 10
3971.395958455621
 20
2258.412985760086
  0
LINE
  5
38B
330
1F
100
AcDbEntity
  8
STANDARD_LAYER
370
    60
100
AcDbLine
 10
3971.395958455621
 20
2249.587240539765
 30
0.0
 11
3983.514689562623
 21
2249.587240539765
 31
0.0
  0
LINE
  5
38C
330
1F
100
AcDbEntity
  8
STANDARD_LAYER
370
    60
100
AcDbLine
 10
3977.825746152542
 20
2263.326601495486
 30
0.0
 11
3971.402165138621
 21
2263.326601495486
 31
0.0
  0
LWPOLYLINE
  5
38D
330
1F
100
AcDbEntity
  8
STANDARD_LAYER
370
    60
100
AcDbPolyline
 90
       21
 70
     0
 43
0.0
 10
3971.402165138621
 20
2263.326601495486
 10
3971.401770831702
 20
2263.326601495486
 10
3971.401361920821
 20
2263.326601495486
 10
3971.401172069341
 20
2263.326601495486
 10
3971.400763158463
 20
2263.326601495486
 10
3971.400368851542
 20
2263.326601495486
 10
3971.400164396102
 20
2263.326601495486
 10
3971.399770089183
 20
2263.326601495486
 10
3971.399375782261
 20
2263.326601495486
 10
3971.399156722863
 20
2263.326601495486
 10
3971.398762415943
 20
2263.326601495486
 10
3971.398572564461
 20
2263.326601495486
 10
3971.398163653582
 20
2263.326601495486
 10
3971.397959198141
 20
2263.326601495486
 10
3971.397550287261
 20
2263.326601495486
 10
3971.397360435781
 20
2263.326601495486
 10
3971.397155980343
 20
2263.326601495486
 10
3971.396747069461
 20
2263.326601495486
 10
3971.396557217981
 20
2263.326601495486
 10
3971.396148307103
 20
2263.326601495486
 10
3971.395958455621
 20
2263.326601495486
  0
LWPOLYLINE
  5
38E
330
1F
100
AcDbEntity
  8
STANDARD_LAYER
370
    60
100
AcDbPolyline
 90
       21
 70
     0
 43
0.0
 10
3975.188446224061
 20
2256.457347112005
 10
3975.175813798661
 20
2256.138882677325
 10
3975.138719740261
 20
2255.827639421085
 10
3975.078142514181
 20
2255.524379827965
 10
3974.995104397621
 20
2255.230165396245
 10
3974.89042321234
 20
2254.946207131007
 10
3974.765077423663
 20
2254.673147911486
 10
3974.620279160261
 20
2254.412378150927
 10
3974.456627184502
 20
2254.164570629925
 10
3974.275523476541
 20
2253.930712093365
 10
3974.077566798742
 20
2253.712058398365
 10
3973.86398388374
 20
2253.509611240485
 10
3973.635753196861
 20
2253.323998548285
 10
3973.393677955901
 20
2253.156685488405
 10
3973.138780438062
 20
2253.008434545525
 10
3972.872039108662
 20
2252.880112859085
 10
3972.594666096382
 20
2252.772946384845
 10
3972.307274767542
 20
2252.687936818367
 10
3972.011062646863
 20
2252.625727038886
 10
3971.70702280362
 20
2252.587946670527
 10
3971.395958455621
 20
2252.575014332325
  0
LWPOLYLINE
  5
38F
330
1F
100
AcDbEntity
  8
STANDARD_LAYER
370
    60
100
AcDbPolyline
 90
       21
 70
     0
 43
0.0
 10
3971.395958455621
 20
2260.339874250525
 10
3971.70702280362
 20
2260.326926961645
 10
3972.011062646863
 20
2260.288952234445
 10
3972.307274767542
 20
2260.226951764485
 10
3972.594666096382
 20
2260.141942198005
 10
3972.872039108662
 20
2260.034775723766
 10
3973.138780438062
 20
2259.906439086647
 10
3973.393677955901
 20
2259.758203094445
 10
3973.635753196861
 20
2259.590665774365
 10
3973.86398388374
 20
2259.405277342365
 10
3974.077566798742
 20
2259.202620874965
 10
3974.275523476541
 20
2258.983952229285
 10
3974.456627184502
 20
2258.750317952925
 10
3974.620279160261
 20
2258.502495481245
 10
3974.765077423663
 20
2258.241546312525
 10
3974.89042321234
 20
2257.968472142325
 10
3974.995104397621
 20
2257.684513877087
 10
3975.078142514181
 20
2257.390299445367
 10
3975.138719740261
 20
2257.087054802925
 10
3975.175813798661
 20
2256.775781645325
 10
3975.188446224061
 20
2256.457347112005
  0
LWPOLYLINE
  5
390
330
1F
100
AcDbEntity
  8
STANDARD_LAYER
370
    60
100
AcDbPolyline
 90
       21
 70
     0
 43
0.0
 10
3973.307237116661
 20
2256.456928492965
 10
3973.300825978222
 20
2256.296567499285
 10
3973.282176721303
 20
2256.139704964725
 10
3973.25169825678
 20
2255.986759508326
 10
3973.209770287621
 20
2255.838523516125
 10
3973.157035388061
 20
2255.695400656486
 10
3973.093844053141
 20
2255.557854400485
 10
3973.020853461061
 20
2255.426437923285
 10
3972.938428710821
 20
2255.301614695965
 10
3972.847168564782
 20
2255.183773436206
 10
3972.747496537783
 20
2255.073721480725
 10
3972.639792332781
 20
2254.971668139045
 10
3972.524873771543
 20
2254.878046980885
 10
3972.402740854061
 20
2254.793859701806
 10
3972.274386649623
 20
2254.719136203165
 10
3972.140015613661
 20
2254.654444610806
 10
3972.000036657061
 20
2254.600457705325
 10
3971.855223789702
 20
2254.557549253725
 10
3971.706015130381
 20
2254.526347184565
 10
3971.552790382061
 20
2254.507240215526
 10
3971.395958455621
 20
2254.500676867005
  0
LWPOLYLINE
  5
391
330
1F
100
AcDbEntity
  8
STANDARD_LAYER
370
    60
100
AcDbPolyline
 90
       21
 70
     0
 43
0.0
 10
3971.395958455621
 20
2258.412985760086
 10
3971.552790382061
 20
2258.406407460885
 10
3971.706015130381
 20
2258.387300491846
 10
3971.855223789702
 20
2258.356098422686
 10
3972.000036657061
 20
2258.313189971086
 10
3972.140015613661
 20
2258.259203065606
 10
3972.274386649623
 20
2258.194735733445
 10
3972.402740854061
 20
2258.119982333445
 10
3972.524873771543
 20
2258.035600695527
 10
3972.639792332781
 20
2257.942188846885
 10
3972.747496537783
 20
2257.840150455886
 10
3972.847168564782
 20
2257.729889190885
 10
3972.938428710821
 20
2257.612257240645
 10
3973.020853461061
 20
2257.487404111965
 10
3973.093844053141
 20
2257.355793275925
 10
3973.157035388061
 20
2257.218247019925
 10
3973.209770287621
 20
2257.075139110965
 10
3973.25169825678
 20
2256.927097477605
 10
3973.282176721303
 20
2256.774137070525
 10
3973.300825978222
 20
2256.617274535965
 10
3973.307237116661
 20
2256.456928492965
  0
LWPOLYLINE
  5
392
330
1F
100
AcDbEntity
  8
STANDARD_LAYER
370
    60
100
AcDbPolyline
 90
       21
 70
     0
 43
0.0
 10
3988.488038932702
 20
2258.534938456845
 10
3988.544205762861
 20
2258.479710644925
 10
3988.602358731581
 20
2258.426531076165
 10
3988.662527046781
 20
2258.375609060085
 10
3988.724696104501
 20
2258.327153906206
 10
3988.788676053262
 20
2258.281165614525
 10
3988.854452289102
 20
2258.237434875525
 10
3988.922039415982
 20
2258.196365357565
 10
3988.991247582423
 20
2258.157972011325
 10
3989.062032976541
 20
2258.122239886125
 10
3989.134234954783
 20
2258.089198883325
 10
3989.20802876466
 20
2258.059013460405
 10
3989.283239158663
 20
2258.031698568045
 10
3989.359661681341
 20
2258.007478466445
 10
3989.437471580221
 20
2257.986128895405
 10
3989.516479003821
 20
2257.967859164446
 10
3989.596508704622
 20
2257.952863632405
 10
3989.677735930143
 20
2257.940962891125
 10
3989.759751769501
 20
2257.932530707606
 10
3989.842789886063
 20
2257.927193314847
 10
3989.926821071901
 20
2257.925548740045
  0
LWPOLYLINE
  5
393
330
1F
100
AcDbEntity
  8
STANDARD_LAYER
370
    60
100
AcDbPolyline
 90
       21
 70
     0
 43
0.0
 10
3987.890795384541
 20
2260.009509074565
 10
3987.892401820142
 20
2259.923692171365
 10
3987.897600829903
 20
2259.838697555565
 10
3987.905837463343
 20
2259.754525227166
 10
3987.917462215501
 20
2259.671563903846
 10
3987.932109987383
 20
2259.589649128126
 10
3987.949956026503
 20
2259.508750998645
 10
3987.970810481381
 20
2259.429303085125
 10
3987.994687955981
 20
2259.350856867165
 10
3988.021354786941
 20
2259.273875815845
 10
3988.051030033661
 20
2259.198315079126
 10
3988.083319389221
 20
2259.124398917205
 10
3988.118222853623
 20
2259.051723661726
 10
3988.155930278341
 20
2258.980887339886
 10
3988.196237207941
 20
2258.911486283325
 10
3988.238953790943
 20
2258.844133469925
 10
3988.284080027341
 20
2258.778440182005
 10
3988.33182037258
 20
2258.714585827725
 10
3988.381546856382
 20
2258.652585357767
 10
3988.433697597541
 20
2258.592827489805
 10
3988.488038932702
 20
2258.534938456845
  0
LINE
  5
394
330
1F
100
AcDbEntity
  8
STANDARD_LAYER
370
    60
100
AcDbLine
 10
4066.946119973341
 20
2249.587240539765
 30
0.0
 11
4079.063828803143
 21
2249.587240539765
 31
0.0
  0
LINE
  5
395
330
1F
100
AcDbEntity
  8
STANDARD_LAYER
370
    60
100
AcDbLine
 10
4020.011051691701
 20
2142.742475032006
 30
0.0
 11
4014.540116196501
 21
2219.576366808767
 31
0.0
  0
LINE
  5
396
330
1F
100
AcDbEntity
  8
STANDARD_LAYER
370
    60
100
AcDbLine
 10
4064.088008169663
 20
2142.743910297285
 30
0.0
 11
4056.484573227342
 21
2249.588675805045
 31
0.0
  0
LINE
  5
397
330
1F
100
AcDbEntity
  8
STANDARD_LAYER
370
    60
100
AcDbLine
 10
4064.088008169663
 20
2142.743910297285
 30
0.0
 11
4020.011051691701
 21
2142.743910297285
 31
0.0
  0
LINE
  5
398
330
1F
100
AcDbEntity
  8
STANDARD_LAYER
370
    60
100
AcDbLine
 10
3993.14372296486
 20
2219.576366808767
 30
0.0
 11
4019.526915813741
 21
2219.576366808767
 31
0.0
  0
LINE
  5
399
330
1F
100
AcDbEntity
  8
STANDARD_LAYER
370
    60
100
AcDbLine
 10
3993.14372296486
 20
2224.578699879285
 30
0.0
 11
4019.526915813741
 21
2224.578699879285
 31
0.0
  0
LINE
  5
39A
330
1F
100
AcDbEntity
  8
STANDARD_LAYER
370
    60
100
AcDbLine
 10
3994.610982826062
 20
2244.586552044045
 30
0.0
 11
4018.063073279181
 21
2244.586552044045
 31
0.0
  0
LINE
  5
39B
330
1F
100
AcDbEntity
  8
STANDARD_LAYER
370
    60
100
AcDbLine
 10
4000.845033647103
 20
2244.586552044045
 30
0.0
 11
4000.845033647103
 21
2224.578699879285
 31
0.0
  0
LINE
  5
39C
330
1F
100
AcDbEntity
  8
STANDARD_LAYER
370
    60
100
AcDbLine
 10
3993.14372296486
 20
2219.576366808767
 30
0.0
 11
3993.14372296486
 21
2224.578699879285
 31
0.0
  0
LINE
  5
39D
330
1F
100
AcDbEntity
  8
STANDARD_LAYER
370
    60
100
AcDbLine
 10
4006.335815923941
 20
2219.576366808767
 30
0.0
 11
4006.335815923941
 21
2224.578699879285
 31
0.0
  0
LINE
  5
39E
330
1F
100
AcDbEntity
  8
STANDARD_LAYER
370
    60
100
AcDbLine
 10
3994.610982826062
 20
2244.586552044045
 30
0.0
 11
3994.610982826062
 21
2224.578699879285
 31
0.0
  0
LINE
  5
39F
330
1F
100
AcDbEntity
  8
STANDARD_LAYER
370
    60
100
AcDbLine
 10
3998.02943397098
 20
2249.588675805045
 30
0.0
 11
3998.02943397098
 21
2244.586552044045
 31
0.0
  0
LINE
  5
3A0
330
1F
100
AcDbEntity
  8
STANDARD_LAYER
370
    60
100
AcDbLine
 10
4011.827620477983
 20
2244.586552044045
 30
0.0
 11
4011.827620477983
 21
2224.578699879285
 31
0.0
  0
LINE
  5
3A1
330
1F
100
AcDbEntity
  8
STANDARD_LAYER
370
    60
100
AcDbLine
 10
4019.526915813741
 20
2224.578699879285
 30
0.0
 11
4019.526915813741
 21
2219.576366808767
 31
0.0
  0
LINE
  5
3A2
330
1F
100
AcDbEntity
  8
STANDARD_LAYER
370
    60
100
AcDbLine
 10
4018.062065605942
 20
2244.586552044045
 30
0.0
 11
4018.062065605942
 21
2224.578699879285
 31
0.0
  0
LINE
  5
3A3
330
1F
100
AcDbEntity
  8
STANDARD_LAYER
370
    60
100
AcDbLine
 10
4014.642212480862
 20
2249.588675805045
 30
0.0
 11
4014.642212480862
 21
2244.586552044045
 31
0.0
  0
LWPOLYLINE
  5
3A4
330
1F
100
AcDbEntity
  8
STANDARD_LAYER
370
    60
100
AcDbPolyline
 90
       21
 70
     0
 43
0.0
 10
4062.295445099463
 20
2258.535970053765
 10
4062.349596583142
 20
2258.593664727887
 10
4062.401542868862
 20
2258.653407645165
 10
4062.451283956623
 20
2258.715213756285
 10
4062.498600787022
 20
2258.778858801045
 10
4062.543727023421
 20
2258.844552088965
 10
4062.586443606423
 20
2258.911904902365
 10
4062.626560684543
 20
2258.981096649407
 10
4062.664268109261
 20
2259.051918020566
 10
4062.699171573663
 20
2259.124398917205
 10
4062.731446325262
 20
2259.198524388645
 10
4062.76113617594
 20
2259.274070174685
 10
4062.787803006901
 20
2259.351066176685
 10
4062.811476026061
 20
2259.429303085125
 10
4062.832330480943
 20
2259.508750998645
 10
4062.850191124021
 20
2259.589649128126
 10
4062.865028747381
 20
2259.671563903846
 10
4062.876653499541
 20
2259.754525227166
 10
4062.884875529022
 20
2259.838697555565
 10
4062.890089142741
 20
2259.923692171365
 10
4062.891695578341
 20
2260.009509074565
  0
LWPOLYLINE
  5
3A5
330
1F
100
AcDbEntity
  8
STANDARD_LAYER
370
    60
100
AcDbPolyline
 90
       21
 70
     0
 43
0.0
 10
4060.855859742461
 20
2257.925548740045
 10
4060.939686472862
 20
2257.927193314847
 10
4061.022709985461
 20
2257.932530707606
 10
4061.104740428782
 20
2257.940962891125
 10
4061.185967654301
 20
2257.952863632405
 10
4061.265997355103
 20
2257.967859164446
 10
4061.344814927223
 20
2257.985919585885
 10
4061.422624826101
 20
2258.007269156925
 10
4061.499032744823
 20
2258.031698568045
 10
4061.574243138822
 20
2258.058804150887
 10
4061.648051552662
 20
2258.089198883325
 10
4061.720457986341
 20
2258.122045527286
 10
4061.791243380461
 20
2258.157972011325
 10
4061.860436942943
 20
2258.196365357565
 10
4061.928038673782
 20
2258.237434875525
 10
4061.99401936506
 20
2258.281165614525
 10
4062.058189165301
 20
2258.327363215726
 10
4062.120358223021
 20
2258.376012728445
 10
4062.180730993661
 20
2258.427144054046
 10
4062.239088417822
 20
2258.480323622805
 10
4062.295445099463
 20
2258.535970053765
  0
LWPOLYLINE
  5
3A6
330
1F
100
AcDbEntity
  8
STANDARD_LAYER
370
    60
100
AcDbPolyline
 90
       21
 70
     0
 43
0.0
 10
4104.869829340941
 20
2272.041248212725
 10
4105.716377090263
 20
2272.047422843566
 10
4106.54707954298
 20
2272.120307408565
 10
4107.358913679382
 20
2272.257464946885
 10
4108.149703509421
 20
2272.456204336126
 10
4108.916630468821
 20
2272.714492283805
 10
4109.657284904183
 20
2273.029443308686
 10
4110.369038102701
 20
2273.399024118286
 10
4111.049524222863
 20
2273.820334280686
 10
4111.695910096422
 20
2274.291310602045
 10
4112.305610822461
 20
2274.809546022885
 10
4112.876391995101
 20
2275.372319519445
 10
4113.405245198581
 20
2275.977164229525
 10
4113.890198898303
 20
2276.622076762005
 10
4114.328011015141
 20
2277.304141734286
 10
4114.716666202621
 20
2278.021101593685
 10
4115.053404312301
 20
2278.770698787525
 10
4115.335596631382
 20
2279.550092686607
 10
4115.560614447063
 20
2280.357190195725
 10
4115.726267165343
 20
2281.189330093847
 10
4115.829546370463
 20
2282.044284729645
  0
LINE
  5
3A7
330
1F
100
AcDbEntity
  8
STANDARD_LAYER
370
    60
100
AcDbLine
 10
4072.634041106221
 20
2263.326601495486
 30
0.0
 11
4079.063828803143
 21
2263.326601495486
 31
0.0
  0
LWPOLYLINE
  5
3A8
330
1F
100
AcDbEntity
  8
STANDARD_LAYER
370
    60
100
AcDbPolyline
 90
       21
 70
     0
 43
0.0
 10
4079.065245387261
 20
2249.587240539765
 10
4079.615566411943
 20
2249.610040326765
 10
4080.153649318141
 20
2249.677183830645
 10
4080.677902274221
 20
2249.787011525925
 10
4081.186309933702
 20
2249.937520021487
 10
4081.677265860981
 20
2250.127229200005
 10
4082.149163620461
 20
2250.354105769005
 10
4082.600017073581
 20
2250.616699512525
 10
4083.028409636221
 20
2250.912977138085
 10
4083.432325961903
 20
2251.241069810685
 10
4083.810174218981
 20
2251.599557215725
 10
4084.160333367901
 20
2251.986585468886
 10
4084.48102172554
 20
2252.400091376325
 10
4084.770223945422
 20
2252.838639672766
 10
4085.026727898861
 20
2253.300182115046
 10
4085.248342991861
 20
2253.783298388565
 10
4085.433462788821
 20
2254.285910348805
 10
4085.580670705623
 20
2254.806388371645
 10
4085.687761544302
 20
2255.342878572765
 10
4085.753347928663
 20
2255.893542018525
 10
4085.775604363701
 20
2256.456928492965
  0
LINE
  5
3A9
330
1F
100
AcDbEntity
  8
STANDARD_LAYER
370
    60
100
AcDbLine
 10
4079.063828803143
 20
2249.587240539765
 30
0.0
 11
4079.065245387261
 21
2249.587240539765
 31
0.0
  0
LINE
  5
3AA
330
1F
100
AcDbEntity
  8
STANDARD_LAYER
370
    60
100
AcDbLine
 10
4079.065245387261
 20
2263.326601495486
 30
0.0
 11
4079.063828803143
 21
2263.326601495486
 31
0.0
  0
LWPOLYLINE
  5
3AB
330
1F
100
AcDbEntity
  8
STANDARD_LAYER
370
    60
100
AcDbPolyline
 90
       21
 70
     0
 43
0.0
 10
4085.775604363701
 20
2256.456928492965
 10
4085.753347928663
 20
2257.020314967405
 10
4085.687761544302
 20
2257.571187722685
 10
4085.580670705623
 20
2258.107872282646
 10
4085.433462788821
 20
2258.628350305487
 10
4085.248342991861
 20
2259.130977216405
 10
4085.026727898861
 20
2259.613869229725
 10
4084.770223945422
 20
2260.075620981525
 10
4084.48102172554
 20
2260.513974919125
 10
4084.160333367901
 20
2260.927690136087
 10
4083.810174218981
 20
2261.314509079725
 10
4083.432325961903
 20
2261.672996484765
 10
4083.028409636221
 20
2262.001074206686
 10
4082.600017073581
 20
2262.297366782927
 10
4082.149163620461
 20
2262.559751216925
 10
4081.677265860981
 20
2262.786837095445
 10
4081.186309933702
 20
2262.976336964445
 10
4080.677902274221
 20
2263.127039818845
 10
4080.153649318141
 20
2263.236688105965
 10
4079.615566411943
 20
2263.303816659167
 10
4079.065245387261
 20
2263.326601495486
  0
LWPOLYLINE
  5
3AC
330
1F
100
AcDbEntity
  8
STANDARD_LAYER
370
    60
100
AcDbPolyline
 90
       21
 70
     0
 43
0.0
 10
4079.065245387261
 20
2252.575014332325
 10
4078.754181039263
 20
2252.587946670527
 10
4078.45014119602
 20
2252.625727038886
 10
4078.153914471381
 20
2252.687936818367
 10
4077.866523142541
 20
2252.772946384845
 10
4077.589150130261
 20
2252.880112859085
 10
4077.322423404821
 20
2253.008434545525
 10
4077.067511283021
 20
2253.156685488405
 10
4076.825450646023
 20
2253.323998548285
 10
4076.597205355183
 20
2253.509611240485
 10
4076.383622440181
 20
2253.712058398365
 10
4076.185665762381
 20
2253.930712093365
 10
4076.004576658381
 20
2254.164570629925
 10
4075.840910078662
 20
2254.412378150927
 10
4075.69612641922
 20
2254.673147911486
 10
4075.570780630541
 20
2254.946207131007
 10
4075.466084841303
 20
2255.230165396245
 10
4075.3830613287
 20
2255.524379827965
 10
4075.322484102623
 20
2255.827639421085
 10
4075.285390044221
 20
2256.138882677325
 10
4075.272743014862
 20
2256.457347112005
  0
LWPOLYLINE
  5
3AD
330
1F
100
AcDbEntity
  8
STANDARD_LAYER
370
    60
100
AcDbPolyline
 90
       21
 70
     0
 43
0.0
 10
4082.857528700263
 20
2256.457347112005
 10
4082.844896274861
 20
2256.138882677325
 10
4082.807992067941
 20
2255.827639421085
 10
4082.74722499038
 20
2255.524379827965
 10
4082.664201477783
 20
2255.230165396245
 10
4082.55950568854
 20
2254.946207131007
 10
4082.434159899861
 20
2254.673147911486
 10
4082.289361636463
 20
2254.412378150927
 10
4082.125899512181
 20
2254.164570629925
 10
4081.94460595274
 20
2253.930712093365
 10
4081.746853730383
 20
2253.712058398365
 10
4081.533270815381
 20
2253.509611240485
 10
4081.304835673061
 20
2253.323998548285
 10
4081.062760432101
 20
2253.156685488405
 10
4080.808067369701
 20
2253.008434545525
 10
4080.541326040301
 20
2252.880112859085
 10
4080.263967631983
 20
2252.772946384845
 10
4079.976561699183
 20
2252.687936818367
 10
4079.680349578503
 20
2252.625727038886
 10
4079.376295131301
 20
2252.587946670527
 10
4079.065245387261
 20
2252.575014332325
  0
LWPOLYLINE
  5
3AE
330
1F
100
AcDbEntity
  8
STANDARD_LAYER
370
    60
100
AcDbPolyline
 90
       21
 70
     0
 43
0.0
 10
4079.065245387261
 20
2260.339874250525
 10
4079.376295131301
 20
2260.326926961645
 10
4079.680349578503
 20
2260.288952234445
 10
4079.976561699183
 20
2260.226951764485
 10
4080.263967631983
 20
2260.141942198005
 10
4080.541326040301
 20
2260.034775723766
 10
4080.808067369701
 20
2259.906439086647
 10
4081.062760432101
 20
2259.758203094445
 10
4081.304835673061
 20
2259.590665774365
 10
4081.533270815381
 20
2259.405277342365
 10
4081.746853730383
 20
2259.202620874965
 10
4081.94460595274
 20
2258.983952229285
 10
4082.125899512181
 20
2258.750317952925
 10
4082.289361636463
 20
2258.502495481245
 10
4082.434159899861
 20
2258.241546312525
 10
4082.55950568854
 20
2257.968472142325
 10
4082.664201477783
 20
2257.684513877087
 10
4082.74722499038
 20
2257.390299445367
 10
4082.807992067941
 20
2257.087054802925
 10
4082.844896274861
 20
2256.775781645325
 10
4082.857528700263
 20
2256.457347112005
  0
LWPOLYLINE
  5
3AF
330
1F
100
AcDbEntity
  8
STANDARD_LAYER
370
    60
100
AcDbPolyline
 90
       21
 70
     0
 43
0.0
 10
4075.272743014862
 20
2256.457347112005
 10
4075.285390044221
 20
2256.775781645325
 10
4075.322484102623
 20
2257.087054802925
 10
4075.3830613287
 20
2257.390299445367
 10
4075.466084841303
 20
2257.684513877087
 10
4075.570780630541
 20
2257.968472142325
 10
4075.69612641922
 20
2258.241546312525
 10
4075.840910078662
 20
2258.502495481245
 10
4076.004576658381
 20
2258.750317952925
 10
4076.185665762381
 20
2258.983952229285
 10
4076.383622440181
 20
2259.202620874965
 10
4076.597205355183
 20
2259.405277342365
 10
4076.825450646023
 20
2259.590665774365
 10
4077.067511283021
 20
2259.758203094445
 10
4077.322423404821
 20
2259.906439086647
 10
4077.589150130261
 20
2260.034775723766
 10
4077.866523142541
 20
2260.141942198005
 10
4078.153914471381
 20
2260.226951764485
 10
4078.45014119602
 20
2260.288952234445
 10
4078.754181039263
 20
2260.326926961645
 10
4079.065245387261
 20
2260.339874250525
  0
LWPOLYLINE
  5
3B0
330
1F
100
AcDbEntity
  8
STANDARD_LAYER
370
    60
100
AcDbPolyline
 90
       21
 70
     0
 43
0.0
 10
4079.064836476382
 20
2254.500676867005
 10
4078.908209005381
 20
2254.507240215526
 10
4078.754779801623
 20
2254.526347184565
 10
4078.605571142302
 20
2254.557549253725
 10
4078.460772878902
 20
2254.600457705325
 10
4078.320983773781
 20
2254.654444610806
 10
4078.186612737823
 20
2254.719136203165
 10
4078.058258533381
 20
2254.793859701806
 10
4077.936111011943
 20
2254.878046980885
 10
4077.820987995263
 20
2254.971668139045
 10
4077.713502849663
 20
2255.073721480725
 10
4077.613626367221
 20
2255.183773436206
 10
4077.522366221182
 20
2255.301614695965
 10
4077.439941470942
 20
2255.426437923285
 10
4077.366936274902
 20
2255.557854400485
 10
4077.303774147902
 20
2255.695400656486
 10
4077.25102464438
 20
2255.838523516125
 10
4077.209111279183
 20
2255.986759508326
 10
4077.178618210701
 20
2256.139704964725
 10
4077.159968953781
 20
2256.296567499285
 10
4077.153543211382
 20
2256.456928492965
  0
LWPOLYLINE
  5
3B1
330
1F
100
AcDbEntity
  8
STANDARD_LAYER
370
    60
100
AcDbPolyline
 90
       21
 70
     0
 43
0.0
 10
4080.976524048303
 20
2256.456928492965
 10
4080.970112909861
 20
2256.296567499285
 10
4080.951463652941
 20
2256.139704964725
 10
4080.920970584462
 20
2255.986759508326
 10
4080.879057219261
 20
2255.838523516125
 10
4080.826307715741
 20
2255.695400656486
 10
4080.763145588743
 20
2255.557854400485
 10
4080.690140392703
 20
2255.426437923285
 10
4080.607701038501
 20
2255.301614695965
 10
4080.516251040981
 20
2255.183773436206
 10
4080.416579013982
 20
2255.073721480725
 10
4080.308889412941
 20
2254.971668139045
 10
4080.193766396261
 20
2254.878046980885
 10
4080.07182333026
 20
2254.793859701806
 10
4079.943264670381
 20
2254.719136203165
 10
4079.808893634422
 20
2254.654444610806
 10
4079.669104529301
 20
2254.600457705325
 10
4079.524306265901
 20
2254.557549253725
 10
4079.374893151143
 20
2254.526347184565
 10
4079.221683006783
 20
2254.507240215526
 10
4079.064836476382
 20
2254.500676867005
  0
LWPOLYLINE
  5
3B2
330
1F
100
AcDbEntity
  8
STANDARD_LAYER
370
    60
100
AcDbPolyline
 90
       21
 70
     0
 43
0.0
 10
4079.064836476382
 20
2258.412985760086
 10
4079.221683006783
 20
2258.406407460885
 10
4079.374893151143
 20
2258.387300491846
 10
4079.524306265901
 20
2258.356098422686
 10
4079.669104529301
 20
2258.313189971086
 10
4079.808893634422
 20
2258.259203065606
 10
4079.943264670381
 20
2258.194735733445
 10
4080.07182333026
 20
2258.119982333445
 10
4080.193766396261
 20
2258.035600695527
 10
4080.308889412941
 20
2257.942188846885
 10
4080.416579013982
 20
2257.840150455886
 10
4080.516251040981
 20
2257.729889190885
 10
4080.607701038501
 20
2257.612257240645
 10
4080.690140392703
 20
2257.487404111965
 10
4080.763145588743
 20
2257.355793275925
 10
4080.826307715741
 20
2257.218247019925
 10
4080.879057219261
 20
2257.075139110965
 10
4080.920970584462
 20
2256.927097477605
 10
4080.951463652941
 20
2256.774137070525
 10
4080.970112909861
 20
2256.617274535965
 10
4080.976524048303
 20
2256.456928492965
  0
LWPOLYLINE
  5
3B3
330
1F
100
AcDbEntity
  8
STANDARD_LAYER
370
    60
100
AcDbPolyline
 90
       21
 70
     0
 43
0.0
 10
4077.153543211382
 20
2256.456928492965
 10
4077.159968953781
 20
2256.617274535965
 10
4077.178618210701
 20
2256.774137070525
 10
4077.209111279183
 20
2256.927097477605
 10
4077.25102464438
 20
2257.075139110965
 10
4077.303774147902
 20
2257.218441378765
 10
4077.366936274902
 20
2257.355793275925
 10
4077.439941470942
 20
2257.487404111965
 10
4077.522366221182
 20
2257.612257240645
 10
4077.613626367221
 20
2257.729889190885
 10
4077.713502849663
 20
2257.840150455886
 10
4077.820987995263
 20
2257.942188846885
 10
4077.936111011943
 20
2258.035600695527
 10
4078.058258533381
 20
2258.119982333445
 10
4078.186612737823
 20
2258.194735733445
 10
4078.320983773781
 20
2258.259203065606
 10
4078.460772878902
 20
2258.313189971086
 10
4078.605571142302
 20
2258.356098422686
 10
4078.754779801623
 20
2258.387300491846
 10
4078.908209005381
 20
2258.406407460885
 10
4079.064836476382
 20
2258.412985760086
  0
LINE
  5
3B4
330
1F
100
AcDbEntity
  8
STANDARD_LAYER
370
    60
100
AcDbLine
 10
4072.634041106221
 20
2272.039827898126
 30
0.0
 11
4105.208173886221
 21
2272.035925770645
 31
0.0
  0
LWPOLYLINE
  5
3B5
330
1F
100
AcDbEntity
  8
STANDARD_LAYER
370
    60
100
AcDbPolyline
 90
       21
 70
     0
 43
0.0
 10
4074.199979925143
 20
2726.082336309525
 10
4064.114280693701
 20
2724.540203568885
 10
4054.213891110703
 20
2722.522773760365
 10
4044.508230730342
 20
2720.042754961967
 10
4035.00714262166
 20
2717.112272175167
 10
4025.720046338863
 20
2713.744063379325
 10
4016.65658049554
 20
2709.950432984086
 10
4007.8259455865
 20
2705.743715300445
 10
3999.237984680781
 20
2701.136409096885
 10
3990.902321788021
 20
2696.140863635085
 10
3982.828186610943
 20
2690.769577683526
 10
3975.025393010661
 20
2685.034676243686
 10
3967.503185293863
 20
2678.949106604445
 10
3960.271377321661
 20
2672.524754556405
 10
3953.339403252222
 20
2665.774567388445
 10
3946.716872491221
 20
2658.710460792525
 10
3940.41323380078
 20
2651.345127895965
 10
3934.438096586583
 20
2643.690947861805
 10
3928.800909610741
 20
2635.760195198325
 10
3923.51126767498
 20
2627.565607884885
 10
3918.578823996862
 20
2619.119310922965
  0
LWPOLYLINE
  5
3B6
330
1F
100
AcDbEntity
  8
STANDARD_LAYER
370
    60
100
AcDbPolyline
 90
       21
 70
     0
 43
0.0
 10
4129.299421252701
 20
2514.637515339885
 10
4129.262911352702
 20
2526.923236629886
 10
4129.153819771503
 20
2539.184109889725
 10
4128.973110370461
 20
2551.412749483485
 10
4128.721820030742
 20
2563.601754824565
 10
4128.400737366181
 20
2575.743755227725
 10
4128.010650990623
 20
2587.831350106365
 10
4127.552802240662
 20
2599.857348183407
 10
4127.027731462822
 20
2611.814348872245
 10
4126.436694597663
 20
2623.694981487645
 10
4125.780275803582
 20
2635.491845443005
 10
4125.059701813221
 20
2647.197749461245
 10
4124.275527577061
 20
2658.805098596927
 10
4123.428775372303
 20
2670.306507214125
 10
4122.520657327623
 20
2681.695008295965
 10
4121.55178680934
 20
2692.962962044965
 10
4120.523142282781
 20
2704.103027677245
 10
4119.435526965743
 20
2715.107984014365
 10
4118.289963135423
 20
2725.970236110885
 10
4117.087429257142
 20
2736.682831900607
 10
4115.828743152661
 20
2747.237937227205
  0
LWPOLYLINE
  5
3B7
330
1F
100
AcDbEntity
  8
STANDARD_LAYER
370
    60
100
AcDbPolyline
 90
       21
 70
     0
 43
0.0
 10
4085.3253642769
 20
2514.637515339885
 10
4085.285656109661
 20
2527.453357841326
 10
4085.166911310901
 20
2540.242304069445
 10
4084.970385821183
 20
2552.997177697845
 10
4084.696824442463
 20
2565.710159520886
 10
4084.347264055901
 20
2578.373654593125
 10
4083.922872978303
 20
2590.980082919805
 10
4083.424498239341
 20
2603.522028963645
 10
4082.853322759783
 20
2615.991718371045
 10
4082.20994530198
 20
2628.381526295205
 10
4081.495767846101
 20
2640.683887692046
 10
4080.711389154501
 20
2652.891372073605
 10
4079.858225811303
 20
2664.996220036965
 10
4078.936876578862
 20
2676.990791784645
 10
4077.94874343734
 20
2688.867716631405
 10
4076.894439753063
 20
2700.619205272965
 10
4075.775133842822
 20
2712.237857122727
 10
4074.591658132341
 20
2723.715867925725
 10
4073.34521014634
 20
2735.045837095365
 10
4072.036797558063
 20
2746.220184636885
 10
4070.667194377381
 20
2757.231091344645
  0
LINE
  5
3B8
330
1F
100
AcDbEntity
  8
STANDARD_LAYER
370
    60
100
AcDbLine
 10
4066.946119973341
 20
2399.649278893605
 30
0.0
 11
3983.514689562623
 21
2399.649278893605
 31
0.0
  0
LINE
  5
3B9
330
1F
100
AcDbEntity
  8
STANDARD_LAYER
370
    60
100
AcDbLine
 10
3989.926821071901
 20
2391.312196649085
 30
0.0
 11
4060.855859742461
 21
2391.312196649085
 31
0.0
  0
LINE
  5
3BA
330
1F
100
AcDbEntity
  8
STANDARD_LAYER
370
    60
100
AcDbLine
 10
3983.514689562623
 20
2399.649278893605
 30
0.0
 11
4066.962359576861
 21
2399.649278893605
 31
0.0
  0
LINE
  5
3BB
330
1F
100
AcDbEntity
  8
STANDARD_LAYER
370
    60
100
AcDbLine
 10
4082.96422523202
 20
2612.177157023805
 30
0.0
 11
3885.000128620343
 21
2612.177157023805
 31
0.0
  0
LWPOLYLINE
  5
3BC
330
1F
100
AcDbEntity
  8
STANDARD_LAYER
370
    60
100
AcDbPolyline
 90
       21
 70
     0
 43
0.0
 10
3990.049173048782
 20
2427.103152774886
 10
3990.082251018181
 20
2425.604347104885
 10
3990.180929975901
 20
2424.122764618245
 10
3990.343369822981
 20
2422.660109692486
 10
3990.568606698061
 20
2421.217757790165
 10
3990.854785898223
 20
2419.797174077927
 10
3991.200943562101
 20
2418.399569560846
 10
3991.605473254102
 20
2417.026633665765
 10
3992.067148241582
 20
2415.679756805926
 10
3992.584376692902
 20
2414.360179887765
 10
3993.155756627903
 20
2413.069562436765
 10
3993.780090521861
 20
2411.809339718205
 10
3994.455757335222
 20
2410.580722737165
 10
3995.181559543263
 20
2409.385161709605
 10
3995.955890710382
 20
2408.224510519845
 10
3996.777772371262
 20
2407.099576504605
 10
3997.645379030901
 20
2406.012228498885
 10
3998.557294105183
 20
2404.963871866605
 10
3999.512539128781
 20
2403.955777415566
 10
4000.509493062141
 20
2402.989365460366
 10
4001.546564073621
 20
2402.066250674446
  0
LWPOLYLINE
  5
3BD
330
1F
100
AcDbEntity
  8
STANDARD_LAYER
370
    60
100
AcDbPolyline
 90
       21
 70
     0
 43
0.0
 10
4021.808229613261
 20
2459.615394875325
 10
4019.20342349578
 20
2459.507615423205
 10
4016.656770347022
 20
2459.189778917085
 10
4014.176112493501
 20
2458.670541800685
 10
4011.769847212221
 20
2457.957872786445
 10
4009.446225740581
 20
2457.060443268767
 10
4007.213251048663
 20
2455.986431269605
 10
4005.078955314461
 20
2454.744268972487
 10
4003.051735814981
 20
2453.342373610245
 10
4001.139843787621
 20
2451.788953106206
 10
3999.351296806421
 20
2450.092634002725
 10
3997.694112445421
 20
2448.261609272445
 10
3996.176921644981
 20
2446.304341000246
 10
3994.807537523701
 20
2444.228992257405
 10
3993.594167507101
 20
2442.044219487645
 10
3992.544872981103
 20
2439.758230614287
 10
3991.668241074183
 20
2437.379427919485
 10
3990.972114112861
 20
2434.916049227925
 10
3990.464903978102
 20
2432.376706131285
 10
3990.154452996423
 20
2429.769591602205
 10
3990.049173048782
 20
2427.103152774886
  0
LINE
  5
3BE
330
1F
100
AcDbEntity
  8
STANDARD_LAYER
370
    60
100
AcDbLine
 10
3907.749053003421
 20
2433.688882462845
 30
0.0
 11
3907.749053003421
 21
2610.686140658085
 31
0.0
  0
LINE
  5
3BF
330
1F
100
AcDbEntity
  8
STANDARD_LAYER
370
    60
100
AcDbLine
 10
3921.326033328301
 20
2433.383574626565
 30
0.0
 11
3921.326033328301
 21
2610.686140658085
 31
0.0
  0
LINE
  5
3C0
330
1F
100
AcDbEntity
  8
STANDARD_LAYER
370
    60
100
AcDbLine
 10
3870.340658968382
 20
2447.111004939645
 30
0.0
 11
3870.340658968382
 21
2597.170785740805
 31
0.0
  0
LWPOLYLINE
  5
3C1
330
1F
100
AcDbEntity
  8
STANDARD_LAYER
370
    60
100
AcDbPolyline
 90
       21
 70
     0
 43
0.0
 10
3911.080084843781
 20
2425.160237155485
 10
3913.361194187861
 20
2420.273502742727
 10
3915.746780261783
 20
2415.473616830086
 10
3918.233878461663
 20
2410.762223992365
 10
3920.819816262822
 20
2406.140759494847
 10
3923.501643665341
 20
2401.610239983765
 10
3926.276731956421
 20
2397.172339935285
 10
3929.142247967821
 20
2392.828240453126
 10
3932.09522709566
 20
2388.579436605286
 10
3935.133026023181
 20
2384.427528114525
 10
3938.252650938581
 20
2380.373561528445
 10
3941.451706792423
 20
2376.418957161645
 10
3944.726966109541
 20
2372.565165230085
 10
3948.075843989021
 20
2368.813845259245
 10
3951.495492658662
 20
2365.165774684485
 10
3954.983341821501
 20
2361.622837291485
 10
3958.536164002383
 20
2358.186244085325
 10
3962.151578755821
 20
2354.857445281965
 10
3965.826548458142
 20
2351.637891097367
 10
3969.558269149021
 20
2348.528583227086
 10
3977.825746152542
 20
2342.806977580625
  0
LWPOLYLINE
  5
3C2
330
1F
100
AcDbEntity
  8
STANDARD_LAYER
370
    60
100
AcDbPolyline
 90
       21
 70
     0
 43
0.0
 10
3914.74080108114
 20
2432.098085258805
 10
3914.382010991862
 20
2432.083299036287
 10
3914.031034021181
 20
2432.039373938445
 10
3913.689301357181
 20
2431.967909688045
 10
3913.357791465182
 20
2431.869773424525
 10
3913.037482810503
 20
2431.745966843445
 10
3912.729835789141
 20
2431.597925210087
 10
3912.435828866423
 20
2431.426904381567
 10
3912.156659567062
 20
2431.233696743927
 10
3911.89313110886
 20
2431.019558154285
 10
3911.646849927421
 20
2430.785908927245
 10
3911.418414785101
 20
2430.533571350207
 10
3911.209446721462
 20
2430.263786329605
 10
3911.020719746382
 20
2429.977779821205
 10
3910.853650443983
 20
2429.676568471247
 10
3910.709056636021
 20
2429.361617446365
 10
3910.588311094742
 20
2429.033734083286
 10
3910.492450701301
 20
2428.694338696607
 10
3910.422658376461
 20
2428.344477833925
 10
3910.379737338021
 20
2427.985183092165
 10
3910.365294021582
 20
2427.617665476405
  0
LINE
  5
3C3
330
1F
100
AcDbEntity
  8
STANDARD_LAYER
370
    60
100
AcDbLine
 10
3926.832660901743
 20
2432.105276535885
 30
0.0
 11
3885.000128620343
 21
2432.105276535885
 31
0.0
  0
LWPOLYLINE
  5
3C4
330
1F
100
AcDbEntity
  8
STANDARD_LAYER
370
    60
100
AcDbPolyline
 90
       21
 70
     0
 43
0.0
 10
3870.342060948541
 20
2447.111004939645
 10
3870.390706739301
 20
2445.880354666126
 10
3870.533898567103
 20
2444.677004334285
 10
3870.768043857783
 20
2443.504841120925
 10
3871.089330977783
 20
2442.368006364405
 10
3871.493962897502
 20
2441.269968622485
 10
3871.978098775461
 20
2440.214854282845
 10
3872.538146037501
 20
2439.206535571607
 10
3873.170190822342
 20
2438.248735208085
 10
3873.870436100381
 20
2437.345340369085
 10
3874.635260089541
 20
2436.500268132765
 10
3875.460734324583
 20
2435.717390725245
 10
3876.343164003622
 20
2435.000430865845
 10
3877.278766701021
 20
2434.353470090206
 10
3878.263789199061
 20
2433.780246068326
 10
3879.294434468143
 20
2433.284406766125
 10
3880.367007706383
 20
2432.870272930127
 10
3881.477580448541
 20
2432.541357970125
 10
3882.622443288781
 20
2432.301758372447
 10
3883.797901425221
 20
2432.154957645525
 10
3885.000128620343
 20
2432.105276535885
  0
LWPOLYLINE
  5
3C5
330
1F
100
AcDbEntity
  8
STANDARD_LAYER
370
    60
100
AcDbPolyline
 90
       21
 70
     0
 43
0.0
 10
3910.365294021582
 20
2427.617665476405
 10
3910.367309368063
 20
2427.480926557125
 10
3910.373326199583
 20
2427.345413593605
 10
3910.382950209221
 20
2427.210947177687
 10
3910.396590307862
 20
2427.077482457325
 10
3910.414027436103
 20
2426.945467952925
 10
3910.435086346422
 20
2426.814679404285
 10
3910.459767038823
 20
2426.685116811405
 10
3910.488040305383
 20
2426.557213744005
 10
3910.519730898581
 20
2426.430730991205
 10
3910.555028669901
 20
2426.305907763885
 10
3910.593539312423
 20
2426.182714160685
 10
3910.635248222181
 20
2426.061374441806
 10
3910.680374458583
 20
2425.941679297725
 10
3910.728698962223
 20
2425.823823087285
 10
3910.780061089541
 20
2425.708015120005
 10
3910.8344024247
 20
2425.594075987725
 10
3910.891956631061
 20
2425.482379457445
 10
3910.952329401703
 20
2425.372746121005
 10
3911.015491528701
 20
2425.265355386567
 10
3911.081472219983
 20
2425.160237155485
  0
LWPOLYLINE
  5
3C6
330
1F
100
AcDbEntity
  8
STANDARD_LAYER
370
    60
100
AcDbPolyline
 90
       21
 70
     0
 43
0.0
 10
3933.533191413103
 20
2428.190919399645
 10
3935.141452508103
 20
2425.017951533927
 10
3936.798636869101
 20
2421.889536694607
 10
3938.503357119903
 20
2418.806317760926
 10
3940.253992220941
 20
2415.769475836606
 10
3942.049359251461
 20
2412.780072419926
 10
3943.888056231301
 20
2409.838914847605
 10
3945.76805321002
 20
2406.947034716565
 10
3947.688561573781
 20
2404.105463623725
 10
3949.647580580061
 20
2401.315218215325
 10
3951.643912704143
 20
2398.577105828085
 10
3953.675936906461
 20
2395.892187960285
 10
3955.742441058341
 20
2393.261466307486
 10
3957.841658080621
 20
2390.685972466606
 10
3959.972142181261
 20
2388.166752985246
 10
3962.132725043461
 20
2385.704390939925
 10
3964.321581172221
 20
2383.300336546605
 10
3966.537513042822
 20
2380.955412092685
 10
3968.778914219663
 20
2378.670454816246
 10
3971.044382722583
 20
2376.446675722365
 10
3977.825746152542
 20
2371.387972945311
  0
LWPOLYLINE
  5
3C7
330
1F
100
AcDbEntity
  8
STANDARD_LAYER
370
    60
100
AcDbPolyline
 90
       21
 70
     0
 43
0.0
 10
3964.685993786103
 20
2392.779590940405
 10
3964.708250221141
 20
2392.216204465965
 10
3964.773836605502
 20
2391.665331710685
 10
3964.88113189962
 20
2391.128841509565
 10
3965.028135360981
 20
2390.608363486725
 10
3965.213445009423
 20
2390.105766477166
 10
3965.435060102423
 20
2389.622650203645
 10
3965.691374204381
 20
2389.161092810686
 10
3965.980780879701
 20
2388.722529563565
 10
3966.301454633382
 20
2388.309038606805
 10
3966.651628386262
 20
2387.922204712485
 10
3967.029476643341
 20
2387.563732258126
 10
3967.433392969021
 20
2387.235430276005
 10
3967.861785531662
 20
2386.939152650446
 10
3968.312624380821
 20
2386.676768216445
 10
3968.784522140303
 20
2386.449891647445
 10
3969.275492671541
 20
2386.260182468925
 10
3969.783900331021
 20
2386.109688924047
 10
3970.307934227701
 20
2385.999831327405
 10
3970.846031737863
 20
2385.932702774206
 10
3971.396352762541
 20
2385.909902987205
  0
LWPOLYLINE
  5
3C8
330
1F
100
AcDbEntity
  8
STANDARD_LAYER
370
    60
100
AcDbPolyline
 90
       21
 70
     0
 43
0.0
 10
3971.395564148701
 20
2399.649278893605
 10
3970.845243124021
 20
2399.626284747765
 10
3970.307335465341
 20
2399.559141243885
 10
3969.783286964702
 20
2399.449298597925
 10
3969.274879305221
 20
2399.298595743525
 10
3968.784127833381
 20
2399.108886565005
 10
3968.312215469941
 20
2398.881785735805
 10
3967.86137662078
 20
2398.619401301805
 10
3967.433188513583
 20
2398.323123676245
 10
3967.029272187902
 20
2397.994821694126
 10
3966.651234079342
 20
2397.636558549285
 10
3966.30125017794
 20
2397.249530296125
 10
3965.980561820302
 20
2396.836024388685
 10
3965.691374204381
 20
2396.397670451086
 10
3965.435060102423
 20
2395.936128008806
 10
3965.213240553981
 20
2395.453026685965
 10
3965.028135360981
 20
2394.950594133885
 10
3964.880927444182
 20
2394.430131061725
 10
3964.773836605502
 20
2393.893640860606
 10
3964.708250221141
 20
2393.342977414845
 10
3964.685993786103
 20
2392.779590940405
  0
LWPOLYLINE
  5
3C9
330
1F
100
AcDbEntity
  8
STANDARD_LAYER
370
    60
100
AcDbPolyline
 90
       21
 70
     0
 43
0.0
 10
3971.3969515249
 20
2388.897048851205
 10
3971.085901780861
 20
2388.909996140086
 10
3970.781861937621
 20
2388.947776508445
 10
3970.485635212982
 20
2389.009986287926
 10
3970.198243884142
 20
2389.094980903726
 10
3969.920870871862
 20
2389.202162328645
 10
3969.654144146423
 20
2389.330484015085
 10
3969.399436480061
 20
2389.478720007286
 10
3969.157361239103
 20
2389.646048017845
 10
3968.928926096781
 20
2389.831660710046
 10
3968.715328577821
 20
2390.034092917245
 10
3968.517590959421
 20
2390.252761562926
 10
3968.336282796021
 20
2390.486620099485
 10
3968.172835275702
 20
2390.734427620485
 10
3968.028037012301
 20
2390.995391739885
 10
3967.902691223623
 20
2391.268256600566
 10
3967.798010038342
 20
2391.552409224646
 10
3967.714971921782
 20
2391.846638607045
 10
3967.654204844221
 20
2392.149883249485
 10
3967.617300637302
 20
2392.461156407085
 10
3967.604668211902
 20
2392.779590940405
  0
LWPOLYLINE
  5
3CA
330
1F
100
AcDbEntity
  8
STANDARD_LAYER
370
    60
100
AcDbPolyline
 90
       21
 70
     0
 43
0.0
 10
3967.604668211902
 20
2392.779590940405
 10
3967.617300637302
 20
2393.098025473726
 10
3967.654204844221
 20
2393.409298631325
 10
3967.714971921782
 20
2393.712543273765
 10
3967.798010038342
 20
2394.006772656165
 10
3967.902691223623
 20
2394.290730921405
 10
3968.028037012301
 20
2394.563790140925
 10
3968.172835275702
 20
2394.824754260327
 10
3968.336282796021
 20
2395.072561781325
 10
3968.517590959421
 20
2395.306225959045
 10
3968.715328577821
 20
2395.524879654047
 10
3968.928926096781
 20
2395.727521170767
 10
3969.157361239103
 20
2395.912924553445
 10
3969.399436480061
 20
2396.080461873525
 10
3969.654144146423
 20
2396.228697865725
 10
3969.920870871862
 20
2396.357019552165
 10
3970.198243884142
 20
2396.464200977085
 10
3970.485635212982
 20
2396.549195592887
 10
3970.781861937621
 20
2396.611196062845
 10
3971.085901780861
 20
2396.649185740725
 10
3971.3969515249
 20
2396.662133029605
  0
LWPOLYLINE
  5
3CB
330
1F
100
AcDbEntity
  8
STANDARD_LAYER
370
    60
100
AcDbPolyline
 90
       21
 70
     0
 43
0.0
 10
3971.3969515249
 20
2390.822935646086
 10
3971.240119598461
 20
2390.829498994605
 10
3971.086894850141
 20
2390.848591012965
 10
3970.937496339342
 20
2390.879793082126
 10
3970.792683471981
 20
2390.922701533725
 10
3970.652689911423
 20
2390.976703389885
 10
3970.518333479421
 20
2391.041185672725
 10
3970.389774819541
 20
2391.115909171365
 10
3970.267831753541
 20
2391.200290809285
 10
3970.152708736861
 20
2391.293717608605
 10
3970.045019135822
 20
2391.395965309125
 10
3969.94533250486
 20
2391.506017264605
 10
3969.853882507341
 20
2391.623858524365
 10
3969.771457757102
 20
2391.748696702365
 10
3969.698467165022
 20
2391.880292587725
 10
3969.6352758301
 20
2392.017868745086
 10
3969.582540930543
 20
2392.160976654045
 10
3969.540612961381
 20
2392.309212646246
 10
3969.510134496863
 20
2392.462173053325
 10
3969.491485239941
 20
2392.619035587886
 10
3969.485059497541
 20
2392.779590940405
  0
LWPOLYLINE
  5
3CC
330
1F
100
AcDbEntity
  8
STANDARD_LAYER
370
    60
100
AcDbPolyline
 90
       21
 70
     0
 43
0.0
 10
3969.485059497541
 20
2392.779590940405
 10
3969.491485239941
 20
2392.940146292925
 10
3969.510134496863
 20
2393.097008827485
 10
3969.540612961381
 20
2393.249774875727
 10
3969.582540930543
 20
2393.397995917245
 10
3969.6352758301
 20
2393.541313135725
 10
3969.698467165022
 20
2393.678874342405
 10
3969.771457757102
 20
2393.810275868925
 10
3969.853882507341
 20
2393.935323356445
 10
3969.94533250486
 20
2394.052970257365
 10
3970.045019135822
 20
2394.163216571686
 10
3970.152708736861
 20
2394.265269913366
 10
3970.267831753541
 20
2394.358681762005
 10
3970.389774819541
 20
2394.443063399925
 10
3970.518333479421
 20
2394.517801849245
 10
3970.652689911423
 20
2394.582463540245
 10
3970.792683471981
 20
2394.636465396405
 10
3970.937496339342
 20
2394.679373848005
 10
3971.086894850141
 20
2394.710590867845
 10
3971.240119598461
 20
2394.729682886205
 10
3971.3969515249
 20
2394.736246234725
  0
LINE
  5
3CD
330
1F
100
AcDbEntity
  8
STANDARD_LAYER
370
    60
100
AcDbLine
 10
3971.396352762541
 20
2399.649278893605
 30
0.0
 11
3983.514689562623
 21
2399.649278893605
 31
0.0
  0
LINE
  5
3CE
330
1F
100
AcDbEntity
  8
STANDARD_LAYER
370
    60
100
AcDbLine
 10
3977.825746152542
 20
2385.909902987205
 30
0.0
 11
3971.402165138621
 21
2385.909902987205
 31
0.0
  0
LWPOLYLINE
  5
3CF
330
1F
100
AcDbEntity
  8
STANDARD_LAYER
370
    60
100
AcDbPolyline
 90
       21
 70
     0
 43
0.0
 10
3971.396352762541
 20
2385.909902987205
 10
3971.396747069461
 20
2385.909902987205
 10
3971.3969515249
 20
2385.909902987205
 10
3971.397360435781
 20
2385.909902987205
 10
3971.397769346663
 20
2385.909902987205
 10
3971.397959198141
 20
2385.909902987205
 10
3971.398353505062
 20
2385.909902987205
 10
3971.398572564461
 20
2385.909902987205
 10
3971.398966871381
 20
2385.909902987205
 10
3971.399156722863
 20
2385.909902987205
 10
3971.399375782261
 20
2385.909902987205
 10
3971.399770089183
 20
2385.909902987205
 10
3971.399959940661
 20
2385.909902987205
 10
3971.400164396102
 20
2385.909902987205
 10
3971.400558703021
 20
2385.909902987205
 10
3971.400763158463
 20
2385.909902987205
 10
3971.400967613901
 20
2385.909902987205
 10
3971.401361920821
 20
2385.909902987205
 10
3971.401566376261
 20
2385.909902987205
 10
3971.401975287141
 20
2385.909902987205
 10
3971.402165138621
 20
2385.909902987205
  0
LWPOLYLINE
  5
3D0
330
1F
100
AcDbEntity
  8
STANDARD_LAYER
370
    60
100
AcDbPolyline
 90
       21
 70
     0
 43
0.0
 10
3975.189453897302
 20
2392.779590940405
 10
3975.1768214719
 20
2392.461156407085
 10
3975.13971280954
 20
2392.149883249485
 10
3975.079150187421
 20
2391.846638607045
 10
3974.996112070862
 20
2391.552409224646
 10
3974.891430885581
 20
2391.268256600566
 10
3974.766085096902
 20
2390.995391739885
 10
3974.621272229542
 20
2390.734427620485
 10
3974.457620253782
 20
2390.486620099485
 10
3974.276516545821
 20
2390.252761562926
 10
3974.078574471981
 20
2390.034092917245
 10
3973.864976953021
 20
2389.831660710046
 10
3973.636760870101
 20
2389.646048017845
 10
3973.394685629141
 20
2389.478720007286
 10
3973.139773507342
 20
2389.330484015085
 10
3972.873032177941
 20
2389.202162328645
 10
3972.595673769622
 20
2389.094980903726
 10
3972.308267836822
 20
2389.009986287926
 10
3972.012055716143
 20
2388.947776508445
 10
3971.7080158729
 20
2388.909996140086
 10
3971.3969515249
 20
2388.897048851205
  0
LWPOLYLINE
  5
3D1
330
1F
100
AcDbEntity
  8
STANDARD_LAYER
370
    60
100
AcDbPolyline
 90
       21
 70
     0
 43
0.0
 10
3971.3969515249
 20
2396.662133029605
 10
3971.7080158729
 20
2396.649185740725
 10
3972.012055716143
 20
2396.611196062845
 10
3972.308267836822
 20
2396.549195592887
 10
3972.595673769622
 20
2396.464200977085
 10
3972.873032177941
 20
2396.357019552165
 10
3973.139773507342
 20
2396.228697865725
 10
3973.394685629141
 20
2396.080461873525
 10
3973.636760870101
 20
2395.912924553445
 10
3973.864976953021
 20
2395.727521170767
 10
3974.078574471981
 20
2395.524879654047
 10
3974.276516545821
 20
2395.306225959045
 10
3974.457620253782
 20
2395.072561781325
 10
3974.621272229542
 20
2394.824754260327
 10
3974.766085096902
 20
2394.563790140925
 10
3974.891430885581
 20
2394.290730921405
 10
3974.996112070862
 20
2394.006772656165
 10
3975.079150187421
 20
2393.712543273765
 10
3975.13971280954
 20
2393.409298631325
 10
3975.1768214719
 20
2393.098025473726
 10
3975.189453897302
 20
2392.779590940405
  0
LWPOLYLINE
  5
3D2
330
1F
100
AcDbEntity
  8
STANDARD_LAYER
370
    60
100
AcDbPolyline
 90
       21
 70
     0
 43
0.0
 10
3973.308639096821
 20
2392.779590940405
 10
3973.302227958382
 20
2392.619035587886
 10
3973.283578701461
 20
2392.462173053325
 10
3973.253100236941
 20
2392.309212646246
 10
3973.211172267782
 20
2392.160976654045
 10
3973.158422764261
 20
2392.017868745086
 10
3973.095260637261
 20
2391.880292587725
 10
3973.02225544122
 20
2391.748696702365
 10
3972.939816087023
 20
2391.623858524365
 10
3972.848366089502
 20
2391.506017264605
 10
3972.7486940625
 20
2391.395965309125
 10
3972.641004461463
 20
2391.293717608605
 10
3972.525881444782
 20
2391.200290809285
 10
3972.403938378783
 20
2391.115909171365
 10
3972.275394322863
 20
2391.041185672725
 10
3972.141023286901
 20
2390.976703389885
 10
3972.001219577821
 20
2390.922701533725
 10
3971.856421314421
 20
2390.879793082126
 10
3971.70702280362
 20
2390.848591012965
 10
3971.5537980553
 20
2390.829498994605
 10
3971.3969515249
 20
2390.822935646086
  0
LWPOLYLINE
  5
3D3
330
1F
100
AcDbEntity
  8
STANDARD_LAYER
370
    60
100
AcDbPolyline
 90
       21
 70
     0
 43
0.0
 10
3971.3969515249
 20
2394.736246234725
 10
3971.5537980553
 20
2394.729682886205
 10
3971.70702280362
 20
2394.710590867845
 10
3971.856421314421
 20
2394.679373848005
 10
3972.001219577821
 20
2394.636465396405
 10
3972.141023286901
 20
2394.582463540245
 10
3972.275394322863
 20
2394.517801849245
 10
3972.403938378783
 20
2394.443063399925
 10
3972.525881444782
 20
2394.358681762005
 10
3972.641004461463
 20
2394.265269913366
 10
3972.7486940625
 20
2394.163216571686
 10
3972.848366089502
 20
2394.052970257365
 10
3972.939816087023
 20
2393.935323356445
 10
3973.02225544122
 20
2393.810275868925
 10
3973.095260637261
 20
2393.678874342405
 10
3973.158422764261
 20
2393.541313135725
 10
3973.211172267782
 20
2393.397995917245
 10
3973.253100236941
 20
2393.249774875727
 10
3973.283578701461
 20
2393.097008827485
 10
3973.302227958382
 20
2392.940146292925
 10
3973.308639096821
 20
2392.779590940405
  0
LWPOLYLINE
  5
3D4
330
1F
100
AcDbEntity
  8
STANDARD_LAYER
370
    60
100
AcDbPolyline
 90
       21
 70
     0
 43
0.0
 10
3988.487045863421
 20
2390.701371667005
 10
3988.432894379743
 20
2390.643886302405
 10
3988.38074363858
 20
2390.584143385126
 10
3988.331017154782
 20
2390.522546583526
 10
3988.283466661021
 20
2390.458901538766
 10
3988.238355028581
 20
2390.393193300165
 10
3988.195638445581
 20
2390.325855437445
 10
3988.155521367461
 20
2390.256663690407
 10
3988.117813942742
 20
2390.185827368565
 10
3988.082910478341
 20
2390.113570732125
 10
3988.05063572674
 20
2390.039430310005
 10
3988.021150331502
 20
2389.963884523965
 10
3987.994468896581
 20
2389.887097831485
 10
3987.970810481381
 20
2389.808666564207
 10
3987.949956026503
 20
2389.729203700007
 10
3987.932109987383
 20
2389.648305570525
 10
3987.917462215501
 20
2389.566390794806
 10
3987.905837463343
 20
2389.483444422166
 10
3987.897600829903
 20
2389.399257143085
 10
3987.892401820142
 20
2389.314262527285
 10
3987.890795384541
 20
2389.228445624085
  0
LWPOLYLINE
  5
3D5
330
1F
100
AcDbEntity
  8
STANDARD_LAYER
370
    60
100
AcDbPolyline
 90
       21
 70
     0
 43
0.0
 10
3989.926821071901
 20
2391.312196649085
 10
3989.842789886063
 20
2391.310552074285
 10
3989.759751769501
 20
2391.305214681527
 10
3989.677735930143
 20
2391.296797448687
 10
3989.596508704622
 20
2391.284881756725
 10
3989.516479003821
 20
2391.269901175365
 10
3989.437471580221
 20
2391.251631444406
 10
3989.359661681341
 20
2391.230266922686
 10
3989.28303470322
 20
2391.205837511565
 10
3989.20802876466
 20
2391.178537569886
 10
3989.134234954783
 20
2391.148352146967
 10
3989.061828521101
 20
2391.115296193485
 10
3988.991028523021
 20
2391.079369709445
 10
3988.921645109061
 20
2391.040961412527
 10
3988.854057982181
 20
2390.999697535725
 10
3988.788281746341
 20
2390.955966796725
 10
3988.724097342141
 20
2390.909769195525
 10
3988.66192828442
 20
2390.861119682806
 10
3988.601555513783
 20
2390.810197666725
 10
3988.543402545063
 20
2390.756808788446
 10
3988.487045863421
 20
2390.701371667005
  0
LWPOLYLINE
  5
3D6
330
1F
100
AcDbEntity
  8
STANDARD_LAYER
370
    60
100
AcDbPolyline
 90
       21
 70
     0
 43
0.0
 10
3933.576316906983
 20
2428.214317213845
 10
3933.370342655141
 20
2428.600523179606
 10
3933.144521621662
 20
2428.968444463726
 10
3932.900255786703
 20
2429.318110967565
 10
3932.637924853223
 20
2429.649074170725
 10
3932.359149860783
 20
2429.960750996685
 10
3932.064529571743
 20
2430.252902234566
 10
3931.755086263302
 20
2430.525154117367
 10
3931.431783796821
 20
2430.777491694405
 10
3931.095659053461
 20
2431.009077727605
 10
3930.747894953981
 20
2431.219942118325
 10
3930.38909026074
 20
2431.409651296845
 10
3930.020281854902
 20
2431.577816545485
 10
3929.642638053261
 20
2431.723989343845
 10
3929.257166529062
 20
2431.847795924925
 10
3928.86448064862
 20
2431.949221338045
 10
3928.465982392101
 20
2432.027667556005
 10
3928.062460373341
 20
2432.082880417246
 10
3927.654936869543
 20
2432.114306746605
 10
3927.244404949981
 20
2432.121901692045
 10
3926.831653228503
 20
2432.105276535885
  0
LWPOLYLINE
  5
3D7
330
1F
100
AcDbEntity
  8
STANDARD_LAYER
370
    60
100
AcDbPolyline
 90
       21
 70
     0
 43
0.0
 10
3885.000128620343
 20
2612.177157023805
 10
3883.797901425221
 20
2612.127460963485
 10
3882.622443288781
 20
2611.980660236565
 10
3881.477580448541
 20
2611.741060638885
 10
3880.367007706383
 20
2611.412130728205
 10
3879.294434468143
 20
2610.997802533365
 10
3878.263789199061
 20
2610.502172540687
 10
3877.278766701021
 20
2609.928933568127
 10
3876.343164003622
 20
2609.281778433645
 10
3875.460734324583
 20
2608.565027883765
 10
3874.635260089541
 20
2607.781941166725
 10
3873.870436100381
 20
2606.936853979727
 10
3873.170190822342
 20
2606.033474091405
 10
3872.538146037501
 20
2605.075673727885
 10
3871.978098775461
 20
2604.067145707125
 10
3871.493962897502
 20
2603.012031367487
 10
3871.089330977783
 20
2601.913993625567
 10
3870.768043857783
 20
2600.776949559527
 10
3870.533898567103
 20
2599.605010606365
 10
3870.390706739301
 20
2598.401645323846
 10
3870.342060948541
 20
2597.170785740805
  0
LINE
  5
3D8
330
1F
100
AcDbEntity
  8
STANDARD_LAYER
370
    60
100
AcDbLine
 10
3922.239350382742
 20
2612.183720372325
 30
0.0
 11
3922.239759293621
 21
2612.183720372325
 31
0.0
  0
LWPOLYLINE
  5
3D9
330
1F
100
AcDbEntity
  8
STANDARD_LAYER
370
    60
100
AcDbPolyline
 90
       21
 70
     0
 43
0.0
 10
3917.862645798463
 20
2616.664753132607
 10
3917.877074510943
 20
2616.297235516845
 10
3917.920010153341
 20
2615.937925824406
 10
3917.989802478181
 20
2615.587870602886
 10
3918.085662871621
 20
2615.248265906685
 10
3918.206583660422
 20
2614.920576902445
 10
3918.351192072342
 20
2614.605416568047
 10
3918.518261374742
 20
2614.304235119445
 10
3918.706973745863
 20
2614.018213660365
 10
3918.916160868902
 20
2613.748428639765
 10
3919.144391555781
 20
2613.496106013405
 10
3919.390877192663
 20
2613.262441835685
 10
3919.654405650861
 20
2613.048303246045
 10
3919.933779405663
 20
2612.855095608405
 10
3920.227800932341
 20
2612.683865470365
 10
3920.535637805181
 20
2612.535838787685
 10
3920.855931855901
 20
2612.412241516126
 10
3921.187441747903
 20
2612.313895943085
 10
3921.529393471303
 20
2612.242446643365
 10
3921.88035583802
 20
2612.198491644165
 10
3922.239350382742
 20
2612.183720372325
  0
LWPOLYLINE
  5
3DA
330
1F
100
AcDbEntity
  8
STANDARD_LAYER
370
    60
100
AcDbPolyline
 90
       21
 70
     0
 43
0.0
 10
3918.578823996862
 20
2619.121762834485
 10
3918.507439840383
 20
2619.006373486245
 10
3918.439633654101
 20
2618.889548872725
 10
3918.375872764743
 20
2618.771498303445
 10
3918.31590890498
 20
2618.652416137247
 10
3918.259742074821
 20
2618.532108015285
 10
3918.207401482181
 20
2618.410962655245
 10
3918.158668067661
 20
2618.288800648966
 10
3918.113936138181
 20
2618.165816355285
 10
3918.072825990782
 20
2618.042219083726
 10
3918.035323021502
 20
2617.918008834286
 10
3918.001631685781
 20
2617.793365015127
 10
3917.971547528182
 20
2617.668332478285
 10
3917.945275004141
 20
2617.542881322405
 10
3917.922609658221
 20
2617.417220857005
 10
3917.903551490421
 20
2617.291575342285
 10
3917.888319560142
 20
2617.165929827567
 10
3917.876490352543
 20
2617.040269362165
 10
3917.868268323063
 20
2616.914818206287
 10
3917.863653471702
 20
2616.789576359925
 10
3917.862645798463
 20
2616.664753132607
  0
LWPOLYLINE
  5
3DB
330
1F
100
AcDbEntity
  8
STANDARD_LAYER
370
    60
100
AcDbPolyline
 90
       21
 70
     0
 43
0.0
 10
4079.065245387261
 20
2399.649278893605
 10
4082.899646520902
 20
2415.793292269845
 10
4083.162386365263
 20
2421.282225122326
 10
4083.410054922901
 20
2426.761096167165
 10
4083.643104916583
 20
2432.225584657846
 10
4083.860908376021
 20
2437.672207085925
 10
4084.063874212101
 20
2443.097285584126
 10
4084.251783365421
 20
2448.496693764765
 10
4084.424869499341
 20
2453.866948119405
 10
4084.582694495061
 20
2459.203952161727
 10
4084.725696471382
 20
2464.503983172405
 10
4084.853656368901
 20
2469.763363284165
 10
4084.966574187621
 20
2474.978190369525
 10
4085.064245472101
 20
2480.144786561205
 10
4085.146860073821
 20
2485.259010520846
 10
4085.214461804661
 20
2490.317588049526
 10
4085.266992248783
 20
2495.316213351405
 10
4085.304305366581
 20
2500.251402918045
 10
4085.326561801623
 20
2505.119045312445
 10
4085.333571702421
 20
2509.915851385005
 10
4085.3253642769
 20
2514.637515339885
  0
LINE
  5
3DC
330
1F
100
AcDbEntity
  8
STANDARD_LAYER
370
    60
100
AcDbLine
 10
4066.946119973341
 20
2399.649278893605
 30
0.0
 11
4079.064442169462
 21
2399.649278893605
 31
0.0
  0
LINE
  5
3DD
330
1F
100
AcDbEntity
  8
STANDARD_LAYER
370
    60
100
AcDbLine
 10
4001.717634861062
 20
2399.649278893605
 30
0.0
 11
3999.879156940621
 21
2425.466770947525
 31
0.0
  0
LINE
  5
3DE
330
1F
100
AcDbEntity
  8
STANDARD_LAYER
370
    60
100
AcDbLine
 10
4045.806625002061
 20
2399.649278893605
 30
0.0
 11
4043.736893375022
 21
2428.737875076765
 31
0.0
  0
LWPOLYLINE
  5
3DF
330
1F
100
AcDbEntity
  8
STANDARD_LAYER
370
    60
100
AcDbPolyline
 90
       21
 70
     0
 43
0.0
 10
4062.295445099463
 20
2390.701371667005
 10
4062.239088417822
 20
2390.756808788446
 10
4062.180730993661
 20
2390.810197666725
 10
4062.120358223021
 20
2390.861119682806
 10
4062.058189165301
 20
2390.909769195525
 10
4061.99401936506
 20
2390.955966796725
 10
4061.928038673782
 20
2390.999697535725
 10
4061.860436942943
 20
2391.040961412527
 10
4061.791243380461
 20
2391.079369709445
 10
4061.720457986341
 20
2391.115296193485
 10
4061.648051552662
 20
2391.148352146967
 10
4061.574243138822
 20
2391.178537569886
 10
4061.499032744823
 20
2391.205837511565
 10
4061.422624826101
 20
2391.230266922686
 10
4061.344814927223
 20
2391.251631444406
 10
4061.265997355103
 20
2391.269901175365
 10
4061.185967654301
 20
2391.284881756725
 10
4061.104740428782
 20
2391.296797448687
 10
4061.022709985461
 20
2391.305214681527
 10
4060.939686472862
 20
2391.310552074285
 10
4060.855859742461
 20
2391.312196649085
  0
LWPOLYLINE
  5
3E0
330
1F
100
AcDbEntity
  8
STANDARD_LAYER
370
    60
100
AcDbPolyline
 90
       21
 70
     0
 43
0.0
 10
4062.891695578341
 20
2389.228445624085
 10
4062.890089142741
 20
2389.314262527285
 10
4062.884875529022
 20
2389.399257143085
 10
4062.876653499541
 20
2389.483444422166
 10
4062.865028747381
 20
2389.566390794806
 10
4062.850380975501
 20
2389.648305570525
 10
4062.83253493638
 20
2389.729203700007
 10
4062.811680481503
 20
2389.808666564207
 10
4062.787803006901
 20
2389.887097831485
 10
4062.76113617594
 20
2389.963884523965
 10
4062.731650780702
 20
2390.039430310005
 10
4062.699361425141
 20
2390.113570732125
 10
4062.664472564701
 20
2390.185827368565
 10
4062.626750536021
 20
2390.256663690407
 10
4062.586648061861
 20
2390.325855437445
 10
4062.543931478861
 20
2390.393193300165
 10
4062.498805242461
 20
2390.458901538766
 10
4062.451473808101
 20
2390.522546583526
 10
4062.401542868862
 20
2390.584143385126
 10
4062.349596583142
 20
2390.643886302405
 10
4062.295445099463
 20
2390.701371667005
  0
LWPOLYLINE
  5
3E1
330
1F
100
AcDbEntity
  8
STANDARD_LAYER
370
    60
100
AcDbPolyline
 90
       21
 70
     0
 43
0.0
 10
4043.737302285903
 20
2428.738697364166
 10
4043.546165657422
 20
2430.490647947925
 10
4043.228485715541
 20
2432.195817853965
 10
4042.78947607398
 20
2433.849841483725
 10
4042.234350346463
 20
2435.447605704645
 10
4041.568497394221
 20
2436.985014030406
 10
4040.796970187421
 20
2438.457147687285
 10
4039.924748676421
 20
2439.859237408367
 10
4038.957280138302
 20
2441.186812940327
 10
4037.899953434301
 20
2442.435344227125
 10
4036.757587871222
 20
2443.599897544365
 10
4035.535411666743
 20
2444.675957786686
 10
4034.238813682101
 20
2445.659009848725
 10
4032.873036738941
 20
2446.544134956765
 10
4031.443089995542
 20
2447.326803054765
 10
4029.954172461661
 20
2448.002499037365
 10
4028.41149775102
 20
2448.566498489685
 10
4026.820498536741
 20
2449.014091947525
 10
4025.186169373143
 20
2449.340554996005
 10
4023.513548626423
 20
2449.541357579087
 10
4021.808229613261
 20
2449.611984591405
  0
LWPOLYLINE
  5
3E2
330
1F
100
AcDbEntity
  8
STANDARD_LAYER
370
    60
100
AcDbPolyline
 90
       21
 70
     0
 43
0.0
 10
4037.443287605101
 20
2427.102524846325
 10
4037.391545774823
 20
2425.789735536885
 10
4037.238715333421
 20
2424.506309362967
 10
4036.988826973861
 20
2423.255939142525
 10
4036.6462764881
 20
2422.043334339765
 10
4036.214685658223
 20
2420.872202723326
 10
4035.698055969261
 20
2419.746655730205
 10
4035.100812421101
 20
2418.671014106925
 10
4034.426547587901
 20
2417.649359389125
 10
4033.679671865583
 20
2416.685803013805
 10
4032.863807036221
 20
2415.784456417965
 10
4031.983378099703
 20
2414.949236679765
 10
4031.041977630183
 20
2414.184434644365
 10
4030.044016023581
 20
2413.494371058285
 10
4028.993304913462
 20
2412.882933098325
 10
4027.894064844263
 20
2412.354037842645
 10
4026.750092845581
 20
2411.912200396607
 10
4025.565434214342
 20
2411.561517246525
 10
4024.344251079141
 20
2411.305696161045
 10
4023.090574132941
 20
2411.149252245526
 10
4021.808229613261
 20
2411.096267035607
  0
LWPOLYLINE
  5
3E3
330
1F
100
AcDbEntity
  8
STANDARD_LAYER
370
    60
100
AcDbPolyline
 90
       21
 70
     0
 43
0.0
 10
4021.808229613261
 20
2443.109410585605
 10
4023.090574132941
 20
2443.056425375685
 10
4024.344251079141
 20
2442.899981460165
 10
4025.565434214342
 20
2442.644145424005
 10
4026.750092845581
 20
2442.293477224605
 10
4027.894064844263
 20
2441.851430469045
 10
4028.993304913462
 20
2441.322744522885
 10
4030.044016023581
 20
2440.711306562926
 10
4031.041977630183
 20
2440.021033667325
 10
4031.983378099703
 20
2439.256231631925
 10
4032.863807036221
 20
2438.421206252565
 10
4033.679671865583
 20
2437.519665297885
 10
4034.426547587901
 20
2436.556123873247
 10
4035.100812421101
 20
2435.534259845926
 10
4035.698055969261
 20
2434.458603271965
 10
4036.214685658223
 20
2433.333265588366
 10
4036.6462764881
 20
2432.161939613085
 10
4036.988826973861
 20
2430.949125500805
 10
4037.238715333421
 20
2429.698964589885
 10
4037.391545774823
 20
2428.415329106445
 10
4037.443287605101
 20
2427.102524846325
  0
LWPOLYLINE
  5
3E4
330
1F
100
AcDbEntity
  8
STANDARD_LAYER
370
    60
100
AcDbPolyline
 90
       21
 70
     0
 43
0.0
 10
4053.567286177741
 20
2427.103152774886
 10
4053.462006230101
 20
2429.769591602205
 10
4053.151555248422
 20
2432.376706131285
 10
4052.644345113661
 20
2434.916049227925
 10
4051.948218152341
 20
2437.379427919485
 10
4051.071586245421
 20
2439.758230614287
 10
4050.022291719423
 20
2442.044219487645
 10
4048.808921702821
 20
2444.228992257405
 10
4047.439537581541
 20
2446.304341000246
 10
4045.922332177141
 20
2448.261609272445
 10
4044.265162420101
 20
2450.092634002725
 10
4042.476615438901
 20
2451.788953106206
 10
4040.564723411543
 20
2453.342373610245
 10
4038.53750391206
 20
2454.744268972487
 10
4036.403208177861
 20
2455.986431269605
 10
4034.170233485942
 20
2457.060443268767
 10
4031.846612014303
 20
2457.957872786445
 10
4029.440346733021
 20
2458.670541800685
 10
4026.959688879503
 20
2459.189778917085
 10
4024.413035730741
 20
2459.507615423205
 10
4021.808229613261
 20
2459.615394875325
  0
LWPOLYLINE
  5
3E5
330
1F
100
AcDbEntity
  8
STANDARD_LAYER
370
    60
100
AcDbPolyline
 90
       21
 70
     0
 43
0.0
 10
4021.808229613261
 20
2449.611984591405
 10
4020.004830404742
 20
2449.537455451605
 10
4018.241752729782
 20
2449.317336589965
 10
4016.52440005358
 20
2448.957832538685
 10
4014.858599356181
 20
2448.464460098685
 10
4013.249754102782
 20
2447.842975281766
 10
4011.703866520941
 20
2447.099522817406
 10
4010.226383887742
 20
2446.239455049045
 10
4008.822914123821
 20
2445.268931656845
 10
4007.499240397342
 20
2444.193469441725
 10
4006.261014440823
 20
2443.019063626366
 10
4005.113844174901
 20
2441.751440321205
 10
4004.063337520223
 20
2440.396355538046
 10
4003.115321456821
 20
2438.959744696846
 10
4002.275389301382
 20
2437.446990042405
 10
4001.548988330981
 20
2435.864400761687
 10
4000.942106169222
 20
2434.217568409005
 10
4000.460175489221
 20
2432.512204144125
 10
4000.108994063101
 20
2430.754093880205
 10
3999.89399456398
 20
2428.949143135845
 10
3999.821193823383
 20
2427.103152774886
  0
LWPOLYLINE
  5
3E6
330
1F
100
AcDbEntity
  8
STANDARD_LAYER
370
    60
100
AcDbPolyline
 90
       21
 70
     0
 43
0.0
 10
4021.808229613261
 20
2411.096267035607
 10
4020.525885093581
 20
2411.149252245526
 10
4019.272208147381
 20
2411.305696161045
 10
4018.050835160703
 20
2411.561517246525
 10
4016.866366380941
 20
2411.912200396607
 10
4015.722379778301
 20
2412.354037842645
 10
4014.62294985762
 20
2412.882933098325
 10
4013.572238747503
 20
2413.494371058285
 10
4012.574277140901
 20
2414.184434644365
 10
4011.633081126821
 20
2414.949236679765
 10
4010.752652190301
 20
2415.784456417965
 10
4009.936787360941
 20
2416.685803013805
 10
4009.189721787142
 20
2417.649359389125
 10
4008.515646805422
 20
2418.671014106925
 10
4007.918388653301
 20
2419.746655730205
 10
4007.401773568301
 20
2420.872202723326
 10
4006.970182738421
 20
2422.043334339765
 10
4006.627632252661
 20
2423.255939142525
 10
4006.377729289141
 20
2424.506309362967
 10
4006.224913451702
 20
2425.789735536885
 10
4006.173171621421
 20
2427.102524846325
  0
LWPOLYLINE
  5
3E7
330
1F
100
AcDbEntity
  8
STANDARD_LAYER
370
    60
100
AcDbPolyline
 90
       21
 70
     0
 43
0.0
 10
4006.173171621421
 20
2427.102524846325
 10
4006.224913451702
 20
2428.415329106445
 10
4006.377729289141
 20
2429.698964589885
 10
4006.627632252661
 20
2430.949125500805
 10
4006.970182738421
 20
2432.161939613085
 10
4007.401773568301
 20
2433.333265588366
 10
4007.918388653301
 20
2434.458603271965
 10
4008.515646805422
 20
2435.534259845926
 10
4009.189721787142
 20
2436.556123873247
 10
4009.936787360941
 20
2437.519665297885
 10
4010.752652190301
 20
2438.421206252565
 10
4011.633081126821
 20
2439.256231631925
 10
4012.574277140901
 20
2440.021033667325
 10
4013.572238747503
 20
2440.711306562926
 10
4014.62294985762
 20
2441.322744522885
 10
4015.722379778301
 20
2441.851430469045
 10
4016.866366380941
 20
2442.293477224605
 10
4018.050835160703
 20
2442.644145424005
 10
4019.272208147381
 20
2442.899981460165
 10
4020.525885093581
 20
2443.056425375685
 10
4021.808229613261
 20
2443.109410585605
  0
LWPOLYLINE
  5
3E8
330
1F
100
AcDbEntity
  8
STANDARD_LAYER
370
    60
100
AcDbPolyline
 90
       21
 70
     0
 43
0.0
 10
3999.821193823383
 20
2427.103152774886
 10
3999.821398278821
 20
2427.016707943127
 10
3999.821807189703
 20
2426.930681730405
 10
3999.822595803541
 20
2426.844655517686
 10
3999.823603476781
 20
2426.758838614485
 10
3999.82500545694
 20
2426.673410428965
 10
3999.826801744023
 20
2426.588221454327
 10
3999.828817090503
 20
2426.503615556205
 10
3999.831022288463
 20
2426.419233918287
 10
3999.833636397302
 20
2426.335674567766
 10
3999.836440357621
 20
2426.252518885606
 10
3999.83944877338
 20
2426.170185490845
 10
3999.842851496063
 20
2426.088270715125
 10
3999.846473278141
 20
2426.007372585645
 10
3999.850474763183
 20
2425.927296743565
 10
3999.854680703662
 20
2425.848043188885
 10
3999.859105703541
 20
2425.769611921605
 10
3999.863720554901
 20
2425.692212251245
 10
3999.868525257742
 20
2425.616038536645
 10
3999.873738871462
 20
2425.540896418965
 10
3999.879156940621
 20
2425.466770947525
  0
LWPOLYLINE
  5
3EA
330
1F
100
AcDbEntity
  8
STANDARD_LAYER
370
    60
100
AcDbPolyline
 90
       21
 70
     0
 43
0.0
 10
4045.402898527861
 20
2405.339208688005
 10
4046.204320040782
 20
2406.284899000726
 10
4046.963828188503
 20
2407.253164840246
 10
4047.681817277942
 20
2408.242376582445
 10
4048.358082853661
 20
2409.251711939925
 10
4048.992639519621
 20
2410.279526337885
 10
4049.585881582741
 20
2411.324997488925
 10
4050.137604587581
 20
2412.386480818247
 10
4050.648012989583
 20
2413.463154038445
 10
4051.117121392702
 20
2414.553402476085
 10
4051.544900589021
 20
2415.656358991725
 10
4051.931365182502
 20
2416.770603270765
 10
4052.276924084023
 20
2417.894700047927
 10
4052.581372838143
 20
2419.027841986485
 10
4052.844696840903
 20
2420.168384511645
 10
4053.067115151701
 20
2421.315490385325
 10
4053.248613166581
 20
2422.467724342246
 10
4053.38940994494
 20
2423.623845475965
 10
4053.489286427381
 20
2424.782463373245
 10
4053.548636920821
 20
2425.942695943966
 10
4053.567286177741
 20
2427.103152774886
  0
LINE
  5
3EB
330
1F
100
AcDbEntity
  8
STANDARD_LAYER
370
    60
100
AcDbLine
 10
4093.024060850303
 20
2351.069570898525
 30
0.0
 11
4093.024060850303
 21
2378.076688560046
 31
0.0
  0
LINE
  5
3EC
330
1F
100
AcDbEntity
  8
STANDARD_LAYER
370
    60
100
AcDbLine
 10
4097.92983769746
 20
2351.066296699606
 30
0.0
 11
4097.92983769746
 21
2378.186321896487
 31
0.0
  0
LINE
  5
3ED
330
1F
100
AcDbEntity
  8
STANDARD_LAYER
370
    60
100
AcDbLine
 10
4078.744746881101
 20
2351.066296699606
 30
0.0
 11
4078.744746881101
 21
2378.186321896487
 31
0.0
  0
LINE
  5
3EE
330
1F
100
AcDbEntity
  8
STANDARD_LAYER
370
    60
100
AcDbLine
 10
4078.744746881101
 20
2357.383870991086
 30
0.0
 11
4092.98113981186
 21
2357.383870991086
 31
0.0
  0
LINE
  5
3EF
330
1F
100
AcDbEntity
  8
STANDARD_LAYER
370
    60
100
AcDbLine
 10
4078.744746881101
 20
2352.558120402045
 30
0.0
 11
4092.835932637583
 21
2352.558120402045
 31
0.0
  0
LINE
  5
3F0
330
1F
100
AcDbEntity
  8
STANDARD_LAYER
370
    60
100
AcDbLine
 10
4078.744746881101
 20
2351.066296699606
 30
0.0
 11
4073.838181420101
 21
2351.066296699606
 31
0.0
  0
LINE
  5
3F1
330
1F
100
AcDbEntity
  8
STANDARD_LAYER
370
    60
100
AcDbLine
 10
4097.92983769746
 20
2351.066296699606
 30
0.0
 11
4093.023257632501
 21
2351.066296699606
 31
0.0
  0
LINE
  5
3F2
330
1F
100
AcDbEntity
  8
STANDARD_LAYER
370
    60
100
AcDbLine
 10
4078.744746881101
 20
2358.543909202965
 30
0.0
 11
4092.98113981186
 21
2358.543909202965
 31
0.0
  0
LINE
  5
3F3
330
1F
100
AcDbEntity
  8
STANDARD_LAYER
370
    60
100
AcDbLine
 10
4078.744746881101
 20
2371.620102845925
 30
0.0
 11
4092.98113981186
 21
2371.620102845925
 31
0.0
  0
LINE
  5
3F4
330
1F
100
AcDbEntity
  8
STANDARD_LAYER
370
    60
100
AcDbLine
 10
4078.744746881101
 20
2372.780754035685
 30
0.0
 11
4092.98113981186
 21
2372.780754035685
 31
0.0
  0
LINE
  5
3F5
330
1F
100
AcDbEntity
  8
STANDARD_LAYER
370
    60
100
AcDbLine
 10
4078.744746881101
 20
2376.629821552365
 30
0.0
 11
4092.98113981186
 21
2376.629821552365
 31
0.0
  0
LINE
  5
3F6
330
1F
100
AcDbEntity
  8
STANDARD_LAYER
370
    60
100
AcDbLine
 10
4073.838181420101
 20
2378.186321896487
 30
0.0
 11
4078.744746881101
 21
2378.186321896487
 31
0.0
  0
LINE
  5
3F7
330
1F
100
AcDbEntity
  8
STANDARD_LAYER
370
    60
100
AcDbLine
 10
4078.744746881101
 20
2364.627026930685
 30
0.0
 11
4073.838181420101
 21
2364.627026930685
 31
0.0
  0
LINE
  5
3F8
330
1F
100
AcDbEntity
  8
STANDARD_LAYER
370
    60
100
AcDbLine
 10
4072.634041106221
 20
2385.909902987205
 30
0.0
 11
4079.064442169462
 21
2385.909902987205
 31
0.0
  0
LWPOLYLINE
  5
3F9
330
1F
100
AcDbEntity
  8
STANDARD_LAYER
370
    60
100
AcDbPolyline
 90
       21
 70
     0
 43
0.0
 10
4079.065245387261
 20
2385.909902987205
 10
4079.615756263421
 20
2385.932702774206
 10
4080.153853773582
 20
2385.999831327405
 10
4080.678106729661
 20
2386.109688924047
 10
4081.186514389142
 20
2386.260182468925
 10
4081.677470316423
 20
2386.449891647445
 10
4082.149382679862
 20
2386.676768216445
 10
4082.600425984463
 20
2386.939152650446
 10
4083.028599487701
 20
2387.235430276005
 10
4083.432734872781
 20
2387.563732258126
 10
4083.810568525901
 20
2387.922204712485
 10
4084.160742278781
 20
2388.309038606805
 10
4084.481430636421
 20
2388.722529563565
 10
4084.770632856301
 20
2389.161092810686
 10
4085.027136809741
 20
2389.622650203645
 10
4085.24875190274
 20
2390.105766477166
 10
4085.433857095741
 20
2390.608363486725
 10
4085.581065012541
 20
2391.128841509565
 10
4085.688170455182
 20
2391.665331710685
 10
4085.753756839541
 20
2392.216204465965
 10
4085.775998670622
 20
2392.779590940405
  0
LINE
  5
3FA
330
1F
100
AcDbEntity
  8
STANDARD_LAYER
370
    60
100
AcDbLine
 10
4079.064442169462
 20
2385.909902987205
 30
0.0
 11
4079.065245387261
 21
2385.909902987205
 31
0.0
  0
LINE
  5
3FB
330
1F
100
AcDbEntity
  8
STANDARD_LAYER
370
    60
100
AcDbLine
 10
4079.065245387261
 20
2399.649278893605
 30
0.0
 11
4079.064442169462
 21
2399.649278893605
 31
0.0
  0
LWPOLYLINE
  5
3FC
330
1F
100
AcDbEntity
  8
STANDARD_LAYER
370
    60
100
AcDbPolyline
 90
       21
 70
     0
 43
0.0
 10
4085.775998670622
 20
2392.779590940405
 10
4085.753756839541
 20
2393.342977414845
 10
4085.688170455182
 20
2393.893835219445
 10
4085.581065012541
 20
2394.430534730086
 10
4085.433857095741
 20
2394.951012752925
 10
4085.24875190274
 20
2395.453624713165
 10
4085.027136809741
 20
2395.936531677165
 10
4084.770632856301
 20
2396.398283428965
 10
4084.481430636421
 20
2396.836652317247
 10
4084.160742278781
 20
2397.250352583525
 10
4083.810568525901
 20
2397.637171527166
 10
4083.432734872781
 20
2397.995643981526
 10
4083.028599487701
 20
2398.323751604807
 10
4082.600425984463
 20
2398.620014279685
 10
4082.149382679862
 20
2398.882413664365
 10
4081.677470316423
 20
2399.109484592206
 10
4081.186514389142
 20
2399.298999411886
 10
4080.678106729661
 20
2399.449702266287
 10
4080.153853773582
 20
2399.559335602725
 10
4079.615756263421
 20
2399.626479106605
 10
4079.065245387261
 20
2399.649278893605
  0
LWPOLYLINE
  5
3FD
330
1F
100
AcDbEntity
  8
STANDARD_LAYER
370
    60
100
AcDbPolyline
 90
       21
 70
     0
 43
0.0
 10
4079.065844149623
 20
2388.897048851205
 10
4078.754779801623
 20
2388.909996140086
 10
4078.450739958381
 20
2388.947776508445
 10
4078.154527837701
 20
2389.009986287926
 10
4077.867121904901
 20
2389.094980903726
 10
4077.589559041142
 20
2389.202162328645
 10
4077.323022167181
 20
2389.330484015085
 10
4077.068110045383
 20
2389.478720007286
 10
4076.826049408382
 20
2389.646048017845
 10
4076.597614266061
 20
2389.831660710046
 10
4076.384221202541
 20
2390.034092917245
 10
4076.186279128701
 20
2390.252761562926
 10
4076.004970965301
 20
2390.486620099485
 10
4075.841523444982
 20
2390.734427620485
 10
4075.696710577621
 20
2390.995391739885
 10
4075.571379392903
 20
2391.268256600566
 10
4075.466683603662
 20
2391.552409224646
 10
4075.383645487103
 20
2391.846638607045
 10
4075.322893013501
 20
2392.149883249485
 10
4075.285974202623
 20
2392.461156407085
 10
4075.273356381182
 20
2392.779590940405
  0
LWPOLYLINE
  5
3FE
330
1F
100
AcDbEntity
  8
STANDARD_LAYER
370
    60
100
AcDbPolyline
 90
       21
 70
     0
 43
0.0
 10
4082.857937611142
 20
2392.779590940405
 10
4082.845305185741
 20
2392.461156407085
 10
4082.80840097882
 20
2392.149883249485
 10
4082.747838356701
 20
2391.846638607045
 10
4082.664595784703
 20
2391.552409224646
 10
4082.559899995461
 20
2391.268256600566
 10
4082.434758662223
 20
2390.995391739885
 10
4082.289770547342
 20
2390.734427620485
 10
4082.126308423063
 20
2390.486620099485
 10
4081.945204715101
 20
2390.252761562926
 10
4081.747262641261
 20
2390.034092917245
 10
4081.533665122301
 20
2389.831660710046
 10
4081.305449039381
 20
2389.646048017845
 10
4081.063359194461
 20
2389.478720007286
 10
4080.808461676623
 20
2389.330484015085
 10
4080.541924802661
 20
2389.202162328645
 10
4080.264551790382
 20
2389.094980903726
 10
4079.977175065502
 20
2389.009986287926
 10
4079.680933736901
 20
2388.947776508445
 10
4079.376908497622
 20
2388.909996140086
 10
4079.065844149623
 20
2388.897048851205
  0
LWPOLYLINE
  5
3FF
330
1F
100
AcDbEntity
  8
STANDARD_LAYER
370
    60
100
AcDbPolyline
 90
       21
 70
     0
 43
0.0
 10
4079.065844149623
 20
2396.662133029605
 10
4079.376908497622
 20
2396.649185740725
 10
4079.680933736901
 20
2396.611196062845
 10
4079.977175065502
 20
2396.549195592887
 10
4080.264551790382
 20
2396.464200977085
 10
4080.541924802661
 20
2396.357019552165
 10
4080.808461676623
 20
2396.228697865725
 10
4081.063359194461
 20
2396.080461873525
 10
4081.305449039381
 20
2395.912924553445
 10
4081.533665122301
 20
2395.727521170767
 10
4081.747262641261
 20
2395.524879654047
 10
4081.945204715101
 20
2395.306225959045
 10
4082.126308423063
 20
2395.072561781325
 10
4082.289770547342
 20
2394.824754260327
 10
4082.434758662223
 20
2394.563790140925
 10
4082.559899995461
 20
2394.290730921405
 10
4082.664595784703
 20
2394.006772656165
 10
4082.747838356701
 20
2393.712543273765
 10
4082.80840097882
 20
2393.409298631325
 10
4082.845305185741
 20
2393.098025473726
 10
4082.857937611142
 20
2392.779590940405
  0
LWPOLYLINE
  5
400
330
1F
100
AcDbEntity
  8
STANDARD_LAYER
370
    60
100
AcDbPolyline
 90
       21
 70
     0
 43
0.0
 10
4075.273356381182
 20
2392.779590940405
 10
4075.285974202623
 20
2393.098025473726
 10
4075.322893013501
 20
2393.409298631325
 10
4075.383645487103
 20
2393.712543273765
 10
4075.466683603662
 20
2394.006772656165
 10
4075.571379392903
 20
2394.290730921405
 10
4075.696710577621
 20
2394.563790140925
 10
4075.841523444982
 20
2394.824754260327
 10
4076.004970965301
 20
2395.072561781325
 10
4076.186279128701
 20
2395.306225959045
 10
4076.384016747101
 20
2395.524879654047
 10
4076.597614266061
 20
2395.727521170767
 10
4076.826049408382
 20
2395.912924553445
 10
4077.068110045383
 20
2396.080461873525
 10
4077.323022167181
 20
2396.228697865725
 10
4077.589559041142
 20
2396.357019552165
 10
4077.867121904901
 20
2396.464200977085
 10
4078.154527837701
 20
2396.549195592887
 10
4078.450739958381
 20
2396.611196062845
 10
4078.754779801623
 20
2396.649185740725
 10
4079.065844149623
 20
2396.662133029605
  0
LWPOLYLINE
  5
401
330
1F
100
AcDbEntity
  8
STANDARD_LAYER
370
    60
100
AcDbPolyline
 90
       21
 70
     0
 43
0.0
 10
4079.065245387261
 20
2390.822935646086
 10
4078.908603312302
 20
2390.829498994605
 10
4078.755188712501
 20
2390.848591012965
 10
4078.605965449221
 20
2390.879793082126
 10
4078.461167185822
 20
2390.922701533725
 10
4078.321378080703
 20
2390.976703389885
 10
4078.187021648701
 20
2391.041185672725
 10
4078.058652840301
 20
2391.115909171365
 10
4077.936505318861
 20
2391.200290809285
 10
4077.821396906141
 20
2391.293717608605
 10
4077.713897156581
 20
2391.395965309125
 10
4077.614020674141
 20
2391.506017264605
 10
4077.522775132063
 20
2391.623858524365
 10
4077.440335777861
 20
2391.748696702365
 10
4077.367345185781
 20
2391.880292587725
 10
4077.304168454823
 20
2392.017868745086
 10
4077.251418951302
 20
2392.160976654045
 10
4077.209505586101
 20
2392.309212646246
 10
4077.17902712158
 20
2392.462173053325
 10
4077.160377864661
 20
2392.619035587886
 10
4077.153952122261
 20
2392.779590940405
  0
LWPOLYLINE
  5
402
330
1F
100
AcDbEntity
  8
STANDARD_LAYER
370
    60
100
AcDbPolyline
 90
       21
 70
     0
 43
0.0
 10
4080.976932959181
 20
2392.779590940405
 10
4080.970507216781
 20
2392.619035587886
 10
4080.951857959863
 20
2392.462173053325
 10
4080.921379495341
 20
2392.309212646246
 10
4080.879466130143
 20
2392.160976654045
 10
4080.826716626621
 20
2392.017868745086
 10
4080.763539895661
 20
2391.880292587725
 10
4080.690534699621
 20
2391.748696702365
 10
4080.608109949381
 20
2391.623858524365
 10
4080.516849803343
 20
2391.506017264605
 10
4080.416973320901
 20
2391.395965309125
 10
4080.309473571341
 20
2391.293717608605
 10
4080.194365158621
 20
2391.200290809285
 10
4080.072217637181
 20
2391.115909171365
 10
4079.9438780367
 20
2391.041185672725
 10
4079.809492396782
 20
2390.976703389885
 10
4079.669513440183
 20
2390.922701533725
 10
4079.524715176781
 20
2390.879793082126
 10
4079.375302062021
 20
2390.848591012965
 10
4079.222077313702
 20
2390.829498994605
 10
4079.065245387261
 20
2390.822935646086
  0
LWPOLYLINE
  5
403
330
1F
100
AcDbEntity
  8
STANDARD_LAYER
370
    60
100
AcDbPolyline
 90
       21
 70
     0
 43
0.0
 10
4079.065245387261
 20
2394.736246234725
 10
4079.222077313702
 20
2394.729682886205
 10
4079.375302062021
 20
2394.710590867845
 10
4079.524715176781
 20
2394.679373848005
 10
4079.669513440183
 20
2394.636465396405
 10
4079.809492396782
 20
2394.582463540245
 10
4079.9438780367
 20
2394.517801849245
 10
4080.072217637181
 20
2394.443063399925
 10
4080.194365158621
 20
2394.358681762005
 10
4080.309473571341
 20
2394.265269913366
 10
4080.416973320901
 20
2394.163216571686
 10
4080.516849803343
 20
2394.052970257365
 10
4080.608109949381
 20
2393.935323356445
 10
4080.690534699621
 20
2393.810275868925
 10
4080.763539895661
 20
2393.678874342405
 10
4080.826716626621
 20
2393.541313135725
 10
4080.879466130143
 20
2393.397995917245
 10
4080.921379495341
 20
2393.249774875727
 10
4080.951857959863
 20
2393.097008827485
 10
4080.970507216781
 20
2392.940146292925
 10
4080.976932959181
 20
2392.779590940405
  0
LWPOLYLINE
  5
404
330
1F
100
AcDbEntity
  8
STANDARD_LAYER
370
    60
100
AcDbPolyline
 90
       21
 70
     0
 43
0.0
 10
4077.153952122261
 20
2392.779590940405
 10
4077.160377864661
 20
2392.940146292925
 10
4077.17902712158
 20
2393.097008827485
 10
4077.209505586101
 20
2393.249774875727
 10
4077.251418951302
 20
2393.397995917245
 10
4077.304168454823
 20
2393.541313135725
 10
4077.367345185781
 20
2393.678874342405
 10
4077.440335777861
 20
2393.810275868925
 10
4077.522775132063
 20
2393.935323356445
 10
4077.614020674141
 20
2394.052970257365
 10
4077.713897156581
 20
2394.163216571686
 10
4077.821396906141
 20
2394.265269913366
 10
4077.936505318861
 20
2394.358681762005
 10
4078.058652840301
 20
2394.443063399925
 10
4078.187021648701
 20
2394.517801849245
 10
4078.321378080703
 20
2394.582463540245
 10
4078.461167185822
 20
2394.636465396405
 10
4078.605965449221
 20
2394.679373848005
 10
4078.755188712501
 20
2394.710590867845
 10
4078.908603312302
 20
2394.729682886205
 10
4079.065245387261
 20
2394.736246234725
  0
LINE
  5
405
330
1F
100
AcDbEntity
  8
STANDARD_LAYER
370
    60
100
AcDbLine
 10
4093.023257632501
 20
2378.186321896487
 30
0.0
 11
4097.92983769746
 21
2378.186321896487
 31
0.0
  0
LINE
  5
406
330
1F
100
AcDbEntity
  8
STANDARD_LAYER
370
    60
100
AcDbLine
 10
4097.92983769746
 20
2364.627026930685
 30
0.0
 11
4093.023257632501
 21
2364.627026930685
 31
0.0
  0
LWPOLYLINE
  5
407
330
1F
100
AcDbEntity
  8
STANDARD_LAYER
370
    60
100
AcDbPolyline
 90
       21
 70
     0
 43
0.0
 10
4115.830962954581
 20
2747.231358928006
 10
4115.666507761022
 20
2748.064739732565
 10
4115.448704301582
 20
2748.872868838605
 10
4115.179567922743
 20
2749.654101671325
 10
4114.861479069982
 20
2750.406584346407
 10
4114.496467693741
 20
2751.129090908085
 10
4114.08672438802
 20
2751.819782422725
 10
4113.63429370722
 20
2752.476984414166
 10
4113.141716740381
 20
2753.099306469165
 10
4112.610848190421
 20
2753.684655492526
 10
4112.04387865134
 20
2754.231835429845
 10
4111.443013321101
 20
2754.738962495445
 10
4110.810472001623
 20
2755.204616374727
 10
4110.148445286901
 20
2755.626943183366
 10
4109.459123770943
 20
2756.004522606765
 10
4108.744552008143
 20
2756.335500760606
 10
4108.007110443983
 20
2756.618427428925
 10
4107.248624573461
 20
2756.851463678085
 10
4106.471664693542
 20
2757.033174242805
 10
4105.678070903181
 20
2757.161899597605
 10
4104.870238251821
 20
2757.235815759525
  0
LINE
  5
408
330
1F
100
AcDbEntity
  8
STANDARD_LAYER
370
    60
100
AcDbLine
 10
4070.667997595182
 20
2757.235815759525
 30
0.0
 11
4104.870632558743
 21
2757.235815759525
 31
0.0
  0
DIMENSION
  5
5AA
330
1F
100
AcDbEntity
  8
0
370
    25
100
AcDbDimension
  2
*D56
 10
3697.240987177461
 20
2083.961306179679
 30
0.0
 11
3431.709909848601
 21
2095.961306179679
 31
0.0
 70
    32
  1
531
 71
     5
 41
2.5
 42
531.0621546577199
  3
ISO-25
100
AcDbAlignedDimension
 13
3166.178832519741
 23
2218.732298637751
 33
0.0
 14
3697.240987177461
 24
2231.19012147001
 34
0.0
100
AcDbRotatedDimension
1001
ACAD
1000
DSTYLE
1002
{
1070
    41
1040
10.0
1070
   140
1040
14.0
1070
   147
1040
5.0
1070
   176
1070
     7
1070
   177
1070
     7
1002
}
  0
DIMENSION
  5
5D7
330
1F
100
AcDbEntity
  8
0
370
    25
100
AcDbDimension
  2
*D60
 10
3709.944241783461
 20
2020.539662669995
 30
0.0
 11
3405.808216862901
 21
2032.539662669995
 31
0.0
 70
    32
  1
608
 71
     5
 41
2.5
 42
608.2720498411195
  3
ISO-25
100
AcDbAlignedDimension
 13
3101.672191942341
 23
2342.177997611948
 33
0.0
 14
3709.944241783461
 24
2427.103040644785
 34
0.0
100
AcDbRotatedDimension
1001
ACAD
1000
DSTYLE
1002
{
1070
    41
1040
10.0
1070
   140
1040
14.0
1070
   147
1040
5.0
1070
   176
1070
     7
1070
   177
1070
     7
1002
}
  0
DIMENSION
  5
604
330
1F
100
AcDbEntity
  8
0
370
    25
100
AcDbDimension
  2
*D64
 10
4182.006711100514
 20
2272.037876834385
 30
0.0
 11
4170.006711100514
 21
2514.636846296955
 31
0.0
 70
    32
  1
485
 71
     5
 41
2.5
 42
485.1979389251401
  3
ISO-25
100
AcDbAlignedDimension
 13
4087.769315076963
 23
2757.235815759525
 33
0.0
 14
4091.175046172721
 24
2272.037876834385
 34
0.0
 50
90.0
100
AcDbRotatedDimension
1001
ACAD
1000
DSTYLE
1002
{
1070
    41
1040
10.0
1070
   140
1040
14.0
1070
   147
1040
5.0
1070
   176
1070
     7
1070
   177
1070
     7
1002
}
  0
DIMENSION
  5
631
330
1F
100
AcDbEntity
  8
0
370
    25
100
AcDbDimension
  2
*D69
 10
4129.281166302701
 20
2083.961306179679
 30
0.0
 11
3999.810912635542
 21
2095.961306179679
 31
0.0
 70
   160
  1
259
 71
     5
 41
2.5
 42
258.9405073343191
  3
ISO-25
100
AcDbAlignedDimension
 13
3870.340658968382
 23
2522.140895340225
 33
0.0
 14
4129.281166302701
 24
2520.780375984886
 34
0.0
100
AcDbRotatedDimension
1001
ACAD
1000
DSTYLE
1002
{
1070
    41
1040
10.0
1070
   140
1040
14.0
1070
   147
1040
5.0
1070
   176
1070
     7
1070
   177
1070
     7
1002
}
  0
LINE
  5
66A
330
1F
100
AcDbEntity
  8
STANDARD_LAYER
370
    60
100
AcDbLine
 10
3422.87849259486
 20
2537.630057154418
 30
0.0
 11
3443.56017435486
 21
2565.542673834417
 31
0.0
  0
LINE
  5
66B
330
1F
100
AcDbEntity
  8
STANDARD_LAYER
370
    60
100
AcDbLine
 10
3411.65030391486
 20
2508.541678934418
 30
0.0
 11
3432.33322803486
 21
2536.454483174417
 31
0.0
  0
LINE
  5
66C
330
1F
100
AcDbEntity
  8
STANDARD_LAYER
370
    60
100
AcDbLine
 10
3406.62807927486
 20
2529.108091414418
 30
0.0
 11
3427.31019951486
 21
2557.021239514418
 31
0.0
  0
LINE
  5
66D
330
1F
100
AcDbEntity
  8
STANDARD_LAYER
370
    60
100
AcDbLine
 10
3440.31033807486
 20
2496.494783494418
 30
0.0
 11
3460.99282371486
 21
2524.407566894417
 31
0.0
  0
LINE
  5
66E
330
1F
100
AcDbEntity
  8
STANDARD_LAYER
370
    60
100
AcDbLine
 10
3457.44743103486
 20
2507.953647074417
 30
0.0
 11
3478.12965567486
 21
2535.865899054418
 31
0.0
  0
VIEWPORT
  5
BB
330
73
100
AcDbEntity
 67
     1
  8
0
100
AcDbViewport
 10
7.8
 20
4.5
 30
0.0
 40
15.64
 41
9.0
 68
     1
 69
     1
 12
6.0
 22
4.5
 13
0.0
 23
0.0
 14
0.5
 24
0.5
 15
0.5
 25
0.5
 16
0.0
 26
0.0
 36
1.0
 17
0.0
 27
0.0
 37
0.0
 42
50.0
 43
0.0
 44
0.0
 45
12.0
 50
0.0
 51
0.0
 72
   100
 90
   557152
  1

281
     0
 71
     1
 74
     0
110
0.0
120
0.0
130
0.0
111
1.0
121
0.0
131
0.0
112
0.0
122
1.0
132
0.0
 79
     0
146
0.0
  0
ENDSEC
  0
SECTION
  2
OBJECTS
  0
DICTIONARY
  5
C
330
0
100
AcDbDictionary
281
     1
  3
ACAD_COLOR
350
6C
  3
ACAD_GROUP
350
D
  3
ACAD_LAYOUT
350
1A
  3
ACAD_MATERIAL
350
6B
  3
ACAD_MLEADERSTYLE
350
702
  3
ACAD_MLINESTYLE
350
17
  3
ACAD_PLOTSETTINGS
350
19
  3
ACAD_PLOTSTYLENAME
350
E
  3
ACAD_SCALELIST
350
99
  3
ACAD_TABLESTYLE
350
92
  3
ACDBHEADERROUNDTRIPXREC
350
703
  3
AcDbVariableDictionary
350
59
  3
DWGPROPS
350
706
  0
DICTIONARY
  5
6C
102
{ACAD_REACTORS
330
C
102
}
330
C
100
AcDbDictionary
281
     1
  0
DICTIONARY
  5
D
102
{ACAD_REACTORS
330
C
102
}
330
C
100
AcDbDictionary
281
     1
  0
DICTIONARY
  5
1A
102
{ACAD_REACTORS
330
C
102
}
330
C
100
AcDbDictionary
281
     1
  3
Layout1
350
74
  3
Layout2
350
674
  3
Model
350
22
  0
DICTIONARY
  5
6B
102
{ACAD_REACTORS
330
C
102
}
330
C
100
AcDbDictionary
281
     1
  0
DICTIONARY
  5
702
102
{ACAD_REACTORS
330
C
102
}
330
C
100
AcDbDictionary
281
     1
  0
DICTIONARY
  5
17
102
{ACAD_REACTORS
330
C
102
}
330
C
100
AcDbDictionary
281
     1
  3
Standard
350
18
  0
DICTIONARY
  5
19
102
{ACAD_REACTORS
330
C
102
}
330
C
100
AcDbDictionary
281
     1
  0
ACDBDICTIONARYWDFLT
  5
E
102
{ACAD_REACTORS
330
C
102
}
330
C
100
AcDbDictionary
281
     1
  3
Normal
350
F
100
AcDbDictionaryWithDefault
340
F
  0
DICTIONARY
  5
99
102
{ACAD_REACTORS
330
C
102
}
330
C
100
AcDbDictionary
281
     1
  3
A0
350
D5
  3
A1
350
D6
  3
A2
350
D7
  3
A3
350
D8
  3
A4
350
D9
  3
A5
350
DA
  3
A6
350
DB
  3
A7
350
DC
  3
A8
350
DD
  3
A9
350
DE
  3
B0
350
DF
  3
B1
350
E0
  3
B2
350
E1
  3
B3
350
E2
  3
B4
350
E3
  3
B5
350
E4
  3
B6
350
E5
  3
B7
350
E6
  3
B8
350
E7
  3
B9
350
E8
  3
C0
350
E9
  3
C1
350
EA
  3
C2
350
EB
  3
C3
350
EC
  3
C4
350
ED
  3
C5
350
EE
  3
C6
350
EF
  3
C7
350
F0
  3
C8
350
F1
  3
C9
350
F2
  3
D0
350
F3
  3
D1
350
F4
  3
D2
350
F5
  0
DICTIONARY
  5
92
102
{ACAD_REACTORS
330
C
102
}
330
C
100
AcDbDictionary
281
     1
  0
DICTIONARY
  5
703
102
{ACAD_REACTORS
330
C
102
}
330
C
100
AcDbDictionary
281
     1
  3
COLORDICT
350
704
  3
MATERIALDICT
350
705
  0
DICTIONARY
  5
59
102
{ACAD_REACTORS
330
C
102
}
330
C
100
AcDbDictionary
281
     1
  3
CTABLESTYLE
350
98
  3
DIMASSOC
350
5A
  3
HIDETEXT
350
5E
  0
XRECORD
  5
706
102
{ACAD_REACTORS
330
C
102
}
330
C
100
AcDbXrecord
280
     1
  1
DWGPROPS COOKIE
  2

  3

  4

  6

  7

  8
BelottiMc
  9

300
=
301
=
302
=
303
=
304
=
305
=
306
=
307
=
308
=
309
=
 40
0.0
 41
2455099.431812882
 42
2455099.473479537
  1

 90
        0
  0
LAYOUT
  5
74
330
1A
100
AcDbPlotSettings
  1

  2
ProgeSOFT PDF Wizard
  4
A4
  6

 40
5.926666666666667
 41
6.011333333333317
 42
6.095999999999985
 43
5.926666666666667
 44
210.0
 45
297.0
 46
88.56200000000001
 47
136.531
 48
0.0
 49
0.0
140
0.0
141
0.0
142
1.0
143
1.0
 70
   692
 72
     1
 73
     0
 74
     0
  7

 75
    16
147
1.0
148
4.426666666666668
149
1.5
100
AcDbLayout
  1
Layout1
 70
     1
 71
     1
 10
0.0
 20
0.0
 11
0.0
 21
0.0
 12
0.0
 22
0.0
 32
0.0
 14
0.0
 24
0.0
 34
0.0
 15
0.0
 25
0.0
 35
0.0
146
0.0
 13
0.0
 23
0.0
 33
0.0
 16
1.0
 26
0.0
 36
0.0
 17
0.0
 27
1.0
 37
0.0
 76
     0
330
D1
331
701
1001
PROGE_PRINT_SETTINGS
1070
    73
1070
     1
  0
LAYOUT
  5
674
102
{ACAD_REACTORS
330
1A
102
}
330
1A
100
AcDbPlotSettings
  1

  2
ProgeSOFT PDF Wizard
  4
A4
  6

 40
5.926666666666667
 41
6.011333333333317
 42
6.095999999999985
 43
5.926666666666667
 44
210.0
 45
297.0
 46
88.562
 47
136.531
 48
0.0
 49
0.0
140
0.0
141
0.0
142
1.0
143
1.0
 70
   692
 72
     1
 73
     0
 74
     0
  7

 75
    16
147
1.0
148
0.0
149
0.0
100
AcDbLayout
  1
Layout2
 70
     1
 71
     2
 10
0.0
 20
0.0
 11
12.0
 21
9.0
 12
0.0
 22
0.0
 32
0.0
 14
0.0
 24
0.0
 34
0.0
 15
12.0
 25
9.0
 35
0.0
146
0.0
 13
0.0
 23
0.0
 33
0.0
 16
1.0
 26
0.0
 36
0.0
 17
0.0
 27
1.0
 37
0.0
 76
     0
330
73
331
BB
1001
PROGE_PRINT_SETTINGS
1070
    73
1070
     1
  0
LAYOUT
  5
22
330
1A
100
AcDbPlotSettings
  1

  2
ProgeSOFT PDF Wizard
  4
A4
  6

 40
5.926666666666667
 41
6.011333333333317
 42
6.095999999999985
 43
5.926666666666667
 44
210.0
 45
297.0
 46
0.0000000000000093
 47
83.07219027892849
 48
0.0
 49
0.0
140
0.0
141
0.0
142
1.0
143
8.919016484257979
 70
 11956
 72
     1
 73
     0
 74
     0
  7

 75
     0
147
0.1121199856245355
148
-2604.031648245725
149
-1898.036839527443
100
AcDbLayout
  1
Model
 70
     1
 71
     0
 10
0.0
 20
0.0
 11
0.0
 21
0.0
 12
0.0
 22
0.0
 32
0.0
 14
0.0
 24
0.0
 34
0.0
 15
4564.736931343554
 25
2757.235815759525
 35
0.0
146
0.0
 13
0.0
 23
0.0
 33
0.0
 16
1.0
 26
0.0
 36
0.0
 17
0.0
 27
1.0
 37
0.0
 76
     0
330
1F
331
97
1001
PROGE_PRINT_SETTINGS
1070
    73
1070
     1
  0
MLINESTYLE
  5
18
102
{ACAD_REACTORS
330
17
102
}
330
17
100
AcDbMlineStyle
  2
STANDARD
 70
     0
  3

 62
   256
 51
90.0
 52
90.0
 71
     2
 49
0.5
 62
   256
  6
BYLAYER
 49
-0.5
 62
   256
  6
BYLAYER
  0
ACDBPLACEHOLDER
  5
F
102
{ACAD_REACTORS
330
E
102
}
330
E
  0
SCALE
  5
D5
102
{ACAD_REACTORS
330
99
102
}
330
99
100
AcDbScale
 70
     0
300
1:1
140
1.0
141
1.0
290
     1
  0
SCALE
  5
D6
102
{ACAD_REACTORS
330
99
102
}
330
99
100
AcDbScale
 70
     0
300
1:2
140
1.0
141
2.0
290
     0
  0
SCALE
  5
D7
102
{ACAD_REACTORS
330
99
102
}
330
99
100
AcDbScale
 70
     0
300
1:4
140
1.0
141
4.0
290
     0
  0
SCALE
  5
D8
102
{ACAD_REACTORS
330
99
102
}
330
99
100
AcDbScale
 70
     0
300
1:5
140
1.0
141
5.0
290
     0
  0
SCALE
  5
D9
102
{ACAD_REACTORS
330
99
102
}
330
99
100
AcDbScale
 70
     0
300
1:8
140
1.0
141
8.0
290
     0
  0
SCALE
  5
DA
102
{ACAD_REACTORS
330
99
102
}
330
99
100
AcDbScale
 70
     0
300
1:10
140
1.0
141
10.0
290
     0
  0
SCALE
  5
DB
102
{ACAD_REACTORS
330
99
102
}
330
99
100
AcDbScale
 70
     0
300
1:16
140
1.0
141
16.0
290
     0
  0
SCALE
  5
DC
102
{ACAD_REACTORS
330
99
102
}
330
99
100
AcDbScale
 70
     0
300
1:20
140
1.0
141
20.0
290
     0
  0
SCALE
  5
DD
102
{ACAD_REACTORS
330
99
102
}
330
99
100
AcDbScale
 70
     0
300
1:30
140
1.0
141
30.0
290
     0
  0
SCALE
  5
DE
102
{ACAD_REACTORS
330
99
102
}
330
99
100
AcDbScale
 70
     0
300
1:40
140
1.0
141
40.0
290
     0
  0
SCALE
  5
DF
102
{ACAD_REACTORS
330
99
102
}
330
99
100
AcDbScale
 70
     0
300
1:50
140
1.0
141
50.0
290
     0
  0
SCALE
  5
E0
102
{ACAD_REACTORS
330
99
102
}
330
99
100
AcDbScale
 70
     0
300
1:100
140
1.0
141
100.0
290
     0
  0
SCALE
  5
E1
102
{ACAD_REACTORS
330
99
102
}
330
99
100
AcDbScale
 70
     0
300
2:1
140
2.0
141
1.0
290
     0
  0
SCALE
  5
E2
102
{ACAD_REACTORS
330
99
102
}
330
99
100
AcDbScale
 70
     0
300
4:1
140
4.0
141
1.0
290
     0
  0
SCALE
  5
E3
102
{ACAD_REACTORS
330
99
102
}
330
99
100
AcDbScale
 70
     0
300
8:1
140
8.0
141
1.0
290
     0
  0
SCALE
  5
E4
102
{ACAD_REACTORS
330
99
102
}
330
99
100
AcDbScale
 70
     0
300
10:1
140
10.0
141
1.0
290
     0
  0
SCALE
  5
E5
102
{ACAD_REACTORS
330
99
102
}
330
99
100
AcDbScale
 70
     0
300
100:1
140
100.0
141
1.0
290
     0
  0
SCALE
  5
E6
102
{ACAD_REACTORS
330
99
102
}
330
99
100
AcDbScale
 70
     0
300
1/128" = 1'-0"
140
0.0078125
141
12.0
290
     0
  0
SCALE
  5
E7
102
{ACAD_REACTORS
330
99
102
}
330
99
100
AcDbScale
 70
     0
300
1/64" = 1'-0"
140
0.015625
141
12.0
290
     0
  0
SCALE
  5
E8
102
{ACAD_REACTORS
330
99
102
}
330
99
100
AcDbScale
 70
     0
300
1/32" = 1'-0"
140
0.03125
141
12.0
290
     0
  0
SCALE
  5
E9
102
{ACAD_REACTORS
330
99
102
}
330
99
100
AcDbScale
 70
     0
300
1/16" = 1'-0"
140
0.0625
141
12.0
290
     0
  0
SCALE
  5
EA
102
{ACAD_REACTORS
330
99
102
}
330
99
100
AcDbScale
 70
     0
300
3/32" = 1'-0"
140
0.09375
141
12.0
290
     0
  0
SCALE
  5
EB
102
{ACAD_REACTORS
330
99
102
}
330
99
100
AcDbScale
 70
     0
300
1/8" = 1'-0"
140
0.125
141
12.0
290
     0
  0
SCALE
  5
EC
102
{ACAD_REACTORS
330
99
102
}
330
99
100
AcDbScale
 70
     0
300
3/16" = 1'-0"
140
0.1875
141
12.0
290
     0
  0
SCALE
  5
ED
102
{ACAD_REACTORS
330
99
102
}
330
99
100
AcDbScale
 70
     0
300
1/4" = 1'-0"
140
0.25
141
12.0
290
     0
  0
SCALE
  5
EE
102
{ACAD_REACTORS
330
99
102
}
330
99
100
AcDbScale
 70
     0
300
3/8" = 1'-0"
140
0.375
141
12.0
290
     0
  0
SCALE
  5
EF
102
{ACAD_REACTORS
330
99
102
}
330
99
100
AcDbScale
 70
     0
300
1/2" = 1'-0"
140
0.5
141
12.0
290
     0
  0
SCALE
  5
F0
102
{ACAD_REACTORS
330
99
102
}
330
99
100
AcDbScale
 70
     0
300
3/4" = 1'-0"
140
0.75
141
12.0
290
     0
  0
SCALE
  5
F1
102
{ACAD_REACTORS
330
99
102
}
330
99
100
AcDbScale
 70
     0
300
1" = 1'-0"
140
1.0
141
12.0
290
     0
  0
SCALE
  5
F2
102
{ACAD_REACTORS
330
99
102
}
330
99
100
AcDbScale
 70
     0
300
1-1/2" = 1'-0"
140
1.5
141
12.0
290
     0
  0
SCALE
  5
F3
102
{ACAD_REACTORS
330
99
102
}
330
99
100
AcDbScale
 70
     0
300
3" = 1'-0"
140
3.0
141
12.0
290
     0
  0
SCALE
  5
F4
102
{ACAD_REACTORS
330
99
102
}
330
99
100
AcDbScale
 70
     0
300
6" = 1'-0"
140
6.0
141
12.0
290
     0
  0
SCALE
  5
F5
102
{ACAD_REACTORS
330
99
102
}
330
99
100
AcDbScale
 70
     0
300
1'-0" = 1'-0"
140
12.0
141
12.0
290
     0
  0
XRECORD
  5
704
102
{ACAD_REACTORS
330
703
102
}
330
703
100
AcDbXrecord
280
     1
340
6C
  0
XRECORD
  5
705
102
{ACAD_REACTORS
330
703
102
}
330
703
100
AcDbXrecord
280
     1
340
6B
  0
DICTIONARYVAR
  5
98
102
{ACAD_REACTORS
330
59
102
}
330
59
100
DictionaryVariables
280
     0
  1
Standard
  0
DICTIONARYVAR
  5
5A
102
{ACAD_REACTORS
330
59
102
}
330
59
100
DictionaryVariables
280
     0
  1
2
  0
DICTIONARYVAR
  5
5E
102
{ACAD_REACTORS
330
59
102
}
330
59
100
DictionaryVariables
280
     0
  1
1
  0
ENDSEC
  0
EOF
