  0
SECTION
  2
HEADER
  9
$ACADVER
  1
AC1015
  9
$ACADMAINTVER
 70
     6
  9
$DWGCODEPAGE
  3
ANSI_1252
  9
$INSBASE
 10
0.0
 20
0.0
 30
0.0
  9
$EXTMIN
 10
106.536982388634
 20
69.46995708154506
 30
0.0
  9
$EXTMAX
 10
815.2004057121851
 20
392.6991283918843
 30
0.0
  9
$LIMMIN
 10
0.0
 20
0.0
  9
$LIMMAX
 10
0.0
 20
0.0
  9
$ORTHOMODE
 70
     0
  9
$REGENMODE
 70
     1
  9
$FILLMODE
 70
     1
  9
$QTEXTMODE
 70
     0
  9
$MIRRTEXT
 70
     0
  9
$LTSCALE
 40
1.0
  9
$ATTMODE
 70
     1
  9
$TEXTSIZE
 40
2.5
  9
$TRACEWID
 40
1.0
  9
$TEXTSTYLE
  7
Standard
  9
$CLAYER
  8
0
  9
$CELTYPE
  6
ByLayer
  9
$CECOLOR
 62
   256
  9
$CELTSCALE
 40
1.0
  9
$DISPSILH
 70
     0
  9
$DIMSCALE
 40
1.0
  9
$DIMASZ
 40
2.5
  9
$DIMEXO
 40
0.625
  9
$DIMDLI
 40
3.75
  9
$DIMRND
 40
0.0
  9
$DIMDLE
 40
0.0
  9
$DIMEXE
 40
1.25
  9
$DIMTP
 40
0.0
  9
$DIMTM
 40
0.0
  9
$DIMTXT
 40
2.5
  9
$DIMCEN
 40
2.5
  9
$DIMTSZ
 40
0.0
  9
$DIMTOL
 70
     0
  9
$DIMLIM
 70
     0
  9
$DIMTIH
 70
     0
  9
$DIMTOH
 70
     0
  9
$DIMSE1
 70
     0
  9
$DIMSE2
 70
     0
  9
$DIMTAD
 70
     1
  9
$DIMZIN
 70
     8
  9
$DIMBLK
  1

  9
$DIMASO
 70
     1
  9
$DIMSHO
 70
     1
  9
$DIMPOST
  1

  9
$DIMAPOST
  1

  9
$DIMALT
 70
     0
  9
$DIMALTD
 70
     3
  9
$DIMALTF
 40
0.03937007874016
  9
$DIMLFAC
 40
1.0
  9
$DIMTOFL
 70
     1
  9
$DIMTVP
 40
0.0
  9
$DIMTIX
 70
     0
  9
$DIMSOXD
 70
     0
  9
$DIMSAH
 70
     0
  9
$DIMBLK1
  1

  9
$DIMBLK2
  1

  9
$DIMSTYLE
  2
ISO-25
  9
$DIMCLRD
 70
     0
  9
$DIMCLRE
 70
     0
  9
$DIMCLRT
 70
     0
  9
$DIMTFAC
 40
1.0
  9
$DIMGAP
 40
0.625
  9
$DIMJUST
 70
     0
  9
$DIMSD1
 70
     0
  9
$DIMSD2
 70
     0
  9
$DIMTOLJ
 70
     0
  9
$DIMTZIN
 70
     8
  9
$DIMALTZ
 70
     0
  9
$DIMALTTZ
 70
     0
  9
$DIMUPT
 70
     0
  9
$DIMDEC
 70
     2
  9
$DIMTDEC
 70
     2
  9
$DIMALTU
 70
     2
  9
$DIMALTTD
 70
     3
  9
$DIMTXSTY
  7
Standard
  9
$DIMAUNIT
 70
     0
  9
$DIMADEC
 70
     0
  9
$DIMALTRND
 40
0.0
  9
$DIMAZIN
 70
     0
  9
$DIMDSEP
 70
    44
  9
$DIMATFIT
 70
     3
  9
$DIMFRAC
 70
     0
  9
$DIMLDRBLK
  1

  9
$DIMLUNIT
 70
     2
  9
$DIMLWD
 70
    -2
  9
$DIMLWE
 70
    -2
  9
$DIMTMOVE
 70
     0
  9
$LUNITS
 70
     2
  9
$LUPREC
 70
     4
  9
$SKETCHINC
 40
1.0
  9
$FILLETRAD
 40
0.0
  9
$AUNITS
 70
     0
  9
$AUPREC
 70
     0
  9
$MENU
  1
.
  9
$ELEVATION
 40
0.0
  9
$PELEVATION
 40
0.0
  9
$THICKNESS
 40
0.0
  9
$LIMCHECK
 70
     0
  9
$CHAMFERA
 40
0.0
  9
$CHAMFERB
 40
0.0
  9
$CHAMFERC
 40
0.0
  9
$CHAMFERD
 40
0.0
  9
$SKPOLY
 70
     0
  9
$TDCREATE
 40
2455098.751369213
  9
$TDUCREATE
 40
2455098.66803588
  9
$TDUPDATE
 40
2455098.793035903
  9
$TDUUPDATE
 40
2455098.70970257
  9
$TDINDWG
 40
0.0308266204
  9
$TDUSRTIMER
 40
0.0308242593
  9
$USRTIMER
 70
     1
  9
$ANGBASE
 50
0.0
  9
$ANGDIR
 70
     0
  9
$PDMODE
 70
     0
  9
$PDSIZE
 40
0.0
  9
$PLINEWID
 40
0.0
  9
$SPLFRAME
 70
     0
  9
$SPLINETYPE
 70
     6
  9
$SPLINESEGS
 70
     8
  9
$HANDSEED
  5
1F3
  9
$SURFTAB1
 70
     6
  9
$SURFTAB2
 70
     6
  9
$SURFTYPE
 70
     6
  9
$SURFU
 70
     6
  9
$SURFV
 70
     6
  9
$UCSBASE
  2

  9
$UCSNAME
  2

  9
$UCSORG
 10
0.0
 20
0.0
 30
0.0
  9
$UCSXDIR
 10
1.0
 20
0.0
 30
0.0
  9
$UCSYDIR
 10
0.0
 20
1.0
 30
0.0
  9
$UCSORTHOREF
  2

  9
$UCSORTHOVIEW
 70
     0
  9
$UCSORGTOP
 10
0.0
 20
0.0
 30
0.0
  9
$UCSORGBOTTOM
 10
0.0
 20
0.0
 30
0.0
  9
$UCSORGLEFT
 10
0.0
 20
0.0
 30
0.0
  9
$UCSORGRIGHT
 10
0.0
 20
0.0
 30
0.0
  9
$UCSORGFRONT
 10
0.0
 20
0.0
 30
0.0
  9
$UCSORGBACK
 10
0.0
 20
0.0
 30
0.0
  9
$PUCSBASE
  2

  9
$PUCSNAME
  2

  9
$PUCSORG
 10
0.0
 20
0.0
 30
0.0
  9
$PUCSXDIR
 10
1.0
 20
0.0
 30
0.0
  9
$PUCSYDIR
 10
0.0
 20
1.0
 30
0.0
  9
$PUCSORTHOREF
  2

  9
$PUCSORTHOVIEW
 70
     0
  9
$PUCSORGTOP
 10
0.0
 20
0.0
 30
0.0
  9
$PUCSORGBOTTOM
 10
0.0
 20
0.0
 30
0.0
  9
$PUCSORGLEFT
 10
0.0
 20
0.0
 30
0.0
  9
$PUCSORGRIGHT
 10
0.0
 20
0.0
 30
0.0
  9
$PUCSORGFRONT
 10
0.0
 20
0.0
 30
0.0
  9
$PUCSORGBACK
 10
0.0
 20
0.0
 30
0.0
  9
$USERI1
 70
     0
  9
$USERI2
 70
     0
  9
$USERI3
 70
     0
  9
$USERI4
 70
     0
  9
$USERI5
 70
     0
  9
$USERR1
 40
0.0
  9
$USERR2
 40
0.0
  9
$USERR3
 40
0.0
  9
$USERR4
 40
0.0
  9
$USERR5
 40
0.0
  9
$WORLDVIEW
 70
     1
  9
$SHADEDGE
 70
     3
  9
$SHADEDIF
 70
    70
  9
$TILEMODE
 70
     1
  9
$MAXACTVP
 70
    64
  9
$PINSBASE
 10
0.0
 20
0.0
 30
0.0
  9
$PLIMCHECK
 70
     0
  9
$PEXTMIN
 10
0.0
 20
0.0
 30
0.0
  9
$PEXTMAX
 10
12.0
 20
9.0
 30
0.0
  9
$PLIMMIN
 10
0.0
 20
0.0
  9
$PLIMMAX
 10
12.0
 20
9.0
  9
$UNITMODE
 70
     0
  9
$VISRETAIN
 70
     1
  9
$PLINEGEN
 70
     0
  9
$PSLTSCALE
 70
     1
  9
$TREEDEPTH
 70
  3020
  9
$CMLSTYLE
  2
Standard
  9
$CMLJUST
 70
     0
  9
$CMLSCALE
 40
20.0
  9
$PROXYGRAPHICS
 70
     1
  9
$MEASUREMENT
 70
     1
  9
$CELWEIGHT
370
    -1
  9
$ENDCAPS
280
     0
  9
$JOINSTYLE
280
     0
  9
$LWDISPLAY
290
     0
  9
$INSUNITS
 70
     4
  9
$HYPERLINKBASE
  1

  9
$STYLESHEET
  1

  9
$XEDIT
290
     1
  9
$CEPSNTYPE
380
     0
  9
$PSTYLEMODE
290
     1
  9
$FINGERPRINTGUID
  2
{5559452E-1E62-4159-8551-BF76FFF3E7E8}
  9
$VERSIONGUID
  2
{3CEB9EF8-4431-4551-B596-6734A9F966A9}
  9
$EXTNAMES
290
     1
  9
$PSVPSCALE
 40
0.0
  9
$OLESTARTUP
290
     0
  0
ENDSEC
  0
SECTION
  2
CLASSES
  0
CLASS
  1
ACDBDICTIONARYWDFLT
  2
AcDbDictionaryWithDefault
  3
ObjectDBX Classes
 90
        0
280
     0
281
     0
  0
CLASS
  1
ACDBPLACEHOLDER
  2
AcDbPlaceHolder
  3
ObjectDBX Classes
 90
        0
280
     0
281
     0
  0
CLASS
  1
LAYOUT
  2
AcDbLayout
  3
ObjectDBX Classes
 90
        0
280
     0
281
     0
  0
CLASS
  1
DICTIONARYVAR
  2
AcDbDictionaryVar
  3
ObjectDBX Classes
 90
        0
280
     0
281
     0
  0
CLASS
  1
TABLESTYLE
  2
AcDbTableStyle
  3
ObjectDBX Classes
 90
     4095
280
     0
281
     0
  0
CLASS
  1
SCALE
  2
AcDbScale
  3
ObjectDBX Classes
 90
     1153
280
     0
281
     0
  0
ENDSEC
  0
SECTION
  2
TABLES
  0
TABLE
  2
VPORT
  5
8
330
0
100
AcDbSymbolTable
 70
     2
  0
VPORT
  5
97
330
8
100
AcDbSymbolTableRecord
100
AcDbViewportTableRecord
  2
*Active
 70
     0
 10
0.0
 20
0.0
 11
1.0
 21
1.0
 12
467.5120853053372
 22
151.4308925286853
 13
0.0
 23
0.0
 14
10.0
 24
10.0
 15
10.0
 25
10.0
 16
0.0
 26
0.0
 36
1.0
 17
0.0
 27
0.0
 37
0.0
 40
865.8892128279883
 41
1.664827586206897
 42
50.0
 43
0.0
 44
0.0
 50
0.0
 51
0.0
 71
     0
 72
  1000
 73
     1
 74
     3
 75
     0
 76
     0
 77
     0
 78
     0
281
     0
 65
     1
110
0.0
120
0.0
130
0.0
111
1.0
121
0.0
131
0.0
112
0.0
122
1.0
132
0.0
 79
     0
146
0.0
  0
ENDTAB
  0
TABLE
  2
LTYPE
  5
5
330
0
100
AcDbSymbolTable
 70
     2
  0
LTYPE
  5
14
330
5
100
AcDbSymbolTableRecord
100
AcDbLinetypeTableRecord
  2
ByBlock
 70
     0
  3

 72
    65
 73
     0
 40
0.0
  0
LTYPE
  5
15
330
5
100
AcDbSymbolTableRecord
100
AcDbLinetypeTableRecord
  2
ByLayer
 70
     0
  3

 72
    65
 73
     0
 40
0.0
  0
LTYPE
  5
16
330
5
100
AcDbSymbolTableRecord
100
AcDbLinetypeTableRecord
  2
Continuous
 70
     0
  3
Solid line
 72
    65
 73
     0
 40
0.0
  0
LTYPE
  5
1D8
330
5
100
AcDbSymbolTableRecord
100
AcDbLinetypeTableRecord
  2
DASHDOT
 70
     0
  3
 __ . __ . __ . __ . __ . __ . __ . 
 72
    65
 73
     4
 40
18.5
 49
12.0
 74
     0
 49
-3.0
 74
     0
 49
0.5
 74
     0
 49
-3.0
 74
     0
  0
ENDTAB
  0
TABLE
  2
LAYER
  5
2
330
0
100
AcDbSymbolTable
 70
     2
  0
LAYER
  5
10
330
2
100
AcDbSymbolTableRecord
100
AcDbLayerTableRecord
  2
0
 70
     0
 62
     7
  6
Continuous
370
    -3
390
F
  0
LAYER
  5
17D
330
2
100
AcDbSymbolTableRecord
100
AcDbLayerTableRecord
  2
DEFPOINTS
 70
     0
 62
     7
  6
Continuous
290
     0
370
    -3
390
F
  0
ENDTAB
  0
TABLE
  2
STYLE
  5
3
330
0
100
AcDbSymbolTable
 70
     1
  0
STYLE
  5
11
330
3
100
AcDbSymbolTableRecord
100
AcDbTextStyleTableRecord
  2
Standard
 70
     0
 40
0.0
 41
1.0
 50
0.0
 71
     0
 42
2.5
  3
txt
  4

  0
ENDTAB
  0
TABLE
  2
VIEW
  5
6
330
0
100
AcDbSymbolTable
 70
     0
  0
ENDTAB
  0
TABLE
  2
UCS
  5
7
330
0
100
AcDbSymbolTable
 70
     0
  0
ENDTAB
  0
TABLE
  2
APPID
  5
9
330
0
100
AcDbSymbolTable
 70
     2
  0
APPID
  5
12
330
9
100
AcDbSymbolTableRecord
100
AcDbRegAppTableRecord
  2
ACAD
 70
     0
  0
APPID
  5
1D7
330
9
100
AcDbSymbolTableRecord
100
AcDbRegAppTableRecord
  2
PROGE_PRINT_SETTINGS
 70
     0
  0
ENDTAB
  0
TABLE
  2
DIMSTYLE
  5
A
330
0
100
AcDbSymbolTable
 70
     2
100
AcDbDimStyleTable
  0
DIMSTYLE
105
27
102
{ACAD_REACTORS
330
178
330
179
330
17A
330
17B
102
}
330
A
100
AcDbSymbolTableRecord
100
AcDbDimStyleTableRecord
  2
Standard
 70
     0
278
     0
340
11
  0
DIMSTYLE
105
29
330
A
100
AcDbSymbolTableRecord
100
AcDbDimStyleTableRecord
  2
ISO-25
 70
     0
 41
2.5
 42
0.625
 43
3.75
 44
1.25
 73
     0
 74
     0
 77
     1
 78
     8
140
2.5
141
2.5
143
0.03937007874016
147
0.625
171
     3
172
     1
271
     2
272
     2
274
     3
278
    44
283
     0
284
     8
340
11
  0
ENDTAB
  0
TABLE
  2
BLOCK_RECORD
  5
1
330
0
100
AcDbSymbolTable
 70
     9
  0
BLOCK_RECORD
  5
1F
330
1
100
AcDbSymbolTableRecord
100
AcDbBlockTableRecord
  2
*Model_Space
340
22
  0
BLOCK_RECORD
  5
73
330
1
100
AcDbSymbolTableRecord
100
AcDbBlockTableRecord
  2
*Paper_Space
340
1DA
  0
BLOCK_RECORD
  5
D1
330
1
100
AcDbSymbolTableRecord
100
AcDbBlockTableRecord
  2
*Paper_Space0
340
74
  0
BLOCK_RECORD
  5
188
330
1
100
AcDbSymbolTableRecord
100
AcDbBlockTableRecord
  2
*D1
340
0
  0
BLOCK_RECORD
  5
193
330
1
100
AcDbSymbolTableRecord
100
AcDbBlockTableRecord
  2
*D2
340
0
  0
BLOCK_RECORD
  5
19E
330
1
100
AcDbSymbolTableRecord
100
AcDbBlockTableRecord
  2
*D3
340
0
  0
BLOCK_RECORD
  5
1A9
330
1
100
AcDbSymbolTableRecord
100
AcDbBlockTableRecord
  2
*D4
340
0
  0
BLOCK_RECORD
  5
1B4
330
1
100
AcDbSymbolTableRecord
100
AcDbBlockTableRecord
  2
*D5
340
0
  0
BLOCK_RECORD
  5
1BF
330
1
100
AcDbSymbolTableRecord
100
AcDbBlockTableRecord
  2
*D6
340
0
  0
BLOCK_RECORD
  5
1CA
330
1
100
AcDbSymbolTableRecord
100
AcDbBlockTableRecord
  2
*D7
340
0
  0
BLOCK_RECORD
  5
1D5
330
1
100
AcDbSymbolTableRecord
100
AcDbBlockTableRecord
  2
*D8
340
0
  0
ENDTAB
  0
ENDSEC
  0
SECTION
  2
BLOCKS
  0
BLOCK
  5
20
330
1F
100
AcDbEntity
  8
0
100
AcDbBlockBegin
  2
*Model_Space
 70
     0
 10
0.0
 20
0.0
 30
0.0
  3
*Model_Space
  1

  0
ENDBLK
  5
21
330
1F
100
AcDbEntity
  8
0
100
AcDbBlockEnd
  0
BLOCK
  5
75
330
73
100
AcDbEntity
 67
     1
  8
0
100
AcDbBlockBegin
  2
*Paper_Space
 70
     0
 10
0.0
 20
0.0
 30
0.0
  3
*Paper_Space
  1

  0
ENDBLK
  5
76
330
73
100
AcDbEntity
 67
     1
  8
0
100
AcDbBlockEnd
  0
BLOCK
  5
1DB
330
D1
100
AcDbEntity
  8
0
100
AcDbBlockBegin
  2
*Paper_Space0
 70
     0
 10
0.0
 20
0.0
 30
0.0
  3
*Paper_Space0
  1

  0
VIEWPORT
  5
1ED
330
D1
100
AcDbEntity
  8
0
100
AcDbViewport
 10
7.8
 20
4.5
 30
0.0
 40
15.64
 41
9.0
 68
     1
 69
     1
 12
6.0
 22
4.5
 13
0.0
 23
0.0
 14
0.5
 24
0.5
 15
0.5
 25
0.5
 16
0.0
 26
0.0
 36
1.0
 17
0.0
 27
0.0
 37
0.0
 42
50.0
 43
0.0
 44
0.0
 45
12.0
 50
0.0
 51
0.0
 72
   100
 90
   557152
  1

281
     0
 71
     1
 74
     0
110
0.0
120
0.0
130
0.0
111
1.0
121
0.0
131
0.0
112
0.0
122
1.0
132
0.0
 79
     0
146
0.0
  0
ENDBLK
  5
1DC
330
D1
100
AcDbEntity
  8
0
100
AcDbBlockEnd
  0
BLOCK
  5
1DD
330
188
100
AcDbEntity
  8
0
100
AcDbBlockBegin
  2
*D1
 70
     1
 10
0.0
 20
0.0
 30
0.0
  3
*D1
  1

  0
POINT
  5
17F
330
188
100
AcDbEntity
  8
DEFPOINTS
  6
ByBlock
 62
     7
380
     1
100
AcDbPoint
 10
166.8286989911075
 20
490.49585
 30
0.0
  0
POINT
  5
180
330
188
100
AcDbEntity
  8
DEFPOINTS
  6
ByBlock
 62
     7
380
     1
100
AcDbPoint
 10
166.8286989911074
 20
257.49585
 30
0.0
  0
LINE
  5
181
330
188
100
AcDbEntity
  8
0
  6
ByBlock
 62
     7
370
    -2
380
     1
100
AcDbLine
 10
166.2036989911075
 20
490.49585
 30
0.0
 11
64.45983018140555
 21
490.49585
 31
0.0
  0
LINE
  5
182
330
188
100
AcDbEntity
  8
0
  6
ByBlock
 62
     7
370
    -2
380
     1
100
AcDbLine
 10
166.2036989911074
 20
257.49585
 30
0.0
 11
64.45983018140555
 21
257.49585
 31
0.0
  0
LINE
  5
183
330
188
100
AcDbEntity
  8
0
  6
ByBlock
 62
     7
370
    -2
380
     1
100
AcDbLine
 10
65.70983018140555
 20
480.49585
 30
0.0
 11
65.70983018140555
 21
267.49585
 31
0.0
  0
SOLID
  5
184
330
188
100
AcDbEntity
  8
0
  6
ByBlock
 62
     7
380
     1
100
AcDbTrace
 10
65.70983018140555
 20
490.49585
 30
0.0
 11
64.04316351473888
 21
480.49585
 31
0.0
 12
67.37649684807222
 22
480.49585
 32
0.0
 13
67.37649684807222
 23
480.49585
 33
0.0
  0
SOLID
  5
185
330
188
100
AcDbEntity
  8
0
  6
ByBlock
 62
     7
380
     1
100
AcDbTrace
 10
65.70983018140555
 20
257.49585
 30
0.0
 11
64.04316351473888
 21
267.49585
 31
0.0
 12
67.37649684807222
 22
267.49585
 32
0.0
 13
67.37649684807222
 23
267.49585
 33
0.0
  0
MTEXT
  5
186
330
188
100
AcDbEntity
  8
0
  6
ByBlock
 62
     0
370
    -2
380
     1
100
AcDbMText
 10
53.70983018140555
 20
373.99585
 30
0.0
 40
14.0
 41
0.0
 71
     5
 72
     1
  1
\A1;233
 11
6.123031769111886E-17
 21
1.0
 31
0.0
 73
     1
 44
1.0
  0
ENDBLK
  5
1DE
330
188
100
AcDbEntity
  8
0
100
AcDbBlockEnd
  0
BLOCK
  5
1DF
330
193
100
AcDbEntity
  8
0
100
AcDbBlockBegin
  2
*D2
 70
     1
 10
0.0
 20
0.0
 30
0.0
  3
*D2
  1

  0
POINT
  5
18A
330
193
100
AcDbEntity
  8
DEFPOINTS
  6
ByBlock
 62
     7
380
     1
100
AcDbPoint
 10
90.37368800000002
 20
425.2116123539661
 30
0.0
  0
POINT
  5
18B
330
193
100
AcDbEntity
  8
DEFPOINTS
  6
ByBlock
 62
     7
380
     1
100
AcDbPoint
 10
442.373688
 20
425.2116123539661
 30
0.0
  0
LINE
  5
18C
330
193
100
AcDbEntity
  8
0
  6
ByBlock
 62
     7
370
    -2
380
     1
100
AcDbLine
 10
90.37368800000002
 20
425.8366123539661
 30
0.0
 11
90.37368800000002
 21
543.4750213103392
 31
0.0
  0
LINE
  5
18D
330
193
100
AcDbEntity
  8
0
  6
ByBlock
 62
     7
370
    -2
380
     1
100
AcDbLine
 10
442.373688
 20
425.8366123539661
 30
0.0
 11
442.373688
 21
543.4750213103392
 31
0.0
  0
LINE
  5
18E
330
193
100
AcDbEntity
  8
0
  6
ByBlock
 62
     7
370
    -2
380
     1
100
AcDbLine
 10
100.373688
 20
542.2250213103392
 30
0.0
 11
432.373688
 21
542.2250213103392
 31
0.0
  0
SOLID
  5
18F
330
193
100
AcDbEntity
  8
0
  6
ByBlock
 62
     7
380
     1
100
AcDbTrace
 10
90.37368800000002
 20
542.2250213103392
 30
0.0
 11
100.373688
 21
540.5583546436726
 31
0.0
 12
100.373688
 22
543.8916879770059
 32
0.0
 13
100.373688
 23
543.8916879770059
 33
0.0
  0
SOLID
  5
190
330
193
100
AcDbEntity
  8
0
  6
ByBlock
 62
     7
380
     1
100
AcDbTrace
 10
442.373688
 20
542.2250213103392
 30
0.0
 11
432.373688
 21
540.5583546436726
 31
0.0
 12
432.373688
 22
543.8916879770059
 32
0.0
 13
432.373688
 23
543.8916879770059
 33
0.0
  0
MTEXT
  5
191
330
193
100
AcDbEntity
  8
0
  6
ByBlock
 62
     0
370
    -2
380
     1
100
AcDbMText
 10
266.373688
 20
554.2250213103392
 30
0.0
 40
14.0
 41
0.0
 71
     5
 72
     1
  1
\A1;352
 73
     1
 44
1.0
  0
ENDBLK
  5
1E0
330
193
100
AcDbEntity
  8
0
100
AcDbBlockEnd
  0
BLOCK
  5
1E1
330
19E
100
AcDbEntity
  8
0
100
AcDbBlockBegin
  2
*D3
 70
     1
 10
0.0
 20
0.0
 30
0.0
  3
*D3
  1

  0
POINT
  5
195
330
19E
100
AcDbEntity
  8
DEFPOINTS
  6
ByBlock
 62
     7
380
     1
100
AcDbPoint
 10
538.013702
 20
495.9008065274035
 30
0.0
  0
POINT
  5
196
330
19E
100
AcDbEntity
  8
DEFPOINTS
  6
ByBlock
 62
     7
380
     1
100
AcDbPoint
 10
720.013702
 20
455.2634390176395
 30
0.0
  0
LINE
  5
197
330
19E
100
AcDbEntity
  8
0
  6
ByBlock
 62
     7
370
    -2
380
     1
100
AcDbLine
 10
538.013702
 20
496.5258065274035
 30
0.0
 11
538.013702
 21
532.6708759063083
 31
0.0
  0
LINE
  5
198
330
19E
100
AcDbEntity
  8
0
  6
ByBlock
 62
     7
370
    -2
380
     1
100
AcDbLine
 10
720.013702
 20
455.8884390176395
 30
0.0
 11
720.013702
 21
532.6708759063083
 31
0.0
  0
LINE
  5
199
330
19E
100
AcDbEntity
  8
0
  6
ByBlock
 62
     7
370
    -2
380
     1
100
AcDbLine
 10
548.013702
 20
531.4208759063083
 30
0.0
 11
710.013702
 21
531.4208759063083
 31
0.0
  0
SOLID
  5
19A
330
19E
100
AcDbEntity
  8
0
  6
ByBlock
 62
     7
380
     1
100
AcDbTrace
 10
538.013702
 20
531.4208759063083
 30
0.0
 11
548.013702
 21
529.7542092396417
 31
0.0
 12
548.013702
 22
533.0875425729749
 32
0.0
 13
548.013702
 23
533.0875425729749
 33
0.0
  0
SOLID
  5
19B
330
19E
100
AcDbEntity
  8
0
  6
ByBlock
 62
     7
380
     1
100
AcDbTrace
 10
720.013702
 20
531.4208759063083
 30
0.0
 11
710.013702
 21
529.7542092396417
 31
0.0
 12
710.013702
 22
533.0875425729749
 32
0.0
 13
710.013702
 23
533.0875425729749
 33
0.0
  0
MTEXT
  5
19C
330
19E
100
AcDbEntity
  8
0
  6
ByBlock
 62
     0
370
    -2
380
     1
100
AcDbMText
 10
629.013702
 20
543.4208759063083
 30
0.0
 40
14.0
 41
0.0
 71
     5
 72
     1
  1
\A1;182
 73
     1
 44
1.0
  0
ENDBLK
  5
1E2
330
19E
100
AcDbEntity
  8
0
100
AcDbBlockEnd
  0
BLOCK
  5
1E3
330
1A9
100
AcDbEntity
  8
0
100
AcDbBlockBegin
  2
*D4
 70
     1
 10
0.0
 20
0.0
 30
0.0
  3
*D4
  1

  0
POINT
  5
1A0
330
1A9
100
AcDbEntity
  8
DEFPOINTS
  6
ByBlock
 62
     7
380
     1
100
AcDbPoint
 10
167.623688
 20
509.99585
 30
0.0
  0
POINT
  5
1A1
330
1A9
100
AcDbEntity
  8
DEFPOINTS
  6
ByBlock
 62
     7
380
     1
100
AcDbPoint
 10
167.623688
 20
237.99585
 30
0.0
  0
LINE
  5
1A2
330
1A9
100
AcDbEntity
  8
0
  6
ByBlock
 62
     7
370
    -2
380
     1
100
AcDbLine
 10
166.998688
 20
509.99585
 30
0.0
 11
29.10027867644885
 21
509.99585
 31
0.0
  0
LINE
  5
1A3
330
1A9
100
AcDbEntity
  8
0
  6
ByBlock
 62
     7
370
    -2
380
     1
100
AcDbLine
 10
166.998688
 20
237.99585
 30
0.0
 11
29.10027867644885
 21
237.99585
 31
0.0
  0
LINE
  5
1A4
330
1A9
100
AcDbEntity
  8
0
  6
ByBlock
 62
     7
370
    -2
380
     1
100
AcDbLine
 10
30.35027867644885
 20
499.99585
 30
0.0
 11
30.35027867644885
 21
247.99585
 31
0.0
  0
SOLID
  5
1A5
330
1A9
100
AcDbEntity
  8
0
  6
ByBlock
 62
     7
380
     1
100
AcDbTrace
 10
30.35027867644885
 20
509.99585
 30
0.0
 11
28.68361200978219
 21
499.99585
 31
0.0
 12
32.01694534311551
 22
499.99585
 32
0.0
 13
32.01694534311551
 23
499.99585
 33
0.0
  0
SOLID
  5
1A6
330
1A9
100
AcDbEntity
  8
0
  6
ByBlock
 62
     7
380
     1
100
AcDbTrace
 10
30.35027867644885
 20
237.99585
 30
0.0
 11
28.68361200978219
 21
247.99585
 31
0.0
 12
32.01694534311551
 22
247.99585
 32
0.0
 13
32.01694534311551
 23
247.99585
 33
0.0
  0
MTEXT
  5
1A7
330
1A9
100
AcDbEntity
  8
0
  6
ByBlock
 62
     0
370
    -2
380
     1
100
AcDbMText
 10
18.35027867644885
 20
373.99585
 30
0.0
 40
14.0
 41
0.0
 71
     5
 72
     1
  1
\A1;272
 11
6.123031769111886E-17
 21
1.0
 31
0.0
 73
     1
 44
1.0
  0
ENDBLK
  5
1E4
330
1A9
100
AcDbEntity
  8
0
100
AcDbBlockEnd
  0
BLOCK
  5
1E5
330
1B4
100
AcDbEntity
  8
0
100
AcDbBlockBegin
  2
*D5
 70
     1
 10
0.0
 20
0.0
 30
0.0
  3
*D5
  1

  0
POINT
  5
1AB
330
1B4
100
AcDbEntity
  8
DEFPOINTS
  6
ByBlock
 62
     7
380
     1
100
AcDbPoint
 10
262.0154027032927
 20
321.9699570815451
 30
0.0
  0
POINT
  5
1AC
330
1B4
100
AcDbEntity
  8
DEFPOINTS
  6
ByBlock
 62
     7
380
     1
100
AcDbPoint
 10
262.0154027032926
 20
88.96995708154509
 30
0.0
  0
LINE
  5
1AD
330
1B4
100
AcDbEntity
  8
0
  6
ByBlock
 62
     7
370
    -2
380
     1
100
AcDbLine
 10
261.3904027032927
 20
321.9699570815451
 30
0.0
 11
159.6465338935907
 21
321.9699570815451
 31
0.0
  0
LINE
  5
1AE
330
1B4
100
AcDbEntity
  8
0
  6
ByBlock
 62
     7
370
    -2
380
     1
100
AcDbLine
 10
261.3904027032926
 20
88.96995708154509
 30
0.0
 11
159.6465338935907
 21
88.96995708154509
 31
0.0
  0
LINE
  5
1AF
330
1B4
100
AcDbEntity
  8
0
  6
ByBlock
 62
     7
370
    -2
380
     1
100
AcDbLine
 10
160.8965338935907
 20
311.9699570815451
 30
0.0
 11
160.8965338935907
 21
98.96995708154509
 31
0.0
  0
SOLID
  5
1B0
330
1B4
100
AcDbEntity
  8
0
  6
ByBlock
 62
     7
380
     1
100
AcDbTrace
 10
160.8965338935907
 20
321.9699570815451
 30
0.0
 11
159.2298672269241
 21
311.9699570815451
 31
0.0
 12
162.5632005602574
 22
311.9699570815451
 32
0.0
 13
162.5632005602574
 23
311.9699570815451
 33
0.0
  0
SOLID
  5
1B1
330
1B4
100
AcDbEntity
  8
0
  6
ByBlock
 62
     7
380
     1
100
AcDbTrace
 10
160.8965338935907
 20
88.96995708154509
 30
0.0
 11
159.2298672269241
 21
98.96995708154509
 31
0.0
 12
162.5632005602574
 22
98.96995708154509
 32
0.0
 13
162.5632005602574
 23
98.96995708154509
 33
0.0
  0
MTEXT
  5
1B2
330
1B4
100
AcDbEntity
  8
0
  6
ByBlock
 62
     0
370
    -2
380
     1
100
AcDbMText
 10
148.8965338935907
 20
205.4699570815451
 30
0.0
 40
14.0
 41
0.0
 71
     5
 72
     1
  1
\A1;233
 11
6.123031769111886E-17
 21
1.0
 31
0.0
 73
     1
 44
1.0
  0
ENDBLK
  5
1E6
330
1B4
100
AcDbEntity
  8
0
100
AcDbBlockEnd
  0
BLOCK
  5
1E7
330
1BF
100
AcDbEntity
  8
0
100
AcDbBlockBegin
  2
*D6
 70
     1
 10
0.0
 20
0.0
 30
0.0
  3
*D6
  1

  0
POINT
  5
1B6
330
1BF
100
AcDbEntity
  8
DEFPOINTS
  6
ByBlock
 62
     7
380
     1
100
AcDbPoint
 10
262.8103917121852
 20
341.4699570815451
 30
0.0
  0
POINT
  5
1B7
330
1BF
100
AcDbEntity
  8
DEFPOINTS
  6
ByBlock
 62
     7
380
     1
100
AcDbPoint
 10
262.8103917121852
 20
69.46995708154506
 30
0.0
  0
LINE
  5
1B8
330
1BF
100
AcDbEntity
  8
0
  6
ByBlock
 62
     7
370
    -2
380
     1
100
AcDbLine
 10
262.1853917121852
 20
341.4699570815451
 30
0.0
 11
124.286982388634
 21
341.4699570815451
 31
0.0
  0
LINE
  5
1B9
330
1BF
100
AcDbEntity
  8
0
  6
ByBlock
 62
     7
370
    -2
380
     1
100
AcDbLine
 10
262.1853917121852
 20
69.46995708154509
 30
0.0
 11
124.286982388634
 21
69.46995708154509
 31
0.0
  0
LINE
  5
1BA
330
1BF
100
AcDbEntity
  8
0
  6
ByBlock
 62
     7
370
    -2
380
     1
100
AcDbLine
 10
125.536982388634
 20
331.4699570815451
 30
0.0
 11
125.536982388634
 21
79.46995708154509
 31
0.0
  0
SOLID
  5
1BB
330
1BF
100
AcDbEntity
  8
0
  6
ByBlock
 62
     7
380
     1
100
AcDbTrace
 10
125.536982388634
 20
341.4699570815451
 30
0.0
 11
123.8703157219674
 21
331.4699570815451
 31
0.0
 12
127.2036490553007
 22
331.4699570815451
 32
0.0
 13
127.2036490553007
 23
331.4699570815451
 33
0.0
  0
SOLID
  5
1BC
330
1BF
100
AcDbEntity
  8
0
  6
ByBlock
 62
     7
380
     1
100
AcDbTrace
 10
125.536982388634
 20
69.46995708154509
 30
0.0
 11
123.8703157219674
 21
79.46995708154509
 31
0.0
 12
127.2036490553007
 22
79.46995708154509
 32
0.0
 13
127.2036490553007
 23
79.46995708154509
 33
0.0
  0
MTEXT
  5
1BD
330
1BF
100
AcDbEntity
  8
0
  6
ByBlock
 62
     0
370
    -2
380
     1
100
AcDbMText
 10
113.536982388634
 20
205.4699570815451
 30
0.0
 40
14.0
 41
0.0
 71
     5
 72
     1
  1
\A1;272
 11
6.123031769111886E-17
 21
1.0
 31
0.0
 73
     1
 44
1.0
  0
ENDBLK
  5
1E8
330
1BF
100
AcDbEntity
  8
0
100
AcDbBlockEnd
  0
BLOCK
  5
1E9
330
1CA
100
AcDbEntity
  8
0
100
AcDbBlockBegin
  2
*D7
 70
     1
 10
0.0
 20
0.0
 30
0.0
  3
*D7
  1

  0
POINT
  5
1C1
330
1CA
100
AcDbEntity
  8
DEFPOINTS
  6
ByBlock
 62
     7
380
     1
100
AcDbPoint
 10
185.5603917121852
 20
256.6857194355111
 30
0.0
  0
POINT
  5
1C2
330
1CA
100
AcDbEntity
  8
DEFPOINTS
  6
ByBlock
 62
     7
380
     1
100
AcDbPoint
 10
537.5603917121852
 20
256.6857194355111
 30
0.0
  0
LINE
  5
1C3
330
1CA
100
AcDbEntity
  8
0
  6
ByBlock
 62
     7
370
    -2
380
     1
100
AcDbLine
 10
185.5603917121852
 20
257.3107194355111
 30
0.0
 11
185.5603917121852
 21
374.9491283918843
 31
0.0
  0
LINE
  5
1C4
330
1CA
100
AcDbEntity
  8
0
  6
ByBlock
 62
     7
370
    -2
380
     1
100
AcDbLine
 10
537.5603917121852
 20
257.3107194355111
 30
0.0
 11
537.5603917121852
 21
374.9491283918843
 31
0.0
  0
LINE
  5
1C5
330
1CA
100
AcDbEntity
  8
0
  6
ByBlock
 62
     7
370
    -2
380
     1
100
AcDbLine
 10
195.5603917121852
 20
373.6991283918843
 30
0.0
 11
527.5603917121852
 21
373.6991283918843
 31
0.0
  0
SOLID
  5
1C6
330
1CA
100
AcDbEntity
  8
0
  6
ByBlock
 62
     7
380
     1
100
AcDbTrace
 10
185.5603917121852
 20
373.6991283918843
 30
0.0
 11
195.5603917121852
 21
372.0324617252176
 31
0.0
 12
195.5603917121852
 22
375.365795058551
 32
0.0
 13
195.5603917121852
 23
375.365795058551
 33
0.0
  0
SOLID
  5
1C7
330
1CA
100
AcDbEntity
  8
0
  6
ByBlock
 62
     7
380
     1
100
AcDbTrace
 10
537.5603917121852
 20
373.6991283918843
 30
0.0
 11
527.5603917121852
 21
372.0324617252176
 31
0.0
 12
527.5603917121852
 22
375.365795058551
 32
0.0
 13
527.5603917121852
 23
375.365795058551
 33
0.0
  0
MTEXT
  5
1C8
330
1CA
100
AcDbEntity
  8
0
  6
ByBlock
 62
     0
370
    -2
380
     1
100
AcDbMText
 10
361.5603917121852
 20
385.6991283918843
 30
0.0
 40
14.0
 41
0.0
 71
     5
 72
     1
  1
\A1;352
 73
     1
 44
1.0
  0
ENDBLK
  5
1EA
330
1CA
100
AcDbEntity
  8
0
100
AcDbBlockEnd
  0
BLOCK
  5
1EB
330
1D5
100
AcDbEntity
  8
0
100
AcDbBlockBegin
  2
*D8
 70
     1
 10
0.0
 20
0.0
 30
0.0
  3
*D8
  1

  0
POINT
  5
1CC
330
1D5
100
AcDbEntity
  8
DEFPOINTS
  6
ByBlock
 62
     7
380
     1
100
AcDbPoint
 10
633.2004057121851
 20
327.3749136089486
 30
0.0
  0
POINT
  5
1CD
330
1D5
100
AcDbEntity
  8
DEFPOINTS
  6
ByBlock
 62
     7
380
     1
100
AcDbPoint
 10
815.2004057121851
 20
286.7375460991846
 30
0.0
  0
LINE
  5
1CE
330
1D5
100
AcDbEntity
  8
0
  6
ByBlock
 62
     7
370
    -2
380
     1
100
AcDbLine
 10
633.2004057121851
 20
327.9999136089486
 30
0.0
 11
633.2004057121851
 21
364.1449829878534
 31
0.0
  0
LINE
  5
1CF
330
1D5
100
AcDbEntity
  8
0
  6
ByBlock
 62
     7
370
    -2
380
     1
100
AcDbLine
 10
815.2004057121851
 20
287.3625460991846
 30
0.0
 11
815.2004057121851
 21
364.1449829878534
 31
0.0
  0
LINE
  5
1D0
330
1D5
100
AcDbEntity
  8
0
  6
ByBlock
 62
     7
370
    -2
380
     1
100
AcDbLine
 10
643.2004057121851
 20
362.8949829878534
 30
0.0
 11
805.2004057121851
 21
362.8949829878534
 31
0.0
  0
SOLID
  5
1D1
330
1D5
100
AcDbEntity
  8
0
  6
ByBlock
 62
     7
380
     1
100
AcDbTrace
 10
633.2004057121851
 20
362.8949829878534
 30
0.0
 11
643.2004057121851
 21
361.2283163211867
 31
0.0
 12
643.2004057121851
 22
364.5616496545201
 32
0.0
 13
643.2004057121851
 23
364.5616496545201
 33
0.0
  0
SOLID
  5
1D2
330
1D5
100
AcDbEntity
  8
0
  6
ByBlock
 62
     7
380
     1
100
AcDbTrace
 10
815.2004057121851
 20
362.8949829878534
 30
0.0
 11
805.2004057121851
 21
361.2283163211867
 31
0.0
 12
805.2004057121851
 22
364.5616496545201
 32
0.0
 13
805.2004057121851
 23
364.5616496545201
 33
0.0
  0
MTEXT
  5
1D3
330
1D5
100
AcDbEntity
  8
0
  6
ByBlock
 62
     0
370
    -2
380
     1
100
AcDbMText
 10
724.2004057121851
 20
374.8949829878534
 30
0.0
 40
14.0
 41
0.0
 71
     5
 72
     1
  1
\A1;182
 73
     1
 44
1.0
  0
ENDBLK
  5
1EC
330
1D5
100
AcDbEntity
  8
0
100
AcDbBlockEnd
  0
ENDSEC
  0
SECTION
  2
ENTITIES
  0
LINE
  5
F9
330
1F
100
AcDbEntity
  8
0
  6
DASHDOT
 62
     7
370
    25
100
AcDbLine
 10
361.5603917121852
 20
76.46995708154506
 30
0.0
 11
361.5603917121852
 21
334.4699570815451
 31
0.0
  0
LINE
  5
FA
330
1F
100
AcDbEntity
  8
0
 62
     7
 48
0.4875
370
    60
100
AcDbLine
 10
413.5603917121852
 20
341.4699570815451
 30
0.0
 11
413.5603917121852
 21
321.9699570815451
 31
0.0
  0
LINE
  5
FB
330
1F
100
AcDbEntity
  8
0
 62
     7
 48
0.075
370
    60
100
AcDbLine
 10
413.5603917121852
 20
341.4699570815451
 30
0.0
 11
416.5603917121852
 21
341.4699570815451
 31
0.0
  0
LINE
  5
FC
330
1F
100
AcDbEntity
  8
0
 62
     7
 48
0.4875
370
    60
100
AcDbLine
 10
416.5603917121852
 20
341.4699570815451
 30
0.0
 11
416.5603917121852
 21
321.9699570815451
 31
0.0
  0
LINE
  5
FD
330
1F
100
AcDbEntity
  8
0
 62
     7
370
    60
100
AcDbLine
 10
437.0603917121852
 20
341.4699570815451
 30
0.0
 11
416.5603917121852
 21
341.4699570815451
 31
0.0
  0
LINE
  5
FE
330
1F
100
AcDbEntity
  8
0
 62
     7
370
    60
100
AcDbLine
 10
470.5603917121852
 20
341.4699570815451
 30
0.0
 11
450.0603917121852
 21
341.4699570815451
 31
0.0
  0
ARC
  5
FF
330
1F
100
AcDbEntity
  8
0
 62
     7
370
    60
100
AcDbCircle
 10
437.0603917121852
 20
339.4699570815451
 30
0.0
 40
2.0
100
AcDbArc
 50
0.0
 51
90.000003
  0
LINE
  5
100
330
1F
100
AcDbEntity
  8
0
 62
     7
 48
0.2
370
    60
100
AcDbLine
 10
439.0603917121852
 20
331.4699570815451
 30
0.0
 11
439.0603917121852
 21
339.4699570815451
 31
0.0
  0
ARC
  5
101
330
1F
100
AcDbEntity
  8
0
 62
     7
370
    60
100
AcDbCircle
 10
443.5603917121852
 20
331.4699570815451
 30
0.0
 40
4.500000000000017
100
AcDbArc
 50
180.0000049999998
 51
359.9999999999998
  0
LINE
  5
102
330
1F
100
AcDbEntity
  8
0
 62
     7
 48
0.2
370
    60
100
AcDbLine
 10
448.0603917121852
 20
339.4699570815451
 30
0.0
 11
448.0603917121852
 21
331.4699570815451
 31
0.0
  0
ARC
  5
103
330
1F
100
AcDbEntity
  8
0
 62
     7
370
    60
100
AcDbCircle
 10
450.0603917121852
 20
339.4699570815451
 30
0.0
 40
2.000000000000003
100
AcDbArc
 50
90.00000299999769
 51
180.0000049999977
  0
LINE
  5
104
330
1F
100
AcDbEntity
  8
0
 62
     7
 48
0.4875
370
    60
100
AcDbLine
 10
470.5603917121852
 20
341.4699570815451
 30
0.0
 11
470.5603917121852
 21
321.9699570815451
 31
0.0
  0
LINE
  5
105
330
1F
100
AcDbEntity
  8
0
 62
     7
 48
0.075
370
    60
100
AcDbLine
 10
473.5603917121852
 20
341.4699570815451
 30
0.0
 11
470.5603917121852
 21
341.4699570815451
 31
0.0
  0
LINE
  5
106
330
1F
100
AcDbEntity
  8
0
 62
     7
 48
0.4875
370
    60
100
AcDbLine
 10
473.5603917121852
 20
341.4699570815451
 30
0.0
 11
473.5603917121852
 21
321.9699570815451
 31
0.0
  0
LINE
  5
107
330
1F
100
AcDbEntity
  8
0
 62
     7
 48
0.4875
370
    60
100
AcDbLine
 10
249.5603917121852
 20
341.4699570815451
 30
0.0
 11
249.5603917121852
 21
321.9699570815451
 31
0.0
  0
LINE
  5
108
330
1F
100
AcDbEntity
  8
0
 62
     7
 48
0.4875
370
    60
100
AcDbLine
 10
252.5603917121852
 20
341.4699570815451
 30
0.0
 11
252.5603917121852
 21
321.9699570815451
 31
0.0
  0
LINE
  5
109
330
1F
100
AcDbEntity
  8
0
 62
     7
 48
0.075
370
    60
100
AcDbLine
 10
252.5603917121852
 20
341.4699570815451
 30
0.0
 11
249.5603917121852
 21
341.4699570815451
 31
0.0
  0
ARC
  5
10A
330
1F
100
AcDbEntity
  8
0
 62
     7
370
    60
100
AcDbCircle
 10
273.0603917121852
 20
339.4699570815451
 30
0.0
 40
2.0
100
AcDbArc
 50
0.0
 51
90.000003
  0
LINE
  5
10B
330
1F
100
AcDbEntity
  8
0
 62
     7
 48
0.2
370
    60
100
AcDbLine
 10
275.0603917121852
 20
339.4699570815451
 30
0.0
 11
275.0603917121852
 21
331.4699570815451
 31
0.0
  0
ARC
  5
10C
330
1F
100
AcDbEntity
  8
0
 62
     7
370
    60
100
AcDbCircle
 10
279.5603917121852
 20
331.4699570815451
 30
0.0
 40
4.500000000000017
100
AcDbArc
 50
180.0000049999998
 51
359.9999999999998
  0
LINE
  5
10D
330
1F
100
AcDbEntity
  8
0
 62
     7
 48
0.2
370
    60
100
AcDbLine
 10
284.0603917121852
 20
331.4699570815451
 30
0.0
 11
284.0603917121852
 21
339.4699570815451
 31
0.0
  0
ARC
  5
10E
330
1F
100
AcDbEntity
  8
0
 62
     7
370
    60
100
AcDbCircle
 10
286.0603917121852
 20
339.4699570815451
 30
0.0
 40
2.000000000000003
100
AcDbArc
 50
90.00000300000096
 51
180.0000050000009
  0
LINE
  5
10F
330
1F
100
AcDbEntity
  8
0
 62
     7
370
    60
100
AcDbLine
 10
306.5603917121852
 20
341.4699570815451
 30
0.0
 11
286.0603917121852
 21
341.4699570815451
 31
0.0
  0
LINE
  5
110
330
1F
100
AcDbEntity
  8
0
 62
     7
370
    60
100
AcDbLine
 10
273.0603917121852
 20
341.4699570815451
 30
0.0
 11
252.5603917121852
 21
341.4699570815451
 31
0.0
  0
LINE
  5
111
330
1F
100
AcDbEntity
  8
0
 62
     7
 48
0.4875
370
    60
100
AcDbLine
 10
306.5603917121852
 20
341.4699570815451
 30
0.0
 11
306.5603917121852
 21
321.9699570815451
 31
0.0
  0
LINE
  5
112
330
1F
100
AcDbEntity
  8
0
 62
     7
 48
0.075
370
    60
100
AcDbLine
 10
306.5603917121852
 20
341.4699570815451
 30
0.0
 11
309.5603917121852
 21
341.4699570815451
 31
0.0
  0
LINE
  5
113
330
1F
100
AcDbEntity
  8
0
 62
     7
 48
0.4875
370
    60
100
AcDbLine
 10
309.5603917121852
 20
341.4699570815451
 30
0.0
 11
309.5603917121852
 21
321.9699570815451
 31
0.0
  0
LINE
  5
114
330
1F
100
AcDbEntity
  8
0
 62
     7
370
    60
100
AcDbLine
 10
528.5603917121852
 20
321.9699570815451
 30
0.0
 11
194.5603917121852
 21
321.9699570815451
 31
0.0
  0
LINE
  5
115
330
1F
100
AcDbEntity
  8
0
 62
     7
370
    60
100
AcDbLine
 10
205.5603917121852
 20
310.9699570815451
 30
0.0
 11
517.5603917121852
 21
310.9699570815451
 31
0.0
  0
LINE
  5
116
330
1F
100
AcDbEntity
  8
0
 62
     7
370
    60
100
AcDbLine
 10
205.5603917121852
 20
305.1972980815451
 30
0.0
 11
517.5603917121852
 21
305.1972980815451
 31
0.0
  0
LINE
  5
117
330
1F
100
AcDbEntity
  8
0
 62
     7
 48
0.4875
370
    60
100
AcDbLine
 10
416.5603917121852
 20
69.46995708154506
 30
0.0
 11
416.5603917121852
 21
88.96995708154509
 31
0.0
  0
LINE
  5
118
330
1F
100
AcDbEntity
  8
0
 62
     7
 48
0.075
370
    60
100
AcDbLine
 10
413.5603917121852
 20
69.46995708154506
 30
0.0
 11
416.5603917121852
 21
69.46995708154506
 31
0.0
  0
LINE
  5
119
330
1F
100
AcDbEntity
  8
0
 62
     7
 48
0.4875
370
    60
100
AcDbLine
 10
413.5603917121852
 20
69.46995708154506
 30
0.0
 11
413.5603917121852
 21
88.96995708154509
 31
0.0
  0
LINE
  5
11A
330
1F
100
AcDbEntity
  8
0
 62
     7
370
    60
100
AcDbLine
 10
437.0603917121852
 20
69.46995708154506
 30
0.0
 11
416.5603917121852
 21
69.46995708154506
 31
0.0
  0
LINE
  5
11B
330
1F
100
AcDbEntity
  8
0
 62
     7
 48
0.4875
370
    60
100
AcDbLine
 10
309.5603917121852
 20
69.46995708154506
 30
0.0
 11
309.5603917121852
 21
88.96995708154509
 31
0.0
  0
LINE
  5
11C
330
1F
100
AcDbEntity
  8
0
 62
     7
 48
0.075
370
    60
100
AcDbLine
 10
306.5603917121852
 20
69.46995708154506
 30
0.0
 11
309.5603917121852
 21
69.46995708154506
 31
0.0
  0
LINE
  5
11D
330
1F
100
AcDbEntity
  8
0
 62
     7
 48
0.4875
370
    60
100
AcDbLine
 10
306.5603917121852
 20
69.46995708154506
 30
0.0
 11
306.5603917121852
 21
88.96995708154509
 31
0.0
  0
LINE
  5
11E
330
1F
100
AcDbEntity
  8
0
 62
     7
370
    60
100
AcDbLine
 10
273.0603917121852
 20
69.46995708154506
 30
0.0
 11
252.5603917121852
 21
69.46995708154506
 31
0.0
  0
LINE
  5
11F
330
1F
100
AcDbEntity
  8
0
 62
     7
370
    60
100
AcDbLine
 10
306.5603917121852
 20
69.46995708154506
 30
0.0
 11
286.0603917121852
 21
69.46995708154506
 31
0.0
  0
ARC
  5
120
330
1F
100
AcDbEntity
  8
0
 62
     7
370
    60
100
AcDbCircle
 10
286.0603917121852
 20
71.46995708154506
 30
0.0
 40
2.000000000000008
100
AcDbArc
 50
180.0000049999997
 51
269.9999969999997
  0
LINE
  5
121
330
1F
100
AcDbEntity
  8
0
 62
     7
 48
0.2
370
    60
100
AcDbLine
 10
284.0603917121852
 20
71.46995708154506
 30
0.0
 11
284.0603917121852
 21
79.46995708154506
 31
0.0
  0
ARC
  5
122
330
1F
100
AcDbEntity
  8
0
 62
     7
370
    60
100
AcDbCircle
 10
279.5603917121852
 20
79.46995708154506
 30
0.0
 40
4.5
100
AcDbArc
 50
0.0
 51
180.000005
  0
LINE
  5
123
330
1F
100
AcDbEntity
  8
0
 62
     7
 48
0.2
370
    60
100
AcDbLine
 10
275.0603917121852
 20
79.46995708154506
 30
0.0
 11
275.0603917121852
 21
71.46995708154506
 31
0.0
  0
ARC
  5
124
330
1F
100
AcDbEntity
  8
0
 62
     7
370
    60
100
AcDbCircle
 10
273.0603917121852
 20
71.46995708154506
 30
0.0
 40
2.000000000000003
100
AcDbArc
 50
269.999996999999
 51
359.999999999999
  0
LINE
  5
125
330
1F
100
AcDbEntity
  8
0
 62
     7
 48
0.4875
370
    60
100
AcDbLine
 10
252.5603917121852
 20
69.46995708154506
 30
0.0
 11
252.5603917121852
 21
88.96995708154509
 31
0.0
  0
LINE
  5
126
330
1F
100
AcDbEntity
  8
0
 62
     7
 48
0.075
370
    60
100
AcDbLine
 10
252.5603917121852
 20
69.46995708154506
 30
0.0
 11
249.5603917121852
 21
69.46995708154506
 31
0.0
  0
LINE
  5
127
330
1F
100
AcDbEntity
  8
0
 62
     7
 48
0.4875
370
    60
100
AcDbLine
 10
249.5603917121852
 20
69.46995708154506
 30
0.0
 11
249.5603917121852
 21
88.96995708154509
 31
0.0
  0
LINE
  5
128
330
1F
100
AcDbEntity
  8
0
 62
     7
 48
0.4875
370
    60
100
AcDbLine
 10
473.5603917121852
 20
69.46995708154506
 30
0.0
 11
473.5603917121852
 21
88.96995708154509
 31
0.0
  0
LINE
  5
129
330
1F
100
AcDbEntity
  8
0
 62
     7
 48
0.4875
370
    60
100
AcDbLine
 10
470.5603917121852
 20
69.46995708154506
 30
0.0
 11
470.5603917121852
 21
88.96995708154509
 31
0.0
  0
LINE
  5
12A
330
1F
100
AcDbEntity
  8
0
 62
     7
 48
0.075
370
    60
100
AcDbLine
 10
473.5603917121852
 20
69.46995708154506
 30
0.0
 11
470.5603917121852
 21
69.46995708154506
 31
0.0
  0
ARC
  5
12B
330
1F
100
AcDbEntity
  8
0
 62
     7
370
    60
100
AcDbCircle
 10
450.0603917121852
 20
71.46995708154506
 30
0.0
 40
2.000000000000008
100
AcDbArc
 50
180.0000049999997
 51
269.9999969999997
  0
LINE
  5
12C
330
1F
100
AcDbEntity
  8
0
 62
     7
 48
0.2
370
    60
100
AcDbLine
 10
448.0603917121852
 20
79.46995708154506
 30
0.0
 11
448.0603917121852
 21
71.46995708154506
 31
0.0
  0
ARC
  5
12D
330
1F
100
AcDbEntity
  8
0
 62
     7
370
    60
100
AcDbCircle
 10
443.5603917121852
 20
79.46995708154506
 30
0.0
 40
4.5
100
AcDbArc
 50
0.0
 51
180.000005
  0
LINE
  5
12E
330
1F
100
AcDbEntity
  8
0
 62
     7
 48
0.2
370
    60
100
AcDbLine
 10
439.0603917121852
 20
71.46995708154506
 30
0.0
 11
439.0603917121852
 21
79.46995708154506
 31
0.0
  0
ARC
  5
12F
330
1F
100
AcDbEntity
  8
0
 62
     7
370
    60
100
AcDbCircle
 10
437.0603917121852
 20
71.46995708154506
 30
0.0
 40
2.000000000000003
100
AcDbArc
 50
269.9999970000023
 51
0.00000000000229
  0
LINE
  5
130
330
1F
100
AcDbEntity
  8
0
 62
     7
370
    60
100
AcDbLine
 10
470.5603917121852
 20
69.46995708154506
 30
0.0
 11
450.0603917121852
 21
69.46995708154506
 31
0.0
  0
LINE
  5
131
330
1F
100
AcDbEntity
  8
0
 62
     7
370
    60
100
AcDbLine
 10
528.5603917121852
 20
88.96995708154509
 30
0.0
 11
194.5603917121852
 21
88.96995708154509
 31
0.0
  0
LINE
  5
132
330
1F
100
AcDbEntity
  8
0
 62
     7
370
    60
100
AcDbLine
 10
205.5603917121852
 20
99.96995708154509
 30
0.0
 11
517.5603917121852
 21
99.96995708154509
 31
0.0
  0
LINE
  5
133
330
1F
100
AcDbEntity
  8
0
 62
     7
370
    60
100
AcDbLine
 10
205.5603917121852
 20
105.7426160815451
 30
0.0
 11
517.5603917121852
 21
105.7426160815451
 31
0.0
  0
LINE
  5
134
330
1F
100
AcDbEntity
  8
0
 62
     7
370
    60
100
AcDbLine
 10
520.7877327121852
 20
108.9699570815451
 30
0.0
 11
520.7877327121852
 21
301.9699570815451
 31
0.0
  0
ARC
  5
135
330
1F
100
AcDbEntity
  8
0
 62
     7
370
    60
100
AcDbCircle
 10
517.5603917121852
 20
301.9699570815451
 30
0.0
 40
3.227338000000068
100
AcDbArc
 50
359.9998899999995
 51
90.00000299999958
  0
ARC
  5
136
330
1F
100
AcDbEntity
  8
0
 62
     7
370
    60
100
AcDbCircle
 10
205.5603917121852
 20
301.9699570815451
 30
0.0
 40
3.227337999999979
100
AcDbArc
 50
90.00000299999974
 51
180.0001039999997
  0
LINE
  5
137
330
1F
100
AcDbEntity
  8
0
 62
     7
370
    60
100
AcDbLine
 10
202.3330507121852
 20
108.9699570815451
 30
0.0
 11
202.3330507121852
 21
301.9699570815451
 31
0.0
  0
ARC
  5
138
330
1F
100
AcDbEntity
  8
0
 62
     7
370
    60
100
AcDbCircle
 10
205.5603917121852
 20
108.9699570815451
 30
0.0
 40
3.227338000000005
100
AcDbArc
 50
179.999896
 51
269.9999970000001
  0
ARC
  5
139
330
1F
100
AcDbEntity
  8
0
 62
     7
370
    60
100
AcDbCircle
 10
517.5603917121852
 20
108.9699570815451
 30
0.0
 40
3.227337999999979
100
AcDbArc
 50
269.9999970000008
 51
0.0001100000007403
  0
LINE
  5
13A
330
1F
100
AcDbEntity
  8
0
 62
     7
370
    60
100
AcDbLine
 10
196.5603917121852
 20
108.9699570815451
 30
0.0
 11
196.5603917121852
 21
301.9699570815451
 31
0.0
  0
LINE
  5
13B
330
1F
100
AcDbEntity
  8
0
 62
     7
370
    60
100
AcDbLine
 10
526.5603917121852
 20
108.9699570815451
 30
0.0
 11
526.5603917121852
 21
301.9699570815451
 31
0.0
  0
ARC
  5
13C
330
1F
100
AcDbEntity
  8
0
 62
     7
370
    60
100
AcDbCircle
 10
517.5603917121852
 20
301.9699570815451
 30
0.0
 40
9.0
100
AcDbArc
 50
0.0
 51
90.000003
  0
ARC
  5
13D
330
1F
100
AcDbEntity
  8
0
 62
     7
370
    60
100
AcDbCircle
 10
517.5603917121852
 20
108.9699570815451
 30
0.0
 40
9.000000000000012
100
AcDbArc
 50
269.9999970000001
 51
0.0000000000001018
  0
ARC
  5
13E
330
1F
100
AcDbEntity
  8
0
 62
     7
370
    60
100
AcDbCircle
 10
205.5603917121852
 20
108.9699570815451
 30
0.0
 40
8.999999999999977
100
AcDbArc
 50
180.0000050000002
 51
269.9999970000002
  0
ARC
  5
13F
330
1F
100
AcDbEntity
  8
0
 62
     7
370
    60
100
AcDbCircle
 10
205.5603917121852
 20
301.9699570815451
 30
0.0
 40
9.000000000000012
100
AcDbArc
 50
90.00000299999986
 51
180.0000049999998
  0
LINE
  5
140
330
1F
100
AcDbEntity
  8
0
 62
     7
370
    60
100
AcDbLine
 10
537.5603917121852
 20
97.96995708154509
 30
0.0
 11
537.5603917121852
 21
312.9699570815451
 31
0.0
  0
LINE
  5
141
330
1F
100
AcDbEntity
  8
0
 62
     7
370
    60
100
AcDbLine
 10
185.5603917121852
 20
97.96995708154509
 30
0.0
 11
185.5603917121852
 21
312.9699570815451
 31
0.0
  0
ARC
  5
142
330
1F
100
AcDbEntity
  8
0
 62
     7
370
    60
100
AcDbCircle
 10
194.5603917121852
 20
312.9699570815451
 30
0.0
 40
9.000000000000012
100
AcDbArc
 50
90.00000300000005
 51
180.000005
  0
ARC
  5
143
330
1F
100
AcDbEntity
  8
0
 62
     7
370
    60
100
AcDbCircle
 10
528.5603917121852
 20
312.9699570815451
 30
0.0
 40
9.0
100
AcDbArc
 50
0.0
 51
90.000003
  0
ARC
  5
144
330
1F
100
AcDbEntity
  8
0
 62
     7
370
    60
100
AcDbCircle
 10
528.5603917121852
 20
97.96995708154509
 30
0.0
 40
9.000000000000012
100
AcDbArc
 50
269.9999970000001
 51
0.0000000000001018
  0
ARC
  5
145
330
1F
100
AcDbEntity
  8
0
 62
     7
370
    60
100
AcDbCircle
 10
194.5603917121852
 20
97.96995708154509
 30
0.0
 40
9.000000000000005
100
AcDbArc
 50
179.9999949999998
 51
269.9999969999998
  0
LINE
  5
146
330
1F
100
AcDbEntity
  8
0
 62
     7
370
    60
100
AcDbLine
 10
693.2004057121851
 20
321.9699570815451
 30
0.0
 11
635.2004057121851
 21
321.9699570815451
 31
0.0
  0
ARC
  5
147
330
1F
100
AcDbEntity
  8
0
 62
     7
370
    60
100
AcDbCircle
 10
635.2004057121851
 20
319.9699570815451
 30
0.0
 40
2.000000000000003
100
AcDbArc
 50
90.00000300000096
 51
180.0000050000009
  0
LINE
  5
148
330
1F
100
AcDbEntity
  8
0
 62
     7
370
    60
100
AcDbLine
 10
638.2004057121851
 20
341.4699570815451
 30
0.0
 11
683.2004057121851
 21
321.9699570815451
 31
0.0
  0
LINE
  5
149
330
1F
100
AcDbEntity
  8
0
 62
     7
 48
0.125
370
    60
100
AcDbLine
 10
633.2004057121851
 20
341.4699570815451
 30
0.0
 11
638.2004057121851
 21
341.4699570815451
 31
0.0
  0
LINE
  5
14A
330
1F
100
AcDbEntity
  8
0
 62
     7
370
    60
100
AcDbLine
 10
633.2004057121851
 20
341.4699570815451
 30
0.0
 11
633.2004057121851
 21
319.9822860815451
 31
0.0
  0
LINE
  5
14B
330
1F
100
AcDbEntity
  8
0
 62
     7
 48
0.035355
370
    60
100
AcDbLine
 10
693.2004057121851
 20
320.9699570815451
 30
0.0
 11
694.2004057121851
 21
321.9699570815451
 31
0.0
  0
LINE
  5
14C
330
1F
100
AcDbEntity
  8
0
 62
     7
 48
0.225
370
    60
100
AcDbLine
 10
694.2004057121851
 20
321.9699570815451
 30
0.0
 11
703.2004057121851
 21
321.9699570815451
 31
0.0
  0
ARC
  5
14D
330
1F
100
AcDbEntity
  8
0
 62
     7
370
    60
100
AcDbCircle
 10
703.2004057121851
 20
319.9699570815451
 30
0.0
 40
2.0
100
AcDbArc
 50
0.0
 51
90.000003
  0
LINE
  5
14E
330
1F
100
AcDbEntity
  8
0
 62
     7
370
    60
100
AcDbLine
 10
813.2702067121851
 20
307.1960770815451
 30
0.0
 11
705.2004057121851
 21
310.9699570815451
 31
0.0
  0
ARC
  5
14F
330
1F
100
AcDbEntity
  8
0
 62
     7
370
    60
100
AcDbCircle
 10
813.2004057121851
 20
305.1972980815451
 30
0.0
 40
2.0
100
AcDbArc
 50
0.0
 51
88.0
  0
LINE
  5
150
330
1F
100
AcDbEntity
  8
0
 62
     7
370
    60
100
AcDbLine
 10
693.2004057121851
 20
88.96995708154509
 30
0.0
 11
635.2004057121851
 21
88.96995708154509
 31
0.0
  0
LINE
  5
151
330
1F
100
AcDbEntity
  8
0
 62
     7
370
    60
100
AcDbLine
 10
638.2004057121851
 20
69.46995708154506
 30
0.0
 11
683.2004057121851
 21
88.96995708154509
 31
0.0
  0
LINE
  5
152
330
1F
100
AcDbEntity
  8
0
 62
     7
370
    60
100
AcDbLine
 10
633.2004057121851
 20
90.95770408154505
 30
0.0
 11
633.2004057121851
 21
69.46995708154506
 31
0.0
  0
LINE
  5
153
330
1F
100
AcDbEntity
  8
0
 62
     7
 48
0.125
370
    60
100
AcDbLine
 10
633.2004057121851
 20
69.46995708154506
 30
0.0
 11
638.2004057121851
 21
69.46995708154506
 31
0.0
  0
ARC
  5
154
330
1F
100
AcDbEntity
  8
0
 62
     7
370
    60
100
AcDbCircle
 10
635.2004057121851
 20
90.96995708154509
 30
0.0
 40
2.000000000000008
100
AcDbArc
 50
180.0000050000005
 51
269.9999970000005
  0
LINE
  5
155
330
1F
100
AcDbEntity
  8
0
 62
     7
 48
0.035355
370
    60
100
AcDbLine
 10
693.2004057121851
 20
89.96995708154509
 30
0.0
 11
694.2004057121851
 21
88.96995708154509
 31
0.0
  0
LINE
  5
156
330
1F
100
AcDbEntity
  8
0
 62
     7
 48
0.225
370
    60
100
AcDbLine
 10
694.2004057121851
 20
88.96995708154509
 30
0.0
 11
703.2004057121851
 21
88.96995708154509
 31
0.0
  0
ARC
  5
157
330
1F
100
AcDbEntity
  8
0
 62
     7
370
    60
100
AcDbCircle
 10
703.2004057121851
 20
90.96995708154509
 30
0.0
 40
2.000000000000003
100
AcDbArc
 50
269.999996999999
 51
359.999999999999
  0
LINE
  5
158
330
1F
100
AcDbEntity
  8
0
 62
     7
370
    60
100
AcDbLine
 10
813.2702067121851
 20
103.7438370815451
 30
0.0
 11
705.2004057121851
 21
99.96995708154509
 31
0.0
  0
ARC
  5
159
330
1F
100
AcDbEntity
  8
0
 62
     7
370
    60
100
AcDbCircle
 10
813.2004057121851
 20
105.7426160815451
 30
0.0
 40
1.999999999999978
100
AcDbArc
 50
272.0000000000005
 51
0.0000000000004071
  0
LINE
  5
15A
330
1F
100
AcDbEntity
  8
0
 62
     7
 48
0.175
370
    60
100
AcDbLine
 10
633.2004057121851
 20
97.96995708154509
 30
0.0
 11
633.2004057121851
 21
90.96995708154509
 31
0.0
  0
LINE
  5
15B
330
1F
100
AcDbEntity
  8
0
 62
     7
370
    60
100
AcDbLine
 10
633.2004057121851
 20
97.96995708154509
 30
0.0
 11
633.2004057121851
 21
312.9699570815451
 31
0.0
  0
LINE
  5
15C
330
1F
100
AcDbEntity
  8
0
 62
     7
 48
0.175
370
    60
100
AcDbLine
 10
633.2004057121851
 20
319.9699570815451
 30
0.0
 11
633.2004057121851
 21
312.9699570815451
 31
0.0
  0
LINE
  5
15D
330
1F
100
AcDbEntity
  8
0
 62
     7
 48
0.080684
370
    60
100
AcDbLine
 10
815.2004057121851
 20
301.9699490815451
 30
0.0
 11
815.2004057121851
 21
305.1972980815451
 31
0.0
  0
LINE
  5
15E
330
1F
100
AcDbEntity
  8
0
 62
     7
370
    60
100
AcDbLine
 10
815.2004057121851
 20
108.9699570815451
 30
0.0
 11
815.2004057121851
 21
301.9699570815451
 31
0.0
  0
LINE
  5
15F
330
1F
100
AcDbEntity
  8
0
 62
     7
 48
0.080684
370
    60
100
AcDbLine
 10
815.2004057121851
 20
105.7426160815451
 30
0.0
 11
815.2004057121851
 21
108.9699650815451
 31
0.0
  0
LINE
  5
160
330
1F
100
AcDbEntity
  8
0
 62
     7
 48
0.048255
370
    60
100
AcDbLine
 10
815.2004057121851
 20
301.9699570815451
 30
0.0
 11
813.2702067121851
 21
301.9699570815451
 31
0.0
  0
LINE
  5
161
330
1F
100
AcDbEntity
  8
0
 62
     7
 48
0.048255
370
    60
100
AcDbLine
 10
815.2004057121851
 20
108.9699570815451
 30
0.0
 11
813.2702067121851
 21
108.9699570815451
 31
0.0
  0
LINE
  5
162
330
1F
100
AcDbEntity
  8
0
 62
     7
370
    60
100
AcDbLine
 10
813.2702067121851
 20
108.9699570815451
 30
0.0
 11
705.2004057121851
 21
108.9699570815451
 31
0.0
  0
LINE
  5
163
330
1F
100
AcDbEntity
  8
0
 62
     7
370
    60
100
AcDbLine
 10
813.2702067121851
 20
301.9699570815451
 30
0.0
 11
705.2004057121851
 21
301.9699570815451
 31
0.0
  0
LINE
  5
164
330
1F
100
AcDbEntity
  8
0
 62
     7
 48
0.175
370
    60
100
AcDbLine
 10
705.2004057121851
 20
312.9699570815451
 30
0.0
 11
705.2004057121851
 21
319.9699570815451
 31
0.0
  0
LINE
  5
165
330
1F
100
AcDbEntity
  8
0
 62
     7
370
    60
100
AcDbLine
 10
705.2004057121851
 20
97.96995708154509
 30
0.0
 11
705.2004057121851
 21
312.9699570815451
 31
0.0
  0
LINE
  5
166
330
1F
100
AcDbEntity
  8
0
 62
     7
 48
0.175
370
    60
100
AcDbLine
 10
705.2004057121851
 20
90.96995708154509
 30
0.0
 11
705.2004057121851
 21
97.96995708154509
 31
0.0
  0
LINE
  5
167
330
1F
100
AcDbEntity
  8
0
 62
     7
 48
0.05
370
    60
100
AcDbLine
 10
705.2004057121851
 20
312.9699570815451
 30
0.0
 11
703.2004057121851
 21
312.9699570815451
 31
0.0
  0
LINE
  5
168
330
1F
100
AcDbEntity
  8
0
 62
     7
 48
0.05
370
    60
100
AcDbLine
 10
705.2004057121851
 20
97.96995708154509
 30
0.0
 11
703.2004057121851
 21
97.96995708154509
 31
0.0
  0
LINE
  5
169
330
1F
100
AcDbEntity
  8
0
 62
     7
370
    60
100
AcDbLine
 10
694.2004057121851
 20
97.96995708154509
 30
0.0
 11
694.2004057121851
 21
312.9699570815451
 31
0.0
  0
LINE
  5
16A
330
1F
100
AcDbEntity
  8
0
 62
     7
 48
0.225
370
    60
100
AcDbLine
 10
694.2004057121851
 20
97.96995708154509
 30
0.0
 11
703.2004057121851
 21
97.96995708154509
 31
0.0
  0
LINE
  5
16B
330
1F
100
AcDbEntity
  8
0
 62
     7
 48
0.225
370
    60
100
AcDbLine
 10
694.2004057121851
 20
312.9699570815451
 30
0.0
 11
703.2004057121851
 21
312.9699570815451
 31
0.0
  0
LINE
  5
16C
330
1F
100
AcDbEntity
  8
0
 62
     7
 48
0.025
370
    60
100
AcDbLine
 10
693.2004057121851
 20
312.9699570815451
 30
0.0
 11
694.2004057121851
 21
312.9699570815451
 31
0.0
  0
LINE
  5
16D
330
1F
100
AcDbEntity
  8
0
 62
     7
 48
0.025
370
    60
100
AcDbLine
 10
693.2004057121851
 20
97.96995708154509
 30
0.0
 11
694.2004057121851
 21
97.96995708154509
 31
0.0
  0
LINE
  5
16E
330
1F
100
AcDbEntity
  8
0
 62
     7
370
    60
100
AcDbLine
 10
693.2004057121851
 20
97.96995708154509
 30
0.0
 11
635.2004057121851
 21
97.96995708154509
 31
0.0
  0
LINE
  5
16F
330
1F
100
AcDbEntity
  8
0
 62
     7
370
    60
100
AcDbLine
 10
693.2004057121851
 20
97.96995708154509
 30
0.0
 11
693.2004057121851
 21
312.9699570815451
 31
0.0
  0
LINE
  5
170
330
1F
100
AcDbEntity
  8
0
 62
     7
370
    60
100
AcDbLine
 10
693.2004057121851
 20
312.9699570815451
 30
0.0
 11
635.2004057121851
 21
312.9699570815451
 31
0.0
  0
LINE
  5
171
330
1F
100
AcDbEntity
  8
0
 62
     7
 48
0.05
370
    60
100
AcDbLine
 10
633.2004057121851
 20
312.9699570815451
 30
0.0
 11
635.2004057121851
 21
312.9699570815451
 31
0.0
  0
LINE
  5
172
330
1F
100
AcDbEntity
  8
0
 62
     7
 48
0.05
370
    60
100
AcDbLine
 10
633.2004057121851
 20
97.96995708154509
 30
0.0
 11
635.2004057121851
 21
97.96995708154509
 31
0.0
  0
LINE
  5
173
330
1F
100
AcDbEntity
  8
0
 62
     7
 48
0.225
370
    60
100
AcDbLine
 10
693.2004057121851
 20
97.96995708154509
 30
0.0
 11
693.2004057121851
 21
88.96995708154509
 31
0.0
  0
LINE
  5
174
330
1F
100
AcDbEntity
  8
0
 62
     7
 48
0.225
370
    60
100
AcDbLine
 10
693.2004057121851
 20
312.9699570815451
 30
0.0
 11
693.2004057121851
 21
321.9699570815451
 31
0.0
  0
LINE
  5
175
330
1F
100
AcDbEntity
  8
0
 62
     7
 48
0.225
370
    60
100
AcDbLine
 10
694.2004057121851
 20
321.9699570815451
 30
0.0
 11
694.2004057121851
 21
312.9699570815451
 31
0.0
  0
LINE
  5
176
330
1F
100
AcDbEntity
  8
0
 62
     7
 48
0.225
370
    60
100
AcDbLine
 10
635.2004057121851
 20
97.96995708154509
 30
0.0
 11
635.2004057121851
 21
88.96995708154509
 31
0.0
  0
LINE
  5
177
330
1F
100
AcDbEntity
  8
0
 62
     7
 48
0.225
370
    60
100
AcDbLine
 10
694.2004057121851
 20
88.96995708154509
 30
0.0
 11
694.2004057121851
 21
97.96995708154509
 31
0.0
  0
DIMENSION
  5
178
330
1F
100
AcDbEntity
  8
0
370
    25
100
AcDbDimension
  2
*D5
 10
160.8965338935907
 20
88.96995708154509
 30
0.0
 11
148.8965338935907
 21
205.4699570815451
 31
0.0
 70
    32
 71
     5
 41
2.5
 42
233.0
  3
Standard
100
AcDbAlignedDimension
 13
262.0154027032927
 23
321.9699570815451
 33
0.0
 14
262.0154027032926
 24
88.96995708154509
 34
0.0
 50
90.0
100
AcDbRotatedDimension
1001
ACAD
1000
DSTYLE
1002
{
1070
   171
1070
     3
1070
   143
1040
0.03937
1070
   274
1070
     3
1070
    41
1040
10.0
1070
   289
1070
     0
1070
   141
1040
2.5
1070
   176
1070
     7
1070
   177
1070
     7
1070
   271
1070
     2
1070
    43
1040
3.75
1070
   278
1070
    44
1070
    44
1040
1.25
1070
    42
1040
0.625
1070
   147
1040
5.0
1070
    77
1070
     1
1070
   272
1070
     2
1070
    73
1070
     0
1070
   172
1070
     1
1070
    74
1070
     0
1070
   283
1070
     0
1070
   140
1040
14.0
1070
   284
1070
     8
1070
    78
1070
     8
1002
}
  0
DIMENSION
  5
179
330
1F
100
AcDbEntity
  8
0
370
    25
100
AcDbDimension
  2
*D6
 10
125.536982388634
 20
69.46995708154506
 30
0.0
 11
113.536982388634
 21
205.4699570815451
 31
0.0
 70
    32
 71
     5
 41
2.5
 42
272.0
  3
Standard
100
AcDbAlignedDimension
 13
262.8103917121852
 23
341.4699570815451
 33
0.0
 14
262.8103917121852
 24
69.46995708154506
 34
0.0
 50
90.0
100
AcDbRotatedDimension
1001
ACAD
1000
DSTYLE
1002
{
1070
   171
1070
     3
1070
   143
1040
0.03937
1070
   274
1070
     3
1070
    41
1040
10.0
1070
   289
1070
     0
1070
   141
1040
2.5
1070
   176
1070
     7
1070
   177
1070
     7
1070
   271
1070
     2
1070
    43
1040
3.75
1070
   278
1070
    44
1070
    44
1040
1.25
1070
    42
1040
0.625
1070
   147
1040
5.0
1070
    77
1070
     1
1070
   272
1070
     2
1070
    73
1070
     0
1070
   172
1070
     1
1070
    74
1070
     0
1070
   283
1070
     0
1070
   140
1040
14.0
1070
   284
1070
     8
1070
    78
1070
     8
1002
}
  0
DIMENSION
  5
17A
330
1F
100
AcDbEntity
  8
0
370
    25
100
AcDbDimension
  2
*D7
 10
537.5603917121852
 20
373.6991283918843
 30
0.0
 11
361.5603917121852
 21
385.6991283918843
 31
0.0
 70
    32
 71
     5
 41
2.5
 42
352.0000000000001
  3
Standard
100
AcDbAlignedDimension
 13
185.5603917121852
 23
256.6857194355111
 33
0.0
 14
537.5603917121852
 24
256.6857194355111
 34
0.0
100
AcDbRotatedDimension
1001
ACAD
1000
DSTYLE
1002
{
1070
   171
1070
     3
1070
   143
1040
0.03937
1070
   274
1070
     3
1070
    41
1040
10.0
1070
   289
1070
     0
1070
   141
1040
2.5
1070
   176
1070
     7
1070
   177
1070
     7
1070
   271
1070
     2
1070
    43
1040
3.75
1070
   278
1070
    44
1070
    44
1040
1.25
1070
    42
1040
0.625
1070
   147
1040
5.0
1070
    77
1070
     1
1070
   272
1070
     2
1070
    73
1070
     0
1070
   172
1070
     1
1070
    74
1070
     0
1070
   283
1070
     0
1070
   140
1040
14.0
1070
   284
1070
     8
1070
    78
1070
     8
1002
}
  0
DIMENSION
  5
17B
330
1F
100
AcDbEntity
  8
0
370
    25
100
AcDbDimension
  2
*D8
 10
815.2004057121851
 20
362.8949829878534
 30
0.0
 11
724.2004057121851
 21
374.8949829878534
 31
0.0
 70
    32
 71
     5
 41
2.5
 42
182.0
  3
Standard
100
AcDbAlignedDimension
 13
633.2004057121851
 23
327.3749136089486
 33
0.0
 14
815.2004057121851
 24
286.7375460991846
 34
0.0
100
AcDbRotatedDimension
1001
ACAD
1000
DSTYLE
1002
{
1070
   171
1070
     3
1070
   143
1040
0.03937
1070
   274
1070
     3
1070
    41
1040
10.0
1070
   289
1070
     0
1070
   141
1040
2.5
1070
   176
1070
     7
1070
   177
1070
     7
1070
   271
1070
     2
1070
    43
1040
3.75
1070
   278
1070
    44
1070
    44
1040
1.25
1070
    42
1040
0.625
1070
   147
1040
5.0
1070
    77
1070
     1
1070
   272
1070
     2
1070
    73
1070
     0
1070
   172
1070
     1
1070
    74
1070
     0
1070
   283
1070
     0
1070
   140
1040
14.0
1070
   284
1070
     8
1070
    78
1070
     8
1002
}
  0
LINE
  5
17C
330
1F
100
AcDbEntity
  8
0
  6
DASHDOT
 62
     7
370
    25
100
AcDbLine
 10
180.3341947121852
 20
205.4699570815451
 30
0.0
 11
542.7865877121851
 21
205.4699570815451
 31
0.0
  0
VIEWPORT
  5
BB
330
73
100
AcDbEntity
 67
     1
  8
0
100
AcDbViewport
 10
7.8
 20
4.5
 30
0.0
 40
15.64
 41
9.0
 68
     1
 69
     1
 12
6.0
 22
4.5
 13
0.0
 23
0.0
 14
0.5
 24
0.5
 15
0.5
 25
0.5
 16
0.0
 26
0.0
 36
1.0
 17
0.0
 27
0.0
 37
0.0
 42
50.0
 43
0.0
 44
0.0
 45
12.0
 50
0.0
 51
0.0
 72
   100
 90
   557152
  1

281
     0
 71
     1
 74
     0
110
0.0
120
0.0
130
0.0
111
1.0
121
0.0
131
0.0
112
0.0
122
1.0
132
0.0
 79
     0
146
0.0
  0
ENDSEC
  0
SECTION
  2
OBJECTS
  0
DICTIONARY
  5
C
330
0
100
AcDbDictionary
281
     1
  3
ACAD_COLOR
350
6C
  3
ACAD_GROUP
350
D
  3
ACAD_LAYOUT
350
1A
  3
ACAD_MATERIAL
350
6B
  3
ACAD_MLEADERSTYLE
350
1EE
  3
ACAD_MLINESTYLE
350
17
  3
ACAD_PLOTSETTINGS
350
19
  3
ACAD_PLOTSTYLENAME
350
E
  3
ACAD_SCALELIST
350
99
  3
ACAD_TABLESTYLE
350
92
  3
ACDBHEADERROUNDTRIPXREC
350
1EF
  3
AcDbVariableDictionary
350
59
  3
DWGPROPS
350
1F2
  0
DICTIONARY
  5
6C
102
{ACAD_REACTORS
330
C
102
}
330
C
100
AcDbDictionary
281
     1
  0
DICTIONARY
  5
D
102
{ACAD_REACTORS
330
C
102
}
330
C
100
AcDbDictionary
281
     1
  0
DICTIONARY
  5
1A
102
{ACAD_REACTORS
330
C
102
}
330
C
100
AcDbDictionary
281
     1
  3
Layout1
350
74
  3
Layout2
350
1DA
  3
Model
350
22
  0
DICTIONARY
  5
6B
102
{ACAD_REACTORS
330
C
102
}
330
C
100
AcDbDictionary
281
     1
  0
DICTIONARY
  5
1EE
102
{ACAD_REACTORS
330
C
102
}
330
C
100
AcDbDictionary
281
     1
  0
DICTIONARY
  5
17
102
{ACAD_REACTORS
330
C
102
}
330
C
100
AcDbDictionary
281
     1
  3
Standard
350
18
  0
DICTIONARY
  5
19
102
{ACAD_REACTORS
330
C
102
}
330
C
100
AcDbDictionary
281
     1
  0
ACDBDICTIONARYWDFLT
  5
E
102
{ACAD_REACTORS
330
C
102
}
330
C
100
AcDbDictionary
281
     1
  3
Normal
350
F
100
AcDbDictionaryWithDefault
340
F
  0
DICTIONARY
  5
99
102
{ACAD_REACTORS
330
C
102
}
330
C
100
AcDbDictionary
281
     1
  3
A0
350
D5
  3
A1
350
D6
  3
A2
350
D7
  3
A3
350
D8
  3
A4
350
D9
  3
A5
350
DA
  3
A6
350
DB
  3
A7
350
DC
  3
A8
350
DD
  3
A9
350
DE
  3
B0
350
DF
  3
B1
350
E0
  3
B2
350
E1
  3
B3
350
E2
  3
B4
350
E3
  3
B5
350
E4
  3
B6
350
E5
  3
B7
350
E6
  3
B8
350
E7
  3
B9
350
E8
  3
C0
350
E9
  3
C1
350
EA
  3
C2
350
EB
  3
C3
350
EC
  3
C4
350
ED
  3
C5
350
EE
  3
C6
350
EF
  3
C7
350
F0
  3
C8
350
F1
  3
C9
350
F2
  3
D0
350
F3
  3
D1
350
F4
  3
D2
350
F5
  0
DICTIONARY
  5
92
102
{ACAD_REACTORS
330
C
102
}
330
C
100
AcDbDictionary
281
     1
  0
DICTIONARY
  5
1EF
102
{ACAD_REACTORS
330
C
102
}
330
C
100
AcDbDictionary
281
     1
  3
COLORDICT
350
1F0
  3
MATERIALDICT
350
1F1
  0
DICTIONARY
  5
59
102
{ACAD_REACTORS
330
C
102
}
330
C
100
AcDbDictionary
281
     1
  3
CTABLESTYLE
350
98
  3
DIMASSOC
350
5A
  3
HIDETEXT
350
5E
  0
XRECORD
  5
1F2
102
{ACAD_REACTORS
330
C
102
}
330
C
100
AcDbXrecord
280
     1
  1
DWGPROPS COOKIE
  2

  3

  4

  6

  7

  8
BelottiMc
  9

300
=
301
=
302
=
303
=
304
=
305
=
306
=
307
=
308
=
309
=
 40
0.0
 41
2455098.66803588
 42
2455098.70970257
  1

 90
        0
  0
LAYOUT
  5
74
102
{ACAD_REACTORS
330
1A
102
}
330
1A
100
AcDbPlotSettings
  1

  2
ProgeSOFT PDF Wizard
  4
A4
  6

 40
5.926666666666667
 41
6.011333333333317
 42
6.095999999999985
 43
5.926666666666667
 44
210.0
 45
297.0
 46
88.56200000000001
 47
136.531
 48
0.0
 49
0.0
140
0.0
141
0.0
142
1.0
143
1.0
 70
   692
 72
     1
 73
     0
 74
     0
  7

 75
    16
147
1.0
148
4.426666666666668
149
1.5
100
AcDbLayout
  1
Layout1
 70
     1
 71
     1
 10
0.0
 20
0.0
 11
0.0
 21
0.0
 12
0.0
 22
0.0
 32
0.0
 14
0.0
 24
0.0
 34
0.0
 15
0.0
 25
0.0
 35
0.0
146
0.0
 13
0.0
 23
0.0
 33
0.0
 16
1.0
 26
0.0
 36
0.0
 17
0.0
 27
1.0
 37
0.0
 76
     0
330
D1
331
1ED
1001
PROGE_PRINT_SETTINGS
1070
    73
1070
     1
  0
LAYOUT
  5
1DA
102
{ACAD_REACTORS
330
1A
102
}
330
1A
100
AcDbPlotSettings
  1

  2
ProgeSOFT PDF Wizard
  4
A4
  6

 40
5.926666666666667
 41
6.011333333333317
 42
6.095999999999985
 43
5.926666666666667
 44
210.0
 45
297.0
 46
88.562
 47
136.531
 48
0.0
 49
0.0
140
0.0
141
0.0
142
1.0
143
1.0
 70
   692
 72
     1
 73
     0
 74
     0
  7

 75
    16
147
1.0
148
0.0
149
0.0
100
AcDbLayout
  1
Layout2
 70
     1
 71
     2
 10
0.0
 20
0.0
 11
12.0
 21
9.0
 12
0.0
 22
0.0
 32
0.0
 14
0.0
 24
0.0
 34
0.0
 15
12.0
 25
9.0
 35
0.0
146
0.0
 13
0.0
 23
0.0
 33
0.0
 16
1.0
 26
0.0
 36
0.0
 17
0.0
 27
1.0
 37
0.0
 76
     0
330
73
331
BB
1001
PROGE_PRINT_SETTINGS
1070
    73
1070
     1
  0
LAYOUT
  5
22
102
{ACAD_REACTORS
330
1A
102
}
330
1A
100
AcDbPlotSettings
  1

  2
none_device
  4
Letter_(8.50_x_11.00_Inches)
  6

 40
6.349999904632568
 41
6.349999904632568
 42
6.350006103515625
 43
6.350006103515625
 44
215.8999938964844
 45
279.3999938964844
 46
0.0
 47
0.0
 48
0.0
 49
0.0
140
0.0
141
0.0
142
1.0
143
5.405160530860505
 70
 11952
 72
     1
 73
     1
 74
     0
  7

 75
     0
147
0.1850083812109831
148
0.1311165230791651
149
0.096403374003771
100
AcDbLayout
  1
Model
 70
     1
 71
     0
 10
0.0
 20
0.0
 11
0.0
 21
0.0
 12
0.0
 22
0.0
 32
0.0
 14
106.536982388634
 24
69.46995708154506
 34
0.0
 15
815.2004057121851
 25
392.6991283918843
 35
0.0
146
0.0
 13
0.0
 23
0.0
 33
0.0
 16
1.0
 26
0.0
 36
0.0
 17
0.0
 27
1.0
 37
0.0
 76
     0
330
1F
331
97
  0
MLINESTYLE
  5
18
102
{ACAD_REACTORS
330
17
102
}
330
17
100
AcDbMlineStyle
  2
STANDARD
 70
     0
  3

 62
   256
 51
90.0
 52
90.0
 71
     2
 49
0.5
 62
   256
  6
BYLAYER
 49
-0.5
 62
   256
  6
BYLAYER
  0
ACDBPLACEHOLDER
  5
F
102
{ACAD_REACTORS
330
E
102
}
330
E
  0
SCALE
  5
D5
102
{ACAD_REACTORS
330
99
102
}
330
99
100
AcDbScale
 70
     0
300
1:1
140
1.0
141
1.0
290
     1
  0
SCALE
  5
D6
102
{ACAD_REACTORS
330
99
102
}
330
99
100
AcDbScale
 70
     0
300
1:2
140
1.0
141
2.0
290
     0
  0
SCALE
  5
D7
102
{ACAD_REACTORS
330
99
102
}
330
99
100
AcDbScale
 70
     0
300
1:4
140
1.0
141
4.0
290
     0
  0
SCALE
  5
D8
102
{ACAD_REACTORS
330
99
102
}
330
99
100
AcDbScale
 70
     0
300
1:5
140
1.0
141
5.0
290
     0
  0
SCALE
  5
D9
102
{ACAD_REACTORS
330
99
102
}
330
99
100
AcDbScale
 70
     0
300
1:8
140
1.0
141
8.0
290
     0
  0
SCALE
  5
DA
102
{ACAD_REACTORS
330
99
102
}
330
99
100
AcDbScale
 70
     0
300
1:10
140
1.0
141
10.0
290
     0
  0
SCALE
  5
DB
102
{ACAD_REACTORS
330
99
102
}
330
99
100
AcDbScale
 70
     0
300
1:16
140
1.0
141
16.0
290
     0
  0
SCALE
  5
DC
102
{ACAD_REACTORS
330
99
102
}
330
99
100
AcDbScale
 70
     0
300
1:20
140
1.0
141
20.0
290
     0
  0
SCALE
  5
DD
102
{ACAD_REACTORS
330
99
102
}
330
99
100
AcDbScale
 70
     0
300
1:30
140
1.0
141
30.0
290
     0
  0
SCALE
  5
DE
102
{ACAD_REACTORS
330
99
102
}
330
99
100
AcDbScale
 70
     0
300
1:40
140
1.0
141
40.0
290
     0
  0
SCALE
  5
DF
102
{ACAD_REACTORS
330
99
102
}
330
99
100
AcDbScale
 70
     0
300
1:50
140
1.0
141
50.0
290
     0
  0
SCALE
  5
E0
102
{ACAD_REACTORS
330
99
102
}
330
99
100
AcDbScale
 70
     0
300
1:100
140
1.0
141
100.0
290
     0
  0
SCALE
  5
E1
102
{ACAD_REACTORS
330
99
102
}
330
99
100
AcDbScale
 70
     0
300
2:1
140
2.0
141
1.0
290
     0
  0
SCALE
  5
E2
102
{ACAD_REACTORS
330
99
102
}
330
99
100
AcDbScale
 70
     0
300
4:1
140
4.0
141
1.0
290
     0
  0
SCALE
  5
E3
102
{ACAD_REACTORS
330
99
102
}
330
99
100
AcDbScale
 70
     0
300
8:1
140
8.0
141
1.0
290
     0
  0
SCALE
  5
E4
102
{ACAD_REACTORS
330
99
102
}
330
99
100
AcDbScale
 70
     0
300
10:1
140
10.0
141
1.0
290
     0
  0
SCALE
  5
E5
102
{ACAD_REACTORS
330
99
102
}
330
99
100
AcDbScale
 70
     0
300
100:1
140
100.0
141
1.0
290
     0
  0
SCALE
  5
E6
102
{ACAD_REACTORS
330
99
102
}
330
99
100
AcDbScale
 70
     0
300
1/128" = 1'-0"
140
0.0078125
141
12.0
290
     0
  0
SCALE
  5
E7
102
{ACAD_REACTORS
330
99
102
}
330
99
100
AcDbScale
 70
     0
300
1/64" = 1'-0"
140
0.015625
141
12.0
290
     0
  0
SCALE
  5
E8
102
{ACAD_REACTORS
330
99
102
}
330
99
100
AcDbScale
 70
     0
300
1/32" = 1'-0"
140
0.03125
141
12.0
290
     0
  0
SCALE
  5
E9
102
{ACAD_REACTORS
330
99
102
}
330
99
100
AcDbScale
 70
     0
300
1/16" = 1'-0"
140
0.0625
141
12.0
290
     0
  0
SCALE
  5
EA
102
{ACAD_REACTORS
330
99
102
}
330
99
100
AcDbScale
 70
     0
300
3/32" = 1'-0"
140
0.09375
141
12.0
290
     0
  0
SCALE
  5
EB
102
{ACAD_REACTORS
330
99
102
}
330
99
100
AcDbScale
 70
     0
300
1/8" = 1'-0"
140
0.125
141
12.0
290
     0
  0
SCALE
  5
EC
102
{ACAD_REACTORS
330
99
102
}
330
99
100
AcDbScale
 70
     0
300
3/16" = 1'-0"
140
0.1875
141
12.0
290
     0
  0
SCALE
  5
ED
102
{ACAD_REACTORS
330
99
102
}
330
99
100
AcDbScale
 70
     0
300
1/4" = 1'-0"
140
0.25
141
12.0
290
     0
  0
SCALE
  5
EE
102
{ACAD_REACTORS
330
99
102
}
330
99
100
AcDbScale
 70
     0
300
3/8" = 1'-0"
140
0.375
141
12.0
290
     0
  0
SCALE
  5
EF
102
{ACAD_REACTORS
330
99
102
}
330
99
100
AcDbScale
 70
     0
300
1/2" = 1'-0"
140
0.5
141
12.0
290
     0
  0
SCALE
  5
F0
102
{ACAD_REACTORS
330
99
102
}
330
99
100
AcDbScale
 70
     0
300
3/4" = 1'-0"
140
0.75
141
12.0
290
     0
  0
SCALE
  5
F1
102
{ACAD_REACTORS
330
99
102
}
330
99
100
AcDbScale
 70
     0
300
1" = 1'-0"
140
1.0
141
12.0
290
     0
  0
SCALE
  5
F2
102
{ACAD_REACTORS
330
99
102
}
330
99
100
AcDbScale
 70
     0
300
1-1/2" = 1'-0"
140
1.5
141
12.0
290
     0
  0
SCALE
  5
F3
102
{ACAD_REACTORS
330
99
102
}
330
99
100
AcDbScale
 70
     0
300
3" = 1'-0"
140
3.0
141
12.0
290
     0
  0
SCALE
  5
F4
102
{ACAD_REACTORS
330
99
102
}
330
99
100
AcDbScale
 70
     0
300
6" = 1'-0"
140
6.0
141
12.0
290
     0
  0
SCALE
  5
F5
102
{ACAD_REACTORS
330
99
102
}
330
99
100
AcDbScale
 70
     0
300
1'-0" = 1'-0"
140
12.0
141
12.0
290
     0
  0
XRECORD
  5
1F0
102
{ACAD_REACTORS
330
1EF
102
}
330
1EF
100
AcDbXrecord
280
     1
340
6C
  0
XRECORD
  5
1F1
102
{ACAD_REACTORS
330
1EF
102
}
330
1EF
100
AcDbXrecord
280
     1
340
6B
  0
DICTIONARYVAR
  5
98
102
{ACAD_REACTORS
330
59
102
}
330
59
100
DictionaryVariables
280
     0
  1
Standard
  0
DICTIONARYVAR
  5
5A
102
{ACAD_REACTORS
330
59
102
}
330
59
100
DictionaryVariables
280
     0
  1
2
  0
DICTIONARYVAR
  5
5E
102
{ACAD_REACTORS
330
59
102
}
330
59
100
DictionaryVariables
280
     0
  1
1
  0
ENDSEC
  0
EOF
