  0
SECTION
  2
HEADER
  9
$ACADVER
  1
AC1015
  9
$ACADMAINTVER
 70
     6
  9
$DWGCODEPAGE
  3
ANSI_1252
  9
$INSBASE
 10
0.0
 20
0.0
 30
0.0
  9
$EXTMIN
 10
111.2612313156726
 20
59.27253218884118
 30
0.0
  9
$EXTMAX
 10
674.7255263156726
 20
578.450364015433
 30
0.0
  9
$LIMMIN
 10
0.0
 20
0.0
  9
$LIMMAX
 10
0.0
 20
0.0
  9
$ORTHOMODE
 70
     0
  9
$REGENMODE
 70
     1
  9
$FILLMODE
 70
     1
  9
$QTEXTMODE
 70
     0
  9
$MIRRTEXT
 70
     0
  9
$LTSCALE
 40
1.0
  9
$ATTMODE
 70
     1
  9
$TEXTSIZE
 40
2.5
  9
$TRACEWID
 40
1.0
  9
$TEXTSTYLE
  7
Standard
  9
$CLAYER
  8
0
  9
$CELTYPE
  6
ByLayer
  9
$CECOLOR
 62
   256
  9
$CELTSCALE
 40
1.0
  9
$DISPSILH
 70
     0
  9
$DIMSCALE
 40
1.0
  9
$DIMASZ
 40
2.5
  9
$DIMEXO
 40
0.625
  9
$DIMDLI
 40
3.75
  9
$DIMRND
 40
0.0
  9
$DIMDLE
 40
0.0
  9
$DIMEXE
 40
1.25
  9
$DIMTP
 40
0.0
  9
$DIMTM
 40
0.0
  9
$DIMTXT
 40
2.5
  9
$DIMCEN
 40
2.5
  9
$DIMTSZ
 40
0.0
  9
$DIMTOL
 70
     0
  9
$DIMLIM
 70
     0
  9
$DIMTIH
 70
     0
  9
$DIMTOH
 70
     0
  9
$DIMSE1
 70
     0
  9
$DIMSE2
 70
     0
  9
$DIMTAD
 70
     1
  9
$DIMZIN
 70
     8
  9
$DIMBLK
  1

  9
$DIMASO
 70
     1
  9
$DIMSHO
 70
     1
  9
$DIMPOST
  1

  9
$DIMAPOST
  1

  9
$DIMALT
 70
     0
  9
$DIMALTD
 70
     3
  9
$DIMALTF
 40
0.03937007874016
  9
$DIMLFAC
 40
1.0
  9
$DIMTOFL
 70
     1
  9
$DIMTVP
 40
0.0
  9
$DIMTIX
 70
     0
  9
$DIMSOXD
 70
     0
  9
$DIMSAH
 70
     0
  9
$DIMBLK1
  1

  9
$DIMBLK2
  1

  9
$DIMSTYLE
  2
ISO-25
  9
$DIMCLRD
 70
     0
  9
$DIMCLRE
 70
     0
  9
$DIMCLRT
 70
     0
  9
$DIMTFAC
 40
1.0
  9
$DIMGAP
 40
0.625
  9
$DIMJUST
 70
     0
  9
$DIMSD1
 70
     0
  9
$DIMSD2
 70
     0
  9
$DIMTOLJ
 70
     0
  9
$DIMTZIN
 70
     8
  9
$DIMALTZ
 70
     0
  9
$DIMALTTZ
 70
     0
  9
$DIMUPT
 70
     0
  9
$DIMDEC
 70
     2
  9
$DIMTDEC
 70
     2
  9
$DIMALTU
 70
     2
  9
$DIMALTTD
 70
     3
  9
$DIMTXSTY
  7
Standard
  9
$DIMAUNIT
 70
     0
  9
$DIMADEC
 70
     0
  9
$DIMALTRND
 40
0.0
  9
$DIMAZIN
 70
     0
  9
$DIMDSEP
 70
    44
  9
$DIMATFIT
 70
     3
  9
$DIMFRAC
 70
     0
  9
$DIMLDRBLK
  1

  9
$DIMLUNIT
 70
     2
  9
$DIMLWD
 70
    -2
  9
$DIMLWE
 70
    -2
  9
$DIMTMOVE
 70
     0
  9
$LUNITS
 70
     2
  9
$LUPREC
 70
     4
  9
$SKETCHINC
 40
1.0
  9
$FILLETRAD
 40
0.0
  9
$AUNITS
 70
     0
  9
$AUPREC
 70
     0
  9
$MENU
  1
.
  9
$ELEVATION
 40
0.0
  9
$PELEVATION
 40
0.0
  9
$THICKNESS
 40
0.0
  9
$LIMCHECK
 70
     0
  9
$CHAMFERA
 40
0.0
  9
$CHAMFERB
 40
0.0
  9
$CHAMFERC
 40
0.0
  9
$CHAMFERD
 40
0.0
  9
$SKPOLY
 70
     0
  9
$TDCREATE
 40
2455097.767084873
  9
$TDUCREATE
 40
2455097.683751539
  9
$TDUPDATE
 40
2455097.808751528
  9
$TDUUPDATE
 40
2455097.725418195
  9
$TDINDWG
 40
0.0313358796
  9
$TDUSRTIMER
 40
0.0313335069
  9
$USRTIMER
 70
     1
  9
$ANGBASE
 50
0.0
  9
$ANGDIR
 70
     0
  9
$PDMODE
 70
     0
  9
$PDSIZE
 40
0.0
  9
$PLINEWID
 40
0.0
  9
$SPLFRAME
 70
     0
  9
$SPLINETYPE
 70
     6
  9
$SPLINESEGS
 70
     8
  9
$HANDSEED
  5
33A
  9
$SURFTAB1
 70
     6
  9
$SURFTAB2
 70
     6
  9
$SURFTYPE
 70
     6
  9
$SURFU
 70
     6
  9
$SURFV
 70
     6
  9
$UCSBASE
  2

  9
$UCSNAME
  2

  9
$UCSORG
 10
0.0
 20
0.0
 30
0.0
  9
$UCSXDIR
 10
1.0
 20
0.0
 30
0.0
  9
$UCSYDIR
 10
0.0
 20
1.0
 30
0.0
  9
$UCSORTHOREF
  2

  9
$UCSORTHOVIEW
 70
     0
  9
$UCSORGTOP
 10
0.0
 20
0.0
 30
0.0
  9
$UCSORGBOTTOM
 10
0.0
 20
0.0
 30
0.0
  9
$UCSORGLEFT
 10
0.0
 20
0.0
 30
0.0
  9
$UCSORGRIGHT
 10
0.0
 20
0.0
 30
0.0
  9
$UCSORGFRONT
 10
0.0
 20
0.0
 30
0.0
  9
$UCSORGBACK
 10
0.0
 20
0.0
 30
0.0
  9
$PUCSBASE
  2

  9
$PUCSNAME
  2

  9
$PUCSORG
 10
0.0
 20
0.0
 30
0.0
  9
$PUCSXDIR
 10
1.0
 20
0.0
 30
0.0
  9
$PUCSYDIR
 10
0.0
 20
1.0
 30
0.0
  9
$PUCSORTHOREF
  2

  9
$PUCSORTHOVIEW
 70
     0
  9
$PUCSORGTOP
 10
0.0
 20
0.0
 30
0.0
  9
$PUCSORGBOTTOM
 10
0.0
 20
0.0
 30
0.0
  9
$PUCSORGLEFT
 10
0.0
 20
0.0
 30
0.0
  9
$PUCSORGRIGHT
 10
0.0
 20
0.0
 30
0.0
  9
$PUCSORGFRONT
 10
0.0
 20
0.0
 30
0.0
  9
$PUCSORGBACK
 10
0.0
 20
0.0
 30
0.0
  9
$USERI1
 70
     0
  9
$USERI2
 70
     0
  9
$USERI3
 70
     0
  9
$USERI4
 70
     0
  9
$USERI5
 70
     0
  9
$USERR1
 40
0.0
  9
$USERR2
 40
0.0
  9
$USERR3
 40
0.0
  9
$USERR4
 40
0.0
  9
$USERR5
 40
0.0
  9
$WORLDVIEW
 70
     1
  9
$SHADEDGE
 70
     3
  9
$SHADEDIF
 70
    70
  9
$TILEMODE
 70
     1
  9
$MAXACTVP
 70
    64
  9
$PINSBASE
 10
0.0
 20
0.0
 30
0.0
  9
$PLIMCHECK
 70
     0
  9
$PEXTMIN
 10
0.0
 20
0.0
 30
0.0
  9
$PEXTMAX
 10
12.0
 20
9.0
 30
0.0
  9
$PLIMMIN
 10
0.0
 20
0.0
  9
$PLIMMAX
 10
12.0
 20
9.0
  9
$UNITMODE
 70
     0
  9
$VISRETAIN
 70
     1
  9
$PLINEGEN
 70
     0
  9
$PSLTSCALE
 70
     1
  9
$TREEDEPTH
 70
  3020
  9
$CMLSTYLE
  2
Standard
  9
$CMLJUST
 70
     0
  9
$CMLSCALE
 40
20.0
  9
$PROXYGRAPHICS
 70
     1
  9
$MEASUREMENT
 70
     1
  9
$CELWEIGHT
370
    -1
  9
$ENDCAPS
280
     0
  9
$JOINSTYLE
280
     0
  9
$LWDISPLAY
290
     0
  9
$INSUNITS
 70
     4
  9
$HYPERLINKBASE
  1

  9
$STYLESHEET
  1

  9
$XEDIT
290
     1
  9
$CEPSNTYPE
380
     0
  9
$PSTYLEMODE
290
     1
  9
$FINGERPRINTGUID
  2
{5559452E-1E62-4159-8551-BF76FFF3E7E8}
  9
$VERSIONGUID
  2
{3CEB9EF8-4431-4551-B596-6734A9F966A9}
  9
$EXTNAMES
290
     1
  9
$PSVPSCALE
 40
0.0
  9
$OLESTARTUP
290
     0
  0
ENDSEC
  0
SECTION
  2
CLASSES
  0
CLASS
  1
ACDBDICTIONARYWDFLT
  2
AcDbDictionaryWithDefault
  3
ObjectDBX Classes
 90
        0
280
     0
281
     0
  0
CLASS
  1
ACDBPLACEHOLDER
  2
AcDbPlaceHolder
  3
ObjectDBX Classes
 90
        0
280
     0
281
     0
  0
CLASS
  1
LAYOUT
  2
AcDbLayout
  3
ObjectDBX Classes
 90
        0
280
     0
281
     0
  0
CLASS
  1
DICTIONARYVAR
  2
AcDbDictionaryVar
  3
ObjectDBX Classes
 90
        0
280
     0
281
     0
  0
CLASS
  1
TABLESTYLE
  2
AcDbTableStyle
  3
ObjectDBX Classes
 90
     4095
280
     0
281
     0
  0
CLASS
  1
SCALE
  2
AcDbScale
  3
ObjectDBX Classes
 90
     1153
280
     0
281
     0
  0
ENDSEC
  0
SECTION
  2
TABLES
  0
TABLE
  2
VPORT
  5
8
330
0
100
AcDbSymbolTable
 70
     2
  0
VPORT
  5
97
330
8
100
AcDbSymbolTableRecord
100
AcDbViewportTableRecord
  2
*Active
 70
     0
 10
0.0
 20
0.0
 11
1.0
 21
1.0
 12
360.2350856047583
 22
253.9813541136025
 13
0.0
 23
0.0
 14
10.0
 24
10.0
 15
10.0
 25
10.0
 16
0.0
 26
0.0
 36
1.0
 17
0.0
 27
0.0
 37
0.0
 40
626.6948895862738
 41
1.664827586206897
 42
50.0
 43
0.0
 44
0.0
 50
0.0
 51
0.0
 71
     0
 72
  1000
 73
     1
 74
     3
 75
     0
 76
     0
 77
     0
 78
     0
281
     0
 65
     1
110
0.0
120
0.0
130
0.0
111
1.0
121
0.0
131
0.0
112
0.0
122
1.0
132
0.0
 79
     0
146
0.0
  0
ENDTAB
  0
TABLE
  2
LTYPE
  5
5
330
0
100
AcDbSymbolTable
 70
     3
  0
LTYPE
  5
14
330
5
100
AcDbSymbolTableRecord
100
AcDbLinetypeTableRecord
  2
ByBlock
 70
     0
  3

 72
    65
 73
     0
 40
0.0
  0
LTYPE
  5
15
330
5
100
AcDbSymbolTableRecord
100
AcDbLinetypeTableRecord
  2
ByLayer
 70
     0
  3

 72
    65
 73
     0
 40
0.0
  0
LTYPE
  5
16
330
5
100
AcDbSymbolTableRecord
100
AcDbLinetypeTableRecord
  2
Continuous
 70
     0
  3
Solid line
 72
    65
 73
     0
 40
0.0
  0
LTYPE
  5
31E
330
5
100
AcDbSymbolTableRecord
100
AcDbLinetypeTableRecord
  2
DASHED
 70
     0
  3
__ __ __ __ __ __ __ __ __ __ __ __ __ __ __ __
 72
    65
 73
     2
 40
15.0
 49
12.0
 74
     0
 49
-3.0
 74
     0
  0
LTYPE
  5
31F
330
5
100
AcDbSymbolTableRecord
100
AcDbLinetypeTableRecord
  2
SOLID
 70
     0
  3

 72
    65
 73
     0
 40
0.0
  0
ENDTAB
  0
TABLE
  2
LAYER
  5
2
330
0
100
AcDbSymbolTable
 70
     3
  0
LAYER
  5
10
330
2
100
AcDbSymbolTableRecord
100
AcDbLayerTableRecord
  2
0
 70
     0
 62
     7
  6
Continuous
370
    -3
390
F
  0
LAYER
  5
FA
330
2
100
AcDbSymbolTableRecord
100
AcDbLayerTableRecord
  2
STANDARD_LAYER
 70
     0
 62
     7
  6
SOLID
370
    -3
390
F
  0
LAYER
  5
2C3
330
2
100
AcDbSymbolTableRecord
100
AcDbLayerTableRecord
  2
DEFPOINTS
 70
     0
 62
     7
  6
Continuous
290
     0
370
    -3
390
F
  0
ENDTAB
  0
TABLE
  2
STYLE
  5
3
330
0
100
AcDbSymbolTable
 70
     1
  0
STYLE
  5
11
330
3
100
AcDbSymbolTableRecord
100
AcDbTextStyleTableRecord
  2
Standard
 70
     0
 40
0.0
 41
1.0
 50
0.0
 71
     0
 42
2.5
  3
txt
  4

  0
ENDTAB
  0
TABLE
  2
VIEW
  5
6
330
0
100
AcDbSymbolTable
 70
     0
  0
ENDTAB
  0
TABLE
  2
UCS
  5
7
330
0
100
AcDbSymbolTable
 70
     0
  0
ENDTAB
  0
TABLE
  2
APPID
  5
9
330
0
100
AcDbSymbolTable
 70
     2
  0
APPID
  5
12
330
9
100
AcDbSymbolTableRecord
100
AcDbRegAppTableRecord
  2
ACAD
 70
     0
  0
APPID
  5
31D
330
9
100
AcDbSymbolTableRecord
100
AcDbRegAppTableRecord
  2
PROGE_PRINT_SETTINGS
 70
     0
  0
ENDTAB
  0
TABLE
  2
DIMSTYLE
  5
A
330
0
100
AcDbSymbolTable
 70
     2
100
AcDbDimStyleTable
  0
DIMSTYLE
105
27
102
{ACAD_REACTORS
330
2BA
330
2BB
330
2BC
330
2BD
102
}
330
A
100
AcDbSymbolTableRecord
100
AcDbDimStyleTableRecord
  2
Standard
 70
     0
278
     0
340
11
  0
DIMSTYLE
105
29
330
A
100
AcDbSymbolTableRecord
100
AcDbDimStyleTableRecord
  2
ISO-25
 70
     0
 41
2.5
 42
0.625
 43
3.75
 44
1.25
 73
     0
 74
     0
 77
     1
 78
     8
140
2.5
141
2.5
143
0.03937007874016
147
0.625
171
     3
172
     1
271
     2
272
     2
274
     3
278
    44
283
     0
284
     8
340
11
  0
ENDTAB
  0
TABLE
  2
BLOCK_RECORD
  5
1
330
0
100
AcDbSymbolTable
 70
     9
  0
BLOCK_RECORD
  5
1F
330
1
100
AcDbSymbolTableRecord
100
AcDbBlockTableRecord
  2
*Model_Space
340
22
  0
BLOCK_RECORD
  5
73
330
1
100
AcDbSymbolTableRecord
100
AcDbBlockTableRecord
  2
*Paper_Space
340
321
  0
BLOCK_RECORD
  5
D1
330
1
100
AcDbSymbolTableRecord
100
AcDbBlockTableRecord
  2
*Paper_Space0
340
74
  0
BLOCK_RECORD
  5
2CE
330
1
100
AcDbSymbolTableRecord
100
AcDbBlockTableRecord
  2
*D1
340
0
  0
BLOCK_RECORD
  5
2D9
330
1
100
AcDbSymbolTableRecord
100
AcDbBlockTableRecord
  2
*D2
340
0
  0
BLOCK_RECORD
  5
2E4
330
1
100
AcDbSymbolTableRecord
100
AcDbBlockTableRecord
  2
*D3
340
0
  0
BLOCK_RECORD
  5
2EF
330
1
100
AcDbSymbolTableRecord
100
AcDbBlockTableRecord
  2
*D4
340
0
  0
BLOCK_RECORD
  5
2FA
330
1
100
AcDbSymbolTableRecord
100
AcDbBlockTableRecord
  2
*D5
340
0
  0
BLOCK_RECORD
  5
305
330
1
100
AcDbSymbolTableRecord
100
AcDbBlockTableRecord
  2
*D6
340
0
  0
BLOCK_RECORD
  5
310
330
1
100
AcDbSymbolTableRecord
100
AcDbBlockTableRecord
  2
*D7
340
0
  0
BLOCK_RECORD
  5
31B
330
1
100
AcDbSymbolTableRecord
100
AcDbBlockTableRecord
  2
*D8
340
0
  0
ENDTAB
  0
ENDSEC
  0
SECTION
  2
BLOCKS
  0
BLOCK
  5
20
330
1F
100
AcDbEntity
  8
0
100
AcDbBlockBegin
  2
*Model_Space
 70
     0
 10
0.0
 20
0.0
 30
0.0
  3
*Model_Space
  1

  0
ENDBLK
  5
21
330
1F
100
AcDbEntity
  8
0
100
AcDbBlockEnd
  0
BLOCK
  5
75
330
73
100
AcDbEntity
 67
     1
  8
0
100
AcDbBlockBegin
  2
*Paper_Space
 70
     0
 10
0.0
 20
0.0
 30
0.0
  3
*Paper_Space
  1

  0
ENDBLK
  5
76
330
73
100
AcDbEntity
 67
     1
  8
0
100
AcDbBlockEnd
  0
BLOCK
  5
322
330
D1
100
AcDbEntity
  8
0
100
AcDbBlockBegin
  2
*Paper_Space0
 70
     0
 10
0.0
 20
0.0
 30
0.0
  3
*Paper_Space0
  1

  0
VIEWPORT
  5
334
330
D1
100
AcDbEntity
  8
0
100
AcDbViewport
 10
7.8
 20
4.5
 30
0.0
 40
15.64
 41
9.0
 68
     1
 69
     1
 12
6.0
 22
4.5
 13
0.0
 23
0.0
 14
0.5
 24
0.5
 15
0.5
 25
0.5
 16
0.0
 26
0.0
 36
1.0
 17
0.0
 27
0.0
 37
0.0
 42
50.0
 43
0.0
 44
0.0
 45
12.0
 50
0.0
 51
0.0
 72
   100
 90
   557152
  1

281
     0
 71
     1
 74
     0
110
0.0
120
0.0
130
0.0
111
1.0
121
0.0
131
0.0
112
0.0
122
1.0
132
0.0
 79
     0
146
0.0
  0
ENDBLK
  5
323
330
D1
100
AcDbEntity
  8
0
100
AcDbBlockEnd
  0
BLOCK
  5
324
330
2CE
100
AcDbEntity
  8
0
100
AcDbBlockBegin
  2
*D1
 70
     1
 10
0.0
 20
0.0
 30
0.0
  3
*D1
  1

  0
POINT
  5
2C5
330
2CE
100
AcDbEntity
  8
DEFPOINTS
  6
ByBlock
 62
     7
380
     1
100
AcDbPoint
 10
352.4896883432281
 20
533.7118291734375
 30
0.0
  0
POINT
  5
2C6
330
2CE
100
AcDbEntity
  8
DEFPOINTS
  6
ByBlock
 62
     7
380
     1
100
AcDbPoint
 10
352.4896883432281
 20
101.0268931734378
 30
0.0
  0
LINE
  5
2C7
330
2CE
100
AcDbEntity
  8
0
  6
ByBlock
 62
     7
370
    -2
380
     1
100
AcDbLine
 10
353.1146883432281
 20
533.7118291734375
 30
0.0
 11
445.571327411993
 21
533.7118291734375
 31
0.0
  0
LINE
  5
2C8
330
2CE
100
AcDbEntity
  8
0
  6
ByBlock
 62
     7
370
    -2
380
     1
100
AcDbLine
 10
353.1146883432281
 20
101.0268931734378
 30
0.0
 11
445.571327411993
 21
101.0268931734378
 31
0.0
  0
LINE
  5
2C9
330
2CE
100
AcDbEntity
  8
0
  6
ByBlock
 62
     7
370
    -2
380
     1
100
AcDbLine
 10
444.321327411993
 20
523.7118291734375
 30
0.0
 11
444.321327411993
 21
111.0268931734378
 31
0.0
  0
SOLID
  5
2CA
330
2CE
100
AcDbEntity
  8
0
  6
ByBlock
 62
     7
380
     1
100
AcDbTrace
 10
444.321327411993
 20
533.7118291734375
 30
0.0
 11
442.6546607453263
 21
523.7118291734375
 31
0.0
 12
445.9879940786597
 22
523.7118291734375
 32
0.0
 13
445.9879940786597
 23
523.7118291734375
 33
0.0
  0
SOLID
  5
2CB
330
2CE
100
AcDbEntity
  8
0
  6
ByBlock
 62
     7
380
     1
100
AcDbTrace
 10
444.321327411993
 20
101.0268931734378
 30
0.0
 11
442.6546607453263
 21
111.0268931734378
 31
0.0
 12
445.9879940786597
 22
111.0268931734378
 32
0.0
 13
445.9879940786597
 23
111.0268931734378
 33
0.0
  0
MTEXT
  5
2CC
330
2CE
100
AcDbEntity
  8
0
  6
ByBlock
 62
     0
370
    -2
380
     1
100
AcDbMText
 10
432.321327411993
 20
317.3693611734377
 30
0.0
 40
14.0
 41
0.0
 71
     5
 72
     1
  1
433
 11
6.123031769111886E-17
 21
1.0
 31
0.0
 73
     1
 44
1.0
  0
ENDBLK
  5
325
330
2CE
100
AcDbEntity
  8
0
100
AcDbBlockEnd
  0
BLOCK
  5
326
330
2D9
100
AcDbEntity
  8
0
100
AcDbBlockBegin
  2
*D2
 70
     1
 10
0.0
 20
0.0
 30
0.0
  3
*D2
  1

  0
POINT
  5
2D0
330
2D9
100
AcDbEntity
  8
DEFPOINTS
  6
ByBlock
 62
     7
380
     1
100
AcDbPoint
 10
129.5941583542993
 20
447.0376523423761
 30
0.0
  0
POINT
  5
2D1
330
2D9
100
AcDbEntity
  8
DEFPOINTS
  6
ByBlock
 62
     7
380
     1
100
AcDbPoint
 10
407.5981713542992
 20
450.3187110382865
 30
0.0
  0
LINE
  5
2D2
330
2D9
100
AcDbEntity
  8
0
  6
ByBlock
 62
     7
370
    -2
380
     1
100
AcDbLine
 10
129.5941583542993
 20
447.6626523423761
 30
0.0
 11
129.5941583542993
 21
563.249720238609
 31
0.0
  0
LINE
  5
2D3
330
2D9
100
AcDbEntity
  8
0
  6
ByBlock
 62
     7
370
    -2
380
     1
100
AcDbLine
 10
407.5981713542992
 20
450.9437110382865
 30
0.0
 11
407.5981713542992
 21
563.249720238609
 31
0.0
  0
LINE
  5
2D4
330
2D9
100
AcDbEntity
  8
0
  6
ByBlock
 62
     7
370
    -2
380
     1
100
AcDbLine
 10
139.5941583542993
 20
561.999720238609
 30
0.0
 11
397.5981713542992
 21
561.999720238609
 31
0.0
  0
SOLID
  5
2D5
330
2D9
100
AcDbEntity
  8
0
  6
ByBlock
 62
     7
380
     1
100
AcDbTrace
 10
129.5941583542993
 20
561.999720238609
 30
0.0
 11
139.5941583542993
 21
560.3330535719424
 31
0.0
 12
139.5941583542993
 22
563.6663869052757
 32
0.0
 13
139.5941583542993
 23
563.6663869052757
 33
0.0
  0
SOLID
  5
2D6
330
2D9
100
AcDbEntity
  8
0
  6
ByBlock
 62
     7
380
     1
100
AcDbTrace
 10
407.5981713542992
 20
561.999720238609
 30
0.0
 11
397.5981713542992
 21
560.3330535719424
 31
0.0
 12
397.5981713542992
 22
563.6663869052757
 32
0.0
 13
397.5981713542992
 23
563.6663869052757
 33
0.0
  0
MTEXT
  5
2D7
330
2D9
100
AcDbEntity
  8
0
  6
ByBlock
 62
     0
370
    -2
380
     1
100
AcDbMText
 10
268.5961648542992
 20
573.999720238609
 30
0.0
 40
14.0
 41
0.0
 71
     5
 72
     1
  1
\A1;278
 73
     1
 44
1.0
  0
ENDBLK
  5
327
330
2D9
100
AcDbEntity
  8
0
100
AcDbBlockEnd
  0
BLOCK
  5
328
330
2E4
100
AcDbEntity
  8
0
100
AcDbBlockBegin
  2
*D3
 70
     1
 10
0.0
 20
0.0
 30
0.0
  3
*D3
  1

  0
POINT
  5
2DB
330
2E4
100
AcDbEntity
  8
DEFPOINTS
  6
ByBlock
 62
     7
380
     1
100
AcDbPoint
 10
115.5101583542993
 20
264.5268931734378
 30
0.0
  0
POINT
  5
2DC
330
2E4
100
AcDbEntity
  8
DEFPOINTS
  6
ByBlock
 62
     7
380
     1
100
AcDbPoint
 10
421.6821553542993
 20
254.1268991734378
 30
0.0
  0
LINE
  5
2DD
330
2E4
100
AcDbEntity
  8
0
  6
ByBlock
 62
     7
370
    -2
380
     1
100
AcDbLine
 10
115.5101583542993
 20
263.9018931734378
 30
0.0
 11
115.5101583542993
 21
62.23855507868387
 31
0.0
  0
LINE
  5
2DE
330
2E4
100
AcDbEntity
  8
0
  6
ByBlock
 62
     7
370
    -2
380
     1
100
AcDbLine
 10
421.6821553542993
 20
253.5018991734378
 30
0.0
 11
421.6821553542993
 21
62.23855507868387
 31
0.0
  0
LINE
  5
2DF
330
2E4
100
AcDbEntity
  8
0
  6
ByBlock
 62
     7
370
    -2
380
     1
100
AcDbLine
 10
125.5101583542993
 20
63.48855507868387
 30
0.0
 11
411.6821553542993
 21
63.48855507868387
 31
0.0
  0
SOLID
  5
2E0
330
2E4
100
AcDbEntity
  8
0
  6
ByBlock
 62
     7
380
     1
100
AcDbTrace
 10
115.5101583542993
 20
63.48855507868387
 30
0.0
 11
125.5101583542993
 21
61.82188841201722
 31
0.0
 12
125.5101583542993
 22
65.15522174535053
 32
0.0
 13
125.5101583542993
 23
65.15522174535053
 33
0.0
  0
SOLID
  5
2E1
330
2E4
100
AcDbEntity
  8
0
  6
ByBlock
 62
     7
380
     1
100
AcDbTrace
 10
421.6821553542993
 20
63.48855507868387
 30
0.0
 11
411.6821553542993
 21
61.82188841201722
 31
0.0
 12
411.6821553542993
 22
65.15522174535053
 32
0.0
 13
411.6821553542993
 23
65.15522174535053
 33
0.0
  0
MTEXT
  5
2E2
330
2E4
100
AcDbEntity
  8
0
  6
ByBlock
 62
     0
370
    -2
380
     1
100
AcDbMText
 10
268.5961568542994
 20
75.48855507868387
 30
0.0
 40
14.0
 41
0.0
 71
     5
 72
     1
  1
306
 73
     1
 44
1.0
  0
ENDBLK
  5
329
330
2E4
100
AcDbEntity
  8
0
100
AcDbBlockEnd
  0
BLOCK
  5
32A
330
2EF
100
AcDbEntity
  8
0
100
AcDbBlockBegin
  2
*D4
 70
     1
 10
0.0
 20
0.0
 30
0.0
  3
*D4
  1

  0
POINT
  5
2E6
330
2EF
100
AcDbEntity
  8
DEFPOINTS
  6
ByBlock
 62
     7
380
     1
100
AcDbPoint
 10
551.3147543542992
 20
406.8841321734378
 30
0.0
  0
POINT
  5
2E7
330
2EF
100
AcDbEntity
  8
DEFPOINTS
  6
ByBlock
 62
     7
380
     1
100
AcDbPoint
 10
676.7326313542993
 20
165.6127264867675
 30
0.0
  0
LINE
  5
2E8
330
2EF
100
AcDbEntity
  8
0
  6
ByBlock
 62
     7
370
    -2
380
     1
100
AcDbLine
 10
551.3147543542992
 20
406.2591321734378
 30
0.0
 11
551.3147543542992
 21
62.23855507868387
 31
0.0
  0
LINE
  5
2E9
330
2EF
100
AcDbEntity
  8
0
  6
ByBlock
 62
     7
370
    -2
380
     1
100
AcDbLine
 10
676.7326313542993
 20
164.9877264867675
 30
0.0
 11
676.7326313542993
 21
62.23855507868387
 31
0.0
  0
LINE
  5
2EA
330
2EF
100
AcDbEntity
  8
0
  6
ByBlock
 62
     7
370
    -2
380
     1
100
AcDbLine
 10
561.3147543542992
 20
63.48855507868387
 30
0.0
 11
666.7326313542993
 21
63.48855507868387
 31
0.0
  0
SOLID
  5
2EB
330
2EF
100
AcDbEntity
  8
0
  6
ByBlock
 62
     7
380
     1
100
AcDbTrace
 10
551.3147543542992
 20
63.48855507868387
 30
0.0
 11
561.3147543542992
 21
61.82188841201719
 31
0.0
 12
561.3147543542992
 22
65.15522174535056
 32
0.0
 13
561.3147543542992
 23
65.15522174535056
 33
0.0
  0
SOLID
  5
2EC
330
2EF
100
AcDbEntity
  8
0
  6
ByBlock
 62
     7
380
     1
100
AcDbTrace
 10
676.7326313542993
 20
63.48855507868387
 30
0.0
 11
666.7326313542993
 21
61.82188841201719
 31
0.0
 12
666.7326313542993
 22
65.15522174535056
 32
0.0
 13
666.7326313542993
 23
65.15522174535056
 33
0.0
  0
MTEXT
  5
2ED
330
2EF
100
AcDbEntity
  8
0
  6
ByBlock
 62
     0
370
    -2
380
     1
100
AcDbMText
 10
614.0236928542993
 20
75.48855507868387
 30
0.0
 40
14.0
 41
0.0
 71
     5
 72
     1
  1
125
 73
     1
 44
1.0
  0
ENDBLK
  5
32B
330
2EF
100
AcDbEntity
  8
0
100
AcDbBlockEnd
  0
BLOCK
  5
32C
330
2FA
100
AcDbEntity
  8
0
100
AcDbBlockBegin
  2
*D5
 70
     1
 10
0.0
 20
0.0
 30
0.0
  3
*D5
  1

  0
POINT
  5
2F1
330
2FA
100
AcDbEntity
  8
DEFPOINTS
  6
ByBlock
 62
     7
380
     1
100
AcDbPoint
 10
125.3452313156726
 20
444.4882961192001
 30
0.0
  0
POINT
  5
2F2
330
2FA
100
AcDbEntity
  8
DEFPOINTS
  6
ByBlock
 62
     7
380
     1
100
AcDbPoint
 10
403.3492443156725
 20
447.7693548151105
 30
0.0
  0
LINE
  5
2F3
330
2FA
100
AcDbEntity
  8
0
  6
ByBlock
 62
     7
370
    -2
380
     1
100
AcDbLine
 10
125.3452313156726
 20
445.1132961192001
 30
0.0
 11
125.3452313156726
 21
560.700364015433
 31
0.0
  0
LINE
  5
2F4
330
2FA
100
AcDbEntity
  8
0
  6
ByBlock
 62
     7
370
    -2
380
     1
100
AcDbLine
 10
403.3492443156725
 20
448.3943548151105
 30
0.0
 11
403.3492443156725
 21
560.700364015433
 31
0.0
  0
LINE
  5
2F5
330
2FA
100
AcDbEntity
  8
0
  6
ByBlock
 62
     7
370
    -2
380
     1
100
AcDbLine
 10
135.3452313156727
 20
559.450364015433
 30
0.0
 11
393.3492443156725
 21
559.450364015433
 31
0.0
  0
SOLID
  5
2F6
330
2FA
100
AcDbEntity
  8
0
  6
ByBlock
 62
     7
380
     1
100
AcDbTrace
 10
125.3452313156726
 20
559.450364015433
 30
0.0
 11
135.3452313156727
 21
557.7836973487664
 31
0.0
 12
135.3452313156727
 22
561.1170306820997
 32
0.0
 13
135.3452313156727
 23
561.1170306820997
 33
0.0
  0
SOLID
  5
2F7
330
2FA
100
AcDbEntity
  8
0
  6
ByBlock
 62
     7
380
     1
100
AcDbTrace
 10
403.3492443156725
 20
559.450364015433
 30
0.0
 11
393.3492443156725
 21
557.7836973487664
 31
0.0
 12
393.3492443156725
 22
561.1170306820997
 32
0.0
 13
393.3492443156725
 23
561.1170306820997
 33
0.0
  0
MTEXT
  5
2F8
330
2FA
100
AcDbEntity
  8
0
  6
ByBlock
 62
     0
370
    -2
380
     1
100
AcDbMText
 10
264.3472378156725
 20
571.450364015433
 30
0.0
 40
14.0
 41
0.0
 71
     5
 72
     1
  1
\A1;278
 73
     1
 44
1.0
  0
ENDBLK
  5
32D
330
2FA
100
AcDbEntity
  8
0
100
AcDbBlockEnd
  0
BLOCK
  5
32E
330
305
100
AcDbEntity
  8
0
100
AcDbBlockBegin
  2
*D6
 70
     1
 10
0.0
 20
0.0
 30
0.0
  3
*D6
  1

  0
POINT
  5
2FC
330
305
100
AcDbEntity
  8
DEFPOINTS
  6
ByBlock
 62
     7
380
     1
100
AcDbPoint
 10
348.2407613046014
 20
531.1624729502615
 30
0.0
  0
POINT
  5
2FD
330
305
100
AcDbEntity
  8
DEFPOINTS
  6
ByBlock
 62
     7
380
     1
100
AcDbPoint
 10
348.2407613046014
 20
98.47753695026182
 30
0.0
  0
LINE
  5
2FE
330
305
100
AcDbEntity
  8
0
  6
ByBlock
 62
     7
370
    -2
380
     1
100
AcDbLine
 10
348.8657613046014
 20
531.1624729502615
 30
0.0
 11
441.3224003733663
 21
531.1624729502615
 31
0.0
  0
LINE
  5
2FF
330
305
100
AcDbEntity
  8
0
  6
ByBlock
 62
     7
370
    -2
380
     1
100
AcDbLine
 10
348.8657613046014
 20
98.47753695026182
 30
0.0
 11
441.3224003733663
 21
98.47753695026182
 31
0.0
  0
LINE
  5
300
330
305
100
AcDbEntity
  8
0
  6
ByBlock
 62
     7
370
    -2
380
     1
100
AcDbLine
 10
440.0724003733663
 20
521.1624729502615
 30
0.0
 11
440.0724003733663
 21
108.4775369502618
 31
0.0
  0
SOLID
  5
301
330
305
100
AcDbEntity
  8
0
  6
ByBlock
 62
     7
380
     1
100
AcDbTrace
 10
440.0724003733663
 20
531.1624729502615
 30
0.0
 11
438.4057337066997
 21
521.1624729502615
 31
0.0
 12
441.739067040033
 22
521.1624729502615
 32
0.0
 13
441.739067040033
 23
521.1624729502615
 33
0.0
  0
SOLID
  5
302
330
305
100
AcDbEntity
  8
0
  6
ByBlock
 62
     7
380
     1
100
AcDbTrace
 10
440.0724003733663
 20
98.47753695026182
 30
0.0
 11
438.4057337066997
 21
108.4775369502618
 31
0.0
 12
441.739067040033
 22
108.4775369502618
 32
0.0
 13
441.739067040033
 23
108.4775369502618
 33
0.0
  0
MTEXT
  5
303
330
305
100
AcDbEntity
  8
0
  6
ByBlock
 62
     0
370
    -2
380
     1
100
AcDbMText
 10
428.0724003733663
 20
314.8200049502617
 30
0.0
 40
14.0
 41
0.0
 71
     5
 72
     1
  1
433
 11
6.123031769111886E-17
 21
1.0
 31
0.0
 73
     1
 44
1.0
  0
ENDBLK
  5
32F
330
305
100
AcDbEntity
  8
0
100
AcDbBlockEnd
  0
BLOCK
  5
330
330
310
100
AcDbEntity
  8
0
100
AcDbBlockBegin
  2
*D7
 70
     1
 10
0.0
 20
0.0
 30
0.0
  3
*D7
  1

  0
POINT
  5
307
330
310
100
AcDbEntity
  8
DEFPOINTS
  6
ByBlock
 62
     7
380
     1
100
AcDbPoint
 10
111.2612313156726
 20
261.9775369502618
 30
0.0
  0
POINT
  5
308
330
310
100
AcDbEntity
  8
DEFPOINTS
  6
ByBlock
 62
     7
380
     1
100
AcDbPoint
 10
417.4332283156726
 20
251.5775429502618
 30
0.0
  0
LINE
  5
309
330
310
100
AcDbEntity
  8
0
  6
ByBlock
 62
     7
370
    -2
380
     1
100
AcDbLine
 10
111.2612313156726
 20
261.3525369502618
 30
0.0
 11
111.2612313156726
 21
59.6891988555079
 31
0.0
  0
LINE
  5
30A
330
310
100
AcDbEntity
  8
0
  6
ByBlock
 62
     7
370
    -2
380
     1
100
AcDbLine
 10
417.4332283156726
 20
250.9525429502618
 30
0.0
 11
417.4332283156726
 21
59.6891988555079
 31
0.0
  0
LINE
  5
30B
330
310
100
AcDbEntity
  8
0
  6
ByBlock
 62
     7
370
    -2
380
     1
100
AcDbLine
 10
121.2612313156726
 20
60.9391988555079
 30
0.0
 11
407.4332283156726
 21
60.9391988555079
 31
0.0
  0
SOLID
  5
30C
330
310
100
AcDbEntity
  8
0
  6
ByBlock
 62
     7
380
     1
100
AcDbTrace
 10
111.2612313156726
 20
60.9391988555079
 30
0.0
 11
121.2612313156726
 21
59.27253218884124
 31
0.0
 12
121.2612313156726
 22
62.60586552217455
 32
0.0
 13
121.2612313156726
 23
62.60586552217455
 33
0.0
  0
SOLID
  5
30D
330
310
100
AcDbEntity
  8
0
  6
ByBlock
 62
     7
380
     1
100
AcDbTrace
 10
417.4332283156726
 20
60.9391988555079
 30
0.0
 11
407.4332283156726
 21
59.27253218884124
 31
0.0
 12
407.4332283156726
 22
62.60586552217455
 32
0.0
 13
407.4332283156726
 23
62.60586552217455
 33
0.0
  0
MTEXT
  5
30E
330
310
100
AcDbEntity
  8
0
  6
ByBlock
 62
     0
370
    -2
380
     1
100
AcDbMText
 10
264.3472298156726
 20
72.9391988555079
 30
0.0
 40
14.0
 41
0.0
 71
     5
 72
     1
  1
306
 73
     1
 44
1.0
  0
ENDBLK
  5
331
330
310
100
AcDbEntity
  8
0
100
AcDbBlockEnd
  0
BLOCK
  5
332
330
31B
100
AcDbEntity
  8
0
100
AcDbBlockBegin
  2
*D8
 70
     1
 10
0.0
 20
0.0
 30
0.0
  3
*D8
  1

  0
POINT
  5
312
330
31B
100
AcDbEntity
  8
DEFPOINTS
  6
ByBlock
 62
     7
380
     1
100
AcDbPoint
 10
547.0658273156725
 20
404.3347759502618
 30
0.0
  0
POINT
  5
313
330
31B
100
AcDbEntity
  8
DEFPOINTS
  6
ByBlock
 62
     7
380
     1
100
AcDbPoint
 10
672.4837043156726
 20
163.0633702635915
 30
0.0
  0
LINE
  5
314
330
31B
100
AcDbEntity
  8
0
  6
ByBlock
 62
     7
370
    -2
380
     1
100
AcDbLine
 10
547.0658273156725
 20
403.7097759502618
 30
0.0
 11
547.0658273156725
 21
59.68919885550787
 31
0.0
  0
LINE
  5
315
330
31B
100
AcDbEntity
  8
0
  6
ByBlock
 62
     7
370
    -2
380
     1
100
AcDbLine
 10
672.4837043156726
 20
162.4383702635915
 30
0.0
 11
672.4837043156726
 21
59.68919885550787
 31
0.0
  0
LINE
  5
316
330
31B
100
AcDbEntity
  8
0
  6
ByBlock
 62
     7
370
    -2
380
     1
100
AcDbLine
 10
557.0658273156725
 20
60.93919885550787
 30
0.0
 11
662.4837043156726
 21
60.93919885550787
 31
0.0
  0
SOLID
  5
317
330
31B
100
AcDbEntity
  8
0
  6
ByBlock
 62
     7
380
     1
100
AcDbTrace
 10
547.0658273156725
 20
60.93919885550787
 30
0.0
 11
557.0658273156725
 21
59.27253218884118
 31
0.0
 12
557.0658273156725
 22
62.60586552217455
 32
0.0
 13
557.0658273156725
 23
62.60586552217455
 33
0.0
  0
SOLID
  5
318
330
31B
100
AcDbEntity
  8
0
  6
ByBlock
 62
     7
380
     1
100
AcDbTrace
 10
672.4837043156726
 20
60.93919885550787
 30
0.0
 11
662.4837043156726
 21
59.27253218884118
 31
0.0
 12
662.4837043156726
 22
62.60586552217455
 32
0.0
 13
662.4837043156726
 23
62.60586552217455
 33
0.0
  0
MTEXT
  5
319
330
31B
100
AcDbEntity
  8
0
  6
ByBlock
 62
     0
370
    -2
380
     1
100
AcDbMText
 10
609.7747658156726
 20
72.93919885550787
 30
0.0
 40
14.0
 41
0.0
 71
     5
 72
     1
  1
125
 73
     1
 44
1.0
  0
ENDBLK
  5
333
330
31B
100
AcDbEntity
  8
0
100
AcDbBlockEnd
  0
ENDSEC
  0
SECTION
  2
ENTITIES
  0
LWPOLYLINE
  5
FB
330
1F
100
AcDbEntity
  8
0
370
    60
100
AcDbPolyline
 90
        9
 70
     0
 43
0.0
 10
310.2472243156725
 20
136.0643129502618
 10
310.0762643156725
 20
136.0536929502618
 10
309.9070443156726
 20
136.0224589502618
 10
309.7465833156726
 20
135.9721959502618
 10
309.5936903156726
 20
135.9032869502618
 10
309.3193373156725
 20
135.7151159502618
 10
309.1122753156725
 20
135.4911089502618
 10
308.9794623156726
 20
135.2721149502618
 10
308.8986213156726
 20
135.0626119502618
  0
LWPOLYLINE
  5
FC
330
1F
100
AcDbEntity
  8
0
370
    60
100
AcDbPolyline
 90
        9
 70
     0
 43
0.0
 10
218.4472363156725
 20
136.0643129502618
 10
218.6181953156726
 20
136.0536929502618
 10
218.7874153156725
 20
136.0224509502618
 10
218.9478773156727
 20
135.9721959502618
 10
219.1007703156725
 20
135.9032799502618
 10
219.3751383156726
 20
135.7151159502618
 10
219.5821853156726
 20
135.4911089502618
 10
219.7151503156726
 20
135.2718249502618
 10
219.7959913156726
 20
135.0621009502618
  0
LWPOLYLINE
  5
FD
330
1F
100
AcDbEntity
  8
0
370
    60
100
AcDbPolyline
 90
        3
 70
     0
 43
0.0
 10
196.9042213156727
 20
530.2128579502615
 10
196.9788833156726
 20
530.4835789502617
 10
197.0241863156726
 20
530.6204509502618
  0
LWPOLYLINE
  5
FE
330
1F
100
AcDbEntity
  8
0
370
    60
100
AcDbPolyline
 90
        3
 70
     0
 43
0.0
 10
197.0241863156726
 20
530.6204509502618
 10
197.0669563156727
 20
530.6906719502617
 10
197.1339733156726
 20
530.7613809502616
  0
LWPOLYLINE
  5
FF
330
1F
100
AcDbEntity
  8
0
370
    60
100
AcDbPolyline
 90
        3
 70
     0
 43
0.0
 10
197.1339733156726
 20
530.7613809502616
 10
197.2445693156725
 20
530.8652929502617
 10
197.4180463156727
 20
531.0351229502618
  0
LWPOLYLINE
  5
100
330
1F
100
AcDbEntity
  8
0
370
    60
100
AcDbPolyline
 90
        4
 70
     0
 43
0.0
 10
219.7270213156725
 20
532.0721109502615
 10
219.6870893156726
 20
531.8794229502618
 10
219.7225503156725
 20
531.6487709502618
 10
219.7722943156726
 20
531.5255709502618
  0
LWPOLYLINE
  5
101
330
1F
100
AcDbEntity
  8
0
370
    60
100
AcDbPolyline
 90
        3
 70
     0
 43
0.0
 10
219.8472303156726
 20
531.1096779502617
 10
219.8332983156726
 20
531.3147559502618
 10
219.7725383156726
 20
531.5256319502616
  0
LWPOLYLINE
  5
102
330
1F
100
AcDbEntity
  8
0
370
    60
100
AcDbPolyline
 90
        3
 70
     0
 43
0.0
 10
308.8472303156725
 20
531.1096779502617
 10
308.8611763156725
 20
531.3147559502618
 10
308.9219063156725
 20
531.5256319502616
  0
LWPOLYLINE
  5
103
330
1F
100
AcDbEntity
  8
0
370
    60
100
AcDbPolyline
 90
        4
 70
     0
 43
0.0
 10
308.9674383156726
 20
532.0720799502617
 10
309.0073863156725
 20
531.8793919502617
 10
308.9718943156725
 20
531.6487399502618
 10
308.9221503156726
 20
531.5255409502618
  0
LWPOLYLINE
  5
104
330
1F
100
AcDbEntity
  8
0
370
    60
100
AcDbPolyline
 90
        3
 70
     0
 43
0.0
 10
331.7902233156725
 20
530.2128579502615
 10
331.7155773156725
 20
530.4835789502617
 10
331.6702893156725
 20
530.6204509502618
  0
LWPOLYLINE
  5
105
330
1F
100
AcDbEntity
  8
0
370
    60
100
AcDbPolyline
 90
        3
 70
     0
 43
0.0
 10
331.6702893156725
 20
530.6204509502618
 10
331.6275033156726
 20
530.6906719502617
 10
331.5604873156725
 20
530.7613809502616
  0
LWPOLYLINE
  5
106
330
1F
100
AcDbEntity
  8
0
370
    60
100
AcDbPolyline
 90
        3
 70
     0
 43
0.0
 10
331.5604873156725
 20
530.7613809502616
 10
331.4498913156725
 20
530.8652929502617
 10
331.2764293156725
 20
531.0351229502618
  0
LWPOLYLINE
  5
107
330
1F
100
AcDbEntity
  8
0
370
    60
100
AcDbPolyline
 90
        3
 70
     0
 43
0.0
 10
243.5932783156726
 20
131.8678029502618
 10
245.0275283156726
 20
132.1482289502617
 10
245.6061873156725
 20
132.2819269502618
  0
LWPOLYLINE
  5
108
330
1F
100
AcDbEntity
  8
0
370
    60
100
AcDbPolyline
 90
        4
 70
     0
 43
0.0
 10
245.6061873156725
 20
132.2819269502618
 10
245.8792433156725
 20
132.4358799502618
 10
246.4946913156726
 20
132.8348439502618
 10
246.5677803156726
 20
132.8835429502618
  0
LWPOLYLINE
  5
109
330
1F
100
AcDbEntity
  8
0
370
    60
100
AcDbPolyline
 90
        5
 70
     0
 43
0.0
 10
246.5677803156726
 20
132.8835429502618
 10
247.0013133156726
 20
133.2212349502618
 10
247.4601143156725
 20
133.6832099502618
 10
247.9480603156726
 20
134.2917079502618
 10
248.1960153156726
 20
134.6469249502617
  0
LWPOLYLINE
  5
10A
330
1F
100
AcDbEntity
  8
0
370
    60
100
AcDbPolyline
 90
        5
 70
     0
 43
0.0
 10
243.5938583156725
 20
131.8647059502617
 10
242.9439703156725
 20
131.7823839502618
 10
241.5088513156726
 20
131.6890999502618
 10
239.0811013156726
 20
131.6151939502618
 10
236.8473823156726
 20
131.5960369502618
  0
LWPOLYLINE
  5
10B
330
1F
100
AcDbEntity
  8
0
370
    60
100
AcDbPolyline
 90
        8
 70
     0
 43
0.0
 10
225.4984443156727
 20
134.6469249502617
 10
225.7661293156725
 20
134.2647679502618
 10
226.0334483156726
 20
133.9191569502618
 10
226.2835093156726
 20
133.6285759502618
 10
226.5332503156727
 20
133.3700609502618
 10
226.7672133156726
 20
133.1567209502618
 10
227.0009013156726
 20
132.9715929502618
 10
227.1266793156726
 20
132.8835429502618
  0
LWPOLYLINE
  5
10C
330
1F
100
AcDbEntity
  8
0
370
    60
100
AcDbPolyline
 90
        3
 70
     0
 43
0.0
 10
227.1266793156726
 20
132.8835429502618
 10
227.7724463156727
 20
132.4624919502618
 10
228.0882733156726
 20
132.2819269502618
  0
LWPOLYLINE
  5
10D
330
1F
100
AcDbEntity
  8
0
370
    60
100
AcDbPolyline
 90
        4
 70
     0
 43
0.0
 10
228.0882733156726
 20
132.2819269502618
 10
228.3954323156726
 20
132.2051979502618
 10
229.5586103156726
 20
131.9700449502618
 10
230.0899673156727
 20
131.8676889502618
  0
LWPOLYLINE
  5
10E
330
1F
100
AcDbEntity
  8
0
370
    60
100
AcDbPolyline
 90
        8
 70
     0
 43
0.0
 10
236.8470773156725
 20
131.5960369502618
 10
235.2233283156726
 20
131.6060309502618
 10
233.6881263156725
 20
131.6354649502617
 10
232.3971723156725
 20
131.6796009502618
 10
231.3220833156726
 20
131.7374549502617
 10
230.6310583156726
 20
131.7939349502618
 10
230.1484843156726
 20
131.8560769502618
 10
230.0897993156726
 20
131.8667879502618
  0
LINE
  5
10F
330
1F
100
AcDbEntity
  8
0
 48
0.008323
370
    60
100
AcDbLine
 10
194.8911453156726
 20
149.4330799502617
 30
0.0
 11
194.9252333156726
 21
149.7642489502618
 31
0.0
  0
LINE
  5
110
330
1F
100
AcDbEntity
  8
0
 48
0.016691
370
    60
100
AcDbLine
 10
194.8755503156725
 20
148.7656229502618
 30
0.0
 11
194.8911453156726
 21
149.4330799502617
 31
0.0
  0
LINE
  5
111
330
1F
100
AcDbEntity
  8
0
 48
0.008329
370
    60
100
AcDbLine
 10
194.8911453156726
 20
137.1300639502618
 30
0.0
 11
194.9252333156726
 21
136.7986499502618
 31
0.0
  0
LINE
  5
112
330
1F
100
AcDbEntity
  8
0
 48
0.016685
370
    60
100
AcDbLine
 10
194.8755503156725
 20
137.7972769502618
 30
0.0
 11
194.8911453156726
 21
137.1300639502618
 31
0.0
  0
LINE
  5
113
330
1F
100
AcDbEntity
  8
0
 48
0.013897
370
    60
100
AcDbLine
 10
194.9803783156726
 20
145.5641989502618
 30
0.0
 11
195.3734443156727
 21
145.9572579502618
 31
0.0
  0
LINE
  5
114
330
1F
100
AcDbEntity
  8
0
 48
0.059208
370
    60
100
AcDbLine
 10
194.9803783156726
 20
147.4510859502618
 30
0.0
 11
194.9803783156726
 21
149.8193949502618
 31
0.0
  0
LINE
  5
115
330
1F
100
AcDbEntity
  8
0
 48
0.034164
370
    60
100
AcDbLine
 10
332.3475353156726
 20
147.4510859502618
 30
0.0
 11
333.7140823156725
 21
147.4510859502618
 31
0.0
  0
LINE
  5
116
330
1F
100
AcDbEntity
  8
0
 48
0.034164
370
    60
100
AcDbLine
 10
194.9803783156726
 20
147.4510859502618
 30
0.0
 11
196.3469253156726
 21
147.4510859502618
 31
0.0
  0
LINE
  5
117
330
1F
100
AcDbEntity
  8
0
 48
0.365976
370
    60
100
AcDbLine
 10
195.3878943156726
 20
516.3242159502614
 30
0.0
 11
195.8991103156727
 21
530.9543429502618
 31
0.0
  0
LINE
  5
118
330
1F
100
AcDbEntity
  8
0
 48
0.05838
370
    60
100
AcDbLine
 10
194.9399123156726
 20
513.5258769502617
 30
0.0
 11
195.0214553156727
 21
515.8596469502618
 31
0.0
  0
LINE
  5
119
330
1F
100
AcDbEntity
  8
0
 48
0.170468
370
    60
100
AcDbLine
 10
194.9803783156726
 20
138.7454959502618
 30
0.0
 11
194.9803783156726
 21
145.5641989502618
 31
0.0
  0
LINE
  5
11A
330
1F
100
AcDbEntity
  8
0
 48
0.024579
370
    60
100
AcDbLine
 10
128.3620613156726
 20
259.9775369502618
 30
0.0
 11
129.3452313156727
 21
259.9775369502618
 31
0.0
  0
LINE
  5
11B
330
1F
100
AcDbEntity
  8
0
 48
0.024579
370
    60
100
AcDbLine
 10
128.3620613156726
 20
263.9775369502618
 30
0.0
 11
129.3452313156727
 21
263.9775369502618
 31
0.0
  0
LINE
  5
11C
330
1F
100
AcDbEntity
  8
0
 48
0.1
370
    60
100
AcDbLine
 10
128.3620613156726
 20
259.9775369502618
 30
0.0
 11
128.3620613156726
 21
263.9775369502618
 31
0.0
  0
LWPOLYLINE
  5
11D
330
1F
100
AcDbEntity
  8
0
370
    60
100
AcDbPolyline
 90
       24
 70
     0
 43
0.0
 10
143.1613783156727
 20
154.1283699502617
 10
143.1713953156726
 20
153.8452429502618
 10
143.2014093156727
 20
153.5635959502617
 10
143.2512523156726
 20
153.2848639502618
 10
143.3206793156726
 20
153.0104189502617
 10
143.4093253156726
 20
152.7416659502617
 10
143.5167553156726
 20
152.4799019502618
 10
143.6424263156727
 20
152.2264689502617
 10
143.7857063156725
 20
151.9826029502618
 10
143.9458703156727
 20
151.7495399502618
 10
144.1221323156726
 20
151.5284099502617
 10
144.3135923156726
 20
151.3203409502618
 10
144.5193183156726
 20
151.1263709502617
 10
144.7382673156725
 20
150.9474459502617
 10
144.9693533156727
 20
150.7844669502617
 10
145.2114343156726
 20
150.6382419502618
 10
145.4632883156725
 20
150.5095189502617
 10
145.7236793156725
 20
150.3989229502618
 10
145.9912883156726
 20
150.3070349502618
 10
146.2648093156727
 20
150.2342809502617
 10
146.5428403156727
 20
150.1810579502617
 10
146.8240363156725
 20
150.1476259502618
 10
147.1069503156726
 20
150.1341529502618
 10
147.1558923156726
 20
150.1338479502618
  0
LWPOLYLINE
  5
11E
330
1F
100
AcDbEntity
  8
0
370
    60
100
AcDbPolyline
 90
       24
 70
     0
 43
0.0
 10
147.1558923156726
 20
513.1590249502617
 10
146.8727653156727
 20
513.1490149502615
 10
146.5911113156727
 20
513.1189859502615
 10
146.3123943156726
 20
513.0691509502617
 10
146.0379493156726
 20
512.9997229502617
 10
145.7691963156726
 20
512.9110689502618
 10
145.5074243156727
 20
512.8036479502616
 10
145.2539913156726
 20
512.6779759502617
 10
145.0101253156727
 20
512.534695950262
 10
144.7770553156726
 20
512.3745399502617
 10
144.5559323156726
 20
512.1982699502614
 10
144.3478713156726
 20
512.0068029502618
 10
144.1538863156727
 20
511.8010839502617
 10
143.9749613156725
 20
511.5821209502617
 10
143.8119903156725
 20
511.3510409502616
 10
143.6657723156725
 20
511.1089449502617
 10
143.5370493156726
 20
510.8571139502617
 10
143.4264613156726
 20
510.5967079502616
 10
143.3345653156726
 20
510.3290989502617
 10
143.2618113156726
 20
510.0556009502617
 10
143.2085883156726
 20
509.7775549502618
 10
143.1751493156725
 20
509.4963659502615
 10
143.1616753156727
 20
509.2134379502618
 10
143.1613783156727
 20
509.1645179502616
  0
LINE
  5
11F
330
1F
100
AcDbEntity
  8
0
 48
0.002917
370
    60
100
AcDbLine
 10
194.9803783156726
 20
138.7454959502618
 30
0.0
 11
195.1638043156726
 21
138.0641989502618
 31
0.0
  0
LINE
  5
120
330
1F
100
AcDbEntity
  8
0
 48
0.00195
370
    60
100
AcDbLine
 10
194.9252333156726
 20
149.7642489502618
 30
0.0
 11
194.9803783156726
 21
149.8193949502618
 31
0.0
  0
LINE
  5
121
330
1F
100
AcDbEntity
  8
0
 48
0.034164
370
    60
100
AcDbLine
 10
332.3475353156726
 20
149.8193949502618
 30
0.0
 11
333.7140823156725
 21
149.8193949502618
 31
0.0
  0
LINE
  5
122
330
1F
100
AcDbEntity
  8
0
 48
0.034164
370
    60
100
AcDbLine
 10
194.9803783156726
 20
149.8193949502618
 30
0.0
 11
196.3469253156726
 21
149.8193949502618
 31
0.0
  0
LINE
  5
123
330
1F
100
AcDbEntity
  8
0
370
    60
100
AcDbLine
 10
147.1558923156726
 20
150.1338479502618
 30
0.0
 11
196.3469253156726
 21
150.1338479502618
 31
0.0
  0
LINE
  5
124
330
1F
100
AcDbEntity
  8
0
370
    60
100
AcDbLine
 10
332.3475353156726
 20
150.1338479502618
 30
0.0
 11
381.5385753156725
 21
150.1338479502618
 31
0.0
  0
LINE
  5
125
330
1F
100
AcDbEntity
  8
0
 48
0.026037
370
    60
100
AcDbLine
 10
194.9252333156726
 20
136.7986499502618
 30
0.0
 11
195.6616833156726
 21
136.0621999502617
 31
0.0
  0
LINE
  5
126
330
1F
100
AcDbEntity
  8
0
370
    60
100
AcDbLine
 10
129.3452313156727
 20
243.5879799502617
 30
0.0
 11
129.3452313156727
 21
280.3670939502618
 31
0.0
  0
LINE
  5
127
330
1F
100
AcDbEntity
  8
0
 48
0.052175
370
    60
100
AcDbLine
 10
127.2612313156726
 20
279.4775369502618
 30
0.0
 11
129.3453833156726
 21
279.5867589502618
 31
0.0
  0
LINE
  5
128
330
1F
100
AcDbEntity
  8
0
 48
0.052171
370
    60
100
AcDbLine
 10
127.2612313156726
 20
244.4775369502618
 30
0.0
 11
129.3452313156727
 21
244.3683139502618
 31
0.0
  0
LINE
  5
129
330
1F
100
AcDbEntity
  8
0
 48
0.006173
370
    60
100
AcDbLine
 10
195.7672743156726
 20
531.1631449502615
 30
0.0
 11
195.8991103156727
 21
530.9543429502618
 31
0.0
  0
LINE
  5
12A
330
1F
100
AcDbEntity
  8
0
 48
0.120776
370
    60
100
AcDbLine
 10
190.9362193156726
 20
531.1624729502615
 30
0.0
 11
195.7672743156726
 21
531.1624729502615
 31
0.0
  0
LINE
  5
12B
330
1F
100
AcDbEntity
  8
0
370
    60
100
AcDbLine
 10
143.1613783156727
 20
154.1283699502617
 30
0.0
 11
143.1613783156727
 21
509.1645179502616
 31
0.0
  0
LINE
  5
12C
330
1F
100
AcDbEntity
  8
0
 48
0.027231
370
    60
100
AcDbLine
 10
194.9399123156726
 20
513.5258769502617
 30
0.0
 11
196.0291603156726
 21
513.5258769502617
 31
0.0
  0
LINE
  5
12D
330
1F
100
AcDbEntity
  8
0
370
    60
100
AcDbLine
 10
332.6845413156725
 20
513.1590249502617
 30
0.0
 11
381.5385753156725
 21
513.1590249502617
 31
0.0
  0
LINE
  5
12E
330
1F
100
AcDbEntity
  8
0
370
    60
100
AcDbLine
 10
147.1558923156726
 20
513.1590249502617
 30
0.0
 11
196.0099193156726
 21
513.1590249502617
 31
0.0
  0
LINE
  5
12F
330
1F
100
AcDbEntity
  8
0
 48
0.040566
370
    60
100
AcDbLine
 10
129.3452313156727
 20
241.9653449502617
 30
0.0
 11
129.3452313156727
 21
243.5879799502617
 31
0.0
  0
LINE
  5
130
330
1F
100
AcDbEntity
  8
0
 48
0.040566
370
    60
100
AcDbLine
 10
129.3452313156727
 20
280.3670939502618
 30
0.0
 11
129.3452313156727
 21
281.9897439502618
 31
0.0
  0
LINE
  5
131
330
1F
100
AcDbEntity
  8
0
 48
0.014543
370
    60
100
AcDbLine
 10
127.2612313156726
 20
278.1845069502618
 30
0.0
 11
127.2612313156726
 21
278.7662329502618
 31
0.0
  0
LINE
  5
132
330
1F
100
AcDbEntity
  8
0
 48
0.031732
370
    60
100
AcDbLine
 10
127.2612313156726
 20
275.6036659502618
 30
0.0
 11
127.2612313156726
 21
276.8729379502618
 31
0.0
  0
LINE
  5
133
330
1F
100
AcDbEntity
  8
0
 48
0.03766
370
    60
100
AcDbLine
 10
127.2612313156726
 20
272.3029299502617
 30
0.0
 11
127.2612313156726
 21
273.8093239502617
 31
0.0
  0
LINE
  5
134
330
1F
100
AcDbEntity
  8
0
 48
0.043721
370
    60
100
AcDbLine
 10
127.2612313156726
 20
268.0773899502618
 30
0.0
 11
127.2612313156726
 21
269.8262309502617
 31
0.0
  0
LINE
  5
135
330
1F
100
AcDbEntity
  8
0
 48
0.048074
370
    60
100
AcDbLine
 10
127.2612313156726
 20
263.4314699502618
 30
0.0
 11
127.2612313156726
 21
265.3544439502618
 31
0.0
  0
LINE
  5
136
330
1F
100
AcDbEntity
  8
0
 48
0.037346
370
    60
100
AcDbLine
 10
195.3734443156727
 20
145.9572579502618
 30
0.0
 11
195.3734443156727
 21
147.4510779502618
 31
0.0
  0
LWPOLYLINE
  5
137
330
1F
100
AcDbEntity
  8
0
370
    60
100
AcDbPolyline
 90
       12
 70
     0
 43
0.0
 10
129.3452313156727
 20
285.5187969502618
 10
129.3351453156727
 20
285.6605199502617
 10
129.3051003156726
 20
285.7993139502618
 10
129.2557233156726
 20
285.9323709502618
 10
129.1879743156726
 20
286.0570659502617
 10
129.1032873156726
 20
286.1708349502618
 10
129.0033123156725
 20
286.2714209502618
 10
128.8900763156726
 20
286.3568399502618
 10
128.7658553156726
 20
286.4253209502618
 10
128.6331183156726
 20
286.4755229502618
 10
128.4945693156727
 20
286.5064369502618
 10
128.3466043156727
 20
286.5174229502618
  0
LWPOLYLINE
  5
138
330
1F
100
AcDbEntity
  8
0
370
    60
100
AcDbPolyline
 90
       12
 70
     0
 43
0.0
 10
125.3452313156726
 20
287.5160499502618
 10
125.3553173156727
 20
287.3743259502618
 10
125.3853613156726
 20
287.2355319502618
 10
125.4347393156725
 20
287.1024759502618
 10
125.5024883156726
 20
286.9777809502618
 10
125.5871893156725
 20
286.8640109502618
 10
125.6871653156726
 20
286.7634249502618
 10
125.8004013156725
 20
286.6780069502618
 10
125.9246073156725
 20
286.6095249502617
 10
126.0573433156725
 20
286.5593239502618
 10
126.1958933156726
 20
286.5284099502618
 10
126.3438583156726
 20
286.5174229502618
  0
LINE
  5
139
330
1F
100
AcDbEntity
  8
0
 48
0.049706
370
    60
100
AcDbLine
 10
195.6616833156726
 20
136.0621999502617
 30
0.0
 11
195.6616833156726
 21
138.0504429502618
 31
0.0
  0
LWPOLYLINE
  5
13A
330
1F
100
AcDbEntity
  8
0
370
    60
100
AcDbPolyline
 90
       36
 70
     0
 43
0.0
 10
129.3452313156727
 20
146.0484979502618
 10
129.3552413156725
 20
145.6009269502617
 10
129.3852393156727
 20
145.1543099502618
 10
129.4351813156727
 20
144.7095919502618
 10
129.5049453156726
 20
144.2676059502618
 10
129.5943923156726
 20
143.8292819502618
 10
129.7033553156726
 20
143.3954439502618
 10
129.8315893156725
 20
142.9670079502618
 10
129.9788523156726
 20
142.5447899502618
 10
130.1448373156726
 20
142.1296589502618
 10
130.3292093156726
 20
141.7224099502618
 10
130.5316173156726
 20
141.3238879502617
 10
130.7516493156726
 20
140.9348579502617
 10
130.9888473156726
 20
140.5561199502618
 10
131.2427533156726
 20
140.1883979502618
 10
131.5128493156726
 20
139.8324489502618
 10
131.7986153156726
 20
139.4889659502618
 10
132.0994733156726
 20
139.1586429502618
 10
132.4148113156726
 20
138.8421229502617
 10
132.7440043156726
 20
138.5400439502618
 10
133.0864113156726
 20
138.2530109502617
 10
133.4413463156727
 20
137.9815959502618
 10
133.8080913156726
 20
137.7263309502617
 10
134.1859293156726
 20
137.4877299502618
 10
134.5740973156726
 20
137.2662709502617
 10
134.9718333156725
 20
137.0623909502618
 10
135.3783423156725
 20
136.8765079502618
 10
135.7928173156727
 20
136.7089819502618
 10
136.2144333156726
 20
136.5601629502618
 10
136.6423503156726
 20
136.4303259502618
 10
137.0757003156726
 20
136.3197609502618
 10
137.5136503156726
 20
136.2286739502617
 10
137.9552923156726
 20
136.1572619502618
 10
138.3997893156726
 20
136.1056499502618
 10
138.8462003156727
 20
136.0739719502618
 10
139.3315283156726
 20
136.0621999502617
  0
LINE
  5
13B
330
1F
100
AcDbEntity
  8
0
370
    60
100
AcDbLine
 10
139.3315283156726
 20
136.0621999502617
 30
0.0
 11
195.6616833156726
 21
136.0621999502617
 31
0.0
  0
LWPOLYLINE
  5
13C
330
1F
100
AcDbEntity
  8
0
370
    60
100
AcDbPolyline
 90
       36
 70
     0
 43
0.0
 10
135.3315283156726
 20
531.1624729502615
 10
134.8839583156725
 20
531.1524939502617
 10
134.4373483156726
 20
531.1224649502617
 10
133.9926313156726
 20
531.0725379502618
 10
133.5506293156727
 20
531.0027749502617
 10
133.1123053156726
 20
530.9133279502614
 10
132.6784683156727
 20
530.8043799502617
 10
132.2500473156726
 20
530.6761449502617
 10
131.8278213156726
 20
530.5288669502618
 10
131.4126903156726
 20
530.3628819502616
 10
131.0054483156727
 20
530.1784949502616
 10
130.6069193156725
 20
529.9761019502615
 10
130.2178963156726
 20
529.7560709502617
 10
129.8391433156725
 20
529.5188879502615
 10
129.4714363156726
 20
529.2649509502616
 10
129.1154793156726
 20
528.9948709502618
 10
128.7720043156726
 20
528.7091039502617
 10
128.4416663156726
 20
528.4082619502616
 10
128.1251533156727
 20
528.0929239502617
 10
127.8230753156725
 20
527.7636999502618
 10
127.5360423156726
 20
527.4213229502617
 10
127.2646193156726
 20
527.0663729502618
 10
127.0093703156726
 20
526.6996439502617
 10
126.7707683156725
 20
526.3218059502617
 10
126.5493023156726
 20
525.9336219502618
 10
126.3454293156726
 20
525.5358859502616
 10
126.1595473156725
 20
525.1293919502617
 10
125.9920203156725
 20
524.7149019502617
 10
125.8431863156725
 20
524.2933019502617
 10
125.7133643156726
 20
523.8653849502615
 10
125.6027993156725
 20
523.4320349502617
 10
125.5117043156725
 20
522.9940769502617
 10
125.4402933156725
 20
522.5524269502615
 10
125.3886883156726
 20
522.1079379502618
 10
125.3569953156726
 20
521.6615269502615
 10
125.3452313156726
 20
521.1762059502618
  0
LINE
  5
13D
330
1F
100
AcDbEntity
  8
0
 48
0.050069
370
    60
100
AcDbLine
 10
126.3438583156726
 20
286.5174229502618
 30
0.0
 11
128.3466043156727
 21
286.5174229502618
 31
0.0
  0
LINE
  5
13E
330
1F
100
AcDbEntity
  8
0
370
    60
100
AcDbLine
 10
129.3452313156727
 20
146.0484979502618
 30
0.0
 11
129.3452313156727
 21
241.9653449502617
 31
0.0
  0
LINE
  5
13F
330
1F
100
AcDbEntity
  8
0
 48
0.088226
370
    60
100
AcDbLine
 10
129.3452313156727
 20
281.9897439502618
 30
0.0
 11
129.3452313156727
 21
285.5187969502618
 31
0.0
  0
LINE
  5
140
330
1F
100
AcDbEntity
  8
0
370
    60
100
AcDbLine
 10
125.3452313156726
 20
287.5160499502618
 30
0.0
 11
125.3452313156726
 21
521.1762059502618
 31
0.0
  0
LINE
  5
141
330
1F
100
AcDbEntity
  8
0
370
    60
100
AcDbLine
 10
135.3315283156726
 20
531.1624729502615
 30
0.0
 11
190.5844123156726
 21
531.1624729502615
 31
0.0
  0
LINE
  5
142
330
1F
100
AcDbEntity
  8
0
 48
0.008795
370
    60
100
AcDbLine
 10
190.5844123156726
 20
531.1624729502615
 30
0.0
 11
190.9362193156726
 21
531.1624729502615
 31
0.0
  0
LINE
  5
143
330
1F
100
AcDbEntity
  8
0
 48
0.274209
370
    60
100
AcDbLine
 10
194.8755503156725
 20
137.7972769502618
 30
0.0
 11
194.8755503156725
 21
148.7656229502618
 31
0.0
  0
ARC
  5
144
330
1F
100
AcDbEntity
  8
0
370
    60
100
AcDbCircle
 10
134.3470163156726
 20
410.6604899502618
 30
0.0
 40
2.899889999999974
100
AcDbArc
 50
89.99595200000056
 51
270.0044270000006
  0
ARC
  5
145
330
1F
100
AcDbEntity
  8
0
370
    60
100
AcDbCircle
 10
134.3474433156726
 20
410.6604899502618
 30
0.0
 40
2.899894000000006
100
AcDbArc
 50
269.996012
 51
90.00436699999999
  0
ARC
  5
146
330
1F
100
AcDbEntity
  8
0
370
    60
100
AcDbCircle
 10
134.3471083156726
 20
410.6604899502618
 30
0.0
 40
2.399966000000002
100
AcDbArc
 50
89.99700399999995
 51
270.003006
  0
ARC
  5
147
330
1F
100
AcDbEntity
  8
0
370
    60
100
AcDbCircle
 10
134.3473523156727
 20
410.6604899502618
 30
0.0
 40
2.399967999999999
100
AcDbArc
 50
269.9971869999998
 51
90.00280999999966
  0
LINE
  5
148
330
1F
100
AcDbEntity
  8
0
 48
0.1
370
    60
100
AcDbLine
 10
400.3323983156725
 20
259.9775369502618
 30
0.0
 11
400.3323983156725
 21
263.9775369502618
 31
0.0
  0
LINE
  5
149
330
1F
100
AcDbEntity
  8
0
 48
0.024579
370
    60
100
AcDbLine
 10
399.3492443156725
 20
263.9775369502618
 30
0.0
 11
400.3323983156725
 21
263.9775369502618
 31
0.0
  0
LINE
  5
14A
330
1F
100
AcDbEntity
  8
0
 48
0.024579
370
    60
100
AcDbLine
 10
399.3492443156725
 20
259.9775369502618
 30
0.0
 11
400.3323983156725
 21
259.9775369502618
 31
0.0
  0
LINE
  5
14B
330
1F
100
AcDbEntity
  8
0
 48
0.052179
370
    60
100
AcDbLine
 10
399.3489083156726
 20
279.5867589502618
 30
0.0
 11
401.4332283156726
 21
279.4775369502618
 31
0.0
  0
LINE
  5
14C
330
1F
100
AcDbEntity
  8
0
 48
0.052171
370
    60
100
AcDbLine
 10
399.3492443156725
 20
244.3683139502618
 30
0.0
 11
401.4332283156726
 21
244.4775369502618
 31
0.0
  0
LINE
  5
14D
330
1F
100
AcDbEntity
  8
0
 48
0.027232
370
    60
100
AcDbLine
 10
332.6652843156726
 20
513.5258769502617
 30
0.0
 11
333.7545483156727
 21
513.5258769502617
 31
0.0
  0
LINE
  5
14E
330
1F
100
AcDbEntity
  8
0
 48
0.05838
370
    60
100
AcDbLine
 10
333.6730053156726
 20
515.8596469502618
 30
0.0
 11
333.7545483156727
 21
513.5258769502617
 31
0.0
  0
LINE
  5
14F
330
1F
100
AcDbEntity
  8
0
370
    60
100
AcDbLine
 10
385.5330823156725
 20
154.1283699502617
 30
0.0
 11
385.5330823156725
 21
509.1645179502616
 31
0.0
  0
LINE
  5
150
330
1F
100
AcDbEntity
  8
0
 48
0.008795
370
    60
100
AcDbLine
 10
337.7582403156725
 20
531.1624729502615
 30
0.0
 11
338.1100473156725
 21
531.1624729502615
 31
0.0
  0
LINE
  5
151
330
1F
100
AcDbEntity
  8
0
370
    60
100
AcDbLine
 10
338.1100473156725
 20
531.1624729502615
 30
0.0
 11
393.3629163156726
 21
531.1624729502615
 31
0.0
  0
LINE
  5
152
330
1F
100
AcDbEntity
  8
0
370
    60
100
AcDbLine
 10
403.3492443156725
 20
287.5160499502618
 30
0.0
 11
403.3492443156725
 21
521.1762059502618
 31
0.0
  0
LINE
  5
153
330
1F
100
AcDbEntity
  8
0
 48
0.040566
370
    60
100
AcDbLine
 10
399.3492443156725
 20
241.9653449502617
 30
0.0
 11
399.3492443156725
 21
243.5879799502617
 31
0.0
  0
LINE
  5
154
330
1F
100
AcDbEntity
  8
0
370
    60
100
AcDbLine
 10
399.3492443156725
 20
146.0484979502618
 30
0.0
 11
399.3492443156725
 21
241.9653449502617
 31
0.0
  0
LINE
  5
155
330
1F
100
AcDbEntity
  8
0
 48
0.088226
370
    60
100
AcDbLine
 10
399.3492443156725
 20
281.9897439502618
 30
0.0
 11
399.3492443156725
 21
285.5187969502618
 31
0.0
  0
LINE
  5
156
330
1F
100
AcDbEntity
  8
0
370
    60
100
AcDbLine
 10
333.0327773156725
 20
136.0621999502617
 30
0.0
 11
389.3629163156726
 21
136.0621999502617
 31
0.0
  0
LINE
  5
157
330
1F
100
AcDbEntity
  8
0
 48
0.050069
370
    60
100
AcDbLine
 10
400.3478403156725
 20
286.5174229502618
 30
0.0
 11
402.3505873156725
 21
286.5174229502618
 31
0.0
  0
LINE
  5
158
330
1F
100
AcDbEntity
  8
0
 48
0.059208
370
    60
100
AcDbLine
 10
333.7140823156725
 20
147.4510859502618
 30
0.0
 11
333.7140823156725
 21
149.8193949502618
 31
0.0
  0
LINE
  5
159
330
1F
100
AcDbEntity
  8
0
 48
0.00195
370
    60
100
AcDbLine
 10
333.7140823156725
 20
149.8193949502618
 30
0.0
 11
333.7692273156725
 21
149.7642489502618
 31
0.0
  0
LINE
  5
15A
330
1F
100
AcDbEntity
  8
0
 48
0.274209
370
    60
100
AcDbLine
 10
333.8189093156725
 20
137.7972769502618
 30
0.0
 11
333.8189093156725
 21
148.7656229502618
 31
0.0
  0
LINE
  5
15B
330
1F
100
AcDbEntity
  8
0
 48
0.049706
370
    60
100
AcDbLine
 10
333.0327773156725
 20
136.0621999502617
 30
0.0
 11
333.0327773156725
 21
138.0504429502618
 31
0.0
  0
LINE
  5
15C
330
1F
100
AcDbEntity
  8
0
 48
0.026037
370
    60
100
AcDbLine
 10
333.0327773156725
 20
136.0621999502617
 30
0.0
 11
333.7692273156725
 21
136.7986499502618
 31
0.0
  0
LWPOLYLINE
  5
15D
330
1F
100
AcDbEntity
  8
0
370
    60
100
AcDbPolyline
 90
       12
 70
     0
 43
0.0
 10
402.3505873156725
 20
286.5174229502618
 10
402.4923103156725
 20
286.5275249502618
 10
402.6311353156725
 20
286.5575539502618
 10
402.7641913156726
 20
286.6069309502618
 10
402.8888563156725
 20
286.6746799502618
 10
403.0026253156725
 20
286.7593669502618
 10
403.1032423156725
 20
286.8593419502618
 10
403.1886303156726
 20
286.9725929502617
 10
403.2571423156726
 20
287.0967989502618
 10
403.3073133156725
 20
287.2295509502618
 10
403.3382273156725
 20
287.3681009502618
 10
403.3492443156725
 20
287.5160499502618
  0
LWPOLYLINE
  5
15E
330
1F
100
AcDbEntity
  8
0
370
    60
100
AcDbPolyline
 90
       36
 70
     0
 43
0.0
 10
389.3629163156726
 20
136.0621999502617
 10
389.8104873156725
 20
136.0722099502618
 10
390.2571113156725
 20
136.1022159502618
 10
390.7018443156726
 20
136.1521509502618
 10
391.1438303156725
 20
136.2219139502618
 10
391.5821543156725
 20
136.3113609502618
 10
392.0159923156726
 20
136.4203159502617
 10
392.4443983156725
 20
136.5485509502618
 10
392.8666393156725
 20
136.6958139502618
 10
393.2817703156726
 20
136.8617989502617
 10
393.6890273156725
 20
137.0461859502618
 10
394.0875253156725
 20
137.2485859502618
 10
394.4765633156725
 20
137.4686179502618
 10
394.8553173156726
 20
137.7058159502618
 10
395.2230233156725
 20
137.9597219502618
 10
395.5789803156725
 20
138.2298259502618
 10
395.9224563156725
 20
138.5155849502618
 10
396.2528083156726
 20
138.8164339502617
 10
396.5693063156726
 20
139.1317729502618
 10
396.8714003156726
 20
139.4609729502618
 10
397.1584173156726
 20
139.8033809502618
 10
397.4298413156725
 20
140.1583079502618
 10
397.6850903156725
 20
140.5250529502617
 10
397.9237073156725
 20
140.9028979502618
 10
398.1451423156725
 20
141.2910669502618
 10
398.3490303156725
 20
141.6888099502618
 10
398.5349133156725
 20
142.0953119502618
 10
398.7024543156726
 20
142.5097939502618
 10
398.8512583156725
 20
142.9313939502617
 10
398.9810803156725
 20
143.3593189502616
 10
399.0916763156725
 20
143.7926609502618
 10
399.1827403156725
 20
144.2306189502618
 10
399.2541513156725
 20
144.6722619502618
 10
399.3057873156725
 20
145.1167579502618
 10
399.3374643156728
 20
145.5631689502617
 10
399.3492443156725
 20
146.0484979502618
  0
LINE
  5
15F
330
1F
100
AcDbEntity
  8
0
 48
0.008323
370
    60
100
AcDbLine
 10
333.7692273156725
 20
136.7986499502618
 30
0.0
 11
333.8033153156725
 21
137.1298189502618
 31
0.0
  0
LINE
  5
160
330
1F
100
AcDbEntity
  8
0
 48
0.016691
370
    60
100
AcDbLine
 10
333.8033153156725
 20
137.1298189502618
 30
0.0
 11
333.8189093156725
 21
137.7972769502618
 31
0.0
  0
LWPOLYLINE
  5
161
330
1F
100
AcDbEntity
  8
0
370
    60
100
AcDbPolyline
 90
       12
 70
     0
 43
0.0
 10
400.3478403156725
 20
286.5174229502618
 10
400.2061163156725
 20
286.5073519502618
 10
400.0673233156726
 20
286.4772929502618
 10
399.9342663156724
 20
286.4279149502618
 10
399.8095713156725
 20
286.3601659502618
 10
399.6958023156726
 20
286.2754799502618
 10
399.5952163156726
 20
286.1755039502618
 10
399.5098273156725
 20
286.0622539502618
 10
399.4413463156725
 20
285.9380469502618
 10
399.3911143156726
 20
285.8053259502618
 10
399.3602303156725
 20
285.6667759502618
 10
399.3492443156725
 20
285.5187969502618
  0
LINE
  5
162
330
1F
100
AcDbEntity
  8
0
 48
0.040566
370
    60
100
AcDbLine
 10
399.3492443156725
 20
280.3670939502618
 30
0.0
 11
399.3492443156725
 21
281.9897439502618
 31
0.0
  0
LINE
  5
163
330
1F
100
AcDbEntity
  8
0
 48
0.043721
370
    60
100
AcDbLine
 10
401.4332283156726
 20
268.0773899502618
 30
0.0
 11
401.4332283156726
 21
269.8262309502617
 31
0.0
  0
LINE
  5
164
330
1F
100
AcDbEntity
  8
0
 48
0.048074
370
    60
100
AcDbLine
 10
401.4332283156726
 20
263.4314699502618
 30
0.0
 11
401.4332283156726
 21
265.3544439502618
 31
0.0
  0
LINE
  5
165
330
1F
100
AcDbEntity
  8
0
 48
0.014543
370
    60
100
AcDbLine
 10
401.4332283156726
 20
278.1845069502618
 30
0.0
 11
401.4332283156726
 21
278.7662329502618
 31
0.0
  0
LINE
  5
166
330
1F
100
AcDbEntity
  8
0
 48
0.031732
370
    60
100
AcDbLine
 10
401.4332283156726
 20
275.6036659502618
 30
0.0
 11
401.4332283156726
 21
276.8729379502618
 31
0.0
  0
LINE
  5
167
330
1F
100
AcDbEntity
  8
0
 48
0.03766
370
    60
100
AcDbLine
 10
401.4332283156726
 20
272.3029299502617
 30
0.0
 11
401.4332283156726
 21
273.8093239502617
 31
0.0
  0
LINE
  5
168
330
1F
100
AcDbEntity
  8
0
 48
0.054598
370
    60
100
AcDbLine
 10
399.3492443156725
 20
278.1831639502618
 30
0.0
 11
399.3492443156725
 21
280.3670939502618
 31
0.0
  0
LINE
  5
169
330
1F
100
AcDbEntity
  8
0
 48
0.120776
370
    60
100
AcDbLine
 10
332.9271863156725
 20
531.1624729502615
 30
0.0
 11
337.7582403156725
 21
531.1624729502615
 31
0.0
  0
LINE
  5
16A
330
1F
100
AcDbEntity
  8
0
 48
0.170468
370
    60
100
AcDbLine
 10
333.7140823156725
 20
138.7454959502618
 30
0.0
 11
333.7140823156725
 21
145.5641989502618
 31
0.0
  0
LINE
  5
16B
330
1F
100
AcDbEntity
  8
0
 48
0.365976
370
    60
100
AcDbLine
 10
332.7953503156726
 20
530.9543429502618
 30
0.0
 11
333.3065803156725
 21
516.3242159502614
 31
0.0
  0
LINE
  5
16C
330
1F
100
AcDbEntity
  8
0
 48
0.006173
370
    60
100
AcDbLine
 10
332.7953503156726
 20
530.9543429502618
 30
0.0
 11
332.9271863156725
 21
531.1631449502615
 31
0.0
  0
LINE
  5
16D
330
1F
100
AcDbEntity
  8
0
 48
0.002917
370
    60
100
AcDbLine
 10
333.5306403156725
 20
138.0641989502618
 30
0.0
 11
333.7140823156725
 21
138.7454959502618
 31
0.0
  0
LWPOLYLINE
  5
16E
330
1F
100
AcDbEntity
  8
0
370
    60
100
AcDbPolyline
 90
       24
 70
     0
 43
0.0
 10
385.5330823156725
 20
509.1645179502616
 10
385.5230723156726
 20
509.4476299502618
 10
385.4930433156725
 20
509.7292759502617
 10
385.4432083156725
 20
510.0079929502617
 10
385.3737803156725
 20
510.2824379502617
 10
385.2851263156724
 20
510.5512059502618
 10
385.1777053156725
 20
510.8129549502618
 10
385.0520333156726
 20
511.0664039502617
 10
384.9087533156726
 20
511.3102699502615
 10
384.7485973156725
 20
511.5433329502615
 10
384.5723273156725
 20
511.7644629502618
 10
384.3808603156726
 20
511.9725319502618
 10
384.1751413156725
 20
512.1665019502617
 10
383.9561783156725
 20
512.3454259502618
 10
383.7250983156725
 20
512.5084209502618
 10
383.4830333156725
 20
512.6546299502618
 10
383.2311713156725
 20
512.7833529502616
 10
382.9707653156725
 20
512.8939489502617
 10
382.7031873156728
 20
512.9858379502617
 10
382.4296583156725
 20
513.0585909502618
 10
382.1516123156725
 20
513.1118139502618
 10
381.8704233156725
 20
513.1452609502616
 10
381.5875253156725
 20
513.1587199502616
 10
381.5385753156725
 20
513.1590249502617
  0
LWPOLYLINE
  5
16F
330
1F
100
AcDbEntity
  8
0
370
    60
100
AcDbPolyline
 90
       36
 70
     0
 43
0.0
 10
403.3492443156725
 20
521.1762059502618
 10
403.3392343156725
 20
521.6237459502618
 10
403.3092053156725
 20
522.0703709502617
 10
403.2592783156726
 20
522.5151039502617
 10
403.1895153156725
 20
522.9570899502618
 10
403.1000683156725
 20
523.3954139502617
 10
402.9910903156726
 20
523.8292519502618
 10
402.8628553156725
 20
524.2576879502617
 10
402.7156073156725
 20
524.6798989502615
 10
402.5496223156725
 20
525.0950289502616
 10
402.3652353156726
 20
525.5022869502616
 10
402.1628433156725
 20
525.9007849502617
 10
401.9428113156725
 20
526.2898229502615
 10
401.7056283156726
 20
526.6685769502617
 10
401.4517223156725
 20
527.0362829502617
 10
401.1816113156725
 20
527.3922399502616
 10
400.8958443156725
 20
527.7357149502616
 10
400.5949713156726
 20
528.0660379502615
 10
400.2796643156725
 20
528.3825659502616
 10
399.9504403156726
 20
528.6846289502618
 10
399.6080333156725
 20
528.9716769502618
 10
399.2531143156726
 20
529.2431009502617
 10
398.8863533156726
 20
529.4983499502617
 10
398.5085463156725
 20
529.7369669502617
 10
398.1203623156725
 20
529.9584019502614
 10
397.7226263156726
 20
530.1622899502618
 10
397.3161023156725
 20
530.3481729502618
 10
396.9016433156724
 20
530.5157139502616
 10
396.4800423156725
 20
530.6645179502615
 10
396.0521253156726
 20
530.7943699502615
 10
395.6187753156725
 20
530.9049349502617
 10
395.1807873156725
 20
530.9959999502618
 10
394.7391673156725
 20
531.0674419502617
 10
394.2946783156725
 20
531.1190469502617
 10
393.8482673156725
 20
531.1507239502615
 10
393.3629163156726
 20
531.1624729502615
  0
LINE
  5
170
330
1F
100
AcDbEntity
  8
0
 48
0.037346
370
    60
100
AcDbLine
 10
333.3210153156726
 20
145.9572579502618
 30
0.0
 11
333.3210153156726
 21
147.4510779502618
 31
0.0
  0
LINE
  5
171
330
1F
100
AcDbEntity
  8
0
 48
0.013897
370
    60
100
AcDbLine
 10
333.3210153156726
 20
145.9572579502618
 30
0.0
 11
333.7140823156725
 21
145.5641989502618
 31
0.0
  0
LINE
  5
172
330
1F
100
AcDbEntity
  8
0
370
    60
100
AcDbLine
 10
399.3492443156725
 20
243.5879799502617
 30
0.0
 11
399.3492443156725
 21
280.3670939502618
 31
0.0
  0
LWPOLYLINE
  5
173
330
1F
100
AcDbEntity
  8
0
370
    60
100
AcDbPolyline
 90
       24
 70
     0
 43
0.0
 10
381.5385753156725
 20
150.1338479502618
 10
381.8216873156725
 20
150.1438729502618
 10
382.1033333156725
 20
150.1738869502618
 10
382.3820813156725
 20
150.2237219502617
 10
382.6564953156725
 20
150.2931499502618
 10
382.9252633156725
 20
150.3818029502618
 10
383.1870433156725
 20
150.4892249502618
 10
383.4404613156725
 20
150.6148959502618
 10
383.6843273156726
 20
150.7581759502618
 10
383.9174203156726
 20
150.9183329502617
 10
384.1385203156725
 20
151.0946019502617
 10
384.3465893156726
 20
151.2860689502618
 10
384.5405893156725
 20
151.4917879502618
 10
384.7194833156725
 20
151.7107519502617
 10
384.8824783156726
 20
151.9418309502618
 10
385.0286873156726
 20
152.1839119502618
 10
385.1574103156725
 20
152.4357579502618
 10
385.2680063156726
 20
152.6961649502617
 10
385.3598953156726
 20
152.9637579502618
 10
385.4326483156725
 20
153.2372719502617
 10
385.4858713156725
 20
153.5153179502618
 10
385.5193183156725
 20
153.7965059502618
 10
385.5327773156725
 20
154.0794349502618
 10
385.5330823156725
 20
154.1283699502617
  0
ARC
  5
174
330
1F
100
AcDbEntity
  8
0
370
    60
100
AcDbCircle
 10
394.3470163156725
 20
410.6604899502618
 30
0.0
 40
2.899894000000021
100
AcDbArc
 50
89.99563799999956
 51
270.0041809999996
  0
ARC
  5
175
330
1F
100
AcDbEntity
  8
0
370
    60
100
AcDbCircle
 10
394.3471083156726
 20
410.6604899502618
 30
0.0
 40
2.399967999999989
100
AcDbArc
 50
89.99718799999982
 51
270.0028149999999
  0
ARC
  5
176
330
1F
100
AcDbEntity
  8
0
370
    60
100
AcDbCircle
 10
394.3474433156725
 20
410.6604899502618
 30
0.0
 40
2.89989
100
AcDbArc
 50
269.9957660000004
 51
90.00404600000043
  0
ARC
  5
177
330
1F
100
AcDbEntity
  8
0
370
    60
100
AcDbCircle
 10
394.3473523156725
 20
410.6604899502618
 30
0.0
 40
2.399966000000019
100
AcDbArc
 50
269.9969949999999
 51
90.00299399999977
  0
LINE
  5
178
330
1F
100
AcDbEntity
  8
0
 48
0.008329
370
    60
100
AcDbLine
 10
333.7692273156725
 20
149.7642489502618
 30
0.0
 11
333.8033153156725
 21
149.4328359502618
 31
0.0
  0
LINE
  5
179
330
1F
100
AcDbEntity
  8
0
 48
0.016685
370
    60
100
AcDbLine
 10
333.8033153156725
 20
149.4328359502618
 30
0.0
 11
333.8189093156725
 21
148.7656229502618
 31
0.0
  0
LINE
  5
17A
330
1F
100
AcDbEntity
  8
0
 48
0.014186
370
    60
100
AcDbLine
 10
195.0214553156727
 20
515.8596469502618
 30
0.0
 11
195.3472603156725
 21
516.3242159502614
 31
0.0
  0
LINE
  5
17B
330
1F
100
AcDbEntity
  8
0
 48
0.020716
370
    60
100
AcDbLine
 10
195.3472603156725
 20
516.3242159502614
 30
0.0
 11
196.1759043156725
 21
516.3242159502614
 31
0.0
  0
LINE
  5
17C
330
1F
100
AcDbEntity
  8
0
 48
0.014186
370
    60
100
AcDbLine
 10
333.3471993156726
 20
516.3242159502614
 30
0.0
 11
333.6730053156726
 21
515.8596469502618
 31
0.0
  0
LINE
  5
17D
330
1F
100
AcDbEntity
  8
0
 48
0.020716
370
    60
100
AcDbLine
 10
332.5185553156726
 20
516.3242159502614
 30
0.0
 11
333.3471993156726
 21
516.3242159502614
 31
0.0
  0
LINE
  5
17E
330
1F
100
AcDbEntity
  8
0
 48
0.019319
370
    60
100
AcDbLine
 10
308.9013373156725
 20
135.0618189502617
 30
0.0
 11
308.9537973156725
 21
135.8327769502618
 31
0.0
  0
LINE
  5
17F
330
1F
100
AcDbEntity
  8
0
 48
0.028025
370
    60
100
AcDbLine
 10
308.8472303156725
 20
134.7168629502618
 30
0.0
 11
308.9537973156725
 21
135.8327769502618
 31
0.0
  0
LWPOLYLINE
  5
180
330
1F
100
AcDbEntity
  8
0
370
    60
100
AcDbPolyline
 90
        9
 70
     0
 43
0.0
 10
310.2472243156725
 20
136.0643129502618
 10
310.0762643156725
 20
136.0536929502618
 10
309.9070443156726
 20
136.0224589502618
 10
309.7465833156726
 20
135.9721959502618
 10
309.5936903156726
 20
135.9032869502618
 10
309.3193373156725
 20
135.7151159502618
 10
309.1122753156725
 20
135.4911089502618
 10
308.9794623156726
 20
135.2721149502618
 10
308.8986213156726
 20
135.0626119502618
  0
LWPOLYLINE
  5
181
330
1F
100
AcDbEntity
  8
0
370
    60
100
AcDbPolyline
 90
        6
 70
     0
 43
0.0
 10
333.0840463156725
 20
138.0641989502618
 10
332.9838573156725
 20
138.0540369502618
 10
332.8877573156725
 20
138.0239459502618
 10
332.7996223156725
 20
137.9751489502618
 10
332.7667853156725
 20
137.9096349502618
 10
332.7667853156725
 20
137.9096349502618
  0
LWPOLYLINE
  5
182
330
1F
100
AcDbEntity
  8
0
370
    60
100
AcDbPolyline
 90
        6
 70
     0
 43
0.0
 10
332.7547923156725
 20
145.2132929502618
 10
332.7547923156725
 20
145.2132929502618
 10
332.7846383156725
 20
145.1640449502618
 10
332.8709423156726
 20
145.1120199502618
 10
332.9658823156725
 20
145.0783969502618
 10
333.0840463156725
 20
145.0641909502618
  0
LINE
  5
183
330
1F
100
AcDbEntity
  8
0
 48
0.011165
370
    60
100
AcDbLine
 10
333.0840463156725
 20
138.0641989502618
 30
0.0
 11
333.5306403156725
 21
138.0641989502618
 31
0.0
  0
LINE
  5
184
330
1F
100
AcDbEntity
  8
0
 48
0.015751
370
    60
100
AcDbLine
 10
333.0840463156725
 20
145.0641989502618
 30
0.0
 11
333.7140823156725
 21
145.0641989502618
 31
0.0
  0
LINE
  5
185
330
1F
100
AcDbEntity
  8
0
 48
0.044617
370
    60
100
AcDbLine
 10
308.8472303156725
 20
136.0067269502617
 30
0.0
 11
308.8472303156725
 21
137.7914179502618
 31
0.0
  0
LWPOLYLINE
  5
186
330
1F
100
AcDbEntity
  8
0
370
    60
100
AcDbPolyline
 90
        5
 70
     0
 43
0.0
 10
332.7547923156725
 20
145.2132929502618
 10
332.6969003156725
 20
146.5589199502618
 10
332.6593943156725
 20
146.9095279502618
 10
332.6347973156726
 20
147.0252739502618
 10
332.6095593156724
 20
147.0641989502618
  0
LINE
  5
187
330
1F
100
AcDbEntity
  8
0
 48
0.006551
370
    60
100
AcDbLine
 10
332.3475353156726
 20
147.0641989502618
 30
0.0
 11
332.6095593156724
 21
147.0641989502618
 31
0.0
  0
LINE
  5
188
330
1F
100
AcDbEntity
  8
0
 48
0.020294
370
    60
100
AcDbLine
 10
308.8472303156725
 20
135.1949819502618
 30
0.0
 11
308.8472303156725
 21
136.0067269502617
 31
0.0
  0
LWPOLYLINE
  5
189
330
1F
100
AcDbEntity
  8
0
370
    60
100
AcDbPolyline
 90
        6
 70
     0
 43
0.0
 10
195.6104133156726
 20
145.0641909502618
 10
195.7106033156726
 20
145.0743609502617
 10
195.8067023156726
 20
145.1044519502618
 10
195.8948373156726
 20
145.1532419502618
 10
195.9396673156726
 20
145.2132929502618
 10
195.9396673156726
 20
145.2132929502618
  0
LWPOLYLINE
  5
18A
330
1F
100
AcDbEntity
  8
0
370
    60
100
AcDbPolyline
 90
        6
 70
     0
 43
0.0
 10
195.9276743156726
 20
137.9295329502618
 10
195.9276743156726
 20
137.9295329502618
 10
195.9098213156726
 20
137.9643459502618
 10
195.8235183156725
 20
138.0163779502618
 10
195.7285773156726
 20
138.0500009502618
 10
195.6104133156726
 20
138.0641989502618
  0
LINE
  5
18B
330
1F
100
AcDbEntity
  8
0
 48
0.019332
370
    60
100
AcDbLine
 10
219.7406623156726
 20
135.8327769502618
 30
0.0
 11
219.7933053156725
 21
135.0613079502618
 31
0.0
  0
LINE
  5
18C
330
1F
100
AcDbEntity
  8
0
 48
0.028026
370
    60
100
AcDbLine
 10
219.7406623156726
 20
135.8327769502618
 30
0.0
 11
219.8472303156726
 21
134.7168329502618
 31
0.0
  0
LWPOLYLINE
  5
18D
330
1F
100
AcDbEntity
  8
0
370
    60
100
AcDbPolyline
 90
        9
 70
     0
 43
0.0
 10
218.4472363156725
 20
136.0643129502618
 10
218.6181953156726
 20
136.0536929502618
 10
218.7874153156725
 20
136.0224509502618
 10
218.9478773156727
 20
135.9721959502618
 10
219.1007703156725
 20
135.9032799502618
 10
219.3751383156726
 20
135.7151159502618
 10
219.5821853156726
 20
135.4911089502618
 10
219.7151503156726
 20
135.2718249502618
 10
219.7959913156726
 20
135.0621009502618
  0
LINE
  5
18E
330
1F
100
AcDbEntity
  8
0
 48
0.011165
370
    60
100
AcDbLine
 10
195.1638043156726
 20
138.0641989502618
 30
0.0
 11
195.6104133156726
 21
138.0641989502618
 31
0.0
  0
LINE
  5
18F
330
1F
100
AcDbEntity
  8
0
 48
0.015751
370
    60
100
AcDbLine
 10
194.9803783156726
 20
145.0641989502618
 30
0.0
 11
195.6104133156726
 21
145.0641989502618
 31
0.0
  0
LINE
  5
190
330
1F
100
AcDbEntity
  8
0
370
    60
100
AcDbLine
 10
264.3472303156725
 20
134.6469249502617
 30
0.0
 11
308.8472303156725
 21
134.6469249502617
 31
0.0
  0
LINE
  5
191
330
1F
100
AcDbEntity
  8
0
 48
0.013701
370
    60
100
AcDbLine
 10
308.8472303156725
 20
134.6469249502617
 30
0.0
 11
308.8472303156725
 21
135.1949819502618
 31
0.0
  0
LINE
  5
192
330
1F
100
AcDbEntity
  8
0
370
    60
100
AcDbLine
 10
219.8472303156726
 20
134.6469249502617
 30
0.0
 11
264.3472303156725
 21
134.6469249502617
 31
0.0
  0
LWPOLYLINE
  5
193
330
1F
100
AcDbEntity
  8
0
370
    60
100
AcDbPolyline
 90
       12
 70
     0
 43
0.0
 10
331.7681593156725
 20
136.0641989502618
 10
331.9098823156726
 20
136.0742769502618
 10
332.0487073156725
 20
136.1043299502618
 10
332.1817633156726
 20
136.1537149502618
 10
332.3064283156726
 20
136.2214489502618
 10
332.4201973156725
 20
136.3061499502618
 10
332.5208143156725
 20
136.4061259502618
 10
332.6062023156725
 20
136.5193609502618
 10
332.6746833156726
 20
136.6435829502618
 10
332.7248853156725
 20
136.7763109502618
 10
332.7557993156725
 20
136.9148539502618
 10
332.7667853156725
 20
137.0628259502618
  0
LINE
  5
194
330
1F
100
AcDbEntity
  8
0
370
    60
100
AcDbLine
 10
310.2472243156725
 20
136.0641989502618
 30
0.0
 11
331.7681593156725
 21
136.0641989502618
 31
0.0
  0
LINE
  5
195
330
1F
100
AcDbEntity
  8
0
 48
0.021668
370
    60
100
AcDbLine
 10
332.7667853156725
 20
137.0628259502618
 30
0.0
 11
332.7667853156725
 21
137.9096349502618
 31
0.0
  0
LWPOLYLINE
  5
196
330
1F
100
AcDbEntity
  8
0
370
    60
100
AcDbPolyline
 90
       12
 70
     0
 43
0.0
 10
195.9276743156726
 20
137.0628259502618
 10
195.9377453156727
 20
136.9211099502618
 10
195.9678053156726
 20
136.7822929502618
 10
196.0171823156726
 20
136.6492359502618
 10
196.0849313156726
 20
136.5245489502618
 10
196.1696173156726
 20
136.4107869502618
 10
196.2695933156726
 20
136.3101859502618
 10
196.3828443156725
 20
136.2247899502618
 10
196.5070503156726
 20
136.1563009502618
 10
196.6397873156725
 20
136.1060999502618
 10
196.7783213156727
 20
136.0751929502617
 10
196.9263013156726
 20
136.0641989502618
  0
LINE
  5
197
330
1F
100
AcDbEntity
  8
0
370
    60
100
AcDbLine
 10
196.9263013156726
 20
136.0641989502618
 30
0.0
 11
218.4472363156725
 21
136.0641989502618
 31
0.0
  0
LWPOLYLINE
  5
198
330
1F
100
AcDbEntity
  8
0
370
    60
100
AcDbPolyline
 90
        9
 70
     0
 43
0.0
 10
196.0849013156727
 20
147.0641989502618
 10
196.0822153156726
 20
147.0637639502618
 10
196.0796213156725
 20
147.0625129502618
 10
196.0747383156726
 20
147.0579199502618
 10
196.0653853156726
 20
147.0410059502618
 10
196.0444653156727
 20
146.9633459502618
 10
195.9926463156725
 20
146.4936499502618
 10
195.9398813156726
 20
145.2228289502618
 10
195.9396673156726
 20
145.2132929502618
  0
LINE
  5
199
330
1F
100
AcDbEntity
  8
0
 48
0.021668
370
    60
100
AcDbLine
 10
195.9276743156726
 20
137.0628259502618
 30
0.0
 11
195.9276743156726
 21
137.9295329502618
 31
0.0
  0
LINE
  5
19A
330
1F
100
AcDbEntity
  8
0
370
    60
100
AcDbLine
 10
308.8472303156725
 20
137.7914179502618
 30
0.0
 11
308.8472303156725
 21
162.3142069502617
 31
0.0
  0
ARC
  5
19B
330
1F
100
AcDbEntity
  8
0
370
    60
100
AcDbCircle
 10
300.3472303156725
 20
162.3142069502617
 30
0.0
 40
8.5
100
AcDbArc
 50
0.0
 51
149.999997
  0
LINE
  5
19C
330
1F
100
AcDbEntity
  8
0
370
    60
100
AcDbLine
 10
264.3472303156725
 20
162.3142069502617
 30
0.0
 11
285.6248023156726
 21
162.3142069502617
 31
0.0
  0
ARC
  5
19D
330
1F
100
AcDbEntity
  8
0
370
    60
100
AcDbCircle
 10
285.6248023156726
 20
170.8142069502617
 30
0.0
 40
8.500000000000002
100
AcDbArc
 50
270.0000009999999
 51
329.9999889999999
  0
LWPOLYLINE
  5
19E
330
1F
100
AcDbEntity
  8
0
370
    60
100
AcDbPolyline
 90
       18
 70
     0
 43
0.0
 10
332.3475353156726
 20
171.4677709502618
 10
332.3374953156726
 20
171.6960729502617
 10
332.3074653156725
 20
171.9225749502618
 10
332.2577223156725
 20
172.1454439502618
 10
332.1885993156725
 20
172.3630499502618
 10
332.1006483156725
 20
172.5736669502618
 10
331.9945693156725
 20
172.7757089502617
 10
331.8711863156725
 20
172.9676029502618
 10
331.7314163156725
 20
173.1478859502618
 10
331.5763863156726
 20
173.3151829502618
 10
331.4072273156725
 20
173.4681979502618
 10
331.2252823156726
 20
173.6057719502618
 10
331.0319223156725
 20
173.7268349502618
 10
330.8286453156726
 20
173.8304419502617
 10
330.6170053156725
 20
173.9158299502618
 10
330.3986213156726
 20
173.9823279502618
 10
330.1752023156725
 20
174.0294169502618
 10
329.7510993156725
 20
174.0642069502617
  0
LINE
  5
19F
330
1F
100
AcDbEntity
  8
0
370
    60
100
AcDbLine
 10
332.3475353156726
 20
147.0641989502618
 30
0.0
 11
332.3475353156726
 21
171.4677709502618
 31
0.0
  0
LWPOLYLINE
  5
1A0
330
1F
100
AcDbEntity
  8
0
370
    60
100
AcDbPolyline
 90
       18
 70
     0
 43
0.0
 10
198.9433753156727
 20
174.0642069502617
 10
198.7150583156726
 20
174.0541659502617
 10
198.4885723156725
 20
174.0241369502618
 10
198.2656873156726
 20
173.9743929502617
 10
198.0480813156726
 20
173.9052709502618
 10
197.8374643156725
 20
173.8173189502618
 10
197.6354223156727
 20
173.7112399502618
 10
197.4435283156726
 20
173.5878579502618
 10
197.2632453156726
 20
173.4480869502618
 10
197.0959483156726
 20
173.2930579502618
 10
196.9429333156726
 20
173.1238989502618
 10
196.8053603156727
 20
172.9419529502617
 10
196.6842963156726
 20
172.7485939502618
 10
196.5806893156727
 20
172.5453159502617
 10
196.4953013156726
 20
172.3336769502618
 10
196.4288033156726
 20
172.1152929502617
 10
196.3817153156726
 20
171.8918739502616
 10
196.3469253156726
 20
171.4677709502618
  0
LINE
  5
1A1
330
1F
100
AcDbEntity
  8
0
370
    60
100
AcDbLine
 10
198.9433753156727
 20
174.0642069502617
 30
0.0
 11
264.3472303156725
 21
174.0642069502617
 31
0.0
  0
LINE
  5
1A2
330
1F
100
AcDbEntity
  8
0
370
    60
100
AcDbLine
 10
264.3472303156725
 20
174.0642069502617
 30
0.0
 11
329.7510993156725
 21
174.0642069502617
 31
0.0
  0
LINE
  5
1A3
330
1F
100
AcDbEntity
  8
0
370
    60
100
AcDbLine
 10
196.3469253156726
 20
147.0641989502618
 30
0.0
 11
196.3469253156726
 21
171.4677709502618
 31
0.0
  0
ARC
  5
1A4
330
1F
100
AcDbEntity
  8
0
370
    60
100
AcDbCircle
 10
228.3472303156726
 20
162.3142069502617
 30
0.0
 40
8.500000000000009
100
AcDbArc
 50
29.99999999999996
 51
180.000005
  0
LINE
  5
1A5
330
1F
100
AcDbEntity
  8
0
 48
0.002569
370
    60
100
AcDbLine
 10
219.8472303156726
 20
135.1949819502618
 30
0.0
 11
219.8472303156726
 21
135.2977499502618
 31
0.0
  0
LINE
  5
1A6
330
1F
100
AcDbEntity
  8
0
 48
0.006283
370
    60
100
AcDbLine
 10
219.8472303156726
 20
135.7554149502618
 30
0.0
 11
219.8472303156726
 21
136.0067269502617
 31
0.0
  0
LINE
  5
1A7
330
1F
100
AcDbEntity
  8
0
 48
0.004005
370
    60
100
AcDbLine
 10
219.8472303156726
 20
135.3662999502618
 30
0.0
 11
219.8472303156726
 21
135.5264949502617
 31
0.0
  0
LINE
  5
1A8
330
1F
100
AcDbEntity
  8
0
 48
0.005538
370
    60
100
AcDbLine
 10
219.8472303156726
 20
136.8106819502618
 30
0.0
 11
219.8472303156726
 21
137.0321859502618
 31
0.0
  0
LINE
  5
1A9
330
1F
100
AcDbEntity
  8
0
 48
0.008264
370
    60
100
AcDbLine
 10
219.8472303156726
 20
136.0067269502617
 30
0.0
 11
219.8472303156726
 21
136.3372929502618
 31
0.0
  0
LINE
  5
1AA
330
1F
100
AcDbEntity
  8
0
 48
0.002424
370
    60
100
AcDbLine
 10
219.8472303156726
 20
137.6944629502618
 30
0.0
 11
219.8472303156726
 21
137.7914179502618
 31
0.0
  0
LINE
  5
1AB
330
1F
100
AcDbEntity
  8
0
 48
0.044617
370
    60
100
AcDbLine
 10
219.8472303156726
 20
136.0067269502617
 30
0.0
 11
219.8472303156726
 21
137.7914179502618
 31
0.0
  0
LINE
  5
1AC
330
1F
100
AcDbEntity
  8
0
 48
0.020294
370
    60
100
AcDbLine
 10
219.8472303156726
 20
135.1949819502618
 30
0.0
 11
219.8472303156726
 21
136.0067269502617
 31
0.0
  0
LINE
  5
1AD
330
1F
100
AcDbEntity
  8
0
 48
0.013701
370
    60
100
AcDbLine
 10
219.8472303156726
 20
134.6469249502617
 30
0.0
 11
219.8472303156726
 21
135.1949819502618
 31
0.0
  0
LINE
  5
1AE
330
1F
100
AcDbEntity
  8
0
370
    60
100
AcDbLine
 10
219.8472303156726
 20
137.7914179502618
 30
0.0
 11
219.8472303156726
 21
162.3142069502617
 31
0.0
  0
LINE
  5
1AF
330
1F
100
AcDbEntity
  8
0
370
    60
100
AcDbLine
 10
243.0696573156727
 20
162.3142069502617
 30
0.0
 11
264.3472303156725
 21
162.3142069502617
 31
0.0
  0
ARC
  5
1B0
330
1F
100
AcDbEntity
  8
0
370
    60
100
AcDbCircle
 10
243.0696573156727
 20
170.8142069502617
 30
0.0
 40
8.500000000000005
100
AcDbArc
 50
209.9999989999997
 51
270.0000009999995
  0
LINE
  5
1B1
330
1F
100
AcDbEntity
  8
0
 48
0.006551
370
    60
100
AcDbLine
 10
196.0849013156727
 20
147.0641989502618
 30
0.0
 11
196.3469253156726
 21
147.0641989502618
 31
0.0
  0
LWPOLYLINE
  5
1B2
330
1F
100
AcDbEntity
  8
0
370
    60
100
AcDbPolyline
 90
        3
 70
     0
 43
0.0
 10
196.9042213156727
 20
530.2128579502615
 10
196.9788833156726
 20
530.4835789502617
 10
197.0241863156726
 20
530.6204509502618
  0
LWPOLYLINE
  5
1B3
330
1F
100
AcDbEntity
  8
0
370
    60
100
AcDbPolyline
 90
        3
 70
     0
 43
0.0
 10
197.0241863156726
 20
530.6204509502618
 10
197.0669563156727
 20
530.6906719502617
 10
197.1339733156726
 20
530.7613809502616
  0
LWPOLYLINE
  5
1B4
330
1F
100
AcDbEntity
  8
0
370
    60
100
AcDbPolyline
 90
        3
 70
     0
 43
0.0
 10
197.1339733156726
 20
530.7613809502616
 10
197.2445693156725
 20
530.8652929502617
 10
197.4180463156727
 20
531.0351229502618
  0
LINE
  5
1B5
330
1F
100
AcDbEntity
  8
0
 48
0.005912
370
    60
100
AcDbLine
 10
197.4487923156726
 20
531.0448589502618
 30
0.0
 11
197.6689613156726
 21
531.1311619502617
 31
0.0
  0
LINE
  5
1B6
330
1F
100
AcDbEntity
  8
0
 48
0.005893
370
    60
100
AcDbLine
 10
197.6689613156726
 20
531.1311619502617
 30
0.0
 11
197.9028483156727
 21
531.1604899502618
 31
0.0
  0
LINE
  5
1B7
330
1F
100
AcDbEntity
  8
0
 48
0.004203
370
    60
100
AcDbLine
 10
197.4487923156726
 20
531.0448589502618
 30
0.0
 11
197.6119703156726
 21
531.0852639502617
 31
0.0
  0
ARC
  5
1B8
330
1F
100
AcDbEntity
  8
0
370
    60
100
AcDbCircle
 10
197.9028483156727
 20
530.1604899502618
 30
0.0
 40
1.000000000000001
100
AcDbArc
 50
90.00000300000096
 51
118.9993940000009
  0
ARC
  5
1B9
330
1F
100
AcDbEntity
  8
0
370
    60
100
AcDbCircle
 10
197.9028333156726
 20
530.1604899502618
 30
0.0
 40
0.9999999999999233
100
AcDbArc
 50
124.6784090000021
 51
142.319777000002
  0
LWPOLYLINE
  5
1BA
330
1F
100
AcDbEntity
  8
0
370
    60
100
AcDbPolyline
 90
        4
 70
     0
 43
0.0
 10
219.7270213156725
 20
532.0721109502615
 10
219.6870893156726
 20
531.8794229502618
 10
219.7225503156725
 20
531.6487709502618
 10
219.7722943156726
 20
531.5255709502618
  0
LINE
  5
1BB
330
1F
100
AcDbEntity
  8
0
 48
0.253412
370
    60
100
AcDbLine
 10
223.2789773156726
 20
532.6260959502617
 30
0.0
 11
233.4154673156725
 21
532.6260959502617
 31
0.0
  0
LINE
  5
1BC
330
1F
100
AcDbEntity
  8
0
 48
0.00086
370
    60
100
AcDbLine
 10
223.2777723156726
 20
532.6604899502615
 30
0.0
 11
223.2789773156726
 21
532.6260959502617
 31
0.0
  0
LINE
  5
1BD
330
1F
100
AcDbEntity
  8
0
 48
0.00086
370
    60
100
AcDbLine
 10
233.4154673156725
 20
532.6260959502617
 30
0.0
 11
233.4166573156726
 21
532.6604899502615
 31
0.0
  0
LINE
  5
1BE
330
1F
100
AcDbEntity
  8
0
 48
0.015418
370
    60
100
AcDbLine
 10
218.9212503156726
 20
531.2746559502617
 30
0.0
 11
219.4292003156725
 21
531.6243869502615
 31
0.0
  0
ARC
  5
1BF
330
1F
100
AcDbEntity
  8
0
370
    60
100
AcDbCircle
 10
218.3480543156726
 20
532.6591159502616
 30
0.0
 40
1.498420000000034
100
AcDbArc
 50
295.9667129999989
 51
336.9415099999991
  0
ARC
  5
1C0
330
1F
100
AcDbEntity
  8
0
370
    60
100
AcDbCircle
 10
218.3486953156726
 20
532.6530429502617
 30
0.0
 40
1.492590999999934
100
AcDbArc
 50
269.9434740000015
 51
292.5573290000015
  0
ARC
  5
1C1
330
1F
100
AcDbEntity
  8
0
370
    60
100
AcDbCircle
 10
218.3457343156726
 20
532.6608859502616
 30
0.0
 40
1.501547999999959
100
AcDbArc
 50
336.9137799999996
 51
359.9847379999998
  0
LWPOLYLINE
  5
1C2
330
1F
100
AcDbEntity
  8
0
370
    60
100
AcDbPolyline
 90
        3
 70
     0
 43
0.0
 10
219.8472303156726
 20
531.1096779502617
 10
219.8332983156726
 20
531.3147559502618
 10
219.7725383156726
 20
531.5256319502616
  0
LINE
  5
1C3
330
1F
100
AcDbEntity
  8
0
 48
0.013398
370
    60
100
AcDbLine
 10
197.7410443156726
 20
507.2588169502618
 30
0.0
 11
198.2678693156726
 21
507.1605199502617
 31
0.0
  0
LINE
  5
1C4
330
1F
100
AcDbEntity
  8
0
 48
0.004185
370
    60
100
AcDbLine
 10
198.2678693156726
 20
507.1605199502617
 30
0.0
 11
198.4352733156726
 21
507.1605199502617
 31
0.0
  0
ARC
  5
1C5
330
1F
100
AcDbEntity
  8
0
370
    60
100
AcDbCircle
 10
198.4353193156726
 20
509.7605569502615
 30
0.0
 40
2.600085000000032
100
AcDbArc
 50
176.9990660000003
 51
254.4896510000005
  0
LINE
  5
1C6
330
1F
100
AcDbEntity
  8
0
370
    60
100
AcDbLine
 10
195.8388373156725
 20
509.8966959502617
 30
0.0
 11
196.9042213156727
 21
530.2128579502615
 31
0.0
  0
LINE
  5
1C7
330
1F
100
AcDbEntity
  8
0
370
    60
100
AcDbLine
 10
199.0104993156726
 20
507.1605199502617
 30
0.0
 11
297.3472303156725
 21
507.1605199502617
 31
0.0
  0
ARC
  5
1C8
330
1F
100
AcDbEntity
  8
0
370
    60
100
AcDbCircle
 10
228.3469863156726
 20
519.1811199502615
 30
0.0
 40
8.499167999999974
100
AcDbArc
 50
179.9595289999995
 51
330.0182389999995
  0
ARC
  5
1C9
330
1F
100
AcDbEntity
  8
0
370
    60
100
AcDbCircle
 10
243.0705123156727
 20
510.6882299502618
 30
0.0
 40
8.498745999999977
100
AcDbArc
 50
90.00571300000024
 51
150.0269630000002
  0
LINE
  5
1CA
330
1F
100
AcDbEntity
  8
0
370
    60
100
AcDbLine
 10
264.3472303156725
 20
519.1871309502617
 30
0.0
 11
285.6248023156726
 21
519.1871309502617
 31
0.0
  0
LINE
  5
1CB
330
1F
100
AcDbEntity
  8
0
370
    60
100
AcDbLine
 10
243.0696573156727
 20
519.1871309502617
 30
0.0
 11
264.3472303156725
 21
519.1871309502617
 31
0.0
  0
LINE
  5
1CC
330
1F
100
AcDbEntity
  8
0
370
    60
100
AcDbLine
 10
197.9028483156727
 20
531.1604899502618
 30
0.0
 11
218.3472303156726
 21
531.1604899502618
 31
0.0
  0
LINE
  5
1CD
330
1F
100
AcDbEntity
  8
0
 48
0.021548
370
    60
100
AcDbLine
 10
219.8472303156726
 20
530.2477389502617
 30
0.0
 11
219.8472303156726
 21
531.1096779502617
 31
0.0
  0
LINE
  5
1CE
330
1F
100
AcDbEntity
  8
0
 48
0.276515
370
    60
100
AcDbLine
 10
219.8472303156726
 20
519.1871309502617
 30
0.0
 11
219.8472303156726
 21
530.2477389502617
 31
0.0
  0
LINE
  5
1CF
330
1F
100
AcDbEntity
  8
0
 48
0.085764
370
    60
100
AcDbLine
 10
219.8472303156726
 20
532.6604899502615
 30
0.0
 11
223.2777723156726
 21
532.6604899502615
 31
0.0
  0
LINE
  5
1D0
330
1F
100
AcDbEntity
  8
0
370
    60
100
AcDbLine
 10
233.4166573156726
 20
532.6604899502615
 30
0.0
 11
264.3472303156725
 21
532.6604899502615
 31
0.0
  0
LINE
  5
1D1
330
1F
100
AcDbEntity
  8
0
 48
0.253472
370
    60
100
AcDbLine
 10
223.2777873156726
 20
532.6604899502615
 30
0.0
 11
233.4166573156726
 21
532.6604899502615
 31
0.0
  0
LINE
  5
1D2
330
1F
100
AcDbEntity
  8
0
 48
0.276515
370
    60
100
AcDbLine
 10
308.8472303156725
 20
519.1871309502617
 30
0.0
 11
308.8472303156725
 21
530.2477389502617
 31
0.0
  0
ARC
  5
1D3
330
1F
100
AcDbEntity
  8
0
370
    60
100
AcDbCircle
 10
300.3474743156725
 20
519.1811199502615
 30
0.0
 40
8.499167999999987
100
AcDbArc
 50
209.9817609999999
 51
0.0404660000000081
  0
ARC
  5
1D4
330
1F
100
AcDbEntity
  8
0
370
    60
100
AcDbCircle
 10
285.6239483156726
 20
510.6882299502618
 30
0.0
 40
8.498746000000004
100
AcDbArc
 50
29.97304200000018
 51
89.99428600000017
  0
LINE
  5
1D5
330
1F
100
AcDbEntity
  8
0
370
    60
100
AcDbLine
 10
303.3472303156725
 20
507.1605199502617
 30
0.0
 11
330.2591873156725
 21
507.1605199502617
 31
0.0
  0
LINE
  5
1D6
330
1F
100
AcDbEntity
  8
0
370
    60
100
AcDbLine
 10
264.3472303156725
 20
532.6604899502615
 30
0.0
 11
295.2778023156725
 21
532.6604899502615
 31
0.0
  0
LINE
  5
1D7
330
1F
100
AcDbEntity
  8
0
 48
0.085764
370
    60
100
AcDbLine
 10
305.4166883156725
 20
532.6604899502615
 30
0.0
 11
308.8472303156725
 21
532.6604899502615
 31
0.0
  0
LINE
  5
1D8
330
1F
100
AcDbEntity
  8
0
 48
0.021548
370
    60
100
AcDbLine
 10
308.8472303156725
 20
530.2477389502617
 30
0.0
 11
308.8472303156725
 21
531.1096779502617
 31
0.0
  0
LWPOLYLINE
  5
1D9
330
1F
100
AcDbEntity
  8
0
370
    60
100
AcDbPolyline
 90
        3
 70
     0
 43
0.0
 10
308.8472303156725
 20
531.1096779502617
 10
308.8611763156725
 20
531.3147559502618
 10
308.9219063156725
 20
531.5256319502616
  0
LINE
  5
1DA
330
1F
100
AcDbEntity
  8
0
 48
0.004185
370
    60
100
AcDbLine
 10
330.2591873156725
 20
507.1605199502617
 30
0.0
 11
330.4265753156726
 21
507.1605199502617
 31
0.0
  0
LINE
  5
1DB
330
1F
100
AcDbEntity
  8
0
 48
0.013399
370
    60
100
AcDbLine
 10
330.4265753156726
 20
507.1605199502617
 30
0.0
 11
330.9534313156725
 21
507.2588169502618
 31
0.0
  0
LWPOLYLINE
  5
1DC
330
1F
100
AcDbEntity
  8
0
370
    60
100
AcDbPolyline
 90
        3
 70
     0
 43
0.0
 10
331.1406263156725
 20
507.3145119502616
 10
331.1934213156725
 20
507.3341649502618
 10
331.2457283156726
 20
507.3549779502617
  0
LWPOLYLINE
  5
1DD
330
1F
100
AcDbEntity
  8
0
370
    60
100
AcDbPolyline
 90
        3
 70
     0
 43
0.0
 10
332.8040173156726
 20
509.2277809502618
 10
332.8235183156725
 20
509.3313269502615
 10
332.8388073156725
 20
509.4355449502615
  0
LWPOLYLINE
  5
1DE
330
1F
100
AcDbEntity
  8
0
370
    60
100
AcDbPolyline
 90
        4
 70
     0
 43
0.0
 10
308.9674383156726
 20
532.0720799502617
 10
309.0073863156725
 20
531.8793919502617
 10
308.9718943156725
 20
531.6487399502618
 10
308.9221503156726
 20
531.5255409502618
  0
LINE
  5
1DF
330
1F
100
AcDbEntity
  8
0
370
    60
100
AcDbLine
 10
331.7902233156725
 20
530.2128579502615
 30
0.0
 11
332.8556223156726
 21
509.8966959502617
 31
0.0
  0
ARC
  5
1E0
330
1F
100
AcDbEntity
  8
0
370
    60
100
AcDbCircle
 10
330.2591563156725
 20
509.7605569502615
 30
0.0
 40
2.60008499999995
100
AcDbArc
 50
285.5103490000005
 51
3.000930000000437
  0
LWPOLYLINE
  5
1E1
330
1F
100
AcDbEntity
  8
0
370
    60
100
AcDbPolyline
 90
        3
 70
     0
 43
0.0
 10
331.7902233156725
 20
530.2128579502615
 10
331.7155773156725
 20
530.4835789502617
 10
331.6702893156725
 20
530.6204509502618
  0
LWPOLYLINE
  5
1E2
330
1F
100
AcDbEntity
  8
0
370
    60
100
AcDbPolyline
 90
        3
 70
     0
 43
0.0
 10
331.6702893156725
 20
530.6204509502618
 10
331.6275033156726
 20
530.6906719502617
 10
331.5604873156725
 20
530.7613809502616
  0
LWPOLYLINE
  5
1E3
330
1F
100
AcDbEntity
  8
0
370
    60
100
AcDbPolyline
 90
        3
 70
     0
 43
0.0
 10
331.5604873156725
 20
530.7613809502616
 10
331.4498913156725
 20
530.8652929502617
 10
331.2764293156725
 20
531.0351229502618
  0
LINE
  5
1E4
330
1F
100
AcDbEntity
  8
0
 48
0.15
370
    60
100
AcDbLine
 10
297.3472303156725
 20
507.1605199502617
 30
0.0
 11
303.3472303156725
 21
507.1605199502617
 31
0.0
  0
LINE
  5
1E5
330
1F
100
AcDbEntity
  8
0
370
    60
100
AcDbLine
 10
310.3472303156725
 20
531.1604899502618
 30
0.0
 11
330.7916273156726
 21
531.1604899502618
 31
0.0
  0
LINE
  5
1E6
330
1F
100
AcDbEntity
  8
0
 48
0.253472
370
    60
100
AcDbLine
 10
295.2778023156725
 20
532.6604899502615
 30
0.0
 11
305.4166883156725
 21
532.6604899502615
 31
0.0
  0
LINE
  5
1E7
330
1F
100
AcDbEntity
  8
0
 48
0.00086
370
    60
100
AcDbLine
 10
295.2778023156725
 20
532.6604899502615
 30
0.0
 11
295.2789923156725
 21
532.6260959502617
 31
0.0
  0
LINE
  5
1E8
330
1F
100
AcDbEntity
  8
0
 48
0.00086
370
    60
100
AcDbLine
 10
305.4154673156725
 20
532.6260959502617
 30
0.0
 11
305.4166883156725
 21
532.6604899502615
 31
0.0
  0
LINE
  5
1E9
330
1F
100
AcDbEntity
  8
0
 48
0.253412
370
    60
100
AcDbLine
 10
295.2789923156725
 20
532.6260959502617
 30
0.0
 11
305.4154673156725
 21
532.6260959502617
 31
0.0
  0
LINE
  5
1EA
330
1F
100
AcDbEntity
  8
0
 48
0.015417
370
    60
100
AcDbLine
 10
309.2652603156725
 20
531.6243869502615
 30
0.0
 11
309.7731943156726
 21
531.2746559502617
 31
0.0
  0
ARC
  5
1EB
330
1F
100
AcDbEntity
  8
0
370
    60
100
AcDbCircle
 10
310.3487253156727
 20
532.6608859502616
 30
0.0
 40
1.501547999999992
100
AcDbArc
 50
180.015249999999
 51
203.087287999999
  0
ARC
  5
1EC
330
1F
100
AcDbEntity
  8
0
370
    60
100
AcDbCircle
 10
310.3457653156725
 20
532.6530429502617
 30
0.0
 40
1.492590999999921
100
AcDbArc
 50
247.4426729999994
 51
270.0565269999994
  0
ARC
  5
1ED
330
1F
100
AcDbEntity
  8
0
370
    60
100
AcDbCircle
 10
310.3464063156725
 20
532.6591159502616
 30
0.0
 40
1.498420000000042
100
AcDbArc
 50
203.0595570000024
 51
244.0305010000024
  0
ARC
  5
1EE
330
1F
100
AcDbEntity
  8
0
370
    60
100
AcDbCircle
 10
330.7916273156726
 20
530.1604899502618
 30
0.0
 40
1.00000000000001
100
AcDbArc
 50
61.00060899999898
 51
90.00000299999903
  0
LINE
  5
1EF
330
1F
100
AcDbEntity
  8
0
 48
0.006601
370
    60
100
AcDbLine
 10
330.7916273156726
 20
531.1604899502618
 30
0.0
 11
331.0528273156725
 21
531.1218239502617
 31
0.0
  0
LINE
  5
1F0
330
1F
100
AcDbEntity
  8
0
 48
0.00291
370
    60
100
AcDbLine
 10
331.0528273156725
 20
531.1218239502617
 30
0.0
 11
331.1552133156725
 21
531.0664649502618
 31
0.0
  0
LINE
  5
1F1
330
1F
100
AcDbEntity
  8
0
 48
0.0875
370
    60
100
AcDbLine
 10
401.4332283156726
 20
279.4775369502618
 30
0.0
 11
404.9332283156726
 21
279.4775369502618
 31
0.0
  0
LINE
  5
1F2
330
1F
100
AcDbEntity
  8
0
 48
0.4375
370
    60
100
AcDbLine
 10
404.9332283156726
 20
261.9775369502618
 30
0.0
 11
404.9332283156726
 21
279.4775369502618
 31
0.0
  0
LINE
  5
1F3
330
1F
100
AcDbEntity
  8
0
 48
0.017783
370
    60
100
AcDbLine
 10
401.4332283156726
 20
278.7662329502618
 30
0.0
 11
401.4332283156726
 21
279.4775369502618
 31
0.0
  0
LINE
  5
1F4
330
1F
100
AcDbEntity
  8
0
 48
0.032789
370
    60
100
AcDbLine
 10
401.4332283156726
 20
276.8729379502618
 30
0.0
 11
401.4332283156726
 21
278.1845069502618
 31
0.0
  0
LINE
  5
1F5
330
1F
100
AcDbEntity
  8
0
 48
0.044859
370
    60
100
AcDbLine
 10
401.4332283156726
 20
273.8093239502617
 30
0.0
 11
401.4332283156726
 21
275.6036659502618
 31
0.0
  0
LINE
  5
1F6
330
1F
100
AcDbEntity
  8
0
 48
0.061917
370
    60
100
AcDbLine
 10
401.4332283156726
 20
269.8262309502617
 30
0.0
 11
401.4332283156726
 21
272.3029299502617
 31
0.0
  0
LINE
  5
1F7
330
1F
100
AcDbEntity
  8
0
 48
0.068074
370
    60
100
AcDbLine
 10
401.4332283156726
 20
265.3544439502618
 30
0.0
 11
401.4332283156726
 21
268.0773899502618
 31
0.0
  0
LINE
  5
1F8
330
1F
100
AcDbEntity
  8
0
 48
0.036348
370
    60
100
AcDbLine
 10
401.4332283156726
 20
261.9775369502618
 30
0.0
 11
401.4332283156726
 21
263.4314699502618
 31
0.0
  0
LINE
  5
1F9
330
1F
100
AcDbEntity
  8
0
 48
0.0875
370
    60
100
AcDbLine
 10
123.7612313156726
 20
279.4775369502618
 30
0.0
 11
127.2612313156726
 21
279.4775369502618
 31
0.0
  0
LINE
  5
1FA
330
1F
100
AcDbEntity
  8
0
 48
0.061917
370
    60
100
AcDbLine
 10
127.2612313156726
 20
269.8262309502617
 30
0.0
 11
127.2612313156726
 21
272.3029299502617
 31
0.0
  0
LINE
  5
1FB
330
1F
100
AcDbEntity
  8
0
 48
0.068074
370
    60
100
AcDbLine
 10
127.2612313156726
 20
265.3544439502618
 30
0.0
 11
127.2612313156726
 21
268.0773899502618
 31
0.0
  0
LINE
  5
1FC
330
1F
100
AcDbEntity
  8
0
 48
0.036348
370
    60
100
AcDbLine
 10
127.2612313156726
 20
261.9775369502618
 30
0.0
 11
127.2612313156726
 21
263.4314699502618
 31
0.0
  0
LINE
  5
1FD
330
1F
100
AcDbEntity
  8
0
 48
0.044859
370
    60
100
AcDbLine
 10
127.2612313156726
 20
273.8093239502617
 30
0.0
 11
127.2612313156726
 21
275.6036659502618
 31
0.0
  0
LINE
  5
1FE
330
1F
100
AcDbEntity
  8
0
 48
0.017783
370
    60
100
AcDbLine
 10
127.2612313156726
 20
278.7662329502618
 30
0.0
 11
127.2612313156726
 21
279.4775369502618
 31
0.0
  0
LINE
  5
1FF
330
1F
100
AcDbEntity
  8
0
 48
0.032789
370
    60
100
AcDbLine
 10
127.2612313156726
 20
276.8729379502618
 30
0.0
 11
127.2612313156726
 21
278.1845069502618
 31
0.0
  0
LINE
  5
200
330
1F
100
AcDbEntity
  8
0
 48
0.4375
370
    60
100
AcDbLine
 10
123.7612313156726
 20
261.9775369502618
 30
0.0
 11
123.7612313156726
 21
279.4775369502618
 31
0.0
  0
ARC
  5
201
330
1F
100
AcDbEntity
  8
0
370
    60
100
AcDbCircle
 10
393.4332283156724
 20
109.9775369502618
 30
0.0
 40
11.5
100
AcDbArc
 50
270.000001
 51
0.0
  0
ARC
  5
202
330
1F
100
AcDbEntity
  8
0
370
    60
100
AcDbCircle
 10
393.4332283156724
 20
109.9775369502618
 30
0.0
 40
8.000000000000002
100
AcDbArc
 50
270.0000009999998
 51
359.9999999999997
  0
LINE
  5
203
330
1F
100
AcDbEntity
  8
0
370
    60
100
AcDbLine
 10
404.9332283156726
 20
109.9775369502618
 30
0.0
 11
404.9332283156726
 21
261.9775369502618
 31
0.0
  0
LINE
  5
204
330
1F
100
AcDbEntity
  8
0
370
    60
100
AcDbLine
 10
401.4332283156726
 20
109.9775369502618
 30
0.0
 11
401.4332283156726
 21
261.9775369502618
 31
0.0
  0
ARC
  5
205
330
1F
100
AcDbEntity
  8
0
370
    60
100
AcDbCircle
 10
135.2612313156727
 20
109.9775369502618
 30
0.0
 40
11.50000000000003
100
AcDbArc
 50
180.0000050000001
 51
270.0000010000001
  0
ARC
  5
206
330
1F
100
AcDbEntity
  8
0
370
    60
100
AcDbCircle
 10
135.2612313156727
 20
109.9775369502618
 30
0.0
 40
8.000000000000016
100
AcDbArc
 50
180.0000050000001
 51
270.0000010000001
  0
LINE
  5
207
330
1F
100
AcDbEntity
  8
0
370
    60
100
AcDbLine
 10
135.2612313156727
 20
98.47753695026182
 30
0.0
 11
264.3472303156725
 21
98.47753695026182
 31
0.0
  0
LINE
  5
208
330
1F
100
AcDbEntity
  8
0
370
    60
100
AcDbLine
 10
264.3472303156725
 20
98.47753695026182
 30
0.0
 11
393.4332283156724
 21
98.47753695026182
 31
0.0
  0
LINE
  5
209
330
1F
100
AcDbEntity
  8
0
370
    60
100
AcDbLine
 10
264.3472303156725
 20
101.9775369502618
 30
0.0
 11
393.4332283156724
 21
101.9775369502618
 31
0.0
  0
LINE
  5
20A
330
1F
100
AcDbEntity
  8
0
370
    60
100
AcDbLine
 10
135.2612313156727
 20
101.9775369502618
 30
0.0
 11
264.3472303156725
 21
101.9775369502618
 31
0.0
  0
LINE
  5
20B
330
1F
100
AcDbEntity
  8
0
370
    60
100
AcDbLine
 10
127.2612313156726
 20
109.9775369502618
 30
0.0
 11
127.2612313156726
 21
261.9775369502618
 31
0.0
  0
LINE
  5
20C
330
1F
100
AcDbEntity
  8
0
370
    60
100
AcDbLine
 10
123.7612313156726
 20
109.9775369502618
 30
0.0
 11
123.7612313156726
 21
261.9775369502618
 31
0.0
  0
LINE
  5
20D
330
1F
100
AcDbEntity
  8
0
370
    60
100
AcDbLine
 10
332.3475353156726
 20
152.5642069502617
 30
0.0
 11
382.5972303156725
 21
152.5642069502617
 31
0.0
  0
LINE
  5
20E
330
1F
100
AcDbEntity
  8
0
370
    60
100
AcDbLine
 10
146.0972303156726
 20
152.5642069502617
 30
0.0
 11
196.3469253156726
 21
152.5642069502617
 31
0.0
  0
LINE
  5
20F
330
1F
100
AcDbEntity
  8
0
370
    60
100
AcDbLine
 10
146.0972303156726
 20
511.0642069502616
 30
0.0
 11
195.9000713156726
 21
511.0642069502616
 31
0.0
  0
LINE
  5
210
330
1F
100
AcDbEntity
  8
0
370
    60
100
AcDbLine
 10
332.7943733156725
 20
511.0642069502616
 30
0.0
 11
382.5972303156725
 21
511.0642069502616
 31
0.0
  0
LINE
  5
211
330
1F
100
AcDbEntity
  8
0
370
    60
100
AcDbLine
 10
146.0972303156726
 20
152.5642069502617
 30
0.0
 11
146.0972303156726
 21
511.0642069502616
 31
0.0
  0
LINE
  5
212
330
1F
100
AcDbEntity
  8
0
370
    60
100
AcDbLine
 10
382.5972303156725
 20
152.5642069502617
 30
0.0
 11
382.5972303156725
 21
511.0642069502616
 31
0.0
  0
LINE
  5
213
330
1F
100
AcDbEntity
  8
0
370
    60
100
AcDbLine
 10
162.0972303156726
 20
288.5642069502618
 30
0.0
 11
162.0972303156726
 21
495.0642069502618
 31
0.0
  0
LINE
  5
214
330
1F
100
AcDbEntity
  8
0
370
    60
100
AcDbLine
 10
162.0972303156726
 20
288.5642069502618
 30
0.0
 11
366.5972303156725
 21
288.5642069502618
 31
0.0
  0
LINE
  5
215
330
1F
100
AcDbEntity
  8
0
370
    60
100
AcDbLine
 10
366.5972303156725
 20
288.5642069502618
 30
0.0
 11
366.5972303156725
 21
495.0642069502618
 31
0.0
  0
LINE
  5
216
330
1F
100
AcDbEntity
  8
0
370
    60
100
AcDbLine
 10
162.0972303156726
 20
495.0642069502618
 30
0.0
 11
366.5972303156725
 21
495.0642069502618
 31
0.0
  0
LINE
  5
217
330
1F
100
AcDbEntity
  8
0
370
    60
100
AcDbLine
 10
162.0972303156726
 20
288.5642069502618
 30
0.0
 11
162.0972303156726
 21
495.0642069502618
 31
0.0
  0
LINE
  5
218
330
1F
100
AcDbEntity
  8
0
370
    60
100
AcDbLine
 10
162.0972303156726
 20
288.5642069502618
 30
0.0
 11
366.5972303156725
 21
288.5642069502618
 31
0.0
  0
LINE
  5
219
330
1F
100
AcDbEntity
  8
0
370
    60
100
AcDbLine
 10
366.5972303156725
 20
288.5642069502618
 30
0.0
 11
366.5972303156725
 21
495.0642069502618
 31
0.0
  0
LINE
  5
21A
330
1F
100
AcDbEntity
  8
0
370
    60
100
AcDbLine
 10
162.0972303156726
 20
495.0642069502618
 30
0.0
 11
366.5972303156725
 21
495.0642069502618
 31
0.0
  0
LWPOLYLINE
  5
21B
330
1F
100
AcDbEntity
  8
0
370
    60
100
AcDbPolyline
 90
        3
 70
     0
 43
0.0
 10
243.5932783156726
 20
131.8678029502618
 10
245.0275283156726
 20
132.1482289502617
 10
245.6061873156725
 20
132.2819269502618
  0
LWPOLYLINE
  5
21C
330
1F
100
AcDbEntity
  8
0
370
    60
100
AcDbPolyline
 90
        4
 70
     0
 43
0.0
 10
245.6061873156725
 20
132.2819269502618
 10
245.8792433156725
 20
132.4358799502618
 10
246.4946913156726
 20
132.8348439502618
 10
246.5677803156726
 20
132.8835429502618
  0
LWPOLYLINE
  5
21D
330
1F
100
AcDbEntity
  8
0
370
    60
100
AcDbPolyline
 90
        5
 70
     0
 43
0.0
 10
246.5677803156726
 20
132.8835429502618
 10
247.0013133156726
 20
133.2212349502618
 10
247.4601143156725
 20
133.6832099502618
 10
247.9480603156726
 20
134.2917079502618
 10
248.1960153156726
 20
134.6469249502617
  0
LWPOLYLINE
  5
21E
330
1F
100
AcDbEntity
  8
0
370
    60
100
AcDbPolyline
 90
        5
 70
     0
 43
0.0
 10
243.5938583156725
 20
131.8647059502617
 10
242.9439703156725
 20
131.7823839502618
 10
241.5088513156726
 20
131.6890999502618
 10
239.0811013156726
 20
131.6151939502618
 10
236.8473823156726
 20
131.5960369502618
  0
LWPOLYLINE
  5
21F
330
1F
100
AcDbEntity
  8
0
370
    60
100
AcDbPolyline
 90
        8
 70
     0
 43
0.0
 10
225.4984443156727
 20
134.6469249502617
 10
225.7661293156725
 20
134.2647679502618
 10
226.0334483156726
 20
133.9191569502618
 10
226.2835093156726
 20
133.6285759502618
 10
226.5332503156727
 20
133.3700609502618
 10
226.7672133156726
 20
133.1567209502618
 10
227.0009013156726
 20
132.9715929502618
 10
227.1266793156726
 20
132.8835429502618
  0
LWPOLYLINE
  5
220
330
1F
100
AcDbEntity
  8
0
370
    60
100
AcDbPolyline
 90
        3
 70
     0
 43
0.0
 10
227.1266793156726
 20
132.8835429502618
 10
227.7724463156727
 20
132.4624919502618
 10
228.0882733156726
 20
132.2819269502618
  0
LWPOLYLINE
  5
221
330
1F
100
AcDbEntity
  8
0
370
    60
100
AcDbPolyline
 90
        4
 70
     0
 43
0.0
 10
228.0882733156726
 20
132.2819269502618
 10
228.3954323156726
 20
132.2051979502618
 10
229.5586103156726
 20
131.9700449502618
 10
230.0899673156727
 20
131.8676889502618
  0
LWPOLYLINE
  5
222
330
1F
100
AcDbEntity
  8
0
370
    60
100
AcDbPolyline
 90
        8
 70
     0
 43
0.0
 10
236.8470773156725
 20
131.5960369502618
 10
235.2233283156726
 20
131.6060309502618
 10
233.6881263156725
 20
131.6354649502617
 10
232.3971723156725
 20
131.6796009502618
 10
231.3220833156726
 20
131.7374549502617
 10
230.6310583156726
 20
131.7939349502618
 10
230.1484843156726
 20
131.8560769502618
 10
230.0897993156726
 20
131.8667879502618
  0
LINE
  5
223
330
1F
100
AcDbEntity
  8
0
 48
0.219393
370
    60
100
AcDbLine
 10
111.2612313156726
 20
251.5775429502618
 30
0.0
 11
115.6490943156725
 21
243.9775369502618
 31
0.0
  0
LINE
  5
224
330
1F
100
AcDbEntity
  8
0
 48
0.219393
370
    60
100
AcDbLine
 10
111.2612313156726
 20
272.3775309502618
 30
0.0
 11
115.6490943156725
 21
279.9775369502618
 31
0.0
  0
LINE
  5
225
330
1F
100
AcDbEntity
  8
0
 48
0.190303
370
    60
100
AcDbLine
 10
115.6490943156725
 20
243.9775369502618
 30
0.0
 11
123.2612313156725
 21
243.9775369502618
 31
0.0
  0
LINE
  5
226
330
1F
100
AcDbEntity
  8
0
 48
0.190303
370
    60
100
AcDbLine
 10
115.6490943156725
 20
279.9775369502618
 30
0.0
 11
123.2612313156725
 21
279.9775369502618
 31
0.0
  0
LINE
  5
227
330
1F
100
AcDbEntity
  8
0
370
    60
100
AcDbLine
 10
115.6490943156725
 20
243.9775369502618
 30
0.0
 11
115.6490943156725
 21
279.9775369502618
 31
0.0
  0
LINE
  5
228
330
1F
100
AcDbEntity
  8
0
370
    60
100
AcDbLine
 10
123.2612313156725
 20
243.9775369502618
 30
0.0
 11
123.2612313156725
 21
279.9775369502618
 31
0.0
  0
LINE
  5
229
330
1F
100
AcDbEntity
  8
0
370
    60
100
AcDbLine
 10
111.2612313156726
 20
251.5775429502618
 30
0.0
 11
111.2612313156726
 21
272.3775309502618
 31
0.0
  0
LINE
  5
22A
330
1F
100
AcDbEntity
  8
0
 48
0.190303
370
    60
100
AcDbLine
 10
405.4332283156726
 20
279.9775369502618
 30
0.0
 11
413.0453503156726
 21
279.9775369502618
 31
0.0
  0
LINE
  5
22B
330
1F
100
AcDbEntity
  8
0
 48
0.190303
370
    60
100
AcDbLine
 10
405.4332283156726
 20
243.9775369502618
 30
0.0
 11
413.0453503156726
 21
243.9775369502618
 31
0.0
  0
LINE
  5
22C
330
1F
100
AcDbEntity
  8
0
370
    60
100
AcDbLine
 10
405.4332283156726
 20
243.9775369502618
 30
0.0
 11
405.4332283156726
 21
279.9775369502618
 31
0.0
  0
LINE
  5
22D
330
1F
100
AcDbEntity
  8
0
 48
0.219393
370
    60
100
AcDbLine
 10
413.0453503156726
 20
243.9775369502618
 30
0.0
 11
417.4332283156726
 21
251.5775429502618
 31
0.0
  0
LINE
  5
22E
330
1F
100
AcDbEntity
  8
0
 48
0.219393
370
    60
100
AcDbLine
 10
413.0453503156726
 20
279.9775369502618
 30
0.0
 11
417.4332283156726
 21
272.3775309502618
 31
0.0
  0
LINE
  5
22F
330
1F
100
AcDbEntity
  8
0
370
    60
100
AcDbLine
 10
417.4332283156726
 20
251.5775429502618
 30
0.0
 11
417.4332283156726
 21
272.3775309502618
 31
0.0
  0
LINE
  5
230
330
1F
100
AcDbEntity
  8
0
370
    60
100
AcDbLine
 10
413.0453503156726
 20
243.9775369502618
 30
0.0
 11
413.0453503156726
 21
279.9775369502618
 31
0.0
  0
LINE
  5
231
330
1F
100
AcDbEntity
  8
0
  6
DASHED
 48
0.0875
370
    60
100
AcDbLine
 10
257.3472303156725
 20
98.47753695026182
 30
0.0
 11
257.3472303156725
 21
101.9775369502618
 31
0.0
  0
LINE
  5
232
330
1F
100
AcDbEntity
  8
0
  6
DASHED
 48
0.0875
370
    60
100
AcDbLine
 10
271.3472303156725
 20
98.47753695026182
 30
0.0
 11
271.3472303156725
 21
101.9775369502618
 31
0.0
  0
LINE
  5
233
330
1F
100
AcDbEntity
  8
0
  6
DASHED
 48
0.0875
370
    60
100
AcDbLine
 10
209.5972303156726
 20
98.47753695026182
 30
0.0
 11
209.5972303156726
 21
101.9775369502618
 31
0.0
  0
LINE
  5
234
330
1F
100
AcDbEntity
  8
0
  6
DASHED
 48
0.0875
370
    60
100
AcDbLine
 10
199.0972303156726
 20
98.47753695026182
 30
0.0
 11
199.0972303156726
 21
101.9775369502618
 31
0.0
  0
LINE
  5
235
330
1F
100
AcDbEntity
  8
0
  6
DASHED
 48
0.0875
370
    60
100
AcDbLine
 10
319.0972303156725
 20
98.47753695026182
 30
0.0
 11
319.0972303156725
 21
101.9775369502618
 31
0.0
  0
LINE
  5
236
330
1F
100
AcDbEntity
  8
0
  6
DASHED
 48
0.0875
370
    60
100
AcDbLine
 10
329.5972303156725
 20
98.47753695026182
 30
0.0
 11
329.5972303156725
 21
101.9775369502618
 31
0.0
  0
LINE
  5
237
330
1F
100
AcDbEntity
  8
0
 48
0.020291
370
    60
100
AcDbLine
 10
673.3009043156724
 20
522.7442599502617
 30
0.0
 11
673.4468393156725
 21
523.5426609502615
 31
0.0
  0
LINE
  5
238
330
1F
100
AcDbEntity
  8
0
 48
0.002594
370
    60
100
AcDbLine
 10
674.6270763156726
 20
524.1898169502617
 30
0.0
 11
674.7255263156726
 21
524.2225319502616
 31
0.0
  0
LINE
  5
239
330
1F
100
AcDbEntity
  8
0
 48
0.013841
370
    60
100
AcDbLine
 10
670.9837043156726
 20
188.1482669502618
 30
0.0
 11
671.0902113156726
 21
187.6049629502618
 31
0.0
  0
LINE
  5
23A
330
1F
100
AcDbEntity
  8
0
 48
0.002527
370
    60
100
AcDbLine
 10
672.3836683156724
 20
186.7430849502617
 30
0.0
 11
672.4837043156726
 21
186.7287269502618
 31
0.0
  0
LINE
  5
23B
330
1F
100
AcDbEntity
  8
0
370
    60
100
AcDbLine
 10
585.4669813156726
 20
114.4139529502618
 30
0.0
 11
620.4669813156726
 21
114.4139529502618
 31
0.0
  0
CIRCLE
  5
23C
330
1F
100
AcDbEntity
  8
0
370
    60
100
AcDbCircle
 10
602.9669813156726
 20
277.9139379502618
 30
0.0
 40
4.25
  0
ARC
  5
23D
330
1F
100
AcDbEntity
  8
0
370
    60
100
AcDbCircle
 10
606.9669813156726
 20
160.9139529502618
 30
0.0
 40
3.0
100
AcDbArc
 50
270.0000009999992
 51
359.9999999999993
  0
ARC
  5
23E
330
1F
100
AcDbEntity
  8
0
370
    60
100
AcDbCircle
 10
598.9669813156726
 20
160.9139529502618
 30
0.0
 40
3.000000000000012
100
AcDbArc
 50
180.0000050000005
 51
270.0000010000005
  0
ARC
  5
23F
330
1F
100
AcDbEntity
  8
0
370
    60
100
AcDbCircle
 10
606.9669813156726
 20
234.9139529502618
 30
0.0
 40
3.0
100
AcDbArc
 50
0.0
 51
90.000003
  0
ARC
  5
240
330
1F
100
AcDbEntity
  8
0
370
    60
100
AcDbCircle
 10
598.9669813156726
 20
234.9139529502618
 30
0.0
 40
3.000000000000004
100
AcDbArc
 50
90.00000299999986
 51
180.0000049999998
  0
LINE
  5
241
330
1F
100
AcDbEntity
  8
0
370
    60
100
AcDbLine
 10
609.9669813156726
 20
160.9139529502618
 30
0.0
 11
609.9669813156726
 21
234.9139529502618
 31
0.0
  0
LINE
  5
242
330
1F
100
AcDbEntity
  8
0
 48
0.2
370
    60
100
AcDbLine
 10
598.9669813156726
 20
237.9139529502618
 30
0.0
 11
606.9669813156726
 21
237.9139529502618
 31
0.0
  0
LINE
  5
243
330
1F
100
AcDbEntity
  8
0
370
    60
100
AcDbLine
 10
595.9669813156728
 20
160.9139529502618
 30
0.0
 11
595.9669813156728
 21
234.9139529502618
 31
0.0
  0
LINE
  5
244
330
1F
100
AcDbEntity
  8
0
 48
0.2
370
    60
100
AcDbLine
 10
598.9669813156726
 20
157.9139529502618
 30
0.0
 11
606.9669813156726
 21
157.9139529502618
 31
0.0
  0
LINE
  5
245
330
1F
100
AcDbEntity
  8
0
 48
0.2875
370
    60
100
AcDbLine
 10
620.4669813156726
 20
114.4139529502618
 30
0.0
 11
620.4669813156726
 21
125.9139529502618
 31
0.0
  0
LINE
  5
246
330
1F
100
AcDbEntity
  8
0
370
    60
100
AcDbLine
 10
620.4669813156726
 20
125.9139529502618
 30
0.0
 11
620.4669813156726
 21
274.1160869502618
 31
0.0
  0
LINE
  5
247
330
1F
100
AcDbEntity
  8
0
 48
0.2875
370
    60
100
AcDbLine
 10
585.4669813156726
 20
114.4139529502618
 30
0.0
 11
585.4669813156726
 21
125.9139529502618
 31
0.0
  0
LINE
  5
248
330
1F
100
AcDbEntity
  8
0
370
    60
100
AcDbLine
 10
585.4669813156726
 20
125.9139529502618
 30
0.0
 11
585.4669813156726
 21
274.1160869502618
 31
0.0
  0
ARC
  5
249
330
1F
100
AcDbEntity
  8
0
370
    60
100
AcDbCircle
 10
627.2778943156726
 20
152.5255559502618
 30
0.0
 40
5.000000000000023
100
AcDbArc
 50
266.9994439999994
 51
357.0005729999994
  0
LINE
  5
24A
330
1F
100
AcDbEntity
  8
0
 48
0.425
370
    60
100
AcDbLine
 10
632.2709973156725
 20
152.2639139502618
 30
0.0
 11
633.1607063156727
 21
169.2406289502617
 31
0.0
  0
LINE
  5
24B
330
1F
100
AcDbEntity
  8
0
 48
0.057692
370
    60
100
AcDbLine
 10
630.2644663156726
 20
169.3924079502618
 30
0.0
 11
632.5689703156725
 21
169.2716349502617
 31
0.0
  0
LINE
  5
24C
330
1F
100
AcDbEntity
  8
0
 48
0.163953
370
    60
100
AcDbLine
 10
620.4669813156726
 20
147.8756839502618
 30
0.0
 11
627.0161143156727
 21
147.5324529502618
 31
0.0
  0
LINE
  5
24D
330
1F
100
AcDbEntity
  8
0
 48
0.125
370
    60
100
AcDbLine
 10
627.7399303156724
 20
169.5247169502617
 30
0.0
 11
628.0015883156726
 21
174.5178659502618
 31
0.0
  0
LINE
  5
24E
330
1F
100
AcDbEntity
  8
0
 48
0.125
370
    60
100
AcDbLine
 10
634.6586313156727
 20
169.1621219502617
 30
0.0
 11
634.9202893156726
 21
174.1552709502618
 31
0.0
  0
LINE
  5
24F
330
1F
100
AcDbEntity
  8
0
 48
0.182073
370
    60
100
AcDbLine
 10
620.4669813156726
 20
169.9058809502618
 30
0.0
 11
627.7399303156724
 21
169.5247169502617
 31
0.0
  0
LINE
  5
250
330
1F
100
AcDbEntity
  8
0
 48
0.052313
370
    60
100
AcDbLine
 10
632.5689703156725
 20
169.2716349502617
 30
0.0
 11
634.6586313156727
 21
169.1621219502617
 31
0.0
  0
LINE
  5
251
330
1F
100
AcDbEntity
  8
0
 48
0.0632
370
    60
100
AcDbLine
 10
627.7399303156724
 20
169.5247169502617
 30
0.0
 11
630.2644663156726
 21
169.3924079502618
 31
0.0
  0
CIRCLE
  5
252
330
1F
100
AcDbEntity
  8
0
370
    60
100
AcDbCircle
 10
602.9669813156726
 20
277.9139379502618
 30
0.0
 40
18.0
  0
CIRCLE
  5
253
330
1F
100
AcDbEntity
  8
0
370
    60
100
AcDbCircle
 10
602.9669813156726
 20
277.9139379502618
 30
0.0
 40
10.39999999999998
  0
CIRCLE
  5
254
330
1F
100
AcDbEntity
  8
0
370
    60
100
AcDbCircle
 10
602.9669813156726
 20
277.9139379502618
 30
0.0
 40
8.276297
  0
LINE
  5
255
330
1F
100
AcDbEntity
  8
0
 48
0.175268
370
    60
100
AcDbLine
 10
613.4272473156725
 20
526.5969219502617
 30
0.0
 11
619.4272473156726
 21
522.9706399502616
 31
0.0
  0
LINE
  5
256
330
1F
100
AcDbEntity
  8
0
 48
0.05
370
    60
100
AcDbLine
 10
613.4272473156725
 20
526.5969219502617
 30
0.0
 11
613.4272473156725
 21
528.5969219502617
 31
0.0
  0
ARC
  5
257
330
1F
100
AcDbEntity
  8
0
370
    60
100
AcDbCircle
 10
672.3334363156727
 20
522.0969219502617
 30
0.0
 40
0.9999999999999359
100
AcDbArc
 50
269.9995360000002
 51
3.00047600000022
  0
LINE
  5
258
330
1F
100
AcDbEntity
  8
0
 48
0.4770800000000002
370
    60
100
AcDbLine
 10
652.2026373156726
 20
548.5600559502618
 30
0.0
 11
671.2597053156728
 21
547.5613379502616
 31
0.0
  0
LINE
  5
259
330
1F
100
AcDbEntity
  8
0
 48
0.036666
370
    60
100
AcDbLine
 10
619.5320443156725
 20
522.9072849502618
 30
0.0
 11
621.4258532099009
 21
521.9614051687093
 31
0.0
  0
LINE
  5
25A
330
1F
100
AcDbEntity
  8
0
 48
0.017614
370
    60
100
AcDbLine
 10
673.9321913156726
 20
524.0734839502618
 30
0.0
 11
674.6270763156726
 21
524.1898169502617
 31
0.0
  0
LINE
  5
25B
330
1F
100
AcDbEntity
  8
0
 48
0.017982
370
    60
100
AcDbLine
 10
673.4468393156725
 20
523.5426609502615
 30
0.0
 11
673.9321913156726
 21
524.0734839502618
 31
0.0
  0
LINE
  5
25C
330
1F
100
AcDbEntity
  8
0
 48
0.003061
370
    60
100
AcDbLine
 10
619.4272473156726
 20
522.9706399502616
 30
0.0
 11
619.5320443156725
 21
522.9072849502618
 31
0.0
  0
LINE
  5
25D
330
1F
100
AcDbEntity
  8
0
 48
0.313827
370
    60
100
AcDbLine
 10
673.6263443156727
 20
545.1955539502618
 30
0.0
 11
674.2833263156726
 21
532.6596659502618
 31
0.0
  0
ARC
  5
25E
330
1F
100
AcDbEntity
  8
0
370
    60
100
AcDbCircle
 10
671.1298233156725
 20
545.0646949502614
 30
0.0
 40
2.50000000000023
100
AcDbArc
 50
19.46294100000465
 51
87.02197199999699
  0
ARC
  5
25F
330
1F
100
AcDbEntity
  8
0
370
    60
100
AcDbCircle
 10
671.1298233156726
 20
545.0646949502616
 30
0.0
 40
2.500000000000029
100
AcDbArc
 50
3.000009000000992
 51
19.462941000001
  0
LINE
  5
260
330
1F
100
AcDbEntity
  8
0
 48
0.07927
370
    60
100
AcDbLine
 10
668.0142223156727
 20
546.2561619502616
 30
0.0
 11
671.1806653156726
 21
546.0902079502615
 31
0.0
  0
LINE
  5
261
330
1F
100
AcDbEntity
  8
0
 48
0.160647
370
    60
100
AcDbLine
 10
613.4272473156725
 20
528.5969219502617
 30
0.0
 11
619.4272473156726
 21
530.8973979502615
 31
0.0
  0
LINE
  5
262
330
1F
100
AcDbEntity
  8
0
 48
0.4685560000000001
370
    60
100
AcDbLine
 10
619.4272473156726
 20
530.8973979502615
 30
0.0
 11
636.9272473156726
 21
537.6072359502616
 31
0.0
  0
LINE
  5
263
330
1F
100
AcDbEntity
  8
0
 48
0.051765
370
    60
100
AcDbLine
 10
671.2788703156725
 20
523.1646709502618
 30
0.0
 11
671.3872083156726
 21
521.0969219502617
 31
0.0
  0
ARC
  5
264
330
1F
100
AcDbEntity
  8
0
370
    60
100
AcDbCircle
 10
671.1283583156725
 20
545.0915499502618
 30
0.0
 40
1.000000000000046
100
AcDbArc
 50
2.999378000002115
 51
87.00062100000213
  0
LINE
  5
265
330
1F
100
AcDbEntity
  8
0
 48
0.023656
370
    60
100
AcDbLine
 10
671.3872083156726
 20
521.0969219502617
 30
0.0
 11
672.3334363156727
 21
521.0969219502617
 31
0.0
  0
LINE
  5
266
330
1F
100
AcDbEntity
  8
0
 48
0.443933
370
    60
100
AcDbLine
 10
672.1269543156724
 20
545.1439189502615
 30
0.0
 11
673.0563363156726
 21
527.4109469502617
 31
0.0
  0
LINE
  5
267
330
1F
100
AcDbEntity
  8
0
 48
0.131722
370
    60
100
AcDbLine
 10
673.0563363156726
 20
527.4109469502617
 30
0.0
 11
673.3320933156726
 21
522.1492899502615
 31
0.0
  0
LINE
  5
268
330
1F
100
AcDbEntity
  8
0
 48
0.211218
370
    60
100
AcDbLine
 10
674.2833873156726
 20
532.6596659502618
 30
0.0
 11
674.7255263156726
 21
524.2225319502616
 31
0.0
  0
LINE
  5
269
330
1F
100
AcDbEntity
  8
0
 48
0.042087
370
    60
100
AcDbLine
 10
669.7540293156726
 20
523.8579689502617
 30
0.0
 11
671.2797863156726
 21
523.1464819502615
 31
0.0
  0
ARC
  5
26A
330
1F
100
AcDbEntity
  8
0
370
    60
100
AcDbCircle
 10
885.9106453156726
 20
222.6033909502618
 30
0.0
 40
401.522308
100
AcDbArc
 50
125.819283
 51
128.3233389999999
  0
ARC
  5
26B
330
1F
100
AcDbEntity
  8
0
370
    60
100
AcDbCircle
 10
652.0979459688955
 20
546.5628270374115
 30
0.0
 40
1.999970901892172
100
AcDbArc
 50
86.99939878850601
 51
125.819238105881
  0
ARC
  5
26C
330
1F
100
AcDbEntity
  8
0
370
    60
100
AcDbCircle
 10
659.4836433156726
 20
152.0812349502618
 30
0.0
 40
1.499946000000015
100
AcDbArc
 50
183.0765409999995
 51
252.1816209999994
  0
LWPOLYLINE
  5
26D
330
1F
100
AcDbEntity
  8
0
370
    60
100
AcDbPolyline
 90
       14
 70
     0
 43
0.0
 10
670.9837043156726
 20
188.1267679502618
 10
670.9951793156724
 20
187.9601109502618
 10
671.0266733156724
 20
187.7958499502618
 10
671.0776373156726
 20
187.6362279502617
 10
671.1474623156724
 20
187.4837619502617
 10
671.2351083156726
 20
187.3405739502617
 10
671.3392343156726
 20
187.2088909502618
 10
671.4583753156726
 20
187.0906039502618
 10
671.5907603156725
 20
186.9874549502617
 10
671.7344373156726
 20
186.9010289502618
 10
671.8872083156726
 20
186.8325019502616
 10
672.0468763156726
 20
186.7829259502618
 10
672.2110603156726
 20
186.7529729502618
 10
672.3836683156724
 20
186.7430849502617
  0
LINE
  5
26E
330
1F
100
AcDbEntity
  8
0
 48
0.006868
370
    60
100
AcDbLine
 10
670.9133923156726
 20
189.0551889502618
 30
0.0
 11
670.9837043156726
 21
188.7896099502618
 31
0.0
  0
LINE
  5
26F
330
1F
100
AcDbEntity
  8
0
 48
0.005651
370
    60
100
AcDbLine
 10
670.8583383156727
 20
189.2744119502618
 30
0.0
 11
670.9133923156726
 21
189.0551889502618
 31
0.0
  0
ARC
  5
270
330
1F
100
AcDbEntity
  8
0
370
    60
100
AcDbCircle
 10
669.9837043156726
 20
188.7896249502618
 30
0.0
 40
0.9999999999999619
100
AcDbArc
 50
28.99978000000208
 51
87.00061400000207
  0
ARC
  5
271
330
1F
100
AcDbEntity
  8
0
370
    60
100
AcDbCircle
 10
669.9837043156726
 20
153.6308879502618
 30
0.0
 40
1.000022999999978
100
AcDbArc
 50
273.0006120000004
 51
359.9994090000004
  0
LINE
  5
272
330
1F
100
AcDbEntity
  8
0
 48
0.301721
370
    60
100
AcDbLine
 10
657.9837043156726
 20
152.0006079502618
 30
0.0
 11
670.0360113156726
 21
152.6322609502618
 31
0.0
  0
LINE
  5
273
330
1F
100
AcDbEntity
  8
0
 48
0.007811
370
    60
100
AcDbLine
 10
657.9837043156726
 20
152.0006079502618
 30
0.0
 11
657.9837043156726
 21
152.3130619502618
 31
0.0
  0
LINE
  5
274
330
1F
100
AcDbEntity
  8
0
 48
0.076412
370
    60
100
AcDbLine
 10
666.9837043156724
 20
189.9482089502617
 30
0.0
 11
670.0360113156726
 21
189.7882359502618
 31
0.0
  0
LINE
  5
275
330
1F
100
AcDbEntity
  8
0
 48
0.211953
370
    60
100
AcDbLine
 10
672.4837043156726
 20
178.2506079502618
 30
0.0
 11
672.4837043156726
 21
186.7287269502618
 31
0.0
  0
ARC
  5
276
330
1F
100
AcDbEntity
  8
0
370
    60
100
AcDbCircle
 10
659.4837043156726
 20
152.0812969502617
 30
0.0
 40
1.500000000000007
100
AcDbArc
 50
252.1805009999994
 51
273.0000109999993
  0
ARC
  5
277
330
1F
100
AcDbEntity
  8
0
370
    60
100
AcDbCircle
 10
669.8836683156726
 20
153.7278419502617
 30
0.0
 40
2.599999999999971
100
AcDbArc
 50
315.8788729999991
 51
359.9999999999991
  0
ARC
  5
278
330
1F
100
AcDbEntity
  8
0
370
    60
100
AcDbCircle
 10
669.8836683156726
 20
153.7278419502617
 30
0.0
 40
2.599999999999971
100
AcDbArc
 50
273.0000110000003
 51
315.8788730000002
  0
LINE
  5
279
330
1F
100
AcDbEntity
  8
0
 48
0.261798
370
    60
100
AcDbLine
 10
659.5621963156724
 20
150.5833409502617
 30
0.0
 11
670.0197763156725
 21
151.1314059502618
 31
0.0
  0
LINE
  5
27A
330
1F
100
AcDbEntity
  8
0
370
    60
100
AcDbLine
 10
672.4837043156726
 20
153.7278419502617
 30
0.0
 11
672.4837043156726
 21
178.2506079502618
 31
0.0
  0
LINE
  5
27B
330
1F
100
AcDbEntity
  8
0
 48
0.124829
370
    60
100
AcDbLine
 10
670.9837043156726
 20
183.7964609502618
 30
0.0
 11
670.9837043156726
 21
188.7896099502618
 31
0.0
  0
LINE
  5
27C
330
1F
100
AcDbEntity
  8
0
370
    60
100
AcDbLine
 10
670.9837043156726
 20
153.6308879502618
 30
0.0
 11
670.9837043156726
 21
183.7964609502618
 31
0.0
  0
LINE
  5
27D
330
1F
100
AcDbEntity
  8
0
 48
0.000072
370
    60
100
AcDbLine
 10
671.7695323156724
 20
303.4907809502618
 30
0.0
 11
671.7724013156724
 21
303.4909339502618
 31
0.0
  0
ARC
  5
27E
330
1F
100
AcDbEntity
  8
0
370
    60
100
AcDbCircle
 10
-4326.671751684328
 20
346.8062109502617
 30
0.0
 40
4999.568359000001
100
AcDbArc
 50
359.51493
 51
359.718661
  0
ARC
  5
27F
330
1F
100
AcDbEntity
  8
0
370
    60
100
AcDbCircle
 10
2353.813111315673
 20
349.5056429502617
 30
0.0
 40
1800.02063
100
AcDbArc
 50
181.102589
 51
181.108176
  0
ARC
  5
280
330
1F
100
AcDbEntity
  8
0
370
    60
100
AcDbCircle
 10
2353.813111315673
 20
349.5056429502617
 30
0.0
 40
1800.020752
100
AcDbArc
 50
180.993183
 51
181.030544
  0
ARC
  5
281
330
1F
100
AcDbEntity
  8
0
370
    60
100
AcDbCircle
 10
665.9837043156726
 20
153.7336859502618
 30
0.0
 40
0.9999999999999863
100
AcDbArc
 50
272.9993829999998
 51
0.0006129999997521
  0
ARC
  5
282
330
1F
100
AcDbEntity
  8
0
370
    60
100
AcDbCircle
 10
667.9552013156726
 20
545.2604959502615
 30
0.0
 40
0.9999999999999991
100
AcDbArc
 50
2.275371000001702
 51
86.99999900000168
  0
ARC
  5
283
330
1F
100
AcDbEntity
  8
0
370
    60
100
AcDbCircle
 10
555.9960333156724
 20
322.4449129502618
 30
0.0
 40
2.000000000000016
100
AcDbArc
 50
135.0
 51
180.862344
  0
ARC
  5
284
330
1F
100
AcDbEntity
  8
0
370
    60
100
AcDbCircle
 10
559.4005133156727
 20
331.5062839502618
 30
0.0
 40
2.000000000000006
100
AcDbArc
 50
314.99999
 51
15.75571899999998
  0
ARC
  5
285
330
1F
100
AcDbEntity
  8
0
370
    60
100
AcDbCircle
 10
667.9837043156726
 20
302.2909829502618
 30
0.0
 40
0.9999999999999806
100
AcDbArc
 50
92.99999900000168
 51
180.0000050000017
  0
ARC
  5
286
330
1F
100
AcDbEntity
  8
0
370
    60
100
AcDbCircle
 10
671.7171643156726
 20
304.4894079502618
 30
0.0
 40
0.9999999999999817
100
AcDbArc
 50
273.0000109999974
 51
359.5150389999976
  0
LINE
  5
287
330
1F
100
AcDbEntity
  8
0
 48
0.35179
370
    60
100
AcDbLine
 10
651.9837043156726
 20
151.9986239502617
 30
0.0
 11
666.0360113156726
 21
152.7350749502618
 31
0.0
  0
LINE
  5
288
330
1F
100
AcDbEntity
  8
0
 48
0.4953250000000002
370
    60
100
AcDbLine
 10
651.9837043156726
 20
302.4538549502618
 30
0.0
 11
671.7695323156724
 21
303.4907809502618
 31
0.0
  0
ARC
  5
289
330
1F
100
AcDbEntity
  8
0
370
    60
100
AcDbCircle
 10
885.8899543156728
 20
222.6416299502618
 30
0.0
 40
399.988525
100
AcDbArc
 50
125.788411
 51
133.024096
  0
ARC
  5
28A
330
1F
100
AcDbEntity
  8
0
370
    60
100
AcDbCircle
 10
810.8860483156724
 20
289.5464149502618
 30
0.0
 40
300.0338130000001
100
AcDbArc
 50
133.746933
 51
133.758286
  0
LINE
  5
28B
330
1F
100
AcDbEntity
  8
0
 48
0.005019
370
    60
100
AcDbLine
 10
651.9738173156726
 20
259.7249119502617
 30
0.0
 11
651.9837653156726
 21
259.5243969502618
 31
0.0
  0
LINE
  5
28C
330
1F
100
AcDbEntity
  8
0
 48
0.005019
370
    60
100
AcDbLine
 10
651.9738173156726
 20
296.1029949502618
 30
0.0
 11
651.9837653156726
 21
296.3034949502618
 31
0.0
  0
LINE
  5
28D
330
1F
100
AcDbEntity
  8
0
370
    60
100
AcDbLine
 10
651.9837653156726
 20
259.5243969502618
 30
0.0
 11
651.9837653156726
 21
296.3034949502618
 31
0.0
  0
ARC
  5
28E
330
1F
100
AcDbEntity
  8
0
370
    60
100
AcDbCircle
 10
580.3338023156724
 20
197.0435159502617
 30
0.0
 40
20.00006900000005
100
AcDbArc
 50
184.9136569999999
 51
266.9998810000001
  0
ARC
  5
28F
330
1F
100
AcDbEntity
  8
0
370
    60
100
AcDbCircle
 10
602.8956923156724
 20
278.1983009502618
 30
0.0
 40
21.93002499999997
100
AcDbArc
 50
202.02399
 51
217.106661
  0
LINE
  5
290
330
1F
100
AcDbEntity
  8
0
 48
0.401146
370
    60
100
AcDbLine
 10
651.9837043156726
 20
547.0989359502618
 30
0.0
 11
668.0075693156726
 21
546.2591529502615
 31
0.0
  0
LINE
  5
291
330
1F
100
AcDbEntity
  8
0
 48
0.040566
370
    60
100
AcDbLine
 10
651.9837653156726
 20
257.9017619502617
 30
0.0
 11
651.9837653156726
 21
259.5243969502618
 31
0.0
  0
LINE
  5
292
330
1F
100
AcDbEntity
  8
0
 48
0.040566
370
    60
100
AcDbLine
 10
651.9837653156726
 20
296.3034949502618
 30
0.0
 11
651.9837653156726
 21
297.9261449502617
 31
0.0
  0
LINE
  5
293
330
1F
100
AcDbEntity
  8
0
 48
0.15471
370
    60
100
AcDbLine
 10
579.2870493156724
 20
177.0708899502617
 30
0.0
 11
585.4669813156726
 21
176.7470069502618
 31
0.0
  0
LINE
  5
294
330
1F
100
AcDbEntity
  8
0
370
    60
100
AcDbLine
 10
620.4669813156726
 20
174.9127479502618
 30
0.0
 11
651.9837043156726
 21
173.2610149502618
 31
0.0
  0
LINE
  5
295
330
1F
100
AcDbEntity
  8
0
 48
0.35048
370
    60
100
AcDbLine
 10
595.9669813156728
 20
176.1967289502617
 30
0.0
 11
609.9669813156726
 21
175.4630099502618
 31
0.0
  0
ARC
  5
296
330
1F
100
AcDbEntity
  8
0
370
    60
100
AcDbCircle
 10
2353.826295315673
 20
349.5071389502618
 30
0.0
 40
1800.034057999999
100
AcDbArc
 50
181.194783
 51
184.91352
  0
ARC
  5
297
330
1F
100
AcDbEntity
  8
0
370
    60
100
AcDbCircle
 10
2353.813111315673
 20
349.5056429502617
 30
0.0
 40
1800.020752
100
AcDbArc
 50
180.862344
 51
181.194742
  0
LINE
  5
298
330
1F
100
AcDbEntity
  8
0
 48
0.220368
370
    60
100
AcDbLine
 10
554.5817883156726
 20
323.8591289502618
 30
0.0
 11
560.8147593156726
 21
330.0920389502618
 31
0.0
  0
ARC
  5
299
330
1F
100
AcDbEntity
  8
0
370
    60
100
AcDbCircle
 10
647.0658583156726
 20
404.3347759502618
 30
0.0
 40
100.000031
100
AcDbArc
 50
144.982037
 51
190.443911
  0
LINE
  5
29A
330
1F
100
AcDbEntity
  8
0
 48
0.3356889999999999
370
    60
100
AcDbLine
 10
603.0895393156724
 20
505.9735689502618
 30
0.0
 11
612.9812023156726
 21
515.0539829502617
 31
0.0
  0
LINE
  5
29B
330
1F
100
AcDbEntity
  8
0
 48
0.112978
370
    60
100
AcDbLine
 10
565.16861491933
 20
461.718116076828
 30
0.0
 11
603.0895393156724
 21
505.9735689502618
 31
0.0
  0
LINE
  5
29C
330
1F
100
AcDbEntity
  8
0
 48
0.000077
370
    60
100
AcDbLine
 10
612.9812023156726
 20
515.0539829502617
 30
0.0
 11
612.9835213156723
 21
515.0560279502618
 31
0.0
  0
LINE
  5
29D
330
1F
100
AcDbEntity
  8
0
370
    60
100
AcDbLine
 10
612.9835213156723
 20
515.0560279502618
 30
0.0
 11
651.9837043156726
 21
521.9327979502617
 31
0.0
  0
LINE
  5
29E
330
1F
100
AcDbEntity
  8
0
 48
0.024966
370
    60
100
AcDbLine
 10
651.9837653156726
 20
301.4551979502618
 30
0.0
 11
651.9837653156726
 21
302.4538549502618
 31
0.0
  0
LINE
  5
29F
330
1F
100
AcDbEntity
  8
0
 48
0.024966
370
    60
100
AcDbLine
 10
651.9837653156726
 20
302.4538549502618
 30
0.0
 11
651.9837653156726
 21
303.4524819502618
 31
0.0
  0
LINE
  5
2A0
330
1F
100
AcDbEntity
  8
0
 48
0.249657
370
    60
100
AcDbLine
 10
651.9837653156726
 20
151.9986239502617
 30
0.0
 11
651.9837653156726
 21
161.9849219502618
 31
0.0
  0
LINE
  5
2A1
330
1F
100
AcDbEntity
  8
0
 48
0.249658
370
    60
100
AcDbLine
 10
651.9837653156726
 20
537.1126079502616
 30
0.0
 11
651.9837653156726
 21
547.0989359502618
 31
0.0
  0
LINE
  5
2A2
330
1F
100
AcDbEntity
  8
0
 48
0.005
370
    60
100
AcDbLine
 10
651.9837653156726
 20
257.7017649502618
 30
0.0
 11
651.9837653156726
 21
257.9017619502617
 31
0.0
  0
LINE
  5
2A3
330
1F
100
AcDbEntity
  8
0
 48
0.005
370
    60
100
AcDbLine
 10
651.9837653156726
 20
297.9261449502617
 30
0.0
 11
651.9837653156726
 21
298.1261569502618
 31
0.0
  0
LINE
  5
2A4
330
1F
100
AcDbEntity
  8
0
370
    60
100
AcDbLine
 10
651.9837653156726
 20
161.9849219502618
 30
0.0
 11
651.9837653156726
 21
257.9017619502617
 31
0.0
  0
LINE
  5
2A5
330
1F
100
AcDbEntity
  8
0
 48
0.088226
370
    60
100
AcDbLine
 10
651.9837653156726
 20
297.9261449502617
 30
0.0
 11
651.9837653156726
 21
301.4551979502618
 31
0.0
  0
LINE
  5
2A6
330
1F
100
AcDbEntity
  8
0
 48
0.002377
370
    60
100
AcDbLine
 10
651.9837653156726
 20
298.1261569502618
 30
0.0
 11
651.9837653156726
 21
298.2212499502618
 31
0.0
  0
LINE
  5
2A7
330
1F
100
AcDbEntity
  8
0
 48
0.002378
370
    60
100
AcDbLine
 10
651.9837653156726
 20
257.6066409502618
 30
0.0
 11
651.9837653156726
 21
257.7017649502618
 31
0.0
  0
LINE
  5
2A8
330
1F
100
AcDbEntity
  8
0
370
    60
100
AcDbLine
 10
651.9837653156726
 20
303.4524819502618
 30
0.0
 11
651.9837653156726
 21
537.1126079502616
 31
0.0
  0
LINE
  5
2A9
330
1F
100
AcDbEntity
  8
0
 48
0.224692
370
    60
100
AcDbLine
 10
666.9837043156724
 20
162.7213719502616
 30
0.0
 11
666.9837043156724
 21
153.7337009502618
 31
0.0
  0
LINE
  5
2AA
330
1F
100
AcDbEntity
  8
0
370
    60
100
AcDbLine
 10
666.9837043156724
 20
162.7213719502616
 30
0.0
 11
666.9837043156724
 21
302.2909829502618
 31
0.0
  0
LINE
  5
2AB
330
1F
100
AcDbEntity
  8
0
370
    60
100
AcDbLine
 10
671.2791153156726
 20
473.9599889502618
 30
0.0
 11
672.2094123156725
 21
428.4550149502616
 31
0.0
  0
LINE
  5
2AC
330
1F
100
AcDbEntity
  8
0
 48
0.218691
370
    60
100
AcDbLine
 10
669.3042003156726
 20
536.2924169502616
 30
0.0
 11
669.6280533156724
 21
527.5507789502617
 31
0.0
  0
LINE
  5
2AD
330
1F
100
AcDbEntity
  8
0
 48
0.047587
370
    60
100
AcDbLine
 10
669.6275033156725
 20
527.5507179502617
 30
0.0
 11
669.6965343156727
 21
525.6484959502617
 31
0.0
  0
ARC
  5
2AE
330
1F
100
AcDbEntity
  8
0
370
    60
100
AcDbCircle
 10
-4326.671751684328
 20
346.8062109502617
 30
0.0
 40
4999.568359000001
100
AcDbArc
 50
1.457357999999999
 51
2.049995999999999
  0
ARC
  5
2AF
330
1F
100
AcDbEntity
  8
0
370
    60
100
AcDbCircle
 10
-4326.664427684329
 20
346.8063329502618
 30
0.0
 40
4999.561035
100
AcDbArc
 50
359.51493
 51
0.9357530000000185
  0
ARC
  5
2B0
330
1F
100
AcDbEntity
  8
0
370
    60
100
AcDbCircle
 10
-4310.067259684328
 20
347.4489419502618
 30
0.0
 40
4982.951171999999
100
AcDbArc
 50
2.171911000000001
 51
2.275564000000001
  0
LINE
  5
2B1
330
1F
100
AcDbEntity
  8
0
 48
0.013353
370
    60
100
AcDbLine
 10
651.9837043156726
 20
521.3986789502618
 30
0.0
 11
651.9837043156726
 21
521.9327979502617
 31
0.0
  0
LINE
  5
2B2
330
1F
100
AcDbEntity
  8
0
370
    60
100
AcDbLine
 10
620.4669813156726
 20
255.3173189502618
 30
0.0
 11
651.9837043156726
 21
253.6656009502618
 31
0.0
  0
LINE
  5
2B3
330
1F
100
AcDbEntity
  8
0
 48
0.113339
370
    60
100
AcDbLine
 10
564.9284073156726
 20
319.7806679502618
 30
0.0
 11
566.2747813156725
 21
315.4516269502618
 31
0.0
  0
LINE
  5
2B4
330
1F
100
AcDbEntity
  8
0
 48
0.104389
370
    60
100
AcDbLine
 10
560.9194343156727
 20
333.4951149502618
 30
0.0
 11
562.0572523156724
 21
329.4775669502618
 31
0.0
  0
ARC
  5
2B5
330
1F
100
AcDbEntity
  8
0
370
    60
100
AcDbCircle
 10
1138.655202877824
 20
494.9351531053574
 30
0.0
 40
599.8679268105284
100
AcDbArc
 50
195.7556940170699
 51
196.9770370910643
  0
ARC
  5
2B6
330
1F
100
AcDbEntity
  8
0
370
    60
100
AcDbCircle
 10
1138.741700315672
 20
494.9593479502618
 30
0.0
 40
599.958069
100
AcDbArc
 50
197.409788
 51
202.024359
  0
ARC
  5
2B7
330
1F
100
AcDbEntity
  8
0
370
    60
100
AcDbCircle
 10
1138.741700315672
 20
494.9593479502618
 30
0.0
 40
599.958069
100
AcDbArc
 50
190.4435
 51
195.61226
  0
ARC
  5
2B8
330
1F
100
AcDbEntity
  8
0
370
    60
100
AcDbCircle
 10
671.7171643156726
 20
304.4894079502618
 30
0.0
 40
1.000021999999988
100
AcDbArc
 50
273.1658749999982
 51
316.2574559999981
  0
LINE
  5
2B9
330
1F
100
AcDbEntity
  8
0
370
    60
100
AcDbLine
 10
198.4352733156726
 20
507.1605199502617
 30
0.0
 11
199.0104993156726
 21
507.1605199502617
 31
0.0
  0
DIMENSION
  5
2BA
330
1F
100
AcDbEntity
  8
0
370
    25
100
AcDbDimension
  2
*D5
 10
403.3492443156725
 20
559.450364015433
 30
0.0
 11
264.3472378156725
 21
571.450364015433
 31
0.0
 70
   160
 71
     5
 41
2.5
 42
278.0040129999999
  3
Standard
100
AcDbAlignedDimension
 13
125.3452313156726
 23
444.4882961192001
 33
0.0
 14
403.3492443156725
 24
447.7693548151105
 34
0.0
100
AcDbRotatedDimension
1001
ACAD
1000
DSTYLE
1002
{
1070
   171
1070
     3
1070
   143
1040
0.03937
1070
   274
1070
     3
1070
    41
1040
10.0
1070
   289
1070
     0
1070
   141
1040
2.5
1070
   176
1070
     7
1070
   177
1070
     7
1070
   271
1070
     2
1070
    43
1040
3.75
1070
   278
1070
    44
1070
    44
1040
1.25
1070
    42
1040
0.625
1070
   147
1040
5.0
1070
    77
1070
     1
1070
   272
1070
     2
1070
    73
1070
     0
1070
   172
1070
     1
1070
    74
1070
     0
1070
   283
1070
     0
1070
   140
1040
14.0
1070
   284
1070
     8
1070
    78
1070
     8
1002
}
  0
DIMENSION
  5
2BB
330
1F
100
AcDbEntity
  8
0
370
    25
100
AcDbDimension
  2
*D6
 10
440.0724003733663
 20
98.47753695026182
 30
0.0
 11
428.0724003733663
 21
314.8200049502617
 31
0.0
 70
    32
  1
433
 71
     5
 41
2.5
 42
432.6849359999997
  3
Standard
100
AcDbAlignedDimension
 13
348.2407613046014
 23
531.1624729502615
 33
0.0
 14
348.2407613046014
 24
98.47753695026182
 34
0.0
 50
90.0
100
AcDbRotatedDimension
1001
ACAD
1000
DSTYLE
1002
{
1070
   171
1070
     3
1070
   143
1040
0.03937
1070
   274
1070
     3
1070
    41
1040
10.0
1070
   289
1070
     0
1070
   141
1040
2.5
1070
   176
1070
     7
1070
   177
1070
     7
1070
   271
1070
     2
1070
    43
1040
3.75
1070
   278
1070
    44
1070
    44
1040
1.25
1070
    42
1040
0.625
1070
   147
1040
5.0
1070
    77
1070
     1
1070
   272
1070
     2
1070
    73
1070
     0
1070
   172
1070
     1
1070
    74
1070
     0
1070
   283
1070
     0
1070
   140
1040
14.0
1070
   284
1070
     8
1070
    78
1070
     8
1002
}
  0
DIMENSION
  5
2BC
330
1F
100
AcDbEntity
  8
0
370
    25
100
AcDbDimension
  2
*D7
 10
417.4332283156726
 20
60.9391988555079
 30
0.0
 11
264.3472298156726
 21
72.9391988555079
 31
0.0
 70
    32
  1
306
 71
     5
 41
2.5
 42
306.171997
  3
Standard
100
AcDbAlignedDimension
 13
111.2612313156726
 23
261.9775369502618
 33
0.0
 14
417.4332283156726
 24
251.5775429502618
 34
0.0
100
AcDbRotatedDimension
1001
ACAD
1000
DSTYLE
1002
{
1070
   171
1070
     3
1070
   143
1040
0.03937
1070
   274
1070
     3
1070
    41
1040
10.0
1070
   289
1070
     0
1070
   141
1040
2.5
1070
   176
1070
     7
1070
   177
1070
     7
1070
   271
1070
     2
1070
    43
1040
3.75
1070
   278
1070
    44
1070
    44
1040
1.25
1070
    42
1040
0.625
1070
   147
1040
5.0
1070
    77
1070
     1
1070
   272
1070
     2
1070
    73
1070
     0
1070
   172
1070
     1
1070
    74
1070
     0
1070
   283
1070
     0
1070
   140
1040
14.0
1070
   284
1070
     8
1070
    78
1070
     8
1002
}
  0
DIMENSION
  5
2BD
330
1F
100
AcDbEntity
  8
0
370
    25
100
AcDbDimension
  2
*D8
 10
672.4837043156726
 20
60.93919885550787
 30
0.0
 11
609.7747658156726
 21
72.93919885550787
 31
0.0
 70
    32
  1
125
 71
     5
 41
2.5
 42
125.4178770000001
  3
Standard
100
AcDbAlignedDimension
 13
547.0658273156725
 23
404.3347759502618
 33
0.0
 14
672.4837043156726
 24
163.0633702635915
 34
0.0
100
AcDbRotatedDimension
1001
ACAD
1000
DSTYLE
1002
{
1070
   171
1070
     3
1070
   143
1040
0.03937
1070
   274
1070
     3
1070
    41
1040
10.0
1070
   289
1070
     0
1070
   141
1040
2.5
1070
   176
1070
     7
1070
   177
1070
     7
1070
   271
1070
     2
1070
    43
1040
3.75
1070
   278
1070
    44
1070
    44
1040
1.25
1070
    42
1040
0.625
1070
   147
1040
5.0
1070
    77
1070
     1
1070
   272
1070
     2
1070
    73
1070
     0
1070
   172
1070
     1
1070
    74
1070
     0
1070
   283
1070
     0
1070
   140
1040
14.0
1070
   284
1070
     8
1070
    78
1070
     8
1002
}
  0
LINE
  5
2BE
330
1F
100
AcDbEntity
  8
STANDARD_LAYER
370
    60
100
AcDbLine
 10
238.8275439743011
 20
410.1154512109765
 30
0.0
 11
259.5092257343009
 21
438.0280678909755
 31
0.0
  0
LINE
  5
2BF
330
1F
100
AcDbEntity
  8
STANDARD_LAYER
370
    60
100
AcDbLine
 10
227.599355294301
 20
381.0270729909764
 30
0.0
 11
248.2822794143008
 21
408.9398772309755
 31
0.0
  0
LINE
  5
2C0
330
1F
100
AcDbEntity
  8
STANDARD_LAYER
370
    60
100
AcDbLine
 10
222.5771306543011
 20
401.5934854709765
 30
0.0
 11
243.2592508943008
 21
429.5066335709764
 31
0.0
  0
LINE
  5
2C1
330
1F
100
AcDbEntity
  8
STANDARD_LAYER
370
    60
100
AcDbLine
 10
256.2593894543011
 20
368.9801775509766
 30
0.0
 11
276.941875094301
 21
396.8929609509755
 31
0.0
  0
LINE
  5
2C2
330
1F
100
AcDbEntity
  8
STANDARD_LAYER
370
    60
100
AcDbLine
 10
273.3964824143009
 20
380.4390411309755
 30
0.0
 11
294.0787070543011
 21
408.3512931109765
 31
0.0
  0
VIEWPORT
  5
BB
330
73
100
AcDbEntity
 67
     1
  8
0
100
AcDbViewport
 10
7.8
 20
4.5
 30
0.0
 40
15.64
 41
9.0
 68
     1
 69
     1
 12
6.0
 22
4.5
 13
0.0
 23
0.0
 14
0.5
 24
0.5
 15
0.5
 25
0.5
 16
0.0
 26
0.0
 36
1.0
 17
0.0
 27
0.0
 37
0.0
 42
50.0
 43
0.0
 44
0.0
 45
12.0
 50
0.0
 51
0.0
 72
   100
 90
   557152
  1

281
     0
 71
     1
 74
     0
110
0.0
120
0.0
130
0.0
111
1.0
121
0.0
131
0.0
112
0.0
122
1.0
132
0.0
 79
     0
146
0.0
  0
ENDSEC
  0
SECTION
  2
OBJECTS
  0
DICTIONARY
  5
C
330
0
100
AcDbDictionary
281
     1
  3
ACAD_COLOR
350
6C
  3
ACAD_GROUP
350
D
  3
ACAD_LAYOUT
350
1A
  3
ACAD_MATERIAL
350
6B
  3
ACAD_MLEADERSTYLE
350
335
  3
ACAD_MLINESTYLE
350
17
  3
ACAD_PLOTSETTINGS
350
19
  3
ACAD_PLOTSTYLENAME
350
E
  3
ACAD_SCALELIST
350
99
  3
ACAD_TABLESTYLE
350
92
  3
ACDBHEADERROUNDTRIPXREC
350
336
  3
AcDbVariableDictionary
350
59
  3
DWGPROPS
350
339
  0
DICTIONARY
  5
6C
102
{ACAD_REACTORS
330
C
102
}
330
C
100
AcDbDictionary
281
     1
  0
DICTIONARY
  5
D
102
{ACAD_REACTORS
330
C
102
}
330
C
100
AcDbDictionary
281
     1
  0
DICTIONARY
  5
1A
102
{ACAD_REACTORS
330
C
102
}
330
C
100
AcDbDictionary
281
     1
  3
Layout1
350
74
  3
Layout2
350
321
  3
Model
350
22
  0
DICTIONARY
  5
6B
102
{ACAD_REACTORS
330
C
102
}
330
C
100
AcDbDictionary
281
     1
  0
DICTIONARY
  5
335
102
{ACAD_REACTORS
330
C
102
}
330
C
100
AcDbDictionary
281
     1
  0
DICTIONARY
  5
17
102
{ACAD_REACTORS
330
C
102
}
330
C
100
AcDbDictionary
281
     1
  3
Standard
350
18
  0
DICTIONARY
  5
19
102
{ACAD_REACTORS
330
C
102
}
330
C
100
AcDbDictionary
281
     1
  0
ACDBDICTIONARYWDFLT
  5
E
102
{ACAD_REACTORS
330
C
102
}
330
C
100
AcDbDictionary
281
     1
  3
Normal
350
F
100
AcDbDictionaryWithDefault
340
F
  0
DICTIONARY
  5
99
102
{ACAD_REACTORS
330
C
102
}
330
C
100
AcDbDictionary
281
     1
  3
A0
350
D5
  3
A1
350
D6
  3
A2
350
D7
  3
A3
350
D8
  3
A4
350
D9
  3
A5
350
DA
  3
A6
350
DB
  3
A7
350
DC
  3
A8
350
DD
  3
A9
350
DE
  3
B0
350
DF
  3
B1
350
E0
  3
B2
350
E1
  3
B3
350
E2
  3
B4
350
E3
  3
B5
350
E4
  3
B6
350
E5
  3
B7
350
E6
  3
B8
350
E7
  3
B9
350
E8
  3
C0
350
E9
  3
C1
350
EA
  3
C2
350
EB
  3
C3
350
EC
  3
C4
350
ED
  3
C5
350
EE
  3
C6
350
EF
  3
C7
350
F0
  3
C8
350
F1
  3
C9
350
F2
  3
D0
350
F3
  3
D1
350
F4
  3
D2
350
F5
  0
DICTIONARY
  5
92
102
{ACAD_REACTORS
330
C
102
}
330
C
100
AcDbDictionary
281
     1
  0
DICTIONARY
  5
336
102
{ACAD_REACTORS
330
C
102
}
330
C
100
AcDbDictionary
281
     1
  3
COLORDICT
350
337
  3
MATERIALDICT
350
338
  0
DICTIONARY
  5
59
102
{ACAD_REACTORS
330
C
102
}
330
C
100
AcDbDictionary
281
     1
  3
CTABLESTYLE
350
98
  3
DIMASSOC
350
5A
  3
HIDETEXT
350
5E
  0
XRECORD
  5
339
102
{ACAD_REACTORS
330
C
102
}
330
C
100
AcDbXrecord
280
     1
  1
DWGPROPS COOKIE
  2

  3

  4

  6

  7

  8
BelottiMc
  9

300
=
301
=
302
=
303
=
304
=
305
=
306
=
307
=
308
=
309
=
 40
0.0
 41
2455097.683751539
 42
2455097.725418195
  1

 90
        0
  0
LAYOUT
  5
74
102
{ACAD_REACTORS
330
1A
102
}
330
1A
100
AcDbPlotSettings
  1

  2
ProgeSOFT PDF Wizard
  4
A4
  6

 40
5.926666666666667
 41
6.011333333333317
 42
6.095999999999985
 43
5.926666666666667
 44
210.0
 45
297.0
 46
88.56200000000001
 47
136.531
 48
0.0
 49
0.0
140
0.0
141
0.0
142
1.0
143
1.0
 70
   692
 72
     1
 73
     0
 74
     0
  7

 75
    16
147
1.0
148
4.426666666666668
149
1.5
100
AcDbLayout
  1
Layout1
 70
     1
 71
     1
 10
0.0
 20
0.0
 11
0.0
 21
0.0
 12
0.0
 22
0.0
 32
0.0
 14
0.0
 24
0.0
 34
0.0
 15
0.0
 25
0.0
 35
0.0
146
0.0
 13
0.0
 23
0.0
 33
0.0
 16
1.0
 26
0.0
 36
0.0
 17
0.0
 27
1.0
 37
0.0
 76
     0
330
D1
331
334
1001
PROGE_PRINT_SETTINGS
1070
    73
1070
     1
  0
LAYOUT
  5
321
102
{ACAD_REACTORS
330
1A
102
}
330
1A
100
AcDbPlotSettings
  1

  2
ProgeSOFT PDF Wizard
  4
A4
  6

 40
5.926666666666667
 41
6.011333333333317
 42
6.095999999999985
 43
5.926666666666667
 44
210.0
 45
297.0
 46
88.562
 47
136.531
 48
0.0
 49
0.0
140
0.0
141
0.0
142
1.0
143
1.0
 70
   692
 72
     1
 73
     0
 74
     0
  7

 75
    16
147
1.0
148
0.0
149
0.0
100
AcDbLayout
  1
Layout2
 70
     1
 71
     2
 10
0.0
 20
0.0
 11
12.0
 21
9.0
 12
0.0
 22
0.0
 32
0.0
 14
0.0
 24
0.0
 34
0.0
 15
12.0
 25
9.0
 35
0.0
146
0.0
 13
0.0
 23
0.0
 33
0.0
 16
1.0
 26
0.0
 36
0.0
 17
0.0
 27
1.0
 37
0.0
 76
     0
330
73
331
BB
1001
PROGE_PRINT_SETTINGS
1070
    73
1070
     1
  0
LAYOUT
  5
22
102
{ACAD_REACTORS
330
1A
102
}
330
1A
100
AcDbPlotSettings
  1

  2
none_device
  4
Letter_(8.50_x_11.00_Inches)
  6

 40
6.349999904632568
 41
6.349999904632568
 42
6.350006103515625
 43
6.350006103515625
 44
215.8999938964844
 45
279.3999938964844
 46
0.0
 47
0.0
 48
0.0
 49
0.0
140
0.0
141
0.0
142
1.0
143
3.912032199847517
 70
 11952
 72
     1
 73
     1
 74
     0
  7

 75
     0
147
0.2556216178483853
148
0.1311165230791651
149
0.096403374003771
100
AcDbLayout
  1
Model
 70
     1
 71
     0
 10
0.0
 20
0.0
 11
0.0
 21
0.0
 12
0.0
 22
0.0
 32
0.0
 14
111.2612313156726
 24
59.27253218884118
 34
0.0
 15
674.7255263156726
 25
578.450364015433
 35
0.0
146
0.0
 13
0.0
 23
0.0
 33
0.0
 16
1.0
 26
0.0
 36
0.0
 17
0.0
 27
1.0
 37
0.0
 76
     0
330
1F
331
97
  0
MLINESTYLE
  5
18
102
{ACAD_REACTORS
330
17
102
}
330
17
100
AcDbMlineStyle
  2
STANDARD
 70
     0
  3

 62
   256
 51
90.0
 52
90.0
 71
     2
 49
0.5
 62
   256
  6
BYLAYER
 49
-0.5
 62
   256
  6
BYLAYER
  0
ACDBPLACEHOLDER
  5
F
102
{ACAD_REACTORS
330
E
102
}
330
E
  0
SCALE
  5
D5
102
{ACAD_REACTORS
330
99
102
}
330
99
100
AcDbScale
 70
     0
300
1:1
140
1.0
141
1.0
290
     1
  0
SCALE
  5
D6
102
{ACAD_REACTORS
330
99
102
}
330
99
100
AcDbScale
 70
     0
300
1:2
140
1.0
141
2.0
290
     0
  0
SCALE
  5
D7
102
{ACAD_REACTORS
330
99
102
}
330
99
100
AcDbScale
 70
     0
300
1:4
140
1.0
141
4.0
290
     0
  0
SCALE
  5
D8
102
{ACAD_REACTORS
330
99
102
}
330
99
100
AcDbScale
 70
     0
300
1:5
140
1.0
141
5.0
290
     0
  0
SCALE
  5
D9
102
{ACAD_REACTORS
330
99
102
}
330
99
100
AcDbScale
 70
     0
300
1:8
140
1.0
141
8.0
290
     0
  0
SCALE
  5
DA
102
{ACAD_REACTORS
330
99
102
}
330
99
100
AcDbScale
 70
     0
300
1:10
140
1.0
141
10.0
290
     0
  0
SCALE
  5
DB
102
{ACAD_REACTORS
330
99
102
}
330
99
100
AcDbScale
 70
     0
300
1:16
140
1.0
141
16.0
290
     0
  0
SCALE
  5
DC
102
{ACAD_REACTORS
330
99
102
}
330
99
100
AcDbScale
 70
     0
300
1:20
140
1.0
141
20.0
290
     0
  0
SCALE
  5
DD
102
{ACAD_REACTORS
330
99
102
}
330
99
100
AcDbScale
 70
     0
300
1:30
140
1.0
141
30.0
290
     0
  0
SCALE
  5
DE
102
{ACAD_REACTORS
330
99
102
}
330
99
100
AcDbScale
 70
     0
300
1:40
140
1.0
141
40.0
290
     0
  0
SCALE
  5
DF
102
{ACAD_REACTORS
330
99
102
}
330
99
100
AcDbScale
 70
     0
300
1:50
140
1.0
141
50.0
290
     0
  0
SCALE
  5
E0
102
{ACAD_REACTORS
330
99
102
}
330
99
100
AcDbScale
 70
     0
300
1:100
140
1.0
141
100.0
290
     0
  0
SCALE
  5
E1
102
{ACAD_REACTORS
330
99
102
}
330
99
100
AcDbScale
 70
     0
300
2:1
140
2.0
141
1.0
290
     0
  0
SCALE
  5
E2
102
{ACAD_REACTORS
330
99
102
}
330
99
100
AcDbScale
 70
     0
300
4:1
140
4.0
141
1.0
290
     0
  0
SCALE
  5
E3
102
{ACAD_REACTORS
330
99
102
}
330
99
100
AcDbScale
 70
     0
300
8:1
140
8.0
141
1.0
290
     0
  0
SCALE
  5
E4
102
{ACAD_REACTORS
330
99
102
}
330
99
100
AcDbScale
 70
     0
300
10:1
140
10.0
141
1.0
290
     0
  0
SCALE
  5
E5
102
{ACAD_REACTORS
330
99
102
}
330
99
100
AcDbScale
 70
     0
300
100:1
140
100.0
141
1.0
290
     0
  0
SCALE
  5
E6
102
{ACAD_REACTORS
330
99
102
}
330
99
100
AcDbScale
 70
     0
300
1/128" = 1'-0"
140
0.0078125
141
12.0
290
     0
  0
SCALE
  5
E7
102
{ACAD_REACTORS
330
99
102
}
330
99
100
AcDbScale
 70
     0
300
1/64" = 1'-0"
140
0.015625
141
12.0
290
     0
  0
SCALE
  5
E8
102
{ACAD_REACTORS
330
99
102
}
330
99
100
AcDbScale
 70
     0
300
1/32" = 1'-0"
140
0.03125
141
12.0
290
     0
  0
SCALE
  5
E9
102
{ACAD_REACTORS
330
99
102
}
330
99
100
AcDbScale
 70
     0
300
1/16" = 1'-0"
140
0.0625
141
12.0
290
     0
  0
SCALE
  5
EA
102
{ACAD_REACTORS
330
99
102
}
330
99
100
AcDbScale
 70
     0
300
3/32" = 1'-0"
140
0.09375
141
12.0
290
     0
  0
SCALE
  5
EB
102
{ACAD_REACTORS
330
99
102
}
330
99
100
AcDbScale
 70
     0
300
1/8" = 1'-0"
140
0.125
141
12.0
290
     0
  0
SCALE
  5
EC
102
{ACAD_REACTORS
330
99
102
}
330
99
100
AcDbScale
 70
     0
300
3/16" = 1'-0"
140
0.1875
141
12.0
290
     0
  0
SCALE
  5
ED
102
{ACAD_REACTORS
330
99
102
}
330
99
100
AcDbScale
 70
     0
300
1/4" = 1'-0"
140
0.25
141
12.0
290
     0
  0
SCALE
  5
EE
102
{ACAD_REACTORS
330
99
102
}
330
99
100
AcDbScale
 70
     0
300
3/8" = 1'-0"
140
0.375
141
12.0
290
     0
  0
SCALE
  5
EF
102
{ACAD_REACTORS
330
99
102
}
330
99
100
AcDbScale
 70
     0
300
1/2" = 1'-0"
140
0.5
141
12.0
290
     0
  0
SCALE
  5
F0
102
{ACAD_REACTORS
330
99
102
}
330
99
100
AcDbScale
 70
     0
300
3/4" = 1'-0"
140
0.75
141
12.0
290
     0
  0
SCALE
  5
F1
102
{ACAD_REACTORS
330
99
102
}
330
99
100
AcDbScale
 70
     0
300
1" = 1'-0"
140
1.0
141
12.0
290
     0
  0
SCALE
  5
F2
102
{ACAD_REACTORS
330
99
102
}
330
99
100
AcDbScale
 70
     0
300
1-1/2" = 1'-0"
140
1.5
141
12.0
290
     0
  0
SCALE
  5
F3
102
{ACAD_REACTORS
330
99
102
}
330
99
100
AcDbScale
 70
     0
300
3" = 1'-0"
140
3.0
141
12.0
290
     0
  0
SCALE
  5
F4
102
{ACAD_REACTORS
330
99
102
}
330
99
100
AcDbScale
 70
     0
300
6" = 1'-0"
140
6.0
141
12.0
290
     0
  0
SCALE
  5
F5
102
{ACAD_REACTORS
330
99
102
}
330
99
100
AcDbScale
 70
     0
300
1'-0" = 1'-0"
140
12.0
141
12.0
290
     0
  0
XRECORD
  5
337
102
{ACAD_REACTORS
330
336
102
}
330
336
100
AcDbXrecord
280
     1
340
6C
  0
XRECORD
  5
338
102
{ACAD_REACTORS
330
336
102
}
330
336
100
AcDbXrecord
280
     1
340
6B
  0
DICTIONARYVAR
  5
98
102
{ACAD_REACTORS
330
59
102
}
330
59
100
DictionaryVariables
280
     0
  1
Standard
  0
DICTIONARYVAR
  5
5A
102
{ACAD_REACTORS
330
59
102
}
330
59
100
DictionaryVariables
280
     0
  1
2
  0
DICTIONARYVAR
  5
5E
102
{ACAD_REACTORS
330
59
102
}
330
59
100
DictionaryVariables
280
     0
  1
1
  0
ENDSEC
  0
EOF
