  0
SECTION
  2
HEADER
  9
$ACADVER
  1
AC1015
  9
$ACADMAINTVER
 70
     6
  9
$DWGCODEPAGE
  3
ANSI_1252
  9
$INSBASE
 10
0.0
 20
0.0
 30
0.0
  9
$EXTMIN
 10
2658.394016432886
 20
2258.132810987125
 30
0.0
  9
$EXTMAX
 10
3287.398403272004
 20
2570.295975249425
 30
0.0
  9
$LIMMIN
 10
0.0
 20
0.0
  9
$LIMMAX
 10
0.0
 20
0.0
  9
$ORTHOMODE
 70
     0
  9
$REGENMODE
 70
     1
  9
$FILLMODE
 70
     1
  9
$QTEXTMODE
 70
     0
  9
$MIRRTEXT
 70
     0
  9
$LTSCALE
 40
1.0
  9
$ATTMODE
 70
     1
  9
$TEXTSIZE
 40
2.5
  9
$TRACEWID
 40
1.0
  9
$TEXTSTYLE
  7
Standard
  9
$CLAYER
  8
0
  9
$CELTYPE
  6
ByLayer
  9
$CECOLOR
 62
   256
  9
$CELTSCALE
 40
1.0
  9
$DISPSILH
 70
     0
  9
$DIMSCALE
 40
1.0
  9
$DIMASZ
 40
2.5
  9
$DIMEXO
 40
0.625
  9
$DIMDLI
 40
3.75
  9
$DIMRND
 40
0.0
  9
$DIMDLE
 40
0.0
  9
$DIMEXE
 40
1.25
  9
$DIMTP
 40
0.0
  9
$DIMTM
 40
0.0
  9
$DIMTXT
 40
2.5
  9
$DIMCEN
 40
2.5
  9
$DIMTSZ
 40
0.0
  9
$DIMTOL
 70
     0
  9
$DIMLIM
 70
     0
  9
$DIMTIH
 70
     0
  9
$DIMTOH
 70
     0
  9
$DIMSE1
 70
     0
  9
$DIMSE2
 70
     0
  9
$DIMTAD
 70
     1
  9
$DIMZIN
 70
     8
  9
$DIMBLK
  1

  9
$DIMASO
 70
     1
  9
$DIMSHO
 70
     1
  9
$DIMPOST
  1

  9
$DIMAPOST
  1

  9
$DIMALT
 70
     0
  9
$DIMALTD
 70
     3
  9
$DIMALTF
 40
0.03937007874016
  9
$DIMLFAC
 40
1.0
  9
$DIMTOFL
 70
     1
  9
$DIMTVP
 40
0.0
  9
$DIMTIX
 70
     0
  9
$DIMSOXD
 70
     0
  9
$DIMSAH
 70
     0
  9
$DIMBLK1
  1

  9
$DIMBLK2
  1

  9
$DIMSTYLE
  2
ISO-25
  9
$DIMCLRD
 70
     0
  9
$DIMCLRE
 70
     0
  9
$DIMCLRT
 70
     0
  9
$DIMTFAC
 40
1.0
  9
$DIMGAP
 40
0.625
  9
$DIMJUST
 70
     0
  9
$DIMSD1
 70
     0
  9
$DIMSD2
 70
     0
  9
$DIMTOLJ
 70
     0
  9
$DIMTZIN
 70
     8
  9
$DIMALTZ
 70
     0
  9
$DIMALTTZ
 70
     0
  9
$DIMUPT
 70
     0
  9
$DIMDEC
 70
     2
  9
$DIMTDEC
 70
     2
  9
$DIMALTU
 70
     2
  9
$DIMALTTD
 70
     3
  9
$DIMTXSTY
  7
Standard
  9
$DIMAUNIT
 70
     0
  9
$DIMADEC
 70
     0
  9
$DIMALTRND
 40
0.0
  9
$DIMAZIN
 70
     0
  9
$DIMDSEP
 70
    44
  9
$DIMATFIT
 70
     3
  9
$DIMFRAC
 70
     0
  9
$DIMLDRBLK
  1

  9
$DIMLUNIT
 70
     2
  9
$DIMLWD
 70
    -2
  9
$DIMLWE
 70
    -2
  9
$DIMTMOVE
 70
     0
  9
$LUNITS
 70
     2
  9
$LUPREC
 70
     4
  9
$SKETCHINC
 40
1.0
  9
$FILLETRAD
 40
0.0
  9
$AUNITS
 70
     0
  9
$AUPREC
 70
     0
  9
$MENU
  1
.
  9
$ELEVATION
 40
0.0
  9
$PELEVATION
 40
0.0
  9
$THICKNESS
 40
0.0
  9
$LIMCHECK
 70
     0
  9
$CHAMFERA
 40
0.0
  9
$CHAMFERB
 40
0.0
  9
$CHAMFERC
 40
0.0
  9
$CHAMFERD
 40
0.0
  9
$SKPOLY
 70
     0
  9
$TDCREATE
 40
2455091.605341563
  9
$TDUCREATE
 40
2455091.522008229
  9
$TDUPDATE
 40
2455091.647008229
  9
$TDUUPDATE
 40
2455091.563674896
  9
$TDINDWG
 40
0.037180787
  9
$TDUSRTIMER
 40
0.0371784259
  9
$USRTIMER
 70
     1
  9
$ANGBASE
 50
0.0
  9
$ANGDIR
 70
     0
  9
$PDMODE
 70
     0
  9
$PDSIZE
 40
0.0
  9
$PLINEWID
 40
0.0
  9
$SPLFRAME
 70
     0
  9
$SPLINETYPE
 70
     6
  9
$SPLINESEGS
 70
     8
  9
$HANDSEED
  5
452
  9
$SURFTAB1
 70
     6
  9
$SURFTAB2
 70
     6
  9
$SURFTYPE
 70
     6
  9
$SURFU
 70
     6
  9
$SURFV
 70
     6
  9
$UCSBASE
  2

  9
$UCSNAME
  2

  9
$UCSORG
 10
0.0
 20
0.0
 30
0.0
  9
$UCSXDIR
 10
1.0
 20
0.0
 30
0.0
  9
$UCSYDIR
 10
0.0
 20
1.0
 30
0.0
  9
$UCSORTHOREF
  2

  9
$UCSORTHOVIEW
 70
     0
  9
$UCSORGTOP
 10
0.0
 20
0.0
 30
0.0
  9
$UCSORGBOTTOM
 10
0.0
 20
0.0
 30
0.0
  9
$UCSORGLEFT
 10
0.0
 20
0.0
 30
0.0
  9
$UCSORGRIGHT
 10
0.0
 20
0.0
 30
0.0
  9
$UCSORGFRONT
 10
0.0
 20
0.0
 30
0.0
  9
$UCSORGBACK
 10
0.0
 20
0.0
 30
0.0
  9
$PUCSBASE
  2

  9
$PUCSNAME
  2

  9
$PUCSORG
 10
0.0
 20
0.0
 30
0.0
  9
$PUCSXDIR
 10
1.0
 20
0.0
 30
0.0
  9
$PUCSYDIR
 10
0.0
 20
1.0
 30
0.0
  9
$PUCSORTHOREF
  2

  9
$PUCSORTHOVIEW
 70
     0
  9
$PUCSORGTOP
 10
0.0
 20
0.0
 30
0.0
  9
$PUCSORGBOTTOM
 10
0.0
 20
0.0
 30
0.0
  9
$PUCSORGLEFT
 10
0.0
 20
0.0
 30
0.0
  9
$PUCSORGRIGHT
 10
0.0
 20
0.0
 30
0.0
  9
$PUCSORGFRONT
 10
0.0
 20
0.0
 30
0.0
  9
$PUCSORGBACK
 10
0.0
 20
0.0
 30
0.0
  9
$USERI1
 70
     0
  9
$USERI2
 70
     0
  9
$USERI3
 70
     0
  9
$USERI4
 70
     0
  9
$USERI5
 70
     0
  9
$USERR1
 40
0.0
  9
$USERR2
 40
0.0
  9
$USERR3
 40
0.0
  9
$USERR4
 40
0.0
  9
$USERR5
 40
0.0
  9
$WORLDVIEW
 70
     1
  9
$SHADEDGE
 70
     3
  9
$SHADEDIF
 70
    70
  9
$TILEMODE
 70
     1
  9
$MAXACTVP
 70
    64
  9
$PINSBASE
 10
0.0
 20
0.0
 30
0.0
  9
$PLIMCHECK
 70
     0
  9
$PEXTMIN
 10
0.0
 20
0.0
 30
0.0
  9
$PEXTMAX
 10
12.0
 20
9.0
 30
0.0
  9
$PLIMMIN
 10
0.0
 20
0.0
  9
$PLIMMAX
 10
12.0
 20
9.0
  9
$UNITMODE
 70
     0
  9
$VISRETAIN
 70
     1
  9
$PLINEGEN
 70
     0
  9
$PSLTSCALE
 70
     1
  9
$TREEDEPTH
 70
  3020
  9
$CMLSTYLE
  2
Standard
  9
$CMLJUST
 70
     0
  9
$CMLSCALE
 40
20.0
  9
$PROXYGRAPHICS
 70
     1
  9
$MEASUREMENT
 70
     1
  9
$CELWEIGHT
370
    -1
  9
$ENDCAPS
280
     0
  9
$JOINSTYLE
280
     0
  9
$LWDISPLAY
290
     0
  9
$INSUNITS
 70
     4
  9
$HYPERLINKBASE
  1

  9
$STYLESHEET
  1

  9
$XEDIT
290
     1
  9
$CEPSNTYPE
380
     0
  9
$PSTYLEMODE
290
     1
  9
$FINGERPRINTGUID
  2
{5559452E-1E62-4159-8551-BF76FFF3E7E8}
  9
$VERSIONGUID
  2
{3CEB9EF8-4431-4551-B596-6734A9F966A9}
  9
$EXTNAMES
290
     1
  9
$PSVPSCALE
 40
0.0
  9
$OLESTARTUP
290
     0
  0
ENDSEC
  0
SECTION
  2
CLASSES
  0
CLASS
  1
ACDBDICTIONARYWDFLT
  2
AcDbDictionaryWithDefault
  3
ObjectDBX Classes
 90
        0
280
     0
281
     0
  0
CLASS
  1
ACDBPLACEHOLDER
  2
AcDbPlaceHolder
  3
ObjectDBX Classes
 90
        0
280
     0
281
     0
  0
CLASS
  1
LAYOUT
  2
AcDbLayout
  3
ObjectDBX Classes
 90
        0
280
     0
281
     0
  0
CLASS
  1
DICTIONARYVAR
  2
AcDbDictionaryVar
  3
ObjectDBX Classes
 90
        0
280
     0
281
     0
  0
CLASS
  1
TABLESTYLE
  2
AcDbTableStyle
  3
ObjectDBX Classes
 90
     4095
280
     0
281
     0
  0
CLASS
  1
SCALE
  2
AcDbScale
  3
ObjectDBX Classes
 90
     1153
280
     0
281
     0
  0
ENDSEC
  0
SECTION
  2
TABLES
  0
TABLE
  2
VPORT
  5
8
330
0
100
AcDbSymbolTable
 70
     2
  0
VPORT
  5
97
330
8
100
AcDbSymbolTableRecord
100
AcDbViewportTableRecord
  2
*Active
 70
     0
 10
0.0
 20
0.0
 11
1.0
 21
1.0
 12
2993.30280643592
 22
2357.635809909229
 13
0.0
 23
0.0
 14
10.0
 24
10.0
 15
10.0
 25
10.0
 16
0.0
 26
0.0
 36
1.0
 17
0.0
 27
0.0
 37
0.0
 40
707.370317378046
 41
1.664827586206897
 42
50.0
 43
0.0
 44
0.0
 50
0.0
 51
0.0
 71
     0
 72
  1000
 73
     1
 74
     3
 75
     0
 76
     0
 77
     0
 78
     0
281
     0
 65
     1
110
0.0
120
0.0
130
0.0
111
1.0
121
0.0
131
0.0
112
0.0
122
1.0
132
0.0
 79
     0
146
0.0
  0
ENDTAB
  0
TABLE
  2
LTYPE
  5
5
330
0
100
AcDbSymbolTable
 70
     3
  0
LTYPE
  5
14
330
5
100
AcDbSymbolTableRecord
100
AcDbLinetypeTableRecord
  2
ByBlock
 70
     0
  3

 72
    65
 73
     0
 40
0.0
  0
LTYPE
  5
15
330
5
100
AcDbSymbolTableRecord
100
AcDbLinetypeTableRecord
  2
ByLayer
 70
     0
  3

 72
    65
 73
     0
 40
0.0
  0
LTYPE
  5
16
330
5
100
AcDbSymbolTableRecord
100
AcDbLinetypeTableRecord
  2
Continuous
 70
     0
  3
Solid line
 72
    65
 73
     0
 40
0.0
  0
LTYPE
  5
3E8
330
5
100
AcDbSymbolTableRecord
100
AcDbLinetypeTableRecord
  2
TRATTO-PUNTO
 70
     0
  3
__ . __ . __ . __ . __ . __ . __ . __ . __ . __
 72
    65
 73
     4
 40
1.0
 49
0.5
 74
     0
 49
-0.25
 74
     0
 49
0.0
 74
     0
 49
-0.25
 74
     0
  0
LTYPE
  5
3E9
330
5
100
AcDbSymbolTableRecord
100
AcDbLinetypeTableRecord
  2
BORDER
 70
     0
  3
Border __ __ . __ __ . __ __ . __ __ . __ __ .
 72
    65
 73
     6
 40
44.45
 49
12.7
 74
     0
 49
-6.35
 74
     0
 49
12.7
 74
     0
 49
-6.35
 74
     0
 49
0.0
 74
     0
 49
-6.35
 74
     0
  0
ENDTAB
  0
TABLE
  2
LAYER
  5
2
330
0
100
AcDbSymbolTable
 70
     2
  0
LAYER
  5
10
330
2
100
AcDbSymbolTableRecord
100
AcDbLayerTableRecord
  2
0
 70
     0
 62
     7
  6
Continuous
370
    -3
390
F
  0
LAYER
  5
FA
330
2
100
AcDbSymbolTableRecord
100
AcDbLayerTableRecord
  2
DEFPOINTS
 70
     0
 62
     7
  6
Continuous
290
     0
370
    -3
390
F
  0
ENDTAB
  0
TABLE
  2
STYLE
  5
3
330
0
100
AcDbSymbolTable
 70
     2
  0
STYLE
  5
11
330
3
100
AcDbSymbolTableRecord
100
AcDbTextStyleTableRecord
  2
Standard
 70
     0
 40
0.0
 41
1.0
 50
0.0
 71
     0
 42
2.5
  3
txt
  4

  0
STYLE
  5
F8
330
3
100
AcDbSymbolTableRecord
100
AcDbTextStyleTableRecord
  2
H
 70
     0
 40
1.75
 41
1.0
 50
0.0
 71
     0
 42
1.75
  3
swiss.ttf
  4

1001
ACAD
1000
Swis721 BT
1071
       34
  0
ENDTAB
  0
TABLE
  2
VIEW
  5
6
330
0
100
AcDbSymbolTable
 70
     0
  0
ENDTAB
  0
TABLE
  2
UCS
  5
7
330
0
100
AcDbSymbolTable
 70
     0
  0
ENDTAB
  0
TABLE
  2
APPID
  5
9
330
0
100
AcDbSymbolTable
 70
     2
  0
APPID
  5
12
330
9
100
AcDbSymbolTableRecord
100
AcDbRegAppTableRecord
  2
ACAD
 70
     0
  0
APPID
  5
3E7
330
9
100
AcDbSymbolTableRecord
100
AcDbRegAppTableRecord
  2
PROGE_PRINT_SETTINGS
 70
     0
  0
ENDTAB
  0
TABLE
  2
DIMSTYLE
  5
A
330
0
100
AcDbSymbolTable
 70
     3
100
AcDbDimStyleTable
  0
DIMSTYLE
105
27
330
A
100
AcDbSymbolTableRecord
100
AcDbDimStyleTableRecord
  2
Standard
 70
     0
278
     0
340
11
  0
DIMSTYLE
105
29
102
{ACAD_REACTORS
330
28B
330
2B8
330
335
330
383
102
}
330
A
100
AcDbSymbolTableRecord
100
AcDbDimStyleTableRecord
  2
ISO-25
 70
     0
 41
2.5
 42
0.625
 43
3.75
 44
1.25
 73
     0
 74
     0
 77
     1
 78
     8
140
2.5
141
2.5
143
0.03937007874016
147
0.625
171
     3
172
     1
271
     2
272
     2
274
     3
278
    44
283
     0
284
     8
340
11
  0
DIMSTYLE
105
FB
102
{ACAD_REACTORS
330
FF
330
101
330
123
330
13F
102
}
330
A
100
AcDbSymbolTableRecord
100
AcDbDimStyleTableRecord
  2
GEWISS
 70
     0
 41
1.7
 42
1.0
 43
7.0
 44
0.3
 73
     0
 74
     0
 77
     1
140
1.75
141
1.5
147
0.75
172
     1
176
     1
177
     1
340
F8
  0
ENDTAB
  0
TABLE
  2
BLOCK_RECORD
  5
1
330
0
100
AcDbSymbolTable
 70
    48
  0
BLOCK_RECORD
  5
1F
330
1
100
AcDbSymbolTableRecord
100
AcDbBlockTableRecord
  2
*Model_Space
340
22
  0
BLOCK_RECORD
  5
73
330
1
100
AcDbSymbolTableRecord
100
AcDbBlockTableRecord
  2
*Paper_Space
340
3EB
  0
BLOCK_RECORD
  5
D1
330
1
100
AcDbSymbolTableRecord
100
AcDbBlockTableRecord
  2
*Paper_Space0
340
74
  0
BLOCK_RECORD
  5
106
330
1
100
AcDbSymbolTableRecord
100
AcDbBlockTableRecord
  2
*D1
340
0
  0
BLOCK_RECORD
  5
111
330
1
100
AcDbSymbolTableRecord
100
AcDbBlockTableRecord
  2
*D2
340
0
  0
BLOCK_RECORD
  5
11E
330
1
100
AcDbSymbolTableRecord
100
AcDbBlockTableRecord
  2
*D3
340
0
  0
BLOCK_RECORD
  5
129
330
1
100
AcDbSymbolTableRecord
100
AcDbBlockTableRecord
  2
*D4
340
0
  0
BLOCK_RECORD
  5
134
330
1
100
AcDbSymbolTableRecord
100
AcDbBlockTableRecord
  2
*D5
340
0
  0
BLOCK_RECORD
  5
13F
330
1
100
AcDbSymbolTableRecord
100
AcDbBlockTableRecord
  2
*D6
340
0
  0
BLOCK_RECORD
  5
14C
330
1
100
AcDbSymbolTableRecord
100
AcDbBlockTableRecord
  2
*D7
340
0
  0
BLOCK_RECORD
  5
157
330
1
100
AcDbSymbolTableRecord
100
AcDbBlockTableRecord
  2
*D8
340
0
  0
BLOCK_RECORD
  5
163
330
1
100
AcDbSymbolTableRecord
100
AcDbBlockTableRecord
  2
*D9
340
0
  0
BLOCK_RECORD
  5
16E
330
1
100
AcDbSymbolTableRecord
100
AcDbBlockTableRecord
  2
*D10
340
0
  0
BLOCK_RECORD
  5
1CB
330
1
100
AcDbSymbolTableRecord
100
AcDbBlockTableRecord
  2
*D11
340
0
  0
BLOCK_RECORD
  5
1D8
330
1
100
AcDbSymbolTableRecord
100
AcDbBlockTableRecord
  2
*D12
340
0
  0
BLOCK_RECORD
  5
205
330
1
100
AcDbSymbolTableRecord
100
AcDbBlockTableRecord
  2
*D13
340
0
  0
BLOCK_RECORD
  5
22C
330
1
100
AcDbSymbolTableRecord
100
AcDbBlockTableRecord
  2
*D14
340
0
  0
BLOCK_RECORD
  5
23B
330
1
100
AcDbSymbolTableRecord
100
AcDbBlockTableRecord
  2
*D15
340
0
  0
BLOCK_RECORD
  5
247
330
1
100
AcDbSymbolTableRecord
100
AcDbBlockTableRecord
  2
*D16
340
0
  0
BLOCK_RECORD
  5
252
330
1
100
AcDbSymbolTableRecord
100
AcDbBlockTableRecord
  2
*D17
340
0
  0
BLOCK_RECORD
  5
25D
330
1
100
AcDbSymbolTableRecord
100
AcDbBlockTableRecord
  2
*D18
340
0
  0
BLOCK_RECORD
  5
268
330
1
100
AcDbSymbolTableRecord
100
AcDbBlockTableRecord
  2
*D19
340
0
  0
BLOCK_RECORD
  5
273
330
1
100
AcDbSymbolTableRecord
100
AcDbBlockTableRecord
  2
*D20
340
0
  0
BLOCK_RECORD
  5
27E
330
1
100
AcDbSymbolTableRecord
100
AcDbBlockTableRecord
  2
*D21
340
0
  0
BLOCK_RECORD
  5
289
330
1
100
AcDbSymbolTableRecord
100
AcDbBlockTableRecord
  2
*D22
340
0
  0
BLOCK_RECORD
  5
296
330
1
100
AcDbSymbolTableRecord
100
AcDbBlockTableRecord
  2
*D23
340
0
  0
BLOCK_RECORD
  5
2A1
330
1
100
AcDbSymbolTableRecord
100
AcDbBlockTableRecord
  2
*D24
340
0
  0
BLOCK_RECORD
  5
2AC
330
1
100
AcDbSymbolTableRecord
100
AcDbBlockTableRecord
  2
*D25
340
0
  0
BLOCK_RECORD
  5
2B7
330
1
100
AcDbSymbolTableRecord
100
AcDbBlockTableRecord
  2
*D26
340
0
  0
BLOCK_RECORD
  5
2C3
330
1
100
AcDbSymbolTableRecord
100
AcDbBlockTableRecord
  2
*D27
340
0
  0
BLOCK_RECORD
  5
2CE
330
1
100
AcDbSymbolTableRecord
100
AcDbBlockTableRecord
  2
*D28
340
0
  0
BLOCK_RECORD
  5
2D9
330
1
100
AcDbSymbolTableRecord
100
AcDbBlockTableRecord
  2
*D29
340
0
  0
BLOCK_RECORD
  5
2FA
330
1
100
AcDbSymbolTableRecord
100
AcDbBlockTableRecord
  2
*D30
340
0
  0
BLOCK_RECORD
  5
305
330
1
100
AcDbSymbolTableRecord
100
AcDbBlockTableRecord
  2
*D31
340
0
  0
BLOCK_RECORD
  5
310
330
1
100
AcDbSymbolTableRecord
100
AcDbBlockTableRecord
  2
*D32
340
0
  0
BLOCK_RECORD
  5
31B
330
1
100
AcDbSymbolTableRecord
100
AcDbBlockTableRecord
  2
*D33
340
0
  0
BLOCK_RECORD
  5
329
330
1
100
AcDbSymbolTableRecord
100
AcDbBlockTableRecord
  2
*D34
340
0
  0
BLOCK_RECORD
  5
340
330
1
100
AcDbSymbolTableRecord
100
AcDbBlockTableRecord
  2
*D35
340
0
  0
BLOCK_RECORD
  5
34B
330
1
100
AcDbSymbolTableRecord
100
AcDbBlockTableRecord
  2
*D36
340
0
  0
BLOCK_RECORD
  5
356
330
1
100
AcDbSymbolTableRecord
100
AcDbBlockTableRecord
  2
*D37
340
0
  0
BLOCK_RECORD
  5
361
330
1
100
AcDbSymbolTableRecord
100
AcDbBlockTableRecord
  2
*D38
340
0
  0
BLOCK_RECORD
  5
382
330
1
100
AcDbSymbolTableRecord
100
AcDbBlockTableRecord
  2
*D39
340
0
  0
BLOCK_RECORD
  5
38E
330
1
100
AcDbSymbolTableRecord
100
AcDbBlockTableRecord
  2
*D40
340
0
  0
BLOCK_RECORD
  5
399
330
1
100
AcDbSymbolTableRecord
100
AcDbBlockTableRecord
  2
*D41
340
0
  0
BLOCK_RECORD
  5
3A4
330
1
100
AcDbSymbolTableRecord
100
AcDbBlockTableRecord
  2
*D42
340
0
  0
BLOCK_RECORD
  5
3B0
330
1
100
AcDbSymbolTableRecord
100
AcDbBlockTableRecord
  2
*D43
340
0
  0
BLOCK_RECORD
  5
3BD
330
1
100
AcDbSymbolTableRecord
100
AcDbBlockTableRecord
  2
*D44
340
0
  0
BLOCK_RECORD
  5
3CB
330
1
100
AcDbSymbolTableRecord
100
AcDbBlockTableRecord
  2
*D45
340
0
  0
BLOCK_RECORD
  5
3D8
330
1
100
AcDbSymbolTableRecord
100
AcDbBlockTableRecord
  2
*D46
340
0
  0
BLOCK_RECORD
  5
3E5
330
1
100
AcDbSymbolTableRecord
100
AcDbBlockTableRecord
  2
*D47
340
0
  0
ENDTAB
  0
ENDSEC
  0
SECTION
  2
BLOCKS
  0
BLOCK
  5
20
330
1F
100
AcDbEntity
  8
0
100
AcDbBlockBegin
  2
*Model_Space
 70
     0
 10
0.0
 20
0.0
 30
0.0
  3
*Model_Space
  1

  0
ENDBLK
  5
21
330
1F
100
AcDbEntity
  8
0
100
AcDbBlockEnd
  0
BLOCK
  5
75
330
73
100
AcDbEntity
 67
     1
  8
0
100
AcDbBlockBegin
  2
*Paper_Space
 70
     0
 10
0.0
 20
0.0
 30
0.0
  3
*Paper_Space
  1

  0
ENDBLK
  5
76
330
73
100
AcDbEntity
 67
     1
  8
0
100
AcDbBlockEnd
  0
BLOCK
  5
3EC
330
D1
100
AcDbEntity
  8
0
100
AcDbBlockBegin
  2
*Paper_Space0
 70
     0
 10
0.0
 20
0.0
 30
0.0
  3
*Paper_Space0
  1

  0
VIEWPORT
  5
44C
330
D1
100
AcDbEntity
  8
0
100
AcDbViewport
 10
7.8
 20
4.5
 30
0.0
 40
15.64
 41
9.0
 68
     1
 69
     1
 12
6.0
 22
4.5
 13
0.0
 23
0.0
 14
0.5
 24
0.5
 15
0.5
 25
0.5
 16
0.0
 26
0.0
 36
1.0
 17
0.0
 27
0.0
 37
0.0
 42
50.0
 43
0.0
 44
0.0
 45
12.0
 50
0.0
 51
0.0
 72
   100
 90
   557152
  1

281
     0
 71
     1
 74
     0
110
0.0
120
0.0
130
0.0
111
1.0
121
0.0
131
0.0
112
0.0
122
1.0
132
0.0
 79
     0
146
0.0
  0
ENDBLK
  5
3ED
330
D1
100
AcDbEntity
  8
0
100
AcDbBlockEnd
  0
BLOCK
  5
3EE
330
106
100
AcDbEntity
  8
0
100
AcDbBlockBegin
  2
*D1
 70
     1
 10
0.0
 20
0.0
 30
0.0
  3
*D1
  1

  0
POINT
  5
FD
330
106
100
AcDbEntity
  8
DEFPOINTS
  6
ByBlock
 62
     1
100
AcDbPoint
 10
83.41393
 20
24.173951
 30
0.0
  0
POINT
  5
FE
330
106
100
AcDbEntity
  8
DEFPOINTS
  6
ByBlock
 62
     1
100
AcDbPoint
 10
83.41393
 20
8.714591
 30
0.0
  0
LINE
  5
FF
330
106
100
AcDbEntity
  8
0
  6
ByBlock
 62
     1
370
    -2
100
AcDbLine
 10
82.41393
 20
24.173951
 30
0.0
 11
77.883562
 21
24.173951
 31
0.0
  0
LINE
  5
100
330
106
100
AcDbEntity
  8
0
  6
ByBlock
 62
     1
370
    -2
100
AcDbLine
 10
82.41393
 20
8.714591
 30
0.0
 11
77.883562
 21
8.714591
 31
0.0
  0
LINE
  5
101
330
106
100
AcDbEntity
  8
0
  6
ByBlock
 62
     1
370
    -2
100
AcDbLine
 10
78.183562
 20
22.473951
 30
0.0
 11
78.183562
 21
10.414591
 31
0.0
  0
SOLID
  5
102
330
106
100
AcDbEntity
  8
0
  6
ByBlock
 62
     1
100
AcDbTrace
 10
78.183562
 20
24.173951
 30
0.0
 11
77.90022866666666
 21
22.473951
 31
0.0
 12
78.46689533333333
 22
22.473951
 32
0.0
 13
78.46689533333333
 23
22.473951
 33
0.0
  0
SOLID
  5
103
330
106
100
AcDbEntity
  8
0
  6
ByBlock
 62
     1
100
AcDbTrace
 10
78.183562
 20
8.714591
 30
0.0
 11
77.90022866666666
 21
10.414591
 31
0.0
 12
78.46689533333333
 22
10.414591
 32
0.0
 13
78.46689533333333
 23
10.414591
 33
0.0
  0
MTEXT
  5
104
330
106
100
AcDbEntity
  8
0
  6
ByBlock
 62
     0
370
    -2
100
AcDbMText
 10
76.54005927148704
 20
16.444271
 30
0.0
 40
1.75
 41
0.0
 71
     5
 72
     1
  1
215
  7
H
 11
6.123031769111886E-17
 21
1.0
 31
0.0
 73
     1
 44
1.0
  0
ENDBLK
  5
3EF
330
106
100
AcDbEntity
  8
0
100
AcDbBlockEnd
  0
BLOCK
  5
3F0
330
111
100
AcDbEntity
  8
0
100
AcDbBlockBegin
  2
*D2
 70
     1
 10
0.0
 20
0.0
 30
0.0
  3
*D2
  1

  0
POINT
  5
108
330
111
100
AcDbEntity
  8
DEFPOINTS
  6
ByBlock
 62
     1
100
AcDbPoint
 10
116.855257
 20
21.790031
 30
0.0
  0
POINT
  5
109
330
111
100
AcDbEntity
  8
DEFPOINTS
  6
ByBlock
 62
     1
100
AcDbPoint
 10
116.855257
 20
11.098511
 30
0.0
  0
LINE
  5
10A
330
111
100
AcDbEntity
  8
0
  6
ByBlock
 62
     1
370
    -2
100
AcDbLine
 10
117.855257
 20
21.790031
 30
0.0
 11
123.031298
 21
21.790031
 31
0.0
  0
LINE
  5
10B
330
111
100
AcDbEntity
  8
0
  6
ByBlock
 62
     1
370
    -2
100
AcDbLine
 10
117.855257
 20
11.098511
 30
0.0
 11
123.031298
 21
11.098511
 31
0.0
  0
LINE
  5
10C
330
111
100
AcDbEntity
  8
0
  6
ByBlock
 62
     1
370
    -2
100
AcDbLine
 10
122.731298
 20
20.090031
 30
0.0
 11
122.731298
 21
12.798511
 31
0.0
  0
SOLID
  5
10D
330
111
100
AcDbEntity
  8
0
  6
ByBlock
 62
     1
100
AcDbTrace
 10
122.731298
 20
21.790031
 30
0.0
 11
122.4479646666667
 21
20.090031
 31
0.0
 12
123.0146313333333
 22
20.090031
 32
0.0
 13
123.0146313333333
 23
20.090031
 33
0.0
  0
SOLID
  5
10E
330
111
100
AcDbEntity
  8
0
  6
ByBlock
 62
     1
100
AcDbTrace
 10
122.731298
 20
11.098511
 30
0.0
 11
122.4479646666667
 21
12.798511
 31
0.0
 12
123.0146313333333
 22
12.798511
 32
0.0
 13
123.0146313333333
 23
12.798511
 33
0.0
  0
MTEXT
  5
10F
330
111
100
AcDbEntity
  8
0
  6
ByBlock
 62
     0
370
    -2
100
AcDbMText
 10
121.087795271487
 20
16.444271
 30
0.0
 40
1.75
 41
0.0
 71
     5
 72
     1
  1
148
  7
H
 11
6.123031769111886E-17
 21
1.0
 31
0.0
 73
     1
 44
1.0
  0
ENDBLK
  5
3F1
330
111
100
AcDbEntity
  8
0
100
AcDbBlockEnd
  0
BLOCK
  5
3F2
330
11E
100
AcDbEntity
  8
0
100
AcDbBlockBegin
  2
*D3
 70
     1
 10
0.0
 20
0.0
 30
0.0
  3
*D3
  1

  0
POINT
  5
113
330
11E
100
AcDbEntity
  8
DEFPOINTS
  6
ByBlock
 62
     1
100
AcDbPoint
 10
113.748937
 20
10.210497
 30
0.0
  0
POINT
  5
114
330
11E
100
AcDbEntity
  8
DEFPOINTS
  6
ByBlock
 62
     1
100
AcDbPoint
 10
116.855257
 20
11.098511
 30
0.0
  0
LINE
  5
115
330
11E
100
AcDbEntity
  8
0
  6
ByBlock
 62
     1
370
    -2
100
AcDbLine
 10
113.748937
 20
9.210497
 30
0.0
 11
113.748937
 21
3.242908000000001
 31
0.0
  0
LINE
  5
116
330
11E
100
AcDbEntity
  8
0
  6
ByBlock
 62
     1
370
    -2
100
AcDbLine
 10
116.855257
 20
10.098511
 30
0.0
 11
116.855257
 21
3.242908000000001
 31
0.0
  0
LINE
  5
117
330
11E
100
AcDbEntity
  8
0
  6
ByBlock
 62
     1
370
    -2
100
AcDbLine
 10
112.048937
 20
3.542908000000001
 30
0.0
 11
110.348937
 21
3.542908000000001
 31
0.0
  0
LINE
  5
118
330
11E
100
AcDbEntity
  8
0
  6
ByBlock
 62
     1
370
    -2
100
AcDbLine
 10
118.555257
 20
3.542908000000001
 30
0.0
 11
124.3325080231924
 21
3.542908000000001
 31
0.0
  0
SOLID
  5
119
330
11E
100
AcDbEntity
  8
0
  6
ByBlock
 62
     1
100
AcDbTrace
 10
113.748937
 20
3.542908000000001
 30
0.0
 11
112.048937
 21
3.259574666666667
 31
0.0
 12
112.048937
 22
3.826241333333335
 32
0.0
 13
112.048937
 23
3.826241333333335
 33
0.0
  0
SOLID
  5
11A
330
11E
100
AcDbEntity
  8
0
  6
ByBlock
 62
     1
100
AcDbTrace
 10
116.855257
 20
3.542908000000001
 30
0.0
 11
118.555257
 21
3.259574666666667
 31
0.0
 12
118.555257
 22
3.826241333333335
 32
0.0
 13
118.555257
 23
3.826241333333335
 33
0.0
  0
LINE
  5
11B
330
11E
100
AcDbEntity
  8
0
  6
ByBlock
 62
     1
370
    -2
100
AcDbLine
 10
113.748937
 20
3.542908000000001
 30
0.0
 11
116.855257
 21
3.542908000000001
 31
0.0
  0
MTEXT
  5
11C
330
11E
100
AcDbEntity
  8
0
  6
ByBlock
 62
     0
370
    -2
100
AcDbMText
 10
122.2938825115962
 20
5.187007590723057
 30
0.0
 40
1.75
 41
0.0
 71
     5
 72
     1
  1
43
  7
H
 73
     1
 44
1.0
  0
ENDBLK
  5
3F3
330
11E
100
AcDbEntity
  8
0
100
AcDbBlockEnd
  0
BLOCK
  5
3F4
330
129
100
AcDbEntity
  8
0
100
AcDbBlockBegin
  2
*D4
 70
     1
 10
0.0
 20
0.0
 30
0.0
  3
*D4
  1

  0
POINT
  5
120
330
129
100
AcDbEntity
  8
DEFPOINTS
  6
ByBlock
 62
     1
100
AcDbPoint
 10
82.76377
 20
8.786831
 30
0.0
  0
POINT
  5
121
330
129
100
AcDbEntity
  8
DEFPOINTS
  6
ByBlock
 62
     1
100
AcDbPoint
 10
107.50597
 20
8.786831
 30
0.0
  0
LINE
  5
122
330
129
100
AcDbEntity
  8
0
  6
ByBlock
 62
     1
370
    -2
100
AcDbLine
 10
82.76377
 20
7.786830999999999
 30
0.0
 11
82.76377
 21
3.242908000000001
 31
0.0
  0
LINE
  5
123
330
129
100
AcDbEntity
  8
0
  6
ByBlock
 62
     1
370
    -2
100
AcDbLine
 10
107.50597
 20
7.786830999999999
 30
0.0
 11
107.50597
 21
3.242908000000001
 31
0.0
  0
LINE
  5
124
330
129
100
AcDbEntity
  8
0
  6
ByBlock
 62
     1
370
    -2
100
AcDbLine
 10
84.46377
 20
3.542908000000001
 30
0.0
 11
105.80597
 21
3.542908000000001
 31
0.0
  0
SOLID
  5
125
330
129
100
AcDbEntity
  8
0
  6
ByBlock
 62
     1
100
AcDbTrace
 10
82.76377
 20
3.542908000000001
 30
0.0
 11
84.46377
 21
3.259574666666667
 31
0.0
 12
84.46377
 22
3.826241333333335
 32
0.0
 13
84.46377
 23
3.826241333333335
 33
0.0
  0
SOLID
  5
126
330
129
100
AcDbEntity
  8
0
  6
ByBlock
 62
     1
100
AcDbTrace
 10
107.50597
 20
3.542908000000001
 30
0.0
 11
105.80597
 21
3.259574666666667
 31
0.0
 12
105.80597
 22
3.826241333333335
 32
0.0
 13
105.80597
 23
3.826241333333335
 33
0.0
  0
MTEXT
  5
127
330
129
100
AcDbEntity
  8
0
  6
ByBlock
 62
     0
370
    -2
100
AcDbMText
 10
95.13487
 20
5.187007590723057
 30
0.0
 40
1.75
 41
0.0
 71
     5
 72
     1
  1
340
  7
H
 73
     1
 44
1.0
  0
ENDBLK
  5
3F5
330
129
100
AcDbEntity
  8
0
100
AcDbBlockEnd
  0
BLOCK
  5
3F6
330
134
100
AcDbEntity
  8
0
100
AcDbBlockBegin
  2
*D5
 70
     1
 10
0.0
 20
0.0
 30
0.0
  3
*D5
  1

  0
POINT
  5
12B
330
134
100
AcDbEntity
  8
DEFPOINTS
  6
ByBlock
 62
     1
100
AcDbPoint
 10
197.8428138397637
 20
167.6404895236052
 30
0.0
  0
POINT
  5
12C
330
134
100
AcDbEntity
  8
DEFPOINTS
  6
ByBlock
 62
     1
100
AcDbPoint
 10
222.5850138397637
 20
167.6404895236052
 30
0.0
  0
LINE
  5
12D
330
134
100
AcDbEntity
  8
0
  6
ByBlock
 62
     1
370
    -2
100
AcDbLine
 10
197.8428138397637
 20
166.6404895236052
 30
0.0
 11
197.8428138397637
 21
162.0965665236052
 31
0.0
  0
LINE
  5
12E
330
134
100
AcDbEntity
  8
0
  6
ByBlock
 62
     1
370
    -2
100
AcDbLine
 10
222.5850138397637
 20
166.6404895236052
 30
0.0
 11
222.5850138397637
 21
162.0965665236052
 31
0.0
  0
LINE
  5
12F
330
134
100
AcDbEntity
  8
0
  6
ByBlock
 62
     1
370
    -2
100
AcDbLine
 10
199.5428138397637
 20
162.3965665236052
 30
0.0
 11
220.8850138397638
 21
162.3965665236052
 31
0.0
  0
SOLID
  5
130
330
134
100
AcDbEntity
  8
0
  6
ByBlock
 62
     1
100
AcDbTrace
 10
197.8428138397637
 20
162.3965665236052
 30
0.0
 11
199.5428138397637
 21
162.1132331902718
 31
0.0
 12
199.5428138397637
 22
162.6798998569385
 32
0.0
 13
199.5428138397637
 23
162.6798998569385
 33
0.0
  0
SOLID
  5
131
330
134
100
AcDbEntity
  8
0
  6
ByBlock
 62
     1
100
AcDbTrace
 10
222.5850138397637
 20
162.3965665236052
 30
0.0
 11
220.8850138397638
 21
162.1132331902718
 31
0.0
 12
220.8850138397638
 22
162.6798998569385
 32
0.0
 13
220.8850138397638
 23
162.6798998569385
 33
0.0
  0
MTEXT
  5
132
330
134
100
AcDbEntity
  8
0
  6
ByBlock
 62
     0
370
    -2
100
AcDbMText
 10
210.2139138397637
 20
164.0406661143282
 30
0.0
 40
1.75
 41
0.0
 71
     5
 72
     1
  1
340
  7
H
 73
     1
 44
1.0
  0
ENDBLK
  5
3F7
330
134
100
AcDbEntity
  8
0
100
AcDbBlockEnd
  0
BLOCK
  5
3F8
330
13F
100
AcDbEntity
  8
0
100
AcDbBlockBegin
  2
*D6
 70
     1
 10
0.0
 20
0.0
 30
0.0
  3
*D6
  1

  0
POINT
  5
136
330
13F
100
AcDbEntity
  8
DEFPOINTS
  6
ByBlock
 62
     1
100
AcDbPoint
 10
198.4929738397637
 20
183.0276095236052
 30
0.0
  0
POINT
  5
137
330
13F
100
AcDbEntity
  8
DEFPOINTS
  6
ByBlock
 62
     1
100
AcDbPoint
 10
198.4929738397637
 20
167.5682495236052
 30
0.0
  0
LINE
  5
138
330
13F
100
AcDbEntity
  8
0
  6
ByBlock
 62
     1
370
    -2
100
AcDbLine
 10
197.4929738397637
 20
183.0276095236052
 30
0.0
 11
192.9626058397637
 21
183.0276095236052
 31
0.0
  0
LINE
  5
139
330
13F
100
AcDbEntity
  8
0
  6
ByBlock
 62
     1
370
    -2
100
AcDbLine
 10
197.4929738397637
 20
167.5682495236052
 30
0.0
 11
192.9626058397637
 21
167.5682495236052
 31
0.0
  0
LINE
  5
13A
330
13F
100
AcDbEntity
  8
0
  6
ByBlock
 62
     1
370
    -2
100
AcDbLine
 10
193.2626058397638
 20
181.3276095236052
 30
0.0
 11
193.2626058397638
 21
169.2682495236052
 31
0.0
  0
SOLID
  5
13B
330
13F
100
AcDbEntity
  8
0
  6
ByBlock
 62
     1
100
AcDbTrace
 10
193.2626058397638
 20
183.0276095236052
 30
0.0
 11
192.9792725064304
 21
181.3276095236052
 31
0.0
 12
193.5459391730971
 22
181.3276095236052
 32
0.0
 13
193.5459391730971
 23
181.3276095236052
 33
0.0
  0
SOLID
  5
13C
330
13F
100
AcDbEntity
  8
0
  6
ByBlock
 62
     1
100
AcDbTrace
 10
193.2626058397638
 20
167.5682495236052
 30
0.0
 11
192.9792725064304
 21
169.2682495236052
 31
0.0
 12
193.5459391730971
 22
169.2682495236052
 32
0.0
 13
193.5459391730971
 23
169.2682495236052
 33
0.0
  0
MTEXT
  5
13D
330
13F
100
AcDbEntity
  8
0
  6
ByBlock
 62
     0
370
    -2
100
AcDbMText
 10
191.6191031112508
 20
175.2979295236051
 30
0.0
 40
1.75
 41
0.0
 71
     5
 72
     1
  1
215
  7
H
 11
6.123031769111886E-17
 21
1.0
 31
0.0
 73
     1
 44
1.0
  0
ENDBLK
  5
3F9
330
13F
100
AcDbEntity
  8
0
100
AcDbBlockEnd
  0
BLOCK
  5
3FA
330
14C
100
AcDbEntity
  8
0
100
AcDbBlockBegin
  2
*D7
 70
     1
 10
0.0
 20
0.0
 30
0.0
  3
*D7
  1

  0
POINT
  5
141
330
14C
100
AcDbEntity
  8
DEFPOINTS
  6
ByBlock
 62
     1
100
AcDbPoint
 10
228.8279808397638
 20
169.0641555236052
 30
0.0
  0
POINT
  5
142
330
14C
100
AcDbEntity
  8
DEFPOINTS
  6
ByBlock
 62
     1
100
AcDbPoint
 10
231.9343008397638
 20
169.9521695236052
 30
0.0
  0
LINE
  5
143
330
14C
100
AcDbEntity
  8
0
  6
ByBlock
 62
     1
370
    -2
100
AcDbLine
 10
228.8279808397638
 20
168.0641555236052
 30
0.0
 11
228.8279808397638
 21
162.0965665236052
 31
0.0
  0
LINE
  5
144
330
14C
100
AcDbEntity
  8
0
  6
ByBlock
 62
     1
370
    -2
100
AcDbLine
 10
231.9343008397638
 20
168.9521695236052
 30
0.0
 11
231.9343008397638
 21
162.0965665236052
 31
0.0
  0
LINE
  5
145
330
14C
100
AcDbEntity
  8
0
  6
ByBlock
 62
     1
370
    -2
100
AcDbLine
 10
227.1279808397638
 20
162.3965665236052
 30
0.0
 11
225.4279808397638
 21
162.3965665236052
 31
0.0
  0
LINE
  5
146
330
14C
100
AcDbEntity
  8
0
  6
ByBlock
 62
     1
370
    -2
100
AcDbLine
 10
233.6343008397637
 20
162.3965665236052
 30
0.0
 11
239.4115518629561
 21
162.3965665236052
 31
0.0
  0
SOLID
  5
147
330
14C
100
AcDbEntity
  8
0
  6
ByBlock
 62
     1
100
AcDbTrace
 10
228.8279808397638
 20
162.3965665236052
 30
0.0
 11
227.1279808397638
 21
162.1132331902718
 31
0.0
 12
227.1279808397638
 22
162.6798998569385
 32
0.0
 13
227.1279808397638
 23
162.6798998569385
 33
0.0
  0
SOLID
  5
148
330
14C
100
AcDbEntity
  8
0
  6
ByBlock
 62
     1
100
AcDbTrace
 10
231.9343008397638
 20
162.3965665236052
 30
0.0
 11
233.6343008397637
 21
162.1132331902718
 31
0.0
 12
233.6343008397637
 22
162.6798998569385
 32
0.0
 13
233.6343008397637
 23
162.6798998569385
 33
0.0
  0
LINE
  5
149
330
14C
100
AcDbEntity
  8
0
  6
ByBlock
 62
     1
370
    -2
100
AcDbLine
 10
228.8279808397638
 20
162.3965665236052
 30
0.0
 11
231.9343008397638
 21
162.3965665236052
 31
0.0
  0
MTEXT
  5
14A
330
14C
100
AcDbEntity
  8
0
  6
ByBlock
 62
     0
370
    -2
100
AcDbMText
 10
237.3729263513599
 20
164.0406661143282
 30
0.0
 40
1.75
 41
0.0
 71
     5
 72
     1
  1
43
  7
H
 73
     1
 44
1.0
  0
ENDBLK
  5
3FB
330
14C
100
AcDbEntity
  8
0
100
AcDbBlockEnd
  0
BLOCK
  5
3FC
330
157
100
AcDbEntity
  8
0
100
AcDbBlockBegin
  2
*D8
 70
     1
 10
0.0
 20
0.0
 30
0.0
  3
*D8
  1

  0
POINT
  5
14E
330
157
100
AcDbEntity
  8
DEFPOINTS
  6
ByBlock
 62
     1
100
AcDbPoint
 10
231.9343008397638
 20
180.6436895236052
 30
0.0
  0
POINT
  5
14F
330
157
100
AcDbEntity
  8
DEFPOINTS
  6
ByBlock
 62
     1
100
AcDbPoint
 10
231.9343008397638
 20
169.9521695236052
 30
0.0
  0
LINE
  5
150
330
157
100
AcDbEntity
  8
0
  6
ByBlock
 62
     1
370
    -2
100
AcDbLine
 10
232.9343008397638
 20
180.6436895236052
 30
0.0
 11
238.1103418397637
 21
180.6436895236052
 31
0.0
  0
LINE
  5
151
330
157
100
AcDbEntity
  8
0
  6
ByBlock
 62
     1
370
    -2
100
AcDbLine
 10
232.9343008397638
 20
169.9521695236052
 30
0.0
 11
238.1103418397637
 21
169.9521695236052
 31
0.0
  0
LINE
  5
152
330
157
100
AcDbEntity
  8
0
  6
ByBlock
 62
     1
370
    -2
100
AcDbLine
 10
237.8103418397637
 20
178.9436895236052
 30
0.0
 11
237.8103418397637
 21
171.6521695236052
 31
0.0
  0
SOLID
  5
153
330
157
100
AcDbEntity
  8
0
  6
ByBlock
 62
     1
100
AcDbTrace
 10
237.8103418397637
 20
180.6436895236052
 30
0.0
 11
237.5270085064304
 21
178.9436895236052
 31
0.0
 12
238.0936751730971
 22
178.9436895236052
 32
0.0
 13
238.0936751730971
 23
178.9436895236052
 33
0.0
  0
SOLID
  5
154
330
157
100
AcDbEntity
  8
0
  6
ByBlock
 62
     1
100
AcDbTrace
 10
237.8103418397637
 20
169.9521695236052
 30
0.0
 11
237.5270085064304
 21
171.6521695236052
 31
0.0
 12
238.0936751730971
 22
171.6521695236052
 32
0.0
 13
238.0936751730971
 23
171.6521695236052
 33
0.0
  0
MTEXT
  5
155
330
157
100
AcDbEntity
  8
0
  6
ByBlock
 62
     0
370
    -2
100
AcDbMText
 10
236.1668391112508
 20
175.2979295236051
 30
0.0
 40
1.75
 41
0.0
 71
     5
 72
     1
  1
148
  7
H
 11
6.123031769111886E-17
 21
1.0
 31
0.0
 73
     1
 44
1.0
  0
ENDBLK
  5
3FD
330
157
100
AcDbEntity
  8
0
100
AcDbBlockEnd
  0
BLOCK
  5
3FE
330
163
100
AcDbEntity
  8
0
100
AcDbBlockBegin
  2
*D9
 70
     1
 10
0.0
 20
0.0
 30
0.0
  3
*D9
  1

  0
POINT
  5
159
330
163
100
AcDbEntity
  8
DEFPOINTS
  6
ByBlock
 62
     0
100
AcDbPoint
 10
195.2277898397637
 20
183.0276095236052
 30
0.0
  0
POINT
  5
15A
330
163
100
AcDbEntity
  8
DEFPOINTS
  6
ByBlock
 62
     0
100
AcDbPoint
 10
195.2277898397637
 20
167.5682495236052
 30
0.0
  0
LINE
  5
15B
330
163
100
AcDbEntity
  8
0
  6
ByBlock
 62
     0
370
    -2
100
AcDbLine
 10
194.6027898397637
 20
183.0276095236052
 30
0.0
 11
188.3181475157129
 21
183.0276095236052
 31
0.0
  0
LINE
  5
15C
330
163
100
AcDbEntity
  8
0
  6
ByBlock
 62
     0
370
    -2
100
AcDbLine
 10
194.6027898397637
 20
167.5682495236052
 30
0.0
 11
188.3181475157129
 21
167.5682495236052
 31
0.0
  0
LINE
  5
15D
330
163
100
AcDbEntity
  8
0
  6
ByBlock
 62
     0
370
    -2
100
AcDbLine
 10
189.5681475157129
 20
185.5276095236052
 30
0.0
 11
189.5681475157129
 21
188.0276095236052
 31
0.0
  0
LINE
  5
15E
330
163
100
AcDbEntity
  8
0
  6
ByBlock
 62
     0
370
    -2
100
AcDbLine
 10
189.5681475157129
 20
165.0682495236052
 30
0.0
 11
189.5681475157129
 21
162.5682495236052
 31
0.0
  0
SOLID
  5
15F
330
163
100
AcDbEntity
  8
0
  6
ByBlock
 62
     0
100
AcDbTrace
 10
189.5681475157129
 20
183.0276095236052
 30
0.0
 11
189.1514808490462
 21
185.5276095236052
 31
0.0
 12
189.9848141823795
 22
185.5276095236052
 32
0.0
 13
189.9848141823795
 23
185.5276095236052
 33
0.0
  0
SOLID
  5
160
330
163
100
AcDbEntity
  8
0
  6
ByBlock
 62
     0
100
AcDbTrace
 10
189.5681475157129
 20
167.5682495236052
 30
0.0
 11
189.1514808490462
 21
165.0682495236052
 31
0.0
 12
189.9848141823795
 22
165.0682495236052
 32
0.0
 13
189.9848141823795
 23
165.0682495236052
 33
0.0
  0
MTEXT
  5
161
330
163
100
AcDbEntity
  8
0
  6
ByBlock
 62
     0
370
    -2
100
AcDbMText
 10
187.4848141823795
 20
175.2979295236051
 30
0.0
 40
2.5
 41
0.0
 71
     5
 72
     1
  1
\A1;15,46
 11
6.123031769111886E-17
 21
1.0
 31
0.0
 73
     1
 44
1.0
  0
ENDBLK
  5
3FF
330
163
100
AcDbEntity
  8
0
100
AcDbBlockEnd
  0
BLOCK
  5
400
330
16E
100
AcDbEntity
  8
0
100
AcDbBlockBegin
  2
*D10
 70
     1
 10
0.0
 20
0.0
 30
0.0
  3
*D10
  1

  0
POINT
  5
165
330
16E
100
AcDbEntity
  8
DEFPOINTS
  6
ByBlock
 62
     0
100
AcDbPoint
 10
197.8428138397637
 20
164.3685280236052
 30
0.0
  0
POINT
  5
166
330
16E
100
AcDbEntity
  8
DEFPOINTS
  6
ByBlock
 62
     0
100
AcDbPoint
 10
222.5850138397637
 20
164.3685280236052
 30
0.0
  0
LINE
  5
167
330
16E
100
AcDbEntity
  8
0
  6
ByBlock
 62
     0
370
    -2
100
AcDbLine
 10
197.8428138397637
 20
163.7435280236052
 30
0.0
 11
197.8428138397637
 21
155.1412289633264
 31
0.0
  0
LINE
  5
168
330
16E
100
AcDbEntity
  8
0
  6
ByBlock
 62
     0
370
    -2
100
AcDbLine
 10
222.5850138397637
 20
163.7435280236052
 30
0.0
 11
222.5850138397637
 21
155.1412289633264
 31
0.0
  0
LINE
  5
169
330
16E
100
AcDbEntity
  8
0
  6
ByBlock
 62
     0
370
    -2
100
AcDbLine
 10
200.3428138397637
 20
156.3912289633264
 30
0.0
 11
220.0850138397637
 21
156.3912289633264
 31
0.0
  0
SOLID
  5
16A
330
16E
100
AcDbEntity
  8
0
  6
ByBlock
 62
     0
100
AcDbTrace
 10
197.8428138397637
 20
156.3912289633264
 30
0.0
 11
200.3428138397637
 21
155.9745622966597
 31
0.0
 12
200.3428138397637
 22
156.807895629993
 32
0.0
 13
200.3428138397637
 23
156.807895629993
 33
0.0
  0
SOLID
  5
16B
330
16E
100
AcDbEntity
  8
0
  6
ByBlock
 62
     0
100
AcDbTrace
 10
222.5850138397637
 20
156.3912289633264
 30
0.0
 11
220.0850138397637
 21
155.9745622966597
 31
0.0
 12
220.0850138397637
 22
156.807895629993
 32
0.0
 13
220.0850138397637
 23
156.807895629993
 33
0.0
  0
MTEXT
  5
16C
330
16E
100
AcDbEntity
  8
0
  6
ByBlock
 62
     0
370
    -2
100
AcDbMText
 10
210.2139138397637
 20
158.4745622966597
 30
0.0
 40
2.5
 41
0.0
 71
     5
 72
     1
  1
\A1;24,74
 73
     1
 44
1.0
  0
ENDBLK
  5
401
330
16E
100
AcDbEntity
  8
0
100
AcDbBlockEnd
  0
BLOCK
  5
402
330
1CB
100
AcDbEntity
  8
0
100
AcDbBlockBegin
  2
*D11
 70
     1
 10
0.0
 20
0.0
 30
0.0
  3
*D11
  1

  0
POINT
  5
1C2
330
1CB
100
AcDbEntity
  8
DEFPOINTS
  6
ByBlock
 62
     1
380
     1
100
AcDbPoint
 10
2718.934006318489
 20
2331.359523755825
 30
0.0
  0
POINT
  5
1C3
330
1CB
100
AcDbEntity
  8
DEFPOINTS
  6
ByBlock
 62
     1
380
     1
100
AcDbPoint
 10
3058.963586698489
 20
2331.359523755825
 30
0.0
  0
LINE
  5
1C4
330
1CB
100
AcDbEntity
  8
0
  6
ByBlock
 62
     1
370
    -2
380
     1
100
AcDbLine
 10
2718.934006318489
 20
2330.359523755825
 30
0.0
 11
2718.934006318489
 21
2258.132810987125
 31
0.0
  0
LINE
  5
1C5
330
1CB
100
AcDbEntity
  8
0
  6
ByBlock
 62
     1
370
    -2
380
     1
100
AcDbLine
 10
3058.963586698489
 20
2330.359523755825
 30
0.0
 11
3058.963586698489
 21
2258.132810987125
 31
0.0
  0
LINE
  5
1C6
330
1CB
100
AcDbEntity
  8
0
  6
ByBlock
 62
     1
370
    -2
380
     1
100
AcDbLine
 10
2720.634006318488
 20
2258.432810987125
 30
0.0
 11
3057.263586698489
 21
2258.432810987125
 31
0.0
  0
SOLID
  5
1C7
330
1CB
100
AcDbEntity
  8
0
  6
ByBlock
 62
     1
380
     1
100
AcDbTrace
 10
2718.934006318489
 20
2258.432810987125
 30
0.0
 11
2720.634006318488
 21
2258.149477653792
 31
0.0
 12
2720.634006318488
 22
2258.716144320459
 32
0.0
 13
2720.634006318488
 23
2258.716144320459
 33
0.0
  0
SOLID
  5
1C8
330
1CB
100
AcDbEntity
  8
0
  6
ByBlock
 62
     1
380
     1
100
AcDbTrace
 10
3058.963586698489
 20
2258.432810987125
 30
0.0
 11
3057.263586698489
 21
2258.149477653792
 31
0.0
 12
3057.263586698489
 22
2258.716144320459
 32
0.0
 13
3057.263586698489
 23
2258.716144320459
 33
0.0
  0
MTEXT
  5
1C9
330
1CB
100
AcDbEntity
  8
0
  6
ByBlock
 62
     0
370
    -2
380
     1
100
AcDbMText
 10
2888.948796508489
 20
2260.076910577848
 30
0.0
 40
1.75
 41
0.0
 71
     5
 72
     1
  1
340
  7
H
 73
     1
 44
1.0
  0
ENDBLK
  5
403
330
1CB
100
AcDbEntity
  8
0
100
AcDbBlockEnd
  0
BLOCK
  5
404
330
1D8
100
AcDbEntity
  8
0
100
AcDbBlockBegin
  2
*D12
 70
     1
 10
0.0
 20
0.0
 30
0.0
  3
*D12
  1

  0
POINT
  5
1CF
330
1D8
100
AcDbEntity
  8
DEFPOINTS
  6
ByBlock
 62
     1
380
     1
100
AcDbPoint
 10
2727.869090182488
 20
2545.346662883826
 30
0.0
  0
POINT
  5
1D0
330
1D8
100
AcDbEntity
  8
DEFPOINTS
  6
ByBlock
 62
     1
380
     1
100
AcDbPoint
 10
2727.869090182488
 20
2330.354889299825
 30
0.0
  0
LINE
  5
1D1
330
1D8
100
AcDbEntity
  8
0
  6
ByBlock
 62
     1
370
    -2
380
     1
100
AcDbLine
 10
2726.869090182488
 20
2545.346662883826
 30
0.0
 11
2655.68866579529
 21
2545.346662883826
 31
0.0
  0
LINE
  5
1D2
330
1D8
100
AcDbEntity
  8
0
  6
ByBlock
 62
     1
370
    -2
380
     1
100
AcDbLine
 10
2726.869090182488
 20
2330.354889299825
 30
0.0
 11
2655.68866579529
 21
2330.354889299825
 31
0.0
  0
LINE
  5
1D3
330
1D8
100
AcDbEntity
  8
0
  6
ByBlock
 62
     1
370
    -2
380
     1
100
AcDbLine
 10
2655.98866579529
 20
2543.646662883826
 30
0.0
 11
2655.98866579529
 21
2332.054889299825
 31
0.0
  0
SOLID
  5
1D4
330
1D8
100
AcDbEntity
  8
0
  6
ByBlock
 62
     1
380
     1
100
AcDbTrace
 10
2655.98866579529
 20
2545.346662883826
 30
0.0
 11
2655.705332461957
 21
2543.646662883826
 31
0.0
 12
2656.271999128624
 22
2543.646662883826
 32
0.0
 13
2656.271999128624
 23
2543.646662883826
 33
0.0
  0
SOLID
  5
1D5
330
1D8
100
AcDbEntity
  8
0
  6
ByBlock
 62
     1
380
     1
100
AcDbTrace
 10
2655.98866579529
 20
2330.354889299825
 30
0.0
 11
2655.705332461957
 21
2332.054889299825
 31
0.0
 12
2656.271999128624
 22
2332.054889299825
 32
0.0
 13
2656.271999128624
 23
2332.054889299825
 33
0.0
  0
MTEXT
  5
1D6
330
1D8
100
AcDbEntity
  8
0
  6
ByBlock
 62
     0
370
    -2
380
     1
100
AcDbMText
 10
2654.345163066777
 20
2437.850776091826
 30
0.0
 40
1.75
 41
0.0
 71
     5
 72
     1
  1
215
  7
H
 11
6.123031769111886E-17
 21
1.0
 31
0.0
 73
     1
 44
1.0
  0
ENDBLK
  5
405
330
1D8
100
AcDbEntity
  8
0
100
AcDbBlockEnd
  0
BLOCK
  5
406
330
205
100
AcDbEntity
  8
0
100
AcDbBlockBegin
  2
*D13
 70
     1
 10
0.0
 20
0.0
 30
0.0
  3
*D13
  1

  0
POINT
  5
1FC
330
205
100
AcDbEntity
  8
DEFPOINTS
  6
ByBlock
 62
     1
380
     1
100
AcDbPoint
 10
3144.76005788279
 20
2351.158304451225
 30
0.0
  0
POINT
  5
1FD
330
205
100
AcDbEntity
  8
DEFPOINTS
  6
ByBlock
 62
     1
380
     1
100
AcDbPoint
 10
3187.44990301079
 20
2363.507826347825
 30
0.0
  0
LINE
  5
1FE
330
205
100
AcDbEntity
  8
0
  6
ByBlock
 62
     1
370
    -2
380
     1
100
AcDbLine
 10
3144.76005788279
 20
2350.158304451225
 30
0.0
 11
3144.76005788279
 21
2258.132810987125
 31
0.0
  0
LINE
  5
1FF
330
205
100
AcDbEntity
  8
0
  6
ByBlock
 62
     1
370
    -2
380
     1
100
AcDbLine
 10
3187.44990301079
 20
2362.507826347825
 30
0.0
 11
3187.44990301079
 21
2258.132810987125
 31
0.0
  0
LINE
  5
200
330
205
100
AcDbEntity
  8
0
  6
ByBlock
 62
     1
370
    -2
380
     1
100
AcDbLine
 10
3146.46005788279
 20
2258.432810987125
 30
0.0
 11
3185.74990301079
 21
2258.432810987125
 31
0.0
  0
SOLID
  5
201
330
205
100
AcDbEntity
  8
0
  6
ByBlock
 62
     1
380
     1
100
AcDbTrace
 10
3144.76005788279
 20
2258.432810987125
 30
0.0
 11
3146.46005788279
 21
2258.149477653792
 31
0.0
 12
3146.46005788279
 22
2258.716144320459
 32
0.0
 13
3146.46005788279
 23
2258.716144320459
 33
0.0
  0
SOLID
  5
202
330
205
100
AcDbEntity
  8
0
  6
ByBlock
 62
     1
380
     1
100
AcDbTrace
 10
3187.44990301079
 20
2258.432810987125
 30
0.0
 11
3185.74990301079
 21
2258.149477653792
 31
0.0
 12
3185.74990301079
 22
2258.716144320459
 32
0.0
 13
3185.74990301079
 23
2258.716144320459
 33
0.0
  0
MTEXT
  5
203
330
205
100
AcDbEntity
  8
0
  6
ByBlock
 62
     0
370
    -2
380
     1
100
AcDbMText
 10
3166.10498044679
 20
2260.076910577848
 30
0.0
 40
1.75
 41
0.0
 71
     5
 72
     1
  1
43
  7
H
 73
     1
 44
1.0
  0
ENDBLK
  5
407
330
205
100
AcDbEntity
  8
0
100
AcDbBlockEnd
  0
BLOCK
  5
408
330
22C
100
AcDbEntity
  8
0
100
AcDbBlockBegin
  2
*D14
 70
     1
 10
0.0
 20
0.0
 30
0.0
  3
*D14
  1

  0
POINT
  5
223
330
22C
100
AcDbEntity
  8
DEFPOINTS
  6
ByBlock
 62
     1
380
     1
100
AcDbPoint
 10
3187.44990301079
 20
2512.193725835825
 30
0.0
  0
POINT
  5
224
330
22C
100
AcDbEntity
  8
DEFPOINTS
  6
ByBlock
 62
     1
380
     1
100
AcDbPoint
 10
3187.44990301079
 20
2363.507826347825
 30
0.0
  0
LINE
  5
225
330
22C
100
AcDbEntity
  8
0
  6
ByBlock
 62
     1
370
    -2
380
     1
100
AcDbLine
 10
3188.44990301079
 20
2512.193725835825
 30
0.0
 11
3268.503746869689
 21
2512.193725835825
 31
0.0
  0
LINE
  5
226
330
22C
100
AcDbEntity
  8
0
  6
ByBlock
 62
     1
370
    -2
380
     1
100
AcDbLine
 10
3188.44990301079
 20
2363.507826347825
 30
0.0
 11
3268.503746869689
 21
2363.507826347825
 31
0.0
  0
LINE
  5
227
330
22C
100
AcDbEntity
  8
0
  6
ByBlock
 62
     1
370
    -2
380
     1
100
AcDbLine
 10
3268.203746869689
 20
2510.493725835825
 30
0.0
 11
3268.203746869689
 21
2365.207826347825
 31
0.0
  0
SOLID
  5
228
330
22C
100
AcDbEntity
  8
0
  6
ByBlock
 62
     1
380
     1
100
AcDbTrace
 10
3268.203746869689
 20
2512.193725835825
 30
0.0
 11
3267.920413536356
 21
2510.493725835825
 31
0.0
 12
3268.487080203022
 22
2510.493725835825
 32
0.0
 13
3268.487080203022
 23
2510.493725835825
 33
0.0
  0
SOLID
  5
229
330
22C
100
AcDbEntity
  8
0
  6
ByBlock
 62
     1
380
     1
100
AcDbTrace
 10
3268.203746869689
 20
2363.507826347825
 30
0.0
 11
3267.920413536356
 21
2365.207826347825
 31
0.0
 12
3268.487080203022
 22
2365.207826347825
 32
0.0
 13
3268.487080203022
 23
2365.207826347825
 33
0.0
  0
MTEXT
  5
22A
330
22C
100
AcDbEntity
  8
0
  6
ByBlock
 62
     0
370
    -2
380
     1
100
AcDbMText
 10
3266.560244141176
 20
2437.850776091825
 30
0.0
 40
1.75
 41
0.0
 71
     5
 72
     1
  1
148
  7
H
 11
6.123031769111886E-17
 21
1.0
 31
0.0
 73
     1
 44
1.0
  0
ENDBLK
  5
409
330
22C
100
AcDbEntity
  8
0
100
AcDbBlockEnd
  0
BLOCK
  5
40A
330
23B
100
AcDbEntity
  8
0
100
AcDbBlockBegin
  2
*D15
 70
     1
 10
0.0
 20
0.0
 30
0.0
  3
*D15
  1

  0
POINT
  5
232
330
23B
100
AcDbEntity
  8
DEFPOINTS
  6
ByBlock
 62
     0
380
     1
100
AcDbPoint
 10
2682.995992988889
 20
2545.346662883826
 30
0.0
  0
POINT
  5
233
330
23B
100
AcDbEntity
  8
DEFPOINTS
  6
ByBlock
 62
     0
380
     1
100
AcDbPoint
 10
2682.995992988889
 20
2330.354889299825
 30
0.0
  0
LINE
  5
234
330
23B
100
AcDbEntity
  8
0
  6
ByBlock
 62
     0
370
    -2
380
     1
100
AcDbLine
 10
2682.370992988889
 20
2545.346662883826
 30
0.0
 11
2603.966094493691
 21
2545.346662883826
 31
0.0
  0
LINE
  5
235
330
23B
100
AcDbEntity
  8
0
  6
ByBlock
 62
     0
370
    -2
380
     1
100
AcDbLine
 10
2682.370992988889
 20
2330.354889299825
 30
0.0
 11
2603.966094493691
 21
2330.354889299825
 31
0.0
  0
LINE
  5
236
330
23B
100
AcDbEntity
  8
0
  6
ByBlock
 62
     0
370
    -2
380
     1
100
AcDbLine
 10
2605.216094493691
 20
2542.846662883826
 30
0.0
 11
2605.216094493691
 21
2332.854889299825
 31
0.0
  0
SOLID
  5
237
330
23B
100
AcDbEntity
  8
0
  6
ByBlock
 62
     0
380
     1
100
AcDbTrace
 10
2605.216094493691
 20
2545.346662883826
 30
0.0
 11
2604.799427827024
 21
2542.846662883826
 31
0.0
 12
2605.632761160357
 22
2542.846662883826
 32
0.0
 13
2605.632761160357
 23
2542.846662883826
 33
0.0
  0
SOLID
  5
238
330
23B
100
AcDbEntity
  8
0
  6
ByBlock
 62
     0
380
     1
100
AcDbTrace
 10
2605.216094493691
 20
2330.354889299825
 30
0.0
 11
2604.799427827024
 21
2332.854889299825
 31
0.0
 12
2605.632761160357
 22
2332.854889299825
 32
0.0
 13
2605.632761160357
 23
2332.854889299825
 33
0.0
  0
MTEXT
  5
239
330
23B
100
AcDbEntity
  8
0
  6
ByBlock
 62
     0
370
    -2
380
     1
100
AcDbMText
 10
2603.132761160357
 20
2437.850776091826
 30
0.0
 40
2.5
 41
0.0
 71
     5
 72
     1
  1
\A1;214,99
 11
6.123031769111886E-17
 21
1.0
 31
0.0
 73
     1
 44
1.0
  0
ENDBLK
  5
40B
330
23B
100
AcDbEntity
  8
0
100
AcDbBlockEnd
  0
BLOCK
  5
40C
330
247
100
AcDbEntity
  8
0
100
AcDbBlockBegin
  2
*D16
 70
     1
 10
0.0
 20
0.0
 30
0.0
  3
*D16
  1

  0
POINT
  5
23E
330
247
100
AcDbEntity
  8
DEFPOINTS
  6
ByBlock
 62
     0
380
     1
100
AcDbPoint
 10
2718.934006318489
 20
2285.856682371475
 30
0.0
  0
POINT
  5
23F
330
247
100
AcDbEntity
  8
DEFPOINTS
  6
ByBlock
 62
     0
380
     1
100
AcDbPoint
 10
3058.963586698489
 20
2285.856682371475
 30
0.0
  0
LINE
  5
240
330
247
100
AcDbEntity
  8
0
  6
ByBlock
 62
     0
370
    -2
380
     1
100
AcDbLine
 10
2718.934006318489
 20
2285.231682371475
 30
0.0
 11
2718.934006318489
 21
2173.667182070084
 31
0.0
  0
LINE
  5
241
330
247
100
AcDbEntity
  8
0
  6
ByBlock
 62
     0
370
    -2
380
     1
100
AcDbLine
 10
3058.963586698489
 20
2285.231682371475
 30
0.0
 11
3058.963586698489
 21
2173.667182070084
 31
0.0
  0
LINE
  5
242
330
247
100
AcDbEntity
  8
0
  6
ByBlock
 62
     0
370
    -2
380
     1
100
AcDbLine
 10
2721.434006318489
 20
2174.917182070084
 30
0.0
 11
3056.463586698489
 21
2174.917182070084
 31
0.0
  0
SOLID
  5
243
330
247
100
AcDbEntity
  8
0
  6
ByBlock
 62
     0
380
     1
100
AcDbTrace
 10
2718.934006318489
 20
2174.917182070084
 30
0.0
 11
2721.434006318489
 21
2174.500515403417
 31
0.0
 12
2721.434006318489
 22
2175.33384873675
 32
0.0
 13
2721.434006318489
 23
2175.33384873675
 33
0.0
  0
SOLID
  5
244
330
247
100
AcDbEntity
  8
0
  6
ByBlock
 62
     0
380
     1
100
AcDbTrace
 10
3058.963586698489
 20
2174.917182070084
 30
0.0
 11
3056.463586698489
 21
2174.500515403417
 31
0.0
 12
3056.463586698489
 22
2175.33384873675
 32
0.0
 13
3056.463586698489
 23
2175.33384873675
 33
0.0
  0
MTEXT
  5
245
330
247
100
AcDbEntity
  8
0
  6
ByBlock
 62
     0
370
    -2
380
     1
100
AcDbMText
 10
2888.948796508489
 20
2177.000515403417
 30
0.0
 40
2.5
 41
0.0
 71
     5
 72
     1
  1
\A1;340,03
 73
     1
 44
1.0
  0
ENDBLK
  5
40D
330
247
100
AcDbEntity
  8
0
100
AcDbBlockEnd
  0
BLOCK
  5
40E
330
252
100
AcDbEntity
  8
0
100
AcDbBlockBegin
  2
*D17
 70
     1
 10
0.0
 20
0.0
 30
0.0
  3
*D17
  1

  0
POINT
  5
249
330
252
100
AcDbEntity
  8
DEFPOINTS
  6
ByBlock
 62
     1
380
     1
100
AcDbPoint
 10
3187.44990301079
 20
2512.193725835825
 30
0.0
  0
POINT
  5
24A
330
252
100
AcDbEntity
  8
DEFPOINTS
  6
ByBlock
 62
     1
380
     1
100
AcDbPoint
 10
3187.44990301079
 20
2363.507826347825
 30
0.0
  0
LINE
  5
24B
330
252
100
AcDbEntity
  8
0
  6
ByBlock
 62
     1
370
    -2
380
     1
100
AcDbLine
 10
3188.44990301079
 20
2512.193725835825
 30
0.0
 11
3268.503746869689
 21
2512.193725835825
 31
0.0
  0
LINE
  5
24C
330
252
100
AcDbEntity
  8
0
  6
ByBlock
 62
     1
370
    -2
380
     1
100
AcDbLine
 10
3188.44990301079
 20
2363.507826347825
 30
0.0
 11
3268.503746869689
 21
2363.507826347825
 31
0.0
  0
LINE
  5
24D
330
252
100
AcDbEntity
  8
0
  6
ByBlock
 62
     1
370
    -2
380
     1
100
AcDbLine
 10
3268.203746869689
 20
2510.493725835825
 30
0.0
 11
3268.203746869689
 21
2365.207826347825
 31
0.0
  0
SOLID
  5
24E
330
252
100
AcDbEntity
  8
0
  6
ByBlock
 62
     1
380
     1
100
AcDbTrace
 10
3268.203746869689
 20
2512.193725835825
 30
0.0
 11
3267.920413536356
 21
2510.493725835825
 31
0.0
 12
3268.487080203022
 22
2510.493725835825
 32
0.0
 13
3268.487080203022
 23
2510.493725835825
 33
0.0
  0
SOLID
  5
24F
330
252
100
AcDbEntity
  8
0
  6
ByBlock
 62
     1
380
     1
100
AcDbTrace
 10
3268.203746869689
 20
2363.507826347825
 30
0.0
 11
3267.920413536356
 21
2365.207826347825
 31
0.0
 12
3268.487080203022
 22
2365.207826347825
 32
0.0
 13
3268.487080203022
 23
2365.207826347825
 33
0.0
  0
MTEXT
  5
250
330
252
100
AcDbEntity
  8
0
  6
ByBlock
 62
     0
370
    -2
380
     1
100
AcDbMText
 10
3266.560244141176
 20
2437.850776091825
 30
0.0
 40
1.75
 41
0.0
 71
     5
 72
     1
  1
148
  7
H
 11
6.123031769111886E-17
 21
1.0
 31
0.0
 73
     1
 44
1.0
  0
ENDBLK
  5
40F
330
252
100
AcDbEntity
  8
0
100
AcDbBlockEnd
  0
BLOCK
  5
410
330
25D
100
AcDbEntity
  8
0
100
AcDbBlockBegin
  2
*D18
 70
     1
 10
0.0
 20
0.0
 30
0.0
  3
*D18
  1

  0
POINT
  5
254
330
25D
100
AcDbEntity
  8
DEFPOINTS
  6
ByBlock
 62
     1
380
     1
100
AcDbPoint
 10
3144.76005788279
 20
2351.158304451225
 30
0.0
  0
POINT
  5
255
330
25D
100
AcDbEntity
  8
DEFPOINTS
  6
ByBlock
 62
     1
380
     1
100
AcDbPoint
 10
3187.44990301079
 20
2363.507826347825
 30
0.0
  0
LINE
  5
256
330
25D
100
AcDbEntity
  8
0
  6
ByBlock
 62
     1
370
    -2
380
     1
100
AcDbLine
 10
3144.76005788279
 20
2350.158304451225
 30
0.0
 11
3144.76005788279
 21
2258.132810987125
 31
0.0
  0
LINE
  5
257
330
25D
100
AcDbEntity
  8
0
  6
ByBlock
 62
     1
370
    -2
380
     1
100
AcDbLine
 10
3187.44990301079
 20
2362.507826347825
 30
0.0
 11
3187.44990301079
 21
2258.132810987125
 31
0.0
  0
LINE
  5
258
330
25D
100
AcDbEntity
  8
0
  6
ByBlock
 62
     1
370
    -2
380
     1
100
AcDbLine
 10
3146.46005788279
 20
2258.432810987125
 30
0.0
 11
3185.74990301079
 21
2258.432810987125
 31
0.0
  0
SOLID
  5
259
330
25D
100
AcDbEntity
  8
0
  6
ByBlock
 62
     1
380
     1
100
AcDbTrace
 10
3144.76005788279
 20
2258.432810987125
 30
0.0
 11
3146.46005788279
 21
2258.149477653792
 31
0.0
 12
3146.46005788279
 22
2258.716144320459
 32
0.0
 13
3146.46005788279
 23
2258.716144320459
 33
0.0
  0
SOLID
  5
25A
330
25D
100
AcDbEntity
  8
0
  6
ByBlock
 62
     1
380
     1
100
AcDbTrace
 10
3187.44990301079
 20
2258.432810987125
 30
0.0
 11
3185.74990301079
 21
2258.149477653792
 31
0.0
 12
3185.74990301079
 22
2258.716144320459
 32
0.0
 13
3185.74990301079
 23
2258.716144320459
 33
0.0
  0
MTEXT
  5
25B
330
25D
100
AcDbEntity
  8
0
  6
ByBlock
 62
     0
370
    -2
380
     1
100
AcDbMText
 10
3166.10498044679
 20
2260.076910577848
 30
0.0
 40
1.75
 41
0.0
 71
     5
 72
     1
  1
43
  7
H
 73
     1
 44
1.0
  0
ENDBLK
  5
411
330
25D
100
AcDbEntity
  8
0
100
AcDbBlockEnd
  0
BLOCK
  5
412
330
268
100
AcDbEntity
  8
0
100
AcDbBlockBegin
  2
*D19
 70
     1
 10
0.0
 20
0.0
 30
0.0
  3
*D19
  1

  0
POINT
  5
25F
330
268
100
AcDbEntity
  8
DEFPOINTS
  6
ByBlock
 62
     1
380
     1
100
AcDbPoint
 10
3144.76005788279
 20
2351.158304451225
 30
0.0
  0
POINT
  5
260
330
268
100
AcDbEntity
  8
DEFPOINTS
  6
ByBlock
 62
     1
380
     1
100
AcDbPoint
 10
3187.44990301079
 20
2363.507826347825
 30
0.0
  0
LINE
  5
261
330
268
100
AcDbEntity
  8
0
  6
ByBlock
 62
     1
370
    -2
380
     1
100
AcDbLine
 10
3144.76005788279
 20
2350.158304451225
 30
0.0
 11
3144.76005788279
 21
2258.132810987125
 31
0.0
  0
LINE
  5
262
330
268
100
AcDbEntity
  8
0
  6
ByBlock
 62
     1
370
    -2
380
     1
100
AcDbLine
 10
3187.44990301079
 20
2362.507826347825
 30
0.0
 11
3187.44990301079
 21
2258.132810987125
 31
0.0
  0
LINE
  5
263
330
268
100
AcDbEntity
  8
0
  6
ByBlock
 62
     1
370
    -2
380
     1
100
AcDbLine
 10
3146.46005788279
 20
2258.432810987125
 30
0.0
 11
3185.74990301079
 21
2258.432810987125
 31
0.0
  0
SOLID
  5
264
330
268
100
AcDbEntity
  8
0
  6
ByBlock
 62
     1
380
     1
100
AcDbTrace
 10
3144.76005788279
 20
2258.432810987125
 30
0.0
 11
3146.46005788279
 21
2258.149477653792
 31
0.0
 12
3146.46005788279
 22
2258.716144320459
 32
0.0
 13
3146.46005788279
 23
2258.716144320459
 33
0.0
  0
SOLID
  5
265
330
268
100
AcDbEntity
  8
0
  6
ByBlock
 62
     1
380
     1
100
AcDbTrace
 10
3187.44990301079
 20
2258.432810987125
 30
0.0
 11
3185.74990301079
 21
2258.149477653792
 31
0.0
 12
3185.74990301079
 22
2258.716144320459
 32
0.0
 13
3185.74990301079
 23
2258.716144320459
 33
0.0
  0
MTEXT
  5
266
330
268
100
AcDbEntity
  8
0
  6
ByBlock
 62
     0
370
    -2
380
     1
100
AcDbMText
 10
3166.10498044679
 20
2260.076910577848
 30
0.0
 40
1.75
 41
0.0
 71
     5
 72
     1
  1
43
  7
H
 73
     1
 44
1.0
  0
ENDBLK
  5
413
330
268
100
AcDbEntity
  8
0
100
AcDbBlockEnd
  0
BLOCK
  5
414
330
273
100
AcDbEntity
  8
0
100
AcDbBlockBegin
  2
*D20
 70
     1
 10
0.0
 20
0.0
 30
0.0
  3
*D20
  1

  0
POINT
  5
26A
330
273
100
AcDbEntity
  8
DEFPOINTS
  6
ByBlock
 62
     1
380
     1
100
AcDbPoint
 10
3187.44990301079
 20
2512.193725835825
 30
0.0
  0
POINT
  5
26B
330
273
100
AcDbEntity
  8
DEFPOINTS
  6
ByBlock
 62
     1
380
     1
100
AcDbPoint
 10
3187.44990301079
 20
2363.507826347825
 30
0.0
  0
LINE
  5
26C
330
273
100
AcDbEntity
  8
0
  6
ByBlock
 62
     1
370
    -2
380
     1
100
AcDbLine
 10
3188.44990301079
 20
2512.193725835825
 30
0.0
 11
3268.503746869689
 21
2512.193725835825
 31
0.0
  0
LINE
  5
26D
330
273
100
AcDbEntity
  8
0
  6
ByBlock
 62
     1
370
    -2
380
     1
100
AcDbLine
 10
3188.44990301079
 20
2363.507826347825
 30
0.0
 11
3268.503746869689
 21
2363.507826347825
 31
0.0
  0
LINE
  5
26E
330
273
100
AcDbEntity
  8
0
  6
ByBlock
 62
     1
370
    -2
380
     1
100
AcDbLine
 10
3268.203746869689
 20
2510.493725835825
 30
0.0
 11
3268.203746869689
 21
2365.207826347825
 31
0.0
  0
SOLID
  5
26F
330
273
100
AcDbEntity
  8
0
  6
ByBlock
 62
     1
380
     1
100
AcDbTrace
 10
3268.203746869689
 20
2512.193725835825
 30
0.0
 11
3267.920413536356
 21
2510.493725835825
 31
0.0
 12
3268.487080203022
 22
2510.493725835825
 32
0.0
 13
3268.487080203022
 23
2510.493725835825
 33
0.0
  0
SOLID
  5
270
330
273
100
AcDbEntity
  8
0
  6
ByBlock
 62
     1
380
     1
100
AcDbTrace
 10
3268.203746869689
 20
2363.507826347825
 30
0.0
 11
3267.920413536356
 21
2365.207826347825
 31
0.0
 12
3268.487080203022
 22
2365.207826347825
 32
0.0
 13
3268.487080203022
 23
2365.207826347825
 33
0.0
  0
MTEXT
  5
271
330
273
100
AcDbEntity
  8
0
  6
ByBlock
 62
     0
370
    -2
380
     1
100
AcDbMText
 10
3266.560244141176
 20
2437.850776091825
 30
0.0
 40
1.75
 41
0.0
 71
     5
 72
     1
  1
148
  7
H
 11
6.123031769111886E-17
 21
1.0
 31
0.0
 73
     1
 44
1.0
  0
ENDBLK
  5
415
330
273
100
AcDbEntity
  8
0
100
AcDbBlockEnd
  0
BLOCK
  5
416
330
27E
100
AcDbEntity
  8
0
100
AcDbBlockBegin
  2
*D21
 70
     1
 10
0.0
 20
0.0
 30
0.0
  3
*D21
  1

  0
POINT
  5
275
330
27E
100
AcDbEntity
  8
DEFPOINTS
  6
ByBlock
 62
     1
380
     1
100
AcDbPoint
 10
3187.44990301079
 20
2512.193725835825
 30
0.0
  0
POINT
  5
276
330
27E
100
AcDbEntity
  8
DEFPOINTS
  6
ByBlock
 62
     1
380
     1
100
AcDbPoint
 10
3187.44990301079
 20
2363.507826347825
 30
0.0
  0
LINE
  5
277
330
27E
100
AcDbEntity
  8
0
  6
ByBlock
 62
     1
370
    -2
380
     1
100
AcDbLine
 10
3188.44990301079
 20
2512.193725835825
 30
0.0
 11
3268.503746869689
 21
2512.193725835825
 31
0.0
  0
LINE
  5
278
330
27E
100
AcDbEntity
  8
0
  6
ByBlock
 62
     1
370
    -2
380
     1
100
AcDbLine
 10
3188.44990301079
 20
2363.507826347825
 30
0.0
 11
3268.503746869689
 21
2363.507826347825
 31
0.0
  0
LINE
  5
279
330
27E
100
AcDbEntity
  8
0
  6
ByBlock
 62
     1
370
    -2
380
     1
100
AcDbLine
 10
3268.203746869689
 20
2510.493725835825
 30
0.0
 11
3268.203746869689
 21
2365.207826347825
 31
0.0
  0
SOLID
  5
27A
330
27E
100
AcDbEntity
  8
0
  6
ByBlock
 62
     1
380
     1
100
AcDbTrace
 10
3268.203746869689
 20
2512.193725835825
 30
0.0
 11
3267.920413536356
 21
2510.493725835825
 31
0.0
 12
3268.487080203022
 22
2510.493725835825
 32
0.0
 13
3268.487080203022
 23
2510.493725835825
 33
0.0
  0
SOLID
  5
27B
330
27E
100
AcDbEntity
  8
0
  6
ByBlock
 62
     1
380
     1
100
AcDbTrace
 10
3268.203746869689
 20
2363.507826347825
 30
0.0
 11
3267.920413536356
 21
2365.207826347825
 31
0.0
 12
3268.487080203022
 22
2365.207826347825
 32
0.0
 13
3268.487080203022
 23
2365.207826347825
 33
0.0
  0
MTEXT
  5
27C
330
27E
100
AcDbEntity
  8
0
  6
ByBlock
 62
     0
370
    -2
380
     1
100
AcDbMText
 10
3266.560244141176
 20
2437.850776091825
 30
0.0
 40
1.75
 41
0.0
 71
     5
 72
     1
  1
148
  7
H
 11
6.123031769111886E-17
 21
1.0
 31
0.0
 73
     1
 44
1.0
  0
ENDBLK
  5
417
330
27E
100
AcDbEntity
  8
0
100
AcDbBlockEnd
  0
BLOCK
  5
418
330
289
100
AcDbEntity
  8
0
100
AcDbBlockBegin
  2
*D22
 70
     1
 10
0.0
 20
0.0
 30
0.0
  3
*D22
  1

  0
POINT
  5
280
330
289
100
AcDbEntity
  8
DEFPOINTS
  6
ByBlock
 62
     1
380
     1
100
AcDbPoint
 10
3144.76005788279
 20
2351.158304451225
 30
0.0
  0
POINT
  5
281
330
289
100
AcDbEntity
  8
DEFPOINTS
  6
ByBlock
 62
     1
380
     1
100
AcDbPoint
 10
3187.44990301079
 20
2363.507826347825
 30
0.0
  0
LINE
  5
282
330
289
100
AcDbEntity
  8
0
  6
ByBlock
 62
     1
370
    -2
380
     1
100
AcDbLine
 10
3144.76005788279
 20
2350.158304451225
 30
0.0
 11
3144.76005788279
 21
2258.132810987125
 31
0.0
  0
LINE
  5
283
330
289
100
AcDbEntity
  8
0
  6
ByBlock
 62
     1
370
    -2
380
     1
100
AcDbLine
 10
3187.44990301079
 20
2362.507826347825
 30
0.0
 11
3187.44990301079
 21
2258.132810987125
 31
0.0
  0
LINE
  5
284
330
289
100
AcDbEntity
  8
0
  6
ByBlock
 62
     1
370
    -2
380
     1
100
AcDbLine
 10
3146.46005788279
 20
2258.432810987125
 30
0.0
 11
3185.74990301079
 21
2258.432810987125
 31
0.0
  0
SOLID
  5
285
330
289
100
AcDbEntity
  8
0
  6
ByBlock
 62
     1
380
     1
100
AcDbTrace
 10
3144.76005788279
 20
2258.432810987125
 30
0.0
 11
3146.46005788279
 21
2258.149477653792
 31
0.0
 12
3146.46005788279
 22
2258.716144320459
 32
0.0
 13
3146.46005788279
 23
2258.716144320459
 33
0.0
  0
SOLID
  5
286
330
289
100
AcDbEntity
  8
0
  6
ByBlock
 62
     1
380
     1
100
AcDbTrace
 10
3187.44990301079
 20
2258.432810987125
 30
0.0
 11
3185.74990301079
 21
2258.149477653792
 31
0.0
 12
3185.74990301079
 22
2258.716144320459
 32
0.0
 13
3185.74990301079
 23
2258.716144320459
 33
0.0
  0
MTEXT
  5
287
330
289
100
AcDbEntity
  8
0
  6
ByBlock
 62
     0
370
    -2
380
     1
100
AcDbMText
 10
3166.10498044679
 20
2260.076910577848
 30
0.0
 40
1.75
 41
0.0
 71
     5
 72
     1
  1
43
  7
H
 73
     1
 44
1.0
  0
ENDBLK
  5
419
330
289
100
AcDbEntity
  8
0
100
AcDbBlockEnd
  0
BLOCK
  5
41A
330
296
100
AcDbEntity
  8
0
100
AcDbBlockBegin
  2
*D23
 70
     1
 10
0.0
 20
0.0
 30
0.0
  3
*D23
  1

  0
POINT
  5
28D
330
296
100
AcDbEntity
  8
DEFPOINTS
  6
ByBlock
 62
     0
380
     1
100
AcDbPoint
 10
2742.674208823126
 20
2545.346662883826
 30
0.0
  0
POINT
  5
28E
330
296
100
AcDbEntity
  8
DEFPOINTS
  6
ByBlock
 62
     0
380
     1
100
AcDbPoint
 10
2742.674208823126
 20
2330.354889299825
 30
0.0
  0
LINE
  5
28F
330
296
100
AcDbEntity
  8
0
  6
ByBlock
 62
     0
370
    -2
380
     1
100
AcDbLine
 10
2742.049208823126
 20
2545.346662883826
 30
0.0
 11
2676.144016432886
 21
2545.346662883826
 31
0.0
  0
LINE
  5
290
330
296
100
AcDbEntity
  8
0
  6
ByBlock
 62
     0
370
    -2
380
     1
100
AcDbLine
 10
2742.049208823126
 20
2330.354889299825
 30
0.0
 11
2676.144016432886
 21
2330.354889299825
 31
0.0
  0
LINE
  5
291
330
296
100
AcDbEntity
  8
0
  6
ByBlock
 62
     0
370
    -2
380
     1
100
AcDbLine
 10
2677.394016432886
 20
2542.846662883826
 30
0.0
 11
2677.394016432886
 21
2332.854889299825
 31
0.0
  0
SOLID
  5
292
330
296
100
AcDbEntity
  8
0
  6
ByBlock
 62
     0
380
     1
100
AcDbTrace
 10
2677.394016432886
 20
2545.346662883826
 30
0.0
 11
2676.97734976622
 21
2542.846662883826
 31
0.0
 12
2677.810683099553
 22
2542.846662883826
 32
0.0
 13
2677.810683099553
 23
2542.846662883826
 33
0.0
  0
SOLID
  5
293
330
296
100
AcDbEntity
  8
0
  6
ByBlock
 62
     0
380
     1
100
AcDbTrace
 10
2677.394016432886
 20
2330.354889299825
 30
0.0
 11
2676.97734976622
 21
2332.854889299825
 31
0.0
 12
2677.810683099553
 22
2332.854889299825
 32
0.0
 13
2677.810683099553
 23
2332.854889299825
 33
0.0
  0
MTEXT
  5
294
330
296
100
AcDbEntity
  8
0
  6
ByBlock
 62
     0
370
    -2
380
     1
100
AcDbMText
 10
2675.310683099553
 20
2437.850776091826
 30
0.0
 40
2.5
 41
0.0
 71
     5
 72
     1
  1
\A1;214,99
 11
6.123031769111886E-17
 21
1.0
 31
0.0
 73
     1
 44
1.0
  0
ENDBLK
  5
41B
330
296
100
AcDbEntity
  8
0
100
AcDbBlockEnd
  0
BLOCK
  5
41C
330
2A1
100
AcDbEntity
  8
0
100
AcDbBlockBegin
  2
*D24
 70
     1
 10
0.0
 20
0.0
 30
0.0
  3
*D24
  1

  0
POINT
  5
298
330
2A1
100
AcDbEntity
  8
DEFPOINTS
  6
ByBlock
 62
     0
380
     1
100
AcDbPoint
 10
2742.674208823126
 20
2545.346662883826
 30
0.0
  0
POINT
  5
299
330
2A1
100
AcDbEntity
  8
DEFPOINTS
  6
ByBlock
 62
     0
380
     1
100
AcDbPoint
 10
2742.674208823126
 20
2330.354889299825
 30
0.0
  0
LINE
  5
29A
330
2A1
100
AcDbEntity
  8
0
  6
ByBlock
 62
     0
370
    -2
380
     1
100
AcDbLine
 10
2742.049208823126
 20
2545.346662883826
 30
0.0
 11
2676.144016432886
 21
2545.346662883826
 31
0.0
  0
LINE
  5
29B
330
2A1
100
AcDbEntity
  8
0
  6
ByBlock
 62
     0
370
    -2
380
     1
100
AcDbLine
 10
2742.049208823126
 20
2330.354889299825
 30
0.0
 11
2676.144016432886
 21
2330.354889299825
 31
0.0
  0
LINE
  5
29C
330
2A1
100
AcDbEntity
  8
0
  6
ByBlock
 62
     0
370
    -2
380
     1
100
AcDbLine
 10
2677.394016432886
 20
2542.846662883826
 30
0.0
 11
2677.394016432886
 21
2332.854889299825
 31
0.0
  0
SOLID
  5
29D
330
2A1
100
AcDbEntity
  8
0
  6
ByBlock
 62
     0
380
     1
100
AcDbTrace
 10
2677.394016432886
 20
2545.346662883826
 30
0.0
 11
2676.97734976622
 21
2542.846662883826
 31
0.0
 12
2677.810683099553
 22
2542.846662883826
 32
0.0
 13
2677.810683099553
 23
2542.846662883826
 33
0.0
  0
SOLID
  5
29E
330
2A1
100
AcDbEntity
  8
0
  6
ByBlock
 62
     0
380
     1
100
AcDbTrace
 10
2677.394016432886
 20
2330.354889299825
 30
0.0
 11
2676.97734976622
 21
2332.854889299825
 31
0.0
 12
2677.810683099553
 22
2332.854889299825
 32
0.0
 13
2677.810683099553
 23
2332.854889299825
 33
0.0
  0
MTEXT
  5
29F
330
2A1
100
AcDbEntity
  8
0
  6
ByBlock
 62
     0
370
    -2
380
     1
100
AcDbMText
 10
2675.310683099553
 20
2437.850776091826
 30
0.0
 40
2.5
 41
0.0
 71
     5
 72
     1
  1
\A1;214,99
 11
6.123031769111886E-17
 21
1.0
 31
0.0
 73
     1
 44
1.0
  0
ENDBLK
  5
41D
330
2A1
100
AcDbEntity
  8
0
100
AcDbBlockEnd
  0
BLOCK
  5
41E
330
2AC
100
AcDbEntity
  8
0
100
AcDbBlockBegin
  2
*D25
 70
     1
 10
0.0
 20
0.0
 30
0.0
  3
*D25
  1

  0
POINT
  5
2A3
330
2AC
100
AcDbEntity
  8
DEFPOINTS
  6
ByBlock
 62
     7
380
     1
100
AcDbPoint
 10
2742.674208823126
 20
2545.346662883826
 30
0.0
  0
POINT
  5
2A4
330
2AC
100
AcDbEntity
  8
DEFPOINTS
  6
ByBlock
 62
     7
380
     1
100
AcDbPoint
 10
2742.674208823126
 20
2330.354889299825
 30
0.0
  0
LINE
  5
2A5
330
2AC
100
AcDbEntity
  8
0
  6
ByBlock
 62
     7
370
    -2
380
     1
100
AcDbLine
 10
2742.049208823126
 20
2545.346662883826
 30
0.0
 11
2676.144016432886
 21
2545.346662883826
 31
0.0
  0
LINE
  5
2A6
330
2AC
100
AcDbEntity
  8
0
  6
ByBlock
 62
     7
370
    -2
380
     1
100
AcDbLine
 10
2742.049208823126
 20
2330.354889299825
 30
0.0
 11
2676.144016432886
 21
2330.354889299825
 31
0.0
  0
LINE
  5
2A7
330
2AC
100
AcDbEntity
  8
0
  6
ByBlock
 62
     7
370
    -2
380
     1
100
AcDbLine
 10
2677.394016432886
 20
2535.346662883826
 30
0.0
 11
2677.394016432886
 21
2340.354889299825
 31
0.0
  0
SOLID
  5
2A8
330
2AC
100
AcDbEntity
  8
0
  6
ByBlock
 62
     7
380
     1
100
AcDbTrace
 10
2677.394016432886
 20
2545.346662883826
 30
0.0
 11
2675.72734976622
 21
2535.346662883826
 31
0.0
 12
2679.060683099553
 22
2535.346662883826
 32
0.0
 13
2679.060683099553
 23
2535.346662883826
 33
0.0
  0
SOLID
  5
2A9
330
2AC
100
AcDbEntity
  8
0
  6
ByBlock
 62
     7
380
     1
100
AcDbTrace
 10
2677.394016432886
 20
2330.354889299825
 30
0.0
 11
2675.72734976622
 21
2340.354889299825
 31
0.0
 12
2679.060683099553
 22
2340.354889299825
 32
0.0
 13
2679.060683099553
 23
2340.354889299825
 33
0.0
  0
MTEXT
  5
2AA
330
2AC
100
AcDbEntity
  8
0
  6
ByBlock
 62
     0
370
    -2
380
     1
100
AcDbMText
 10
2664.22734976622
 20
2437.850776091826
 30
0.0
 40
14.0
 41
0.0
 71
     5
 72
     1
  1
\A1;214,99
 11
6.123031769111886E-17
 21
1.0
 31
0.0
 73
     1
 44
1.0
  0
ENDBLK
  5
41F
330
2AC
100
AcDbEntity
  8
0
100
AcDbBlockEnd
  0
BLOCK
  5
420
330
2B7
100
AcDbEntity
  8
0
100
AcDbBlockBegin
  2
*D26
 70
     1
 10
0.0
 20
0.0
 30
0.0
  3
*D26
  1

  0
POINT
  5
2AE
330
2B7
100
AcDbEntity
  8
DEFPOINTS
  6
ByBlock
 62
     7
380
     1
100
AcDbPoint
 10
2742.674208823126
 20
2545.346662883826
 30
0.0
  0
POINT
  5
2AF
330
2B7
100
AcDbEntity
  8
DEFPOINTS
  6
ByBlock
 62
     7
380
     1
100
AcDbPoint
 10
2742.674208823126
 20
2330.354889299825
 30
0.0
  0
LINE
  5
2B0
330
2B7
100
AcDbEntity
  8
0
  6
ByBlock
 62
     7
370
    -2
380
     1
100
AcDbLine
 10
2742.049208823126
 20
2545.346662883826
 30
0.0
 11
2676.144016432886
 21
2545.346662883826
 31
0.0
  0
LINE
  5
2B1
330
2B7
100
AcDbEntity
  8
0
  6
ByBlock
 62
     7
370
    -2
380
     1
100
AcDbLine
 10
2742.049208823126
 20
2330.354889299825
 30
0.0
 11
2676.144016432886
 21
2330.354889299825
 31
0.0
  0
LINE
  5
2B2
330
2B7
100
AcDbEntity
  8
0
  6
ByBlock
 62
     7
370
    -2
380
     1
100
AcDbLine
 10
2677.394016432886
 20
2535.346662883826
 30
0.0
 11
2677.394016432886
 21
2340.354889299825
 31
0.0
  0
SOLID
  5
2B3
330
2B7
100
AcDbEntity
  8
0
  6
ByBlock
 62
     7
380
     1
100
AcDbTrace
 10
2677.394016432886
 20
2545.346662883826
 30
0.0
 11
2675.72734976622
 21
2535.346662883826
 31
0.0
 12
2679.060683099553
 22
2535.346662883826
 32
0.0
 13
2679.060683099553
 23
2535.346662883826
 33
0.0
  0
SOLID
  5
2B4
330
2B7
100
AcDbEntity
  8
0
  6
ByBlock
 62
     7
380
     1
100
AcDbTrace
 10
2677.394016432886
 20
2330.354889299825
 30
0.0
 11
2675.72734976622
 21
2340.354889299825
 31
0.0
 12
2679.060683099553
 22
2340.354889299825
 32
0.0
 13
2679.060683099553
 23
2340.354889299825
 33
0.0
  0
MTEXT
  5
2B5
330
2B7
100
AcDbEntity
  8
0
  6
ByBlock
 62
     0
370
    -2
380
     1
100
AcDbMText
 10
2665.394016432886
 20
2437.850776091826
 30
0.0
 40
14.0
 41
0.0
 71
     5
 72
     1
  1
215
 11
6.123031769111886E-17
 21
1.0
 31
0.0
 73
     1
 44
1.0
  0
ENDBLK
  5
421
330
2B7
100
AcDbEntity
  8
0
100
AcDbBlockEnd
  0
BLOCK
  5
422
330
2C3
100
AcDbEntity
  8
0
100
AcDbBlockBegin
  2
*D27
 70
     1
 10
0.0
 20
0.0
 30
0.0
  3
*D27
  1

  0
POINT
  5
2BA
330
2C3
100
AcDbEntity
  8
DEFPOINTS
  6
ByBlock
 62
     0
380
     1
100
AcDbPoint
 10
2718.934006318489
 20
2391.913721728905
 30
0.0
  0
POINT
  5
2BB
330
2C3
100
AcDbEntity
  8
DEFPOINTS
  6
ByBlock
 62
     0
380
     1
100
AcDbPoint
 10
3058.963586698489
 20
2396.659618514526
 30
0.0
  0
LINE
  5
2BC
330
2C3
100
AcDbEntity
  8
0
  6
ByBlock
 62
     0
370
    -2
380
     1
100
AcDbLine
 10
2718.934006318489
 20
2391.288721728905
 30
0.0
 11
2718.934006318489
 21
2294.796606659349
 31
0.0
  0
LINE
  5
2BD
330
2C3
100
AcDbEntity
  8
0
  6
ByBlock
 62
     0
370
    -2
380
     1
100
AcDbLine
 10
3058.963586698489
 20
2396.034618514526
 30
0.0
 11
3058.963586698489
 21
2294.796606659349
 31
0.0
  0
LINE
  5
2BE
330
2C3
100
AcDbEntity
  8
0
  6
ByBlock
 62
     0
370
    -2
380
     1
100
AcDbLine
 10
2721.434006318489
 20
2296.046606659349
 30
0.0
 11
3056.463586698489
 21
2296.046606659349
 31
0.0
  0
SOLID
  5
2BF
330
2C3
100
AcDbEntity
  8
0
  6
ByBlock
 62
     0
380
     1
100
AcDbTrace
 10
2718.934006318489
 20
2296.046606659349
 30
0.0
 11
2721.434006318489
 21
2295.629939992683
 31
0.0
 12
2721.434006318489
 22
2296.463273326016
 32
0.0
 13
2721.434006318489
 23
2296.463273326016
 33
0.0
  0
SOLID
  5
2C0
330
2C3
100
AcDbEntity
  8
0
  6
ByBlock
 62
     0
380
     1
100
AcDbTrace
 10
3058.963586698489
 20
2296.046606659349
 30
0.0
 11
3056.463586698489
 21
2295.629939992683
 31
0.0
 12
3056.463586698489
 22
2296.463273326016
 32
0.0
 13
3056.463586698489
 23
2296.463273326016
 33
0.0
  0
MTEXT
  5
2C1
330
2C3
100
AcDbEntity
  8
0
  6
ByBlock
 62
     0
370
    -2
380
     1
100
AcDbMText
 10
2888.948796508489
 20
2298.129939992683
 30
0.0
 40
2.5
 41
0.0
 71
     5
 72
     1
  1
\A1;340,03
 73
     1
 44
1.0
  0
ENDBLK
  5
423
330
2C3
100
AcDbEntity
  8
0
100
AcDbBlockEnd
  0
BLOCK
  5
424
330
2CE
100
AcDbEntity
  8
0
100
AcDbBlockBegin
  2
*D28
 70
     1
 10
0.0
 20
0.0
 30
0.0
  3
*D28
  1

  0
POINT
  5
2C5
330
2CE
100
AcDbEntity
  8
DEFPOINTS
  6
ByBlock
 62
     0
380
     1
100
AcDbPoint
 10
2718.934006318489
 20
2386.218645586159
 30
0.0
  0
POINT
  5
2C6
330
2CE
100
AcDbEntity
  8
DEFPOINTS
  6
ByBlock
 62
     0
380
     1
100
AcDbPoint
 10
3058.963586698489
 20
2390.964542371781
 30
0.0
  0
LINE
  5
2C7
330
2CE
100
AcDbEntity
  8
0
  6
ByBlock
 62
     0
370
    -2
380
     1
100
AcDbLine
 10
2718.934006318489
 20
2385.593645586159
 30
0.0
 11
2718.934006318489
 21
2289.101530516604
 31
0.0
  0
LINE
  5
2C8
330
2CE
100
AcDbEntity
  8
0
  6
ByBlock
 62
     0
370
    -2
380
     1
100
AcDbLine
 10
3058.963586698489
 20
2390.339542371781
 30
0.0
 11
3058.963586698489
 21
2289.101530516604
 31
0.0
  0
LINE
  5
2C9
330
2CE
100
AcDbEntity
  8
0
  6
ByBlock
 62
     0
370
    -2
380
     1
100
AcDbLine
 10
2721.434006318489
 20
2290.351530516604
 30
0.0
 11
3056.463586698489
 21
2290.351530516604
 31
0.0
  0
SOLID
  5
2CA
330
2CE
100
AcDbEntity
  8
0
  6
ByBlock
 62
     0
380
     1
100
AcDbTrace
 10
2718.934006318489
 20
2290.351530516604
 30
0.0
 11
2721.434006318489
 21
2289.934863849937
 31
0.0
 12
2721.434006318489
 22
2290.76819718327
 32
0.0
 13
2721.434006318489
 23
2290.76819718327
 33
0.0
  0
SOLID
  5
2CB
330
2CE
100
AcDbEntity
  8
0
  6
ByBlock
 62
     0
380
     1
100
AcDbTrace
 10
3058.963586698489
 20
2290.351530516604
 30
0.0
 11
3056.463586698489
 21
2289.934863849937
 31
0.0
 12
3056.463586698489
 22
2290.76819718327
 32
0.0
 13
3056.463586698489
 23
2290.76819718327
 33
0.0
  0
MTEXT
  5
2CC
330
2CE
100
AcDbEntity
  8
0
  6
ByBlock
 62
     0
370
    -2
380
     1
100
AcDbMText
 10
2888.948796508489
 20
2292.434863849937
 30
0.0
 40
2.5
 41
0.0
 71
     5
 72
     1
  1
\A1;340,03
 73
     1
 44
1.0
  0
ENDBLK
  5
425
330
2CE
100
AcDbEntity
  8
0
100
AcDbBlockEnd
  0
BLOCK
  5
426
330
2D9
100
AcDbEntity
  8
0
100
AcDbBlockBegin
  2
*D29
 70
     1
 10
0.0
 20
0.0
 30
0.0
  3
*D29
  1

  0
POINT
  5
2D0
330
2D9
100
AcDbEntity
  8
DEFPOINTS
  6
ByBlock
 62
     7
380
     1
100
AcDbPoint
 10
2718.934006318489
 20
2386.218645586159
 30
0.0
  0
POINT
  5
2D1
330
2D9
100
AcDbEntity
  8
DEFPOINTS
  6
ByBlock
 62
     7
380
     1
100
AcDbPoint
 10
3058.963586698489
 20
2390.964542371781
 30
0.0
  0
LINE
  5
2D2
330
2D9
100
AcDbEntity
  8
0
  6
ByBlock
 62
     7
370
    -2
380
     1
100
AcDbLine
 10
2718.934006318489
 20
2385.593645586159
 30
0.0
 11
2718.934006318489
 21
2289.101530516604
 31
0.0
  0
LINE
  5
2D3
330
2D9
100
AcDbEntity
  8
0
  6
ByBlock
 62
     7
370
    -2
380
     1
100
AcDbLine
 10
3058.963586698489
 20
2390.339542371781
 30
0.0
 11
3058.963586698489
 21
2289.101530516604
 31
0.0
  0
LINE
  5
2D4
330
2D9
100
AcDbEntity
  8
0
  6
ByBlock
 62
     7
370
    -2
380
     1
100
AcDbLine
 10
2728.934006318489
 20
2290.351530516604
 30
0.0
 11
3048.963586698489
 21
2290.351530516604
 31
0.0
  0
SOLID
  5
2D5
330
2D9
100
AcDbEntity
  8
0
  6
ByBlock
 62
     7
380
     1
100
AcDbTrace
 10
2718.934006318489
 20
2290.351530516604
 30
0.0
 11
2728.934006318489
 21
2288.684863849937
 31
0.0
 12
2728.934006318489
 22
2292.01819718327
 32
0.0
 13
2728.934006318489
 23
2292.01819718327
 33
0.0
  0
SOLID
  5
2D6
330
2D9
100
AcDbEntity
  8
0
  6
ByBlock
 62
     7
380
     1
100
AcDbTrace
 10
3058.963586698489
 20
2290.351530516604
 30
0.0
 11
3048.963586698489
 21
2288.684863849937
 31
0.0
 12
3048.963586698489
 22
2292.01819718327
 32
0.0
 13
3048.963586698489
 23
2292.01819718327
 33
0.0
  0
MTEXT
  5
2D7
330
2D9
100
AcDbEntity
  8
0
  6
ByBlock
 62
     0
370
    -2
380
     1
100
AcDbMText
 10
2888.948796508489
 20
2303.518197183271
 30
0.0
 40
14.0
 41
0.0
 71
     5
 72
     1
  1
\A1;340,03
 73
     1
 44
1.0
  0
ENDBLK
  5
427
330
2D9
100
AcDbEntity
  8
0
100
AcDbBlockEnd
  0
BLOCK
  5
428
330
2FA
100
AcDbEntity
  8
0
100
AcDbBlockBegin
  2
*D30
 70
     1
 10
0.0
 20
0.0
 30
0.0
  3
*D30
  1

  0
POINT
  5
2F1
330
2FA
100
AcDbEntity
  8
DEFPOINTS
  6
ByBlock
 62
     7
380
     1
100
AcDbPoint
 10
2718.934006318489
 20
2385.744055907597
 30
0.0
  0
POINT
  5
2F2
330
2FA
100
AcDbEntity
  8
DEFPOINTS
  6
ByBlock
 62
     7
380
     1
100
AcDbPoint
 10
3058.963586698489
 20
2390.489952693219
 30
0.0
  0
LINE
  5
2F3
330
2FA
100
AcDbEntity
  8
0
  6
ByBlock
 62
     7
370
    -2
380
     1
100
AcDbLine
 10
2718.934006318489
 20
2385.119055907597
 30
0.0
 11
2718.934006318489
 21
2288.626940838042
 31
0.0
  0
LINE
  5
2F4
330
2FA
100
AcDbEntity
  8
0
  6
ByBlock
 62
     7
370
    -2
380
     1
100
AcDbLine
 10
3058.963586698489
 20
2389.864952693219
 30
0.0
 11
3058.963586698489
 21
2288.626940838042
 31
0.0
  0
LINE
  5
2F5
330
2FA
100
AcDbEntity
  8
0
  6
ByBlock
 62
     7
370
    -2
380
     1
100
AcDbLine
 10
2728.934006318489
 20
2289.876940838042
 30
0.0
 11
3048.963586698489
 21
2289.876940838042
 31
0.0
  0
SOLID
  5
2F6
330
2FA
100
AcDbEntity
  8
0
  6
ByBlock
 62
     7
380
     1
100
AcDbTrace
 10
2718.934006318489
 20
2289.876940838042
 30
0.0
 11
2728.934006318489
 21
2288.210274171375
 31
0.0
 12
2728.934006318489
 22
2291.543607504708
 32
0.0
 13
2728.934006318489
 23
2291.543607504708
 33
0.0
  0
SOLID
  5
2F7
330
2FA
100
AcDbEntity
  8
0
  6
ByBlock
 62
     7
380
     1
100
AcDbTrace
 10
3058.963586698489
 20
2289.876940838042
 30
0.0
 11
3048.963586698489
 21
2288.210274171375
 31
0.0
 12
3048.963586698489
 22
2291.543607504708
 32
0.0
 13
3048.963586698489
 23
2291.543607504708
 33
0.0
  0
MTEXT
  5
2F8
330
2FA
100
AcDbEntity
  8
0
  6
ByBlock
 62
     0
370
    -2
380
     1
100
AcDbMText
 10
2888.948796508489
 20
2303.043607504708
 30
0.0
 40
14.0
 41
0.0
 71
     5
 72
     1
  1
\A1;340,03
 73
     1
 44
1.0
  0
ENDBLK
  5
429
330
2FA
100
AcDbEntity
  8
0
100
AcDbBlockEnd
  0
BLOCK
  5
42A
330
305
100
AcDbEntity
  8
0
100
AcDbBlockBegin
  2
*D31
 70
     1
 10
0.0
 20
0.0
 30
0.0
  3
*D31
  1

  0
POINT
  5
2FC
330
305
100
AcDbEntity
  8
DEFPOINTS
  6
ByBlock
 62
     7
380
     1
100
AcDbPoint
 10
2719.408595997051
 20
2365.336699729424
 30
0.0
  0
POINT
  5
2FD
330
305
100
AcDbEntity
  8
DEFPOINTS
  6
ByBlock
 62
     7
380
     1
100
AcDbPoint
 10
3059.438176377051
 20
2370.082596515046
 30
0.0
  0
LINE
  5
2FE
330
305
100
AcDbEntity
  8
0
  6
ByBlock
 62
     7
370
    -2
380
     1
100
AcDbLine
 10
2719.408595997051
 20
2364.711699729424
 30
0.0
 11
2719.408595997051
 21
2268.219584659869
 31
0.0
  0
LINE
  5
2FF
330
305
100
AcDbEntity
  8
0
  6
ByBlock
 62
     7
370
    -2
380
     1
100
AcDbLine
 10
3059.438176377051
 20
2369.457596515046
 30
0.0
 11
3059.438176377051
 21
2268.219584659869
 31
0.0
  0
LINE
  5
300
330
305
100
AcDbEntity
  8
0
  6
ByBlock
 62
     7
370
    -2
380
     1
100
AcDbLine
 10
2729.408595997051
 20
2269.469584659869
 30
0.0
 11
3049.438176377051
 21
2269.469584659869
 31
0.0
  0
SOLID
  5
301
330
305
100
AcDbEntity
  8
0
  6
ByBlock
 62
     7
380
     1
100
AcDbTrace
 10
2719.408595997051
 20
2269.469584659869
 30
0.0
 11
2729.408595997051
 21
2267.802917993202
 31
0.0
 12
2729.408595997051
 22
2271.136251326535
 32
0.0
 13
2729.408595997051
 23
2271.136251326535
 33
0.0
  0
SOLID
  5
302
330
305
100
AcDbEntity
  8
0
  6
ByBlock
 62
     7
380
     1
100
AcDbTrace
 10
3059.438176377051
 20
2269.469584659869
 30
0.0
 11
3049.438176377051
 21
2267.802917993202
 31
0.0
 12
3049.438176377051
 22
2271.136251326535
 32
0.0
 13
3049.438176377051
 23
2271.136251326535
 33
0.0
  0
MTEXT
  5
303
330
305
100
AcDbEntity
  8
0
  6
ByBlock
 62
     0
370
    -2
380
     1
100
AcDbMText
 10
2889.423386187051
 20
2282.636251326536
 30
0.0
 40
14.0
 41
0.0
 71
     5
 72
     1
  1
\A1;340,03
 73
     1
 44
1.0
  0
ENDBLK
  5
42B
330
305
100
AcDbEntity
  8
0
100
AcDbBlockEnd
  0
BLOCK
  5
42C
330
310
100
AcDbEntity
  8
0
100
AcDbBlockBegin
  2
*D32
 70
     1
 10
0.0
 20
0.0
 30
0.0
  3
*D32
  1

  0
POINT
  5
307
330
310
100
AcDbEntity
  8
DEFPOINTS
  6
ByBlock
 62
     7
380
     1
100
AcDbPoint
 10
2718.852436217486
 20
2365.336699729424
 30
0.0
  0
POINT
  5
308
330
310
100
AcDbEntity
  8
DEFPOINTS
  6
ByBlock
 62
     7
380
     1
100
AcDbPoint
 10
3058.882016597486
 20
2370.082596515046
 30
0.0
  0
LINE
  5
309
330
310
100
AcDbEntity
  8
0
  6
ByBlock
 62
     7
370
    -2
380
     1
100
AcDbLine
 10
2718.852436217486
 20
2364.711699729424
 30
0.0
 11
2718.852436217486
 21
2268.219584659869
 31
0.0
  0
LINE
  5
30A
330
310
100
AcDbEntity
  8
0
  6
ByBlock
 62
     7
370
    -2
380
     1
100
AcDbLine
 10
3058.882016597486
 20
2369.457596515046
 30
0.0
 11
3058.882016597486
 21
2268.219584659869
 31
0.0
  0
LINE
  5
30B
330
310
100
AcDbEntity
  8
0
  6
ByBlock
 62
     7
370
    -2
380
     1
100
AcDbLine
 10
2728.852436217486
 20
2269.469584659869
 30
0.0
 11
3048.882016597486
 21
2269.469584659869
 31
0.0
  0
SOLID
  5
30C
330
310
100
AcDbEntity
  8
0
  6
ByBlock
 62
     7
380
     1
100
AcDbTrace
 10
2718.852436217486
 20
2269.469584659869
 30
0.0
 11
2728.852436217486
 21
2267.802917993202
 31
0.0
 12
2728.852436217486
 22
2271.136251326535
 32
0.0
 13
2728.852436217486
 23
2271.136251326535
 33
0.0
  0
SOLID
  5
30D
330
310
100
AcDbEntity
  8
0
  6
ByBlock
 62
     7
380
     1
100
AcDbTrace
 10
3058.882016597486
 20
2269.469584659869
 30
0.0
 11
3048.882016597486
 21
2267.802917993202
 31
0.0
 12
3048.882016597486
 22
2271.136251326535
 32
0.0
 13
3048.882016597486
 23
2271.136251326535
 33
0.0
  0
MTEXT
  5
30E
330
310
100
AcDbEntity
  8
0
  6
ByBlock
 62
     0
370
    -2
380
     1
100
AcDbMText
 10
2888.867226407486
 20
2282.636251326536
 30
0.0
 40
14.0
 41
0.0
 71
     5
 72
     1
  1
\A1;340,03
 73
     1
 44
1.0
  0
ENDBLK
  5
42D
330
310
100
AcDbEntity
  8
0
100
AcDbBlockEnd
  0
BLOCK
  5
42E
330
31B
100
AcDbEntity
  8
0
100
AcDbBlockBegin
  2
*D33
 70
     1
 10
0.0
 20
0.0
 30
0.0
  3
*D33
  1

  0
POINT
  5
312
330
31B
100
AcDbEntity
  8
DEFPOINTS
  6
ByBlock
 62
     7
380
     1
100
AcDbPoint
 10
2718.852436217486
 20
2365.336699729424
 30
0.0
  0
POINT
  5
313
330
31B
100
AcDbEntity
  8
DEFPOINTS
  6
ByBlock
 62
     7
380
     1
100
AcDbPoint
 10
3058.882016597486
 20
2370.082596515046
 30
0.0
  0
LINE
  5
314
330
31B
100
AcDbEntity
  8
0
  6
ByBlock
 62
     7
370
    -2
380
     1
100
AcDbLine
 10
2718.852436217486
 20
2364.711699729424
 30
0.0
 11
2718.852436217486
 21
2268.219584659869
 31
0.0
  0
LINE
  5
315
330
31B
100
AcDbEntity
  8
0
  6
ByBlock
 62
     7
370
    -2
380
     1
100
AcDbLine
 10
3058.882016597486
 20
2369.457596515046
 30
0.0
 11
3058.882016597486
 21
2268.219584659869
 31
0.0
  0
LINE
  5
316
330
31B
100
AcDbEntity
  8
0
  6
ByBlock
 62
     7
370
    -2
380
     1
100
AcDbLine
 10
2728.852436217486
 20
2269.469584659869
 30
0.0
 11
3048.882016597486
 21
2269.469584659869
 31
0.0
  0
SOLID
  5
317
330
31B
100
AcDbEntity
  8
0
  6
ByBlock
 62
     7
380
     1
100
AcDbTrace
 10
2718.852436217486
 20
2269.469584659869
 30
0.0
 11
2728.852436217486
 21
2267.802917993202
 31
0.0
 12
2728.852436217486
 22
2271.136251326535
 32
0.0
 13
2728.852436217486
 23
2271.136251326535
 33
0.0
  0
SOLID
  5
318
330
31B
100
AcDbEntity
  8
0
  6
ByBlock
 62
     7
380
     1
100
AcDbTrace
 10
3058.882016597486
 20
2269.469584659869
 30
0.0
 11
3048.882016597486
 21
2267.802917993202
 31
0.0
 12
3048.882016597486
 22
2271.136251326535
 32
0.0
 13
3048.882016597486
 23
2271.136251326535
 33
0.0
  0
MTEXT
  5
319
330
31B
100
AcDbEntity
  8
0
  6
ByBlock
 62
     0
370
    -2
380
     1
100
AcDbMText
 10
2888.867226407486
 20
2281.469584659869
 30
0.0
 40
14.0
 41
0.0
 71
     5
 72
     1
  1
340
 73
     1
 44
1.0
  0
ENDBLK
  5
42F
330
31B
100
AcDbEntity
  8
0
100
AcDbBlockEnd
  0
BLOCK
  5
430
330
329
100
AcDbEntity
  8
0
100
AcDbBlockBegin
  2
*D34
 70
     1
 10
0.0
 20
0.0
 30
0.0
  3
*D34
  1

  0
POINT
  5
320
330
329
100
AcDbEntity
  8
DEFPOINTS
  6
ByBlock
 62
     0
380
     1
100
AcDbPoint
 10
3187.44990301079
 20
2512.193725835825
 30
0.0
  0
POINT
  5
321
330
329
100
AcDbEntity
  8
DEFPOINTS
  6
ByBlock
 62
     0
380
     1
100
AcDbPoint
 10
3187.44990301079
 20
2363.507826347825
 30
0.0
  0
LINE
  5
322
330
329
100
AcDbEntity
  8
0
  6
ByBlock
 62
     0
370
    -2
380
     1
100
AcDbLine
 10
3188.07490301079
 20
2512.193725835825
 30
0.0
 11
3287.398403272004
 21
2512.193725835825
 31
0.0
  0
LINE
  5
323
330
329
100
AcDbEntity
  8
0
  6
ByBlock
 62
     0
370
    -2
380
     1
100
AcDbLine
 10
3188.07490301079
 20
2363.507826347825
 30
0.0
 11
3287.398403272004
 21
2363.507826347825
 31
0.0
  0
LINE
  5
324
330
329
100
AcDbEntity
  8
0
  6
ByBlock
 62
     0
370
    -2
380
     1
100
AcDbLine
 10
3286.148403272004
 20
2509.693725835825
 30
0.0
 11
3286.148403272004
 21
2366.007826347825
 31
0.0
  0
SOLID
  5
325
330
329
100
AcDbEntity
  8
0
  6
ByBlock
 62
     0
380
     1
100
AcDbTrace
 10
3286.148403272004
 20
2512.193725835825
 30
0.0
 11
3285.731736605338
 21
2509.693725835825
 31
0.0
 12
3286.565069938671
 22
2509.693725835825
 32
0.0
 13
3286.565069938671
 23
2509.693725835825
 33
0.0
  0
SOLID
  5
326
330
329
100
AcDbEntity
  8
0
  6
ByBlock
 62
     0
380
     1
100
AcDbTrace
 10
3286.148403272004
 20
2363.507826347825
 30
0.0
 11
3285.731736605338
 21
2366.007826347825
 31
0.0
 12
3286.565069938671
 22
2366.007826347825
 32
0.0
 13
3286.565069938671
 23
2366.007826347825
 33
0.0
  0
MTEXT
  5
327
330
329
100
AcDbEntity
  8
0
  6
ByBlock
 62
     0
370
    -2
380
     1
100
AcDbMText
 10
3284.065069938671
 20
2437.850776091825
 30
0.0
 40
2.5
 41
0.0
 71
     5
 72
     1
  1
\A1;148,69
 11
6.123031769111886E-17
 21
1.0
 31
0.0
 73
     1
 44
1.0
  0
ENDBLK
  5
431
330
329
100
AcDbEntity
  8
0
100
AcDbBlockEnd
  0
BLOCK
  5
432
330
340
100
AcDbEntity
  8
0
100
AcDbBlockBegin
  2
*D35
 70
     1
 10
0.0
 20
0.0
 30
0.0
  3
*D35
  1

  0
POINT
  5
337
330
340
100
AcDbEntity
  8
DEFPOINTS
  6
ByBlock
 62
     0
380
     1
100
AcDbPoint
 10
3187.44990301079
 20
2512.193725835825
 30
0.0
  0
POINT
  5
338
330
340
100
AcDbEntity
  8
DEFPOINTS
  6
ByBlock
 62
     0
380
     1
100
AcDbPoint
 10
3187.44990301079
 20
2363.507826347825
 30
0.0
  0
LINE
  5
339
330
340
100
AcDbEntity
  8
0
  6
ByBlock
 62
     0
370
    -2
380
     1
100
AcDbLine
 10
3188.07490301079
 20
2512.193725835825
 30
0.0
 11
3222.293429799274
 21
2512.193725835825
 31
0.0
  0
LINE
  5
33A
330
340
100
AcDbEntity
  8
0
  6
ByBlock
 62
     0
370
    -2
380
     1
100
AcDbLine
 10
3188.07490301079
 20
2363.507826347825
 30
0.0
 11
3222.293429799274
 21
2363.507826347825
 31
0.0
  0
LINE
  5
33B
330
340
100
AcDbEntity
  8
0
  6
ByBlock
 62
     0
370
    -2
380
     1
100
AcDbLine
 10
3221.043429799274
 20
2509.693725835825
 30
0.0
 11
3221.043429799274
 21
2366.007826347825
 31
0.0
  0
SOLID
  5
33C
330
340
100
AcDbEntity
  8
0
  6
ByBlock
 62
     0
380
     1
100
AcDbTrace
 10
3221.043429799274
 20
2512.193725835825
 30
0.0
 11
3220.626763132607
 21
2509.693725835825
 31
0.0
 12
3221.46009646594
 22
2509.693725835825
 32
0.0
 13
3221.46009646594
 23
2509.693725835825
 33
0.0
  0
SOLID
  5
33D
330
340
100
AcDbEntity
  8
0
  6
ByBlock
 62
     0
380
     1
100
AcDbTrace
 10
3221.043429799274
 20
2363.507826347825
 30
0.0
 11
3220.626763132607
 21
2366.007826347825
 31
0.0
 12
3221.46009646594
 22
2366.007826347825
 32
0.0
 13
3221.46009646594
 23
2366.007826347825
 33
0.0
  0
MTEXT
  5
33E
330
340
100
AcDbEntity
  8
0
  6
ByBlock
 62
     0
370
    -2
380
     1
100
AcDbMText
 10
3218.96009646594
 20
2437.850776091825
 30
0.0
 40
2.5
 41
0.0
 71
     5
 72
     1
  1
\A1;148,69
 11
6.123031769111886E-17
 21
1.0
 31
0.0
 73
     1
 44
1.0
  0
ENDBLK
  5
433
330
340
100
AcDbEntity
  8
0
100
AcDbBlockEnd
  0
BLOCK
  5
434
330
34B
100
AcDbEntity
  8
0
100
AcDbBlockBegin
  2
*D36
 70
     1
 10
0.0
 20
0.0
 30
0.0
  3
*D36
  1

  0
POINT
  5
342
330
34B
100
AcDbEntity
  8
DEFPOINTS
  6
ByBlock
 62
     0
380
     1
100
AcDbPoint
 10
3187.44990301079
 20
2512.193725835825
 30
0.0
  0
POINT
  5
343
330
34B
100
AcDbEntity
  8
DEFPOINTS
  6
ByBlock
 62
     0
380
     1
100
AcDbPoint
 10
3187.44990301079
 20
2363.507826347825
 30
0.0
  0
LINE
  5
344
330
34B
100
AcDbEntity
  8
0
  6
ByBlock
 62
     0
370
    -2
380
     1
100
AcDbLine
 10
3188.07490301079
 20
2512.193725835825
 30
0.0
 11
3222.293429799274
 21
2512.193725835825
 31
0.0
  0
LINE
  5
345
330
34B
100
AcDbEntity
  8
0
  6
ByBlock
 62
     0
370
    -2
380
     1
100
AcDbLine
 10
3188.07490301079
 20
2363.507826347825
 30
0.0
 11
3222.293429799274
 21
2363.507826347825
 31
0.0
  0
LINE
  5
346
330
34B
100
AcDbEntity
  8
0
  6
ByBlock
 62
     0
370
    -2
380
     1
100
AcDbLine
 10
3221.043429799274
 20
2509.693725835825
 30
0.0
 11
3221.043429799274
 21
2366.007826347825
 31
0.0
  0
SOLID
  5
347
330
34B
100
AcDbEntity
  8
0
  6
ByBlock
 62
     0
380
     1
100
AcDbTrace
 10
3221.043429799274
 20
2512.193725835825
 30
0.0
 11
3220.626763132607
 21
2509.693725835825
 31
0.0
 12
3221.46009646594
 22
2509.693725835825
 32
0.0
 13
3221.46009646594
 23
2509.693725835825
 33
0.0
  0
SOLID
  5
348
330
34B
100
AcDbEntity
  8
0
  6
ByBlock
 62
     0
380
     1
100
AcDbTrace
 10
3221.043429799274
 20
2363.507826347825
 30
0.0
 11
3220.626763132607
 21
2366.007826347825
 31
0.0
 12
3221.46009646594
 22
2366.007826347825
 32
0.0
 13
3221.46009646594
 23
2366.007826347825
 33
0.0
  0
MTEXT
  5
349
330
34B
100
AcDbEntity
  8
0
  6
ByBlock
 62
     0
370
    -2
380
     1
100
AcDbMText
 10
3218.96009646594
 20
2437.850776091825
 30
0.0
 40
2.5
 41
0.0
 71
     5
 72
     1
  1
\A1;148,69
 11
6.123031769111886E-17
 21
1.0
 31
0.0
 73
     1
 44
1.0
  0
ENDBLK
  5
435
330
34B
100
AcDbEntity
  8
0
100
AcDbBlockEnd
  0
BLOCK
  5
436
330
356
100
AcDbEntity
  8
0
100
AcDbBlockBegin
  2
*D37
 70
     1
 10
0.0
 20
0.0
 30
0.0
  3
*D37
  1

  0
POINT
  5
34D
330
356
100
AcDbEntity
  8
DEFPOINTS
  6
ByBlock
 62
     0
380
     1
100
AcDbPoint
 10
3187.44990301079
 20
2512.193725835825
 30
0.0
  0
POINT
  5
34E
330
356
100
AcDbEntity
  8
DEFPOINTS
  6
ByBlock
 62
     0
380
     1
100
AcDbPoint
 10
3187.44990301079
 20
2363.507826347825
 30
0.0
  0
LINE
  5
34F
330
356
100
AcDbEntity
  8
0
  6
ByBlock
 62
     0
370
    -2
380
     1
100
AcDbLine
 10
3188.07490301079
 20
2512.193725835825
 30
0.0
 11
3222.293429799274
 21
2512.193725835825
 31
0.0
  0
LINE
  5
350
330
356
100
AcDbEntity
  8
0
  6
ByBlock
 62
     0
370
    -2
380
     1
100
AcDbLine
 10
3188.07490301079
 20
2363.507826347825
 30
0.0
 11
3222.293429799274
 21
2363.507826347825
 31
0.0
  0
LINE
  5
351
330
356
100
AcDbEntity
  8
0
  6
ByBlock
 62
     0
370
    -2
380
     1
100
AcDbLine
 10
3221.043429799274
 20
2509.693725835825
 30
0.0
 11
3221.043429799274
 21
2366.007826347825
 31
0.0
  0
SOLID
  5
352
330
356
100
AcDbEntity
  8
0
  6
ByBlock
 62
     0
380
     1
100
AcDbTrace
 10
3221.043429799274
 20
2512.193725835825
 30
0.0
 11
3220.626763132607
 21
2509.693725835825
 31
0.0
 12
3221.46009646594
 22
2509.693725835825
 32
0.0
 13
3221.46009646594
 23
2509.693725835825
 33
0.0
  0
SOLID
  5
353
330
356
100
AcDbEntity
  8
0
  6
ByBlock
 62
     0
380
     1
100
AcDbTrace
 10
3221.043429799274
 20
2363.507826347825
 30
0.0
 11
3220.626763132607
 21
2366.007826347825
 31
0.0
 12
3221.46009646594
 22
2366.007826347825
 32
0.0
 13
3221.46009646594
 23
2366.007826347825
 33
0.0
  0
MTEXT
  5
354
330
356
100
AcDbEntity
  8
0
  6
ByBlock
 62
     0
370
    -2
380
     1
100
AcDbMText
 10
3219.168429799274
 20
2437.850776091825
 30
0.0
 40
2.5
 41
0.0
 71
     5
 72
     1
  1
148
 11
6.123031769111886E-17
 21
1.0
 31
0.0
 73
     1
 44
1.0
  0
ENDBLK
  5
437
330
356
100
AcDbEntity
  8
0
100
AcDbBlockEnd
  0
BLOCK
  5
438
330
361
100
AcDbEntity
  8
0
100
AcDbBlockBegin
  2
*D38
 70
     1
 10
0.0
 20
0.0
 30
0.0
  3
*D38
  1

  0
POINT
  5
358
330
361
100
AcDbEntity
  8
DEFPOINTS
  6
ByBlock
 62
     7
380
     1
100
AcDbPoint
 10
3187.44990301079
 20
2512.193725835825
 30
0.0
  0
POINT
  5
359
330
361
100
AcDbEntity
  8
DEFPOINTS
  6
ByBlock
 62
     7
380
     1
100
AcDbPoint
 10
3187.44990301079
 20
2363.507826347825
 30
0.0
  0
LINE
  5
35A
330
361
100
AcDbEntity
  8
0
  6
ByBlock
 62
     7
370
    -2
380
     1
100
AcDbLine
 10
3188.07490301079
 20
2512.193725835825
 30
0.0
 11
3222.293429799274
 21
2512.193725835825
 31
0.0
  0
LINE
  5
35B
330
361
100
AcDbEntity
  8
0
  6
ByBlock
 62
     7
370
    -2
380
     1
100
AcDbLine
 10
3188.07490301079
 20
2363.507826347825
 30
0.0
 11
3222.293429799274
 21
2363.507826347825
 31
0.0
  0
LINE
  5
35C
330
361
100
AcDbEntity
  8
0
  6
ByBlock
 62
     7
370
    -2
380
     1
100
AcDbLine
 10
3221.043429799274
 20
2502.193725835825
 30
0.0
 11
3221.043429799274
 21
2373.507826347825
 31
0.0
  0
SOLID
  5
35D
330
361
100
AcDbEntity
  8
0
  6
ByBlock
 62
     7
380
     1
100
AcDbTrace
 10
3221.043429799274
 20
2512.193725835825
 30
0.0
 11
3219.376763132607
 21
2502.193725835825
 31
0.0
 12
3222.71009646594
 22
2502.193725835825
 32
0.0
 13
3222.71009646594
 23
2502.193725835825
 33
0.0
  0
SOLID
  5
35E
330
361
100
AcDbEntity
  8
0
  6
ByBlock
 62
     7
380
     1
100
AcDbTrace
 10
3221.043429799274
 20
2363.507826347825
 30
0.0
 11
3219.376763132607
 21
2373.507826347825
 31
0.0
 12
3222.71009646594
 22
2373.507826347825
 32
0.0
 13
3222.71009646594
 23
2373.507826347825
 33
0.0
  0
MTEXT
  5
35F
330
361
100
AcDbEntity
  8
0
  6
ByBlock
 62
     0
370
    -2
380
     1
100
AcDbMText
 10
3209.043429799274
 20
2437.850776091825
 30
0.0
 40
14.0
 41
0.0
 71
     5
 72
     1
  1
148
 11
6.123031769111886E-17
 21
1.0
 31
0.0
 73
     1
 44
1.0
  0
ENDBLK
  5
439
330
361
100
AcDbEntity
  8
0
100
AcDbBlockEnd
  0
BLOCK
  5
43A
330
382
100
AcDbEntity
  8
0
100
AcDbBlockBegin
  2
*D39
 70
     1
 10
0.0
 20
0.0
 30
0.0
  3
*D39
  1

  0
POINT
  5
379
330
382
100
AcDbEntity
  8
DEFPOINTS
  6
ByBlock
 62
     7
380
     1
100
AcDbPoint
 10
3187.44990301079
 20
2512.193725835825
 30
0.0
  0
POINT
  5
37A
330
382
100
AcDbEntity
  8
DEFPOINTS
  6
ByBlock
 62
     7
380
     1
100
AcDbPoint
 10
3187.44990301079
 20
2363.507826347825
 30
0.0
  0
LINE
  5
37B
330
382
100
AcDbEntity
  8
0
  6
ByBlock
 62
     7
370
    -2
380
     1
100
AcDbLine
 10
3188.07490301079
 20
2512.193725835825
 30
0.0
 11
3244.563238298035
 21
2512.193725835825
 31
0.0
  0
LINE
  5
37C
330
382
100
AcDbEntity
  8
0
  6
ByBlock
 62
     7
370
    -2
380
     1
100
AcDbLine
 10
3188.07490301079
 20
2363.507826347825
 30
0.0
 11
3244.563238298035
 21
2363.507826347825
 31
0.0
  0
LINE
  5
37D
330
382
100
AcDbEntity
  8
0
  6
ByBlock
 62
     7
370
    -2
380
     1
100
AcDbLine
 10
3243.313238298035
 20
2502.193725835825
 30
0.0
 11
3243.313238298035
 21
2373.507826347825
 31
0.0
  0
SOLID
  5
37E
330
382
100
AcDbEntity
  8
0
  6
ByBlock
 62
     7
380
     1
100
AcDbTrace
 10
3243.313238298035
 20
2512.193725835825
 30
0.0
 11
3241.646571631369
 21
2502.193725835825
 31
0.0
 12
3244.979904964702
 22
2502.193725835825
 32
0.0
 13
3244.979904964702
 23
2502.193725835825
 33
0.0
  0
SOLID
  5
37F
330
382
100
AcDbEntity
  8
0
  6
ByBlock
 62
     7
380
     1
100
AcDbTrace
 10
3243.313238298035
 20
2363.507826347825
 30
0.0
 11
3241.646571631369
 21
2373.507826347825
 31
0.0
 12
3244.979904964702
 22
2373.507826347825
 32
0.0
 13
3244.979904964702
 23
2373.507826347825
 33
0.0
  0
MTEXT
  5
380
330
382
100
AcDbEntity
  8
0
  6
ByBlock
 62
     0
370
    -2
380
     1
100
AcDbMText
 10
3231.313238298035
 20
2437.850776091825
 30
0.0
 40
14.0
 41
0.0
 71
     5
 72
     1
  1
148
 11
6.123031769111886E-17
 21
1.0
 31
0.0
 73
     1
 44
1.0
  0
ENDBLK
  5
43B
330
382
100
AcDbEntity
  8
0
100
AcDbBlockEnd
  0
BLOCK
  5
43C
330
38E
100
AcDbEntity
  8
0
100
AcDbBlockBegin
  2
*D40
 70
     1
 10
0.0
 20
0.0
 30
0.0
  3
*D40
  1

  0
POINT
  5
385
330
38E
100
AcDbEntity
  8
DEFPOINTS
  6
ByBlock
 62
     0
380
     1
100
AcDbPoint
 10
3187.44990301079
 20
2363.507826347825
 30
0.0
  0
POINT
  5
386
330
38E
100
AcDbEntity
  8
DEFPOINTS
  6
ByBlock
 62
     0
380
     1
100
AcDbPoint
 10
3144.76005788279
 20
2363.507826347825
 30
0.0
  0
LINE
  5
387
330
38E
100
AcDbEntity
  8
0
  6
ByBlock
 62
     0
370
    -2
380
     1
100
AcDbLine
 10
3187.44990301079
 20
2362.882826347825
 30
0.0
 11
3187.44990301079
 21
2273.234504773054
 31
0.0
  0
LINE
  5
388
330
38E
100
AcDbEntity
  8
0
  6
ByBlock
 62
     0
370
    -2
380
     1
100
AcDbLine
 10
3144.76005788279
 20
2362.882826347825
 30
0.0
 11
3144.76005788279
 21
2273.234504773054
 31
0.0
  0
LINE
  5
389
330
38E
100
AcDbEntity
  8
0
  6
ByBlock
 62
     0
370
    -2
380
     1
100
AcDbLine
 10
3184.94990301079
 20
2274.484504773054
 30
0.0
 11
3147.26005788279
 21
2274.484504773054
 31
0.0
  0
SOLID
  5
38A
330
38E
100
AcDbEntity
  8
0
  6
ByBlock
 62
     0
380
     1
100
AcDbTrace
 10
3187.44990301079
 20
2274.484504773054
 30
0.0
 11
3184.94990301079
 21
2274.901171439721
 31
0.0
 12
3184.94990301079
 22
2274.067838106388
 32
0.0
 13
3184.94990301079
 23
2274.067838106388
 33
0.0
  0
SOLID
  5
38B
330
38E
100
AcDbEntity
  8
0
  6
ByBlock
 62
     0
380
     1
100
AcDbTrace
 10
3144.76005788279
 20
2274.484504773054
 30
0.0
 11
3147.26005788279
 21
2274.901171439721
 31
0.0
 12
3147.26005788279
 22
2274.067838106388
 32
0.0
 13
3147.26005788279
 23
2274.067838106388
 33
0.0
  0
MTEXT
  5
38C
330
38E
100
AcDbEntity
  8
0
  6
ByBlock
 62
     0
370
    -2
380
     1
100
AcDbMText
 10
3166.10498044679
 20
2276.567838106387
 30
0.0
 40
2.5
 41
0.0
 71
     5
 72
     1
  1
\A1;42,69
 73
     1
 44
1.0
  0
ENDBLK
  5
43D
330
38E
100
AcDbEntity
  8
0
100
AcDbBlockEnd
  0
BLOCK
  5
43E
330
399
100
AcDbEntity
  8
0
100
AcDbBlockBegin
  2
*D41
 70
     1
 10
0.0
 20
0.0
 30
0.0
  3
*D41
  1

  0
POINT
  5
390
330
399
100
AcDbEntity
  8
DEFPOINTS
  6
ByBlock
 62
     0
380
     1
100
AcDbPoint
 10
3187.44990301079
 20
2363.507826347825
 30
0.0
  0
POINT
  5
391
330
399
100
AcDbEntity
  8
DEFPOINTS
  6
ByBlock
 62
     0
380
     1
100
AcDbPoint
 10
3144.76005788279
 20
2363.507826347825
 30
0.0
  0
LINE
  5
392
330
399
100
AcDbEntity
  8
0
  6
ByBlock
 62
     0
370
    -2
380
     1
100
AcDbLine
 10
3187.44990301079
 20
2362.882826347825
 30
0.0
 11
3187.44990301079
 21
2273.234504773054
 31
0.0
  0
LINE
  5
393
330
399
100
AcDbEntity
  8
0
  6
ByBlock
 62
     0
370
    -2
380
     1
100
AcDbLine
 10
3144.76005788279
 20
2362.882826347825
 30
0.0
 11
3144.76005788279
 21
2273.234504773054
 31
0.0
  0
LINE
  5
394
330
399
100
AcDbEntity
  8
0
  6
ByBlock
 62
     0
370
    -2
380
     1
100
AcDbLine
 10
3184.94990301079
 20
2274.484504773054
 30
0.0
 11
3147.26005788279
 21
2274.484504773054
 31
0.0
  0
SOLID
  5
395
330
399
100
AcDbEntity
  8
0
  6
ByBlock
 62
     0
380
     1
100
AcDbTrace
 10
3187.44990301079
 20
2274.484504773054
 30
0.0
 11
3184.94990301079
 21
2274.901171439721
 31
0.0
 12
3184.94990301079
 22
2274.067838106388
 32
0.0
 13
3184.94990301079
 23
2274.067838106388
 33
0.0
  0
SOLID
  5
396
330
399
100
AcDbEntity
  8
0
  6
ByBlock
 62
     0
380
     1
100
AcDbTrace
 10
3144.76005788279
 20
2274.484504773054
 30
0.0
 11
3147.26005788279
 21
2274.901171439721
 31
0.0
 12
3147.26005788279
 22
2274.067838106388
 32
0.0
 13
3147.26005788279
 23
2274.067838106388
 33
0.0
  0
MTEXT
  5
397
330
399
100
AcDbEntity
  8
0
  6
ByBlock
 62
     0
370
    -2
380
     1
100
AcDbMText
 10
3166.10498044679
 20
2276.359504773054
 30
0.0
 40
2.5
 41
0.0
 71
     5
 72
     1
  1
43
 73
     1
 44
1.0
  0
ENDBLK
  5
43F
330
399
100
AcDbEntity
  8
0
100
AcDbBlockEnd
  0
BLOCK
  5
440
330
3A4
100
AcDbEntity
  8
0
100
AcDbBlockBegin
  2
*D42
 70
     1
 10
0.0
 20
0.0
 30
0.0
  3
*D42
  1

  0
POINT
  5
39B
330
3A4
100
AcDbEntity
  8
DEFPOINTS
  6
ByBlock
 62
     0
380
     1
100
AcDbPoint
 10
3187.44990301079
 20
2363.507826347825
 30
0.0
  0
POINT
  5
39C
330
3A4
100
AcDbEntity
  8
DEFPOINTS
  6
ByBlock
 62
     0
380
     1
100
AcDbPoint
 10
3144.76005788279
 20
2363.507826347825
 30
0.0
  0
LINE
  5
39D
330
3A4
100
AcDbEntity
  8
0
  6
ByBlock
 62
     0
370
    -2
380
     1
100
AcDbLine
 10
3187.44990301079
 20
2362.882826347825
 30
0.0
 11
3187.44990301079
 21
2273.234504773054
 31
0.0
  0
LINE
  5
39E
330
3A4
100
AcDbEntity
  8
0
  6
ByBlock
 62
     0
370
    -2
380
     1
100
AcDbLine
 10
3144.76005788279
 20
2362.882826347825
 30
0.0
 11
3144.76005788279
 21
2273.234504773054
 31
0.0
  0
LINE
  5
39F
330
3A4
100
AcDbEntity
  8
0
  6
ByBlock
 62
     0
370
    -2
380
     1
100
AcDbLine
 10
3184.94990301079
 20
2274.484504773054
 30
0.0
 11
3147.26005788279
 21
2274.484504773054
 31
0.0
  0
SOLID
  5
3A0
330
3A4
100
AcDbEntity
  8
0
  6
ByBlock
 62
     0
380
     1
100
AcDbTrace
 10
3187.44990301079
 20
2274.484504773054
 30
0.0
 11
3184.94990301079
 21
2274.901171439721
 31
0.0
 12
3184.94990301079
 22
2274.067838106388
 32
0.0
 13
3184.94990301079
 23
2274.067838106388
 33
0.0
  0
SOLID
  5
3A1
330
3A4
100
AcDbEntity
  8
0
  6
ByBlock
 62
     0
380
     1
100
AcDbTrace
 10
3144.76005788279
 20
2274.484504773054
 30
0.0
 11
3147.26005788279
 21
2274.901171439721
 31
0.0
 12
3147.26005788279
 22
2274.067838106388
 32
0.0
 13
3147.26005788279
 23
2274.067838106388
 33
0.0
  0
MTEXT
  5
3A2
330
3A4
100
AcDbEntity
  8
0
  6
ByBlock
 62
     0
370
    -2
380
     1
100
AcDbMText
 10
3166.10498044679
 20
2276.359504773054
 30
0.0
 40
2.5
 41
0.0
 71
     5
 72
     1
  1
43
 73
     1
 44
1.0
  0
ENDBLK
  5
441
330
3A4
100
AcDbEntity
  8
0
100
AcDbBlockEnd
  0
BLOCK
  5
442
330
3B0
100
AcDbEntity
  8
0
100
AcDbBlockBegin
  2
*D43
 70
     1
 10
0.0
 20
0.0
 30
0.0
  3
*D43
  1

  0
POINT
  5
3A6
330
3B0
100
AcDbEntity
  8
DEFPOINTS
  6
ByBlock
 62
     7
380
     1
100
AcDbPoint
 10
3187.44990301079
 20
2363.507826347825
 30
0.0
  0
POINT
  5
3A7
330
3B0
100
AcDbEntity
  8
DEFPOINTS
  6
ByBlock
 62
     7
380
     1
100
AcDbPoint
 10
3144.76005788279
 20
2363.507826347825
 30
0.0
  0
LINE
  5
3A8
330
3B0
100
AcDbEntity
  8
0
  6
ByBlock
 62
     7
370
    -2
380
     1
100
AcDbLine
 10
3187.44990301079
 20
2362.882826347825
 30
0.0
 11
3187.44990301079
 21
2273.234504773054
 31
0.0
  0
LINE
  5
3A9
330
3B0
100
AcDbEntity
  8
0
  6
ByBlock
 62
     7
370
    -2
380
     1
100
AcDbLine
 10
3144.76005788279
 20
2362.882826347825
 30
0.0
 11
3144.76005788279
 21
2273.234504773054
 31
0.0
  0
LINE
  5
3AA
330
3B0
100
AcDbEntity
  8
0
  6
ByBlock
 62
     7
370
    -2
380
     1
100
AcDbLine
 10
3197.44990301079
 20
2274.484504773054
 30
0.0
 11
3207.44990301079
 21
2274.484504773054
 31
0.0
  0
LINE
  5
3AB
330
3B0
100
AcDbEntity
  8
0
  6
ByBlock
 62
     7
370
    -2
380
     1
100
AcDbLine
 10
3134.76005788279
 20
2274.484504773054
 30
0.0
 11
3124.76005788279
 21
2274.484504773054
 31
0.0
  0
SOLID
  5
3AC
330
3B0
100
AcDbEntity
  8
0
  6
ByBlock
 62
     7
380
     1
100
AcDbTrace
 10
3187.44990301079
 20
2274.484504773054
 30
0.0
 11
3197.44990301079
 21
2276.151171439721
 31
0.0
 12
3197.44990301079
 22
2272.817838106388
 32
0.0
 13
3197.44990301079
 23
2272.817838106388
 33
0.0
  0
SOLID
  5
3AD
330
3B0
100
AcDbEntity
  8
0
  6
ByBlock
 62
     7
380
     1
100
AcDbTrace
 10
3144.76005788279
 20
2274.484504773054
 30
0.0
 11
3134.76005788279
 21
2276.151171439721
 31
0.0
 12
3134.76005788279
 22
2272.817838106388
 32
0.0
 13
3134.76005788279
 23
2272.817838106388
 33
0.0
  0
MTEXT
  5
3AE
330
3B0
100
AcDbEntity
  8
0
  6
ByBlock
 62
     0
370
    -2
380
     1
100
AcDbMText
 10
3166.10498044679
 20
2286.484504773054
 30
0.0
 40
14.0
 41
0.0
 71
     5
 72
     1
  1
43
 73
     1
 44
1.0
  0
ENDBLK
  5
443
330
3B0
100
AcDbEntity
  8
0
100
AcDbBlockEnd
  0
BLOCK
  5
444
330
3BD
100
AcDbEntity
  8
0
100
AcDbBlockBegin
  2
*D44
 70
     1
 10
0.0
 20
0.0
 30
0.0
  3
*D44
  1

  0
POINT
  5
3B2
330
3BD
100
AcDbEntity
  8
DEFPOINTS
  6
ByBlock
 62
     7
380
     1
100
AcDbPoint
 10
3187.44990301079
 20
2363.507826347825
 30
0.0
  0
POINT
  5
3B3
330
3BD
100
AcDbEntity
  8
DEFPOINTS
  6
ByBlock
 62
     7
380
     1
100
AcDbPoint
 10
3144.76005788279
 20
2363.507826347825
 30
0.0
  0
LINE
  5
3B4
330
3BD
100
AcDbEntity
  8
0
  6
ByBlock
 62
     7
370
    -2
380
     1
100
AcDbLine
 10
3187.44990301079
 20
2362.882826347825
 30
0.0
 11
3187.44990301079
 21
2273.234504773054
 31
0.0
  0
LINE
  5
3B5
330
3BD
100
AcDbEntity
  8
0
  6
ByBlock
 62
     7
370
    -2
380
     1
100
AcDbLine
 10
3144.76005788279
 20
2362.882826347825
 30
0.0
 11
3144.76005788279
 21
2273.234504773054
 31
0.0
  0
LINE
  5
3B6
330
3BD
100
AcDbEntity
  8
0
  6
ByBlock
 62
     7
370
    -2
380
     1
100
AcDbLine
 10
3134.76005788279
 20
2274.484504773054
 30
0.0
 11
3124.76005788279
 21
2274.484504773054
 31
0.0
  0
LINE
  5
3B7
330
3BD
100
AcDbEntity
  8
0
  6
ByBlock
 62
     7
370
    -2
380
     1
100
AcDbLine
 10
3197.44990301079
 20
2274.484504773054
 30
0.0
 11
3230.783236344123
 21
2274.484504773054
 31
0.0
  0
SOLID
  5
3B8
330
3BD
100
AcDbEntity
  8
0
  6
ByBlock
 62
     7
380
     1
100
AcDbTrace
 10
3187.44990301079
 20
2274.484504773054
 30
0.0
 11
3197.44990301079
 21
2276.151171439721
 31
0.0
 12
3197.44990301079
 22
2272.817838106388
 32
0.0
 13
3197.44990301079
 23
2272.817838106388
 33
0.0
  0
SOLID
  5
3B9
330
3BD
100
AcDbEntity
  8
0
  6
ByBlock
 62
     7
380
     1
100
AcDbTrace
 10
3144.76005788279
 20
2274.484504773054
 30
0.0
 11
3134.76005788279
 21
2276.151171439721
 31
0.0
 12
3134.76005788279
 22
2272.817838106388
 32
0.0
 13
3134.76005788279
 23
2272.817838106388
 33
0.0
  0
LINE
  5
3BA
330
3BD
100
AcDbEntity
  8
0
  6
ByBlock
 62
     7
370
    -2
380
     1
100
AcDbLine
 10
3187.44990301079
 20
2274.484504773054
 30
0.0
 11
3144.76005788279
 21
2274.484504773054
 31
0.0
  0
MTEXT
  5
3BB
330
3BD
100
AcDbEntity
  8
0
  6
ByBlock
 62
     0
370
    -2
380
     1
100
AcDbMText
 10
3214.116569677457
 20
2286.484504773054
 30
0.0
 40
14.0
 41
0.0
 71
     5
 72
     1
  1
43
 73
     1
 44
1.0
  0
ENDBLK
  5
445
330
3BD
100
AcDbEntity
  8
0
100
AcDbBlockEnd
  0
BLOCK
  5
446
330
3CB
100
AcDbEntity
  8
0
100
AcDbBlockBegin
  2
*D45
 70
     1
 10
0.0
 20
0.0
 30
0.0
  3
*D45
  1

  0
POINT
  5
3C0
330
3CB
100
AcDbEntity
  8
DEFPOINTS
  6
ByBlock
 62
     7
380
     1
100
AcDbPoint
 10
3187.44990301079
 20
2358.60944780396
 30
0.0
  0
POINT
  5
3C1
330
3CB
100
AcDbEntity
  8
DEFPOINTS
  6
ByBlock
 62
     7
380
     1
100
AcDbPoint
 10
3144.76005788279
 20
2358.60944780396
 30
0.0
  0
LINE
  5
3C2
330
3CB
100
AcDbEntity
  8
0
  6
ByBlock
 62
     7
370
    -2
380
     1
100
AcDbLine
 10
3187.44990301079
 20
2357.98444780396
 30
0.0
 11
3187.44990301079
 21
2268.336126229189
 31
0.0
  0
LINE
  5
3C3
330
3CB
100
AcDbEntity
  8
0
  6
ByBlock
 62
     7
370
    -2
380
     1
100
AcDbLine
 10
3144.76005788279
 20
2357.98444780396
 30
0.0
 11
3144.76005788279
 21
2268.336126229189
 31
0.0
  0
LINE
  5
3C4
330
3CB
100
AcDbEntity
  8
0
  6
ByBlock
 62
     7
370
    -2
380
     1
100
AcDbLine
 10
3134.76005788279
 20
2269.586126229189
 30
0.0
 11
3124.76005788279
 21
2269.586126229189
 31
0.0
  0
LINE
  5
3C5
330
3CB
100
AcDbEntity
  8
0
  6
ByBlock
 62
     7
370
    -2
380
     1
100
AcDbLine
 10
3197.44990301079
 20
2269.586126229189
 30
0.0
 11
3230.783236344124
 21
2269.586126229189
 31
0.0
  0
SOLID
  5
3C6
330
3CB
100
AcDbEntity
  8
0
  6
ByBlock
 62
     7
380
     1
100
AcDbTrace
 10
3187.44990301079
 20
2269.586126229189
 30
0.0
 11
3197.44990301079
 21
2271.252792895856
 31
0.0
 12
3197.44990301079
 22
2267.919459562523
 32
0.0
 13
3197.44990301079
 23
2267.919459562523
 33
0.0
  0
SOLID
  5
3C7
330
3CB
100
AcDbEntity
  8
0
  6
ByBlock
 62
     7
380
     1
100
AcDbTrace
 10
3144.76005788279
 20
2269.586126229189
 30
0.0
 11
3134.76005788279
 21
2271.252792895856
 31
0.0
 12
3134.76005788279
 22
2267.919459562523
 32
0.0
 13
3134.76005788279
 23
2267.919459562523
 33
0.0
  0
LINE
  5
3C8
330
3CB
100
AcDbEntity
  8
0
  6
ByBlock
 62
     7
370
    -2
380
     1
100
AcDbLine
 10
3187.44990301079
 20
2269.586126229189
 30
0.0
 11
3144.76005788279
 21
2269.586126229189
 31
0.0
  0
MTEXT
  5
3C9
330
3CB
100
AcDbEntity
  8
0
  6
ByBlock
 62
     0
370
    -2
380
     1
100
AcDbMText
 10
3214.116569677457
 20
2281.586126229189
 30
0.0
 40
14.0
 41
0.0
 71
     5
 72
     1
  1
43
 73
     1
 44
1.0
  0
ENDBLK
  5
447
330
3CB
100
AcDbEntity
  8
0
100
AcDbBlockEnd
  0
BLOCK
  5
448
330
3D8
100
AcDbEntity
  8
0
100
AcDbBlockBegin
  2
*D46
 70
     1
 10
0.0
 20
0.0
 30
0.0
  3
*D46
  1

  0
POINT
  5
3CD
330
3D8
100
AcDbEntity
  8
DEFPOINTS
  6
ByBlock
 62
     7
380
     1
100
AcDbPoint
 10
3187.44990301079
 20
2372.190062470575
 30
0.0
  0
POINT
  5
3CE
330
3D8
100
AcDbEntity
  8
DEFPOINTS
  6
ByBlock
 62
     7
380
     1
100
AcDbPoint
 10
3144.76005788279
 20
2358.60944780396
 30
0.0
  0
LINE
  5
3CF
330
3D8
100
AcDbEntity
  8
0
  6
ByBlock
 62
     7
370
    -2
380
     1
100
AcDbLine
 10
3187.44990301079
 20
2371.565062470575
 30
0.0
 11
3187.44990301079
 21
2268.336126229189
 31
0.0
  0
LINE
  5
3D0
330
3D8
100
AcDbEntity
  8
0
  6
ByBlock
 62
     7
370
    -2
380
     1
100
AcDbLine
 10
3144.76005788279
 20
2357.98444780396
 30
0.0
 11
3144.76005788279
 21
2268.336126229189
 31
0.0
  0
LINE
  5
3D1
330
3D8
100
AcDbEntity
  8
0
  6
ByBlock
 62
     7
370
    -2
380
     1
100
AcDbLine
 10
3134.76005788279
 20
2269.586126229189
 30
0.0
 11
3124.76005788279
 21
2269.586126229189
 31
0.0
  0
LINE
  5
3D2
330
3D8
100
AcDbEntity
  8
0
  6
ByBlock
 62
     7
370
    -2
380
     1
100
AcDbLine
 10
3197.44990301079
 20
2269.586126229189
 30
0.0
 11
3230.783236344124
 21
2269.586126229189
 31
0.0
  0
SOLID
  5
3D3
330
3D8
100
AcDbEntity
  8
0
  6
ByBlock
 62
     7
380
     1
100
AcDbTrace
 10
3187.44990301079
 20
2269.586126229189
 30
0.0
 11
3197.44990301079
 21
2271.252792895856
 31
0.0
 12
3197.44990301079
 22
2267.919459562523
 32
0.0
 13
3197.44990301079
 23
2267.919459562523
 33
0.0
  0
SOLID
  5
3D4
330
3D8
100
AcDbEntity
  8
0
  6
ByBlock
 62
     7
380
     1
100
AcDbTrace
 10
3144.76005788279
 20
2269.586126229189
 30
0.0
 11
3134.76005788279
 21
2271.252792895856
 31
0.0
 12
3134.76005788279
 22
2267.919459562523
 32
0.0
 13
3134.76005788279
 23
2267.919459562523
 33
0.0
  0
LINE
  5
3D5
330
3D8
100
AcDbEntity
  8
0
  6
ByBlock
 62
     7
370
    -2
380
     1
100
AcDbLine
 10
3187.44990301079
 20
2269.586126229189
 30
0.0
 11
3144.76005788279
 21
2269.586126229189
 31
0.0
  0
MTEXT
  5
3D6
330
3D8
100
AcDbEntity
  8
0
  6
ByBlock
 62
     0
370
    -2
380
     1
100
AcDbMText
 10
3214.116569677457
 20
2281.586126229189
 30
0.0
 40
14.0
 41
0.0
 71
     5
 72
     1
  1
43
 73
     1
 44
1.0
  0
ENDBLK
  5
449
330
3D8
100
AcDbEntity
  8
0
100
AcDbBlockEnd
  0
BLOCK
  5
44A
330
3E5
100
AcDbEntity
  8
0
100
AcDbBlockBegin
  2
*D47
 70
     1
 10
0.0
 20
0.0
 30
0.0
  3
*D47
  1

  0
POINT
  5
3DA
330
3E5
100
AcDbEntity
  8
DEFPOINTS
  6
ByBlock
 62
     7
380
     1
100
AcDbPoint
 10
3187.44990301079
 20
2372.190062470575
 30
0.0
  0
POINT
  5
3DB
330
3E5
100
AcDbEntity
  8
DEFPOINTS
  6
ByBlock
 62
     7
380
     1
100
AcDbPoint
 10
3144.76005788279
 20
2358.60944780396
 30
0.0
  0
LINE
  5
3DC
330
3E5
100
AcDbEntity
  8
0
  6
ByBlock
 62
     7
370
    -2
380
     1
100
AcDbLine
 10
3187.44990301079
 20
2371.565062470575
 30
0.0
 11
3187.44990301079
 21
2268.336126229189
 31
0.0
  0
LINE
  5
3DD
330
3E5
100
AcDbEntity
  8
0
  6
ByBlock
 62
     7
370
    -2
380
     1
100
AcDbLine
 10
3144.76005788279
 20
2357.98444780396
 30
0.0
 11
3144.76005788279
 21
2268.336126229189
 31
0.0
  0
LINE
  5
3DE
330
3E5
100
AcDbEntity
  8
0
  6
ByBlock
 62
     7
370
    -2
380
     1
100
AcDbLine
 10
3134.76005788279
 20
2269.586126229189
 30
0.0
 11
3124.76005788279
 21
2269.586126229189
 31
0.0
  0
LINE
  5
3DF
330
3E5
100
AcDbEntity
  8
0
  6
ByBlock
 62
     7
370
    -2
380
     1
100
AcDbLine
 10
3197.44990301079
 20
2269.586126229189
 30
0.0
 11
3230.783236344123
 21
2269.586126229189
 31
0.0
  0
SOLID
  5
3E0
330
3E5
100
AcDbEntity
  8
0
  6
ByBlock
 62
     7
380
     1
100
AcDbTrace
 10
3187.44990301079
 20
2269.586126229189
 30
0.0
 11
3197.44990301079
 21
2271.252792895856
 31
0.0
 12
3197.44990301079
 22
2267.919459562523
 32
0.0
 13
3197.44990301079
 23
2267.919459562523
 33
0.0
  0
SOLID
  5
3E1
330
3E5
100
AcDbEntity
  8
0
  6
ByBlock
 62
     7
380
     1
100
AcDbTrace
 10
3144.76005788279
 20
2269.586126229189
 30
0.0
 11
3134.76005788279
 21
2271.252792895856
 31
0.0
 12
3134.76005788279
 22
2267.919459562523
 32
0.0
 13
3134.76005788279
 23
2267.919459562523
 33
0.0
  0
LINE
  5
3E2
330
3E5
100
AcDbEntity
  8
0
  6
ByBlock
 62
     7
370
    -2
380
     1
100
AcDbLine
 10
3187.44990301079
 20
2269.586126229189
 30
0.0
 11
3144.76005788279
 21
2269.586126229189
 31
0.0
  0
MTEXT
  5
3E3
330
3E5
100
AcDbEntity
  8
0
  6
ByBlock
 62
     0
370
    -2
380
     1
100
AcDbMText
 10
3214.116569677457
 20
2281.586126229189
 30
0.0
 40
14.0
 41
0.0
 71
     5
 72
     1
  1
43
 73
     1
 44
1.0
  0
ENDBLK
  5
44B
330
3E5
100
AcDbEntity
  8
0
100
AcDbBlockEnd
  0
ENDSEC
  0
SECTION
  2
ENTITIES
  0
LINE
  5
1BC
330
1F
100
AcDbEntity
  8
0
370
    60
100
AcDbLine
 10
3050.02850283449
 20
2330.354889299825
 30
0.0
 11
2888.94879650849
 21
2330.354889299825
 31
0.0
  0
LINE
  5
1BD
330
1F
100
AcDbEntity
  8
0
370
    60
100
AcDbLine
 10
3050.02850283449
 20
2340.401233859825
 30
0.0
 11
2888.94879650849
 21
2340.401233859825
 31
0.0
  0
LINE
  5
1BE
330
1F
100
AcDbEntity
  8
0
370
    60
100
AcDbLine
 10
3050.02850283449
 20
2535.300318323825
 30
0.0
 11
2888.94879650849
 21
2535.300318323825
 31
0.0
  0
LINE
  5
1BF
330
1F
100
AcDbEntity
  8
0
370
    60
100
AcDbLine
 10
3050.02850283449
 20
2545.346662883826
 30
0.0
 11
2888.94879650849
 21
2545.346662883826
 31
0.0
  0
LINE
  5
1CC
330
1F
100
AcDbEntity
  8
0
  6
BORDER
370
    25
100
AcDbLine
 10
2681.85335331129
 20
2437.850776091824
 30
0.0
 11
3087.42641068819
 21
2437.850776091824
 31
0.0
  0
LINE
  5
1D9
330
1F
100
AcDbEntity
  8
0
370
    60
100
AcDbLine
 10
2727.869090182488
 20
2330.354889299825
 30
0.0
 11
2719.926793414489
 21
2330.354889299825
 31
0.0
  0
LINE
  5
1DA
330
1F
100
AcDbEntity
  8
0
370
    60
100
AcDbLine
 10
2727.869090182488
 20
2545.346662883826
 30
0.0
 11
2719.926793414489
 21
2545.346662883826
 31
0.0
  0
LINE
  5
1DB
330
1F
100
AcDbEntity
  8
0
370
    60
100
AcDbLine
 10
2718.934006318489
 20
2331.359523755825
 30
0.0
 11
2718.934006318489
 21
2437.850776091824
 31
0.0
  0
ELLIPSE
  5
1DC
330
1F
100
AcDbEntity
  8
0
370
    60
100
AcDbEllipse
 10
2719.926793414489
 20
2331.359523755825
 30
0.0
 11
0.0
 21
1.004634455999516
 31
0.0
210
0.0
220
0.0
230
1.0
 40
0.9882072927827193
 41
1.570796326794893
 42
3.14159265358979
  0
LINE
  5
1DD
330
1F
100
AcDbEntity
  8
0
370
    60
100
AcDbLine
 10
2718.934006318489
 20
2544.342028427825
 30
0.0
 11
2718.934006318489
 21
2437.850776091824
 31
0.0
  0
ELLIPSE
  5
1DF
330
1F
100
AcDbEntity
  8
0
370
    60
100
AcDbEllipse
 10
2723.70060749739
 20
2437.850776091824
 30
0.0
 11
0.0
 21
2.109732357599933
 31
0.0
210
0.0
220
0.0
230
1.0
 40
0.9882072927827192
 41
-1.5707963267949
 42
4.712388980384686
  0
ELLIPSE
  5
1E0
330
1F
100
AcDbEntity
  8
0
370
    60
100
AcDbEllipse
 10
2719.926793414489
 20
2544.342028427825
 30
0.0
 11
0.0
 21
1.004634456000307
 31
0.0
210
0.0
220
0.0
230
1.0
 40
0.9882072927827193
 41
-0.0000000000000036
 42
1.570796326794893
  0
LINE
  5
1E1
330
1F
100
AcDbEntity
  8
0
370
    60
100
AcDbLine
 10
2727.869090182488
 20
2340.401233859825
 30
0.0
 11
2888.94879650849
 21
2340.401233859825
 31
0.0
  0
LINE
  5
1E2
330
1F
100
AcDbEntity
  8
0
370
    60
100
AcDbLine
 10
2727.869090182488
 20
2330.354889299825
 30
0.0
 11
2888.94879650849
 21
2330.354889299825
 31
0.0
  0
LINE
  5
1E3
330
1F
100
AcDbEntity
  8
0
370
    60
100
AcDbLine
 10
2727.869090182488
 20
2535.300318323825
 30
0.0
 11
2888.94879650849
 21
2535.300318323825
 31
0.0
  0
LINE
  5
1E4
330
1F
100
AcDbEntity
  8
0
370
    60
100
AcDbLine
 10
2727.869090182488
 20
2545.346662883826
 30
0.0
 11
2888.94879650849
 21
2545.346662883826
 31
0.0
  0
LINE
  5
1E5
330
1F
100
AcDbEntity
  8
0
370
    60
100
AcDbLine
 10
2727.869090182488
 20
2330.354889299825
 30
0.0
 11
2727.869090182488
 21
2437.850776091824
 31
0.0
  0
LINE
  5
1E6
330
1F
100
AcDbEntity
  8
0
370
    60
100
AcDbLine
 10
2792.102415293689
 20
2330.354889299825
 30
0.0
 11
2792.102415293689
 21
2545.346662883826
 31
0.0
  0
LINE
  5
1E7
330
1F
100
AcDbEntity
  8
0
370
    60
100
AcDbLine
 10
2792.102415293689
 20
2330.354889299825
 30
0.0
 11
2810.776116641789
 21
2330.354889299825
 31
0.0
  0
LINE
  5
1E9
330
1F
100
AcDbEntity
  8
0
370
    60
100
AcDbLine
 10
2727.869090182488
 20
2545.346662883826
 30
0.0
 11
2727.869090182488
 21
2437.850776091824
 31
0.0
  0
LINE
  5
1EB
330
1F
100
AcDbEntity
  8
0
370
    60
100
AcDbLine
 10
2792.102415293689
 20
2545.346662883826
 30
0.0
 11
2810.776116641789
 21
2545.346662883826
 31
0.0
  0
LINE
  5
1ED
330
1F
100
AcDbEntity
  8
0
370
    60
100
AcDbLine
 10
2856.33574040489
 20
2330.354889299825
 30
0.0
 11
2856.33574040489
 21
2437.850776091824
 31
0.0
  0
LINE
  5
1EE
330
1F
100
AcDbEntity
  8
0
370
    60
100
AcDbLine
 10
2921.561852612089
 20
2330.354889299825
 30
0.0
 11
2921.561852612089
 21
2437.850776091824
 31
0.0
  0
LINE
  5
1EF
330
1F
100
AcDbEntity
  8
0
  6
BORDER
370
    25
100
AcDbLine
 10
2888.94879650849
 20
2570.295975249425
 30
0.0
 11
2888.94879650849
 21
2305.894015076025
 31
0.0
  0
LINE
  5
1F0
330
1F
100
AcDbEntity
  8
0
370
    60
100
AcDbLine
 10
2856.33574040489
 20
2330.354889299825
 30
0.0
 11
2875.00944175299
 21
2330.354889299825
 31
0.0
  0
LINE
  5
1F2
330
1F
100
AcDbEntity
  8
0
370
    60
100
AcDbLine
 10
2921.561852612089
 20
2330.354889299825
 30
0.0
 11
2902.888151263989
 21
2330.354889299825
 31
0.0
  0
LINE
  5
1F4
330
1F
100
AcDbEntity
  8
0
370
    60
100
AcDbLine
 10
2856.33574040489
 20
2545.346662883826
 30
0.0
 11
2856.33574040489
 21
2437.850776091824
 31
0.0
  0
LINE
  5
1F5
330
1F
100
AcDbEntity
  8
0
370
    60
100
AcDbLine
 10
2856.33574040489
 20
2545.346662883826
 30
0.0
 11
2875.00944175299
 21
2545.346662883826
 31
0.0
  0
LINE
  5
1F7
330
1F
100
AcDbEntity
  8
0
370
    60
100
AcDbLine
 10
2921.561852612089
 20
2545.346662883826
 30
0.0
 11
2921.561852612089
 21
2437.850776091824
 31
0.0
  0
LINE
  5
1F9
330
1F
100
AcDbEntity
  8
0
370
    60
100
AcDbLine
 10
2921.561852612089
 20
2545.346662883826
 30
0.0
 11
2902.888151263989
 21
2545.346662883826
 31
0.0
  0
LINE
  5
206
330
1F
100
AcDbEntity
  8
0
  6
BORDER
370
    25
100
AcDbLine
 10
3123.71736917559
 20
2437.850776091824
 30
0.0
 11
3204.12261063309
 21
2437.850776091824
 31
0.0
  0
LINE
  5
207
330
1F
100
AcDbEntity
  8
0
370
    60
100
AcDbLine
 10
3187.44990301079
 20
2363.507826347825
 30
0.0
 11
3155.68071593879
 21
2331.359523755825
 31
0.0
  0
LINE
  5
208
330
1F
100
AcDbEntity
  8
0
370
    60
100
AcDbLine
 10
3187.44990301079
 20
2512.193725835825
 30
0.0
 11
3155.68071593879
 21
2544.342028427825
 31
0.0
  0
LINE
  5
209
330
1F
100
AcDbEntity
  8
0
370
    60
100
AcDbLine
 10
2985.79517772329
 20
2330.354889299825
 30
0.0
 11
2985.79517772329
 21
2437.850776091824
 31
0.0
  0
LINE
  5
20A
330
1F
100
AcDbEntity
  8
0
370
    60
100
AcDbLine
 10
3050.02850283449
 20
2330.354889299825
 30
0.0
 11
3050.02850283449
 21
2437.850776091824
 31
0.0
  0
LINE
  5
20B
330
1F
100
AcDbEntity
  8
0
370
    60
100
AcDbLine
 10
3058.963586698489
 20
2331.359523755825
 30
0.0
 11
3058.963586698489
 21
2437.850776091824
 31
0.0
  0
LINE
  5
20C
330
1F
100
AcDbEntity
  8
0
370
    60
100
AcDbLine
 10
2985.79517772329
 20
2330.354889299825
 30
0.0
 11
2967.12147637519
 21
2330.354889299825
 31
0.0
  0
LINE
  5
20E
330
1F
100
AcDbEntity
  8
0
370
    60
100
AcDbLine
 10
3050.02850283449
 20
2330.354889299825
 30
0.0
 11
3057.97079960249
 21
2330.354889299825
 31
0.0
  0
ELLIPSE
  5
20F
330
1F
100
AcDbEntity
  8
0
370
    60
100
AcDbEllipse
 10
3057.97079960249
 20
2331.359523755825
 30
0.0
 11
0.0
 21
1.004634455999912
 31
0.0
210
0.0
220
0.0
230
1.0
 40
0.9882072927827193
 41
3.14159265358979
 42
4.712388980384686
  0
LINE
  5
210
330
1F
100
AcDbEntity
  8
0
370
    60
100
AcDbLine
 10
2985.79517772329
 20
2545.346662883826
 30
0.0
 11
2985.79517772329
 21
2437.850776091824
 31
0.0
  0
LINE
  5
211
330
1F
100
AcDbEntity
  8
0
370
    60
100
AcDbLine
 10
2985.79517772329
 20
2545.346662883826
 30
0.0
 11
2967.12147637519
 21
2545.346662883826
 31
0.0
  0
LINE
  5
213
330
1F
100
AcDbEntity
  8
0
370
    60
100
AcDbLine
 10
3058.963586698489
 20
2544.342028427825
 30
0.0
 11
3058.963586698489
 21
2437.850776091824
 31
0.0
  0
LINE
  5
214
330
1F
100
AcDbEntity
  8
0
370
    60
100
AcDbLine
 10
3050.02850283449
 20
2545.346662883826
 30
0.0
 11
3050.02850283449
 21
2437.850776091824
 31
0.0
  0
ELLIPSE
  5
215
330
1F
100
AcDbEntity
  8
0
370
    60
100
AcDbEllipse
 10
3054.19698551959
 20
2437.850776091824
 30
0.0
 11
0.0
 21
2.109732357599933
 31
0.0
210
0.0
220
0.0
230
1.0
 40
0.9882072927827192
 41
-1.5707963267949
 42
4.712388980384686
  0
LINE
  5
217
330
1F
100
AcDbEntity
  8
0
370
    60
100
AcDbLine
 10
3050.02850283449
 20
2545.346662883826
 30
0.0
 11
3057.97079960249
 21
2545.346662883826
 31
0.0
  0
ELLIPSE
  5
218
330
1F
100
AcDbEntity
  8
0
370
    60
100
AcDbEllipse
 10
3057.97079960249
 20
2544.342028427825
 30
0.0
 11
0.0
 21
1.004634455999912
 31
0.0
210
0.0
220
0.0
230
1.0
 40
0.9882072927827193
 41
-1.5707963267949
 42
-0.0000000000000036
  0
LINE
  5
219
330
1F
100
AcDbEntity
  8
0
370
    60
100
AcDbLine
 10
3144.76005788279
 20
2331.359523755825
 30
0.0
 11
3144.76005788279
 21
2437.850776091824
 31
0.0
  0
LINE
  5
21B
330
1F
100
AcDbEntity
  8
0
370
    60
100
AcDbLine
 10
3144.76005788279
 20
2331.359523755825
 30
0.0
 11
3144.76005788279
 21
2351.158304451225
 31
0.0
  0
LINE
  5
21D
330
1F
100
AcDbEntity
  8
0
370
    60
100
AcDbLine
 10
3144.76005788279
 20
2544.342028427825
 30
0.0
 11
3144.76005788279
 21
2437.850776091824
 31
0.0
  0
LINE
  5
21F
330
1F
100
AcDbEntity
  8
0
370
    60
100
AcDbLine
 10
3144.76005788279
 20
2544.342028427825
 30
0.0
 11
3144.76005788279
 21
2524.543247732425
 31
0.0
  0
LINE
  5
22D
330
1F
100
AcDbEntity
  8
0
370
    60
100
AcDbLine
 10
3187.44990301079
 20
2363.507826347825
 30
0.0
 11
3187.44990301079
 21
2437.850776091824
 31
0.0
  0
LINE
  5
22E
330
1F
100
AcDbEntity
  8
0
370
    60
100
AcDbLine
 10
3187.44990301079
 20
2512.193725835825
 30
0.0
 11
3187.44990301079
 21
2437.850776091824
 31
0.0
  0
DIMENSION
  5
28B
330
1F
100
AcDbEntity
  8
0
370
    25
100
AcDbDimension
  2
*D26
 10
2677.394016432886
 20
2330.354889299825
 30
0.0
 11
2665.394016432886
 21
2437.850776091826
 31
0.0
 70
    32
  1
215
 71
     5
 41
2.5
 42
214.9917735840004
  3
ISO-25
100
AcDbAlignedDimension
 13
2742.674208823126
 23
2545.346662883826
 33
0.0
 14
2742.674208823126
 24
2330.354889299825
 34
0.0
 50
90.0
100
AcDbRotatedDimension
1001
ACAD
1000
DSTYLE
1002
{
1070
    41
1040
10.0
1070
   140
1040
14.0
1070
   147
1040
5.0
1070
   176
1070
     7
1070
   177
1070
     7
1002
}
  0
DIMENSION
  5
2B8
330
1F
100
AcDbEntity
  8
0
100
AcDbDimension
  2
*D33
 10
3058.882016597486
 20
2269.469584659869
 30
0.0
 11
2888.867226407486
 21
2281.469584659869
 31
0.0
 70
    32
  1
340
 71
     5
 41
2.5
 42
340.02958038
  3
ISO-25
100
AcDbAlignedDimension
 13
2718.852436217486
 23
2365.336699729424
 33
0.0
 14
3058.882016597486
 24
2370.082596515046
 34
0.0
100
AcDbRotatedDimension
1001
ACAD
1000
DSTYLE
1002
{
1070
    41
1040
10.0
1070
   140
1040
14.0
1070
   147
1040
5.0
1070
   176
1070
     7
1070
   177
1070
     7
1002
}
  0
LINE
  5
31C
330
1F
100
AcDbEntity
  8
0
100
AcDbLine
 10
3144.76005788279
 20
2544.342028427825
 30
0.0
 11
3155.68071593879
 21
2544.342028427825
 31
0.0
  0
LINE
  5
31D
330
1F
100
AcDbEntity
  8
0
100
AcDbLine
 10
3144.76005788279
 20
2331.359523755825
 30
0.0
 11
3155.68071593879
 21
2331.359523755825
 31
0.0
  0
DIMENSION
  5
335
330
1F
100
AcDbEntity
  8
0
370
    25
100
AcDbDimension
  2
*D39
 10
3243.313238298035
 20
2363.507826347825
 30
0.0
 11
3231.313238298035
 21
2437.850776091825
 31
0.0
 70
   160
  1
148
 71
     5
 41
2.5
 42
148.6858994880004
  3
ISO-25
100
AcDbAlignedDimension
 13
3187.44990301079
 23
2512.193725835825
 33
0.0
 14
3187.44990301079
 24
2363.507826347825
 34
0.0
 50
90.0
100
AcDbRotatedDimension
1001
ACAD
1000
DSTYLE
1002
{
1070
    41
1040
10.0
1070
   140
1040
14.0
1070
   147
1040
5.0
1070
   176
1070
     7
1070
   177
1070
     7
1002
}
  0
DIMENSION
  5
383
330
1F
100
AcDbEntity
  8
0
370
    25
100
AcDbDimension
  2
*D47
 10
3144.76005788279
 20
2269.586126229189
 30
0.0
 11
3214.116569677457
 21
2281.586126229189
 31
0.0
 70
   160
  1
43
 71
     5
 41
2.5
 42
42.68984512799989
  3
ISO-25
100
AcDbAlignedDimension
 13
3187.44990301079
 23
2372.190062470575
 33
0.0
 14
3144.76005788279
 24
2358.60944780396
 34
0.0
100
AcDbRotatedDimension
1001
ACAD
1000
DSTYLE
1002
{
1070
    41
1040
10.0
1070
   140
1040
14.0
1070
   147
1040
5.0
1070
   176
1070
     7
1070
   177
1070
     7
1002
}
  0
VIEWPORT
  5
BB
330
73
100
AcDbEntity
 67
     1
  8
0
100
AcDbViewport
 10
7.8
 20
4.5
 30
0.0
 40
15.64
 41
9.0
 68
     1
 69
     1
 12
6.0
 22
4.5
 13
0.0
 23
0.0
 14
0.5
 24
0.5
 15
0.5
 25
0.5
 16
0.0
 26
0.0
 36
1.0
 17
0.0
 27
0.0
 37
0.0
 42
50.0
 43
0.0
 44
0.0
 45
12.0
 50
0.0
 51
0.0
 72
   100
 90
   557152
  1

281
     0
 71
     1
 74
     0
110
0.0
120
0.0
130
0.0
111
1.0
121
0.0
131
0.0
112
0.0
122
1.0
132
0.0
 79
     0
146
0.0
  0
ENDSEC
  0
SECTION
  2
OBJECTS
  0
DICTIONARY
  5
C
330
0
100
AcDbDictionary
281
     1
  3
ACAD_COLOR
350
6C
  3
ACAD_GROUP
350
D
  3
ACAD_LAYOUT
350
1A
  3
ACAD_MATERIAL
350
6B
  3
ACAD_MLEADERSTYLE
350
44D
  3
ACAD_MLINESTYLE
350
17
  3
ACAD_PLOTSETTINGS
350
19
  3
ACAD_PLOTSTYLENAME
350
E
  3
ACAD_SCALELIST
350
99
  3
ACAD_TABLESTYLE
350
92
  3
ACDBHEADERROUNDTRIPXREC
350
44E
  3
AcDbVariableDictionary
350
59
  3
DWGPROPS
350
451
  0
DICTIONARY
  5
6C
102
{ACAD_REACTORS
330
C
102
}
330
C
100
AcDbDictionary
281
     1
  0
DICTIONARY
  5
D
102
{ACAD_REACTORS
330
C
102
}
330
C
100
AcDbDictionary
281
     1
  0
DICTIONARY
  5
1A
102
{ACAD_REACTORS
330
C
102
}
330
C
100
AcDbDictionary
281
     1
  3
Layout1
350
74
  3
Layout2
350
3EB
  3
Model
350
22
  0
DICTIONARY
  5
6B
102
{ACAD_REACTORS
330
C
102
}
330
C
100
AcDbDictionary
281
     1
  0
DICTIONARY
  5
44D
102
{ACAD_REACTORS
330
C
102
}
330
C
100
AcDbDictionary
281
     1
  0
DICTIONARY
  5
17
102
{ACAD_REACTORS
330
C
102
}
330
C
100
AcDbDictionary
281
     1
  3
Standard
350
18
  0
DICTIONARY
  5
19
102
{ACAD_REACTORS
330
C
102
}
330
C
100
AcDbDictionary
281
     1
  0
ACDBDICTIONARYWDFLT
  5
E
102
{ACAD_REACTORS
330
C
102
}
330
C
100
AcDbDictionary
281
     1
  3
Normal
350
F
100
AcDbDictionaryWithDefault
340
F
  0
DICTIONARY
  5
99
102
{ACAD_REACTORS
330
C
102
}
330
C
100
AcDbDictionary
281
     1
  3
A0
350
D5
  3
A1
350
D6
  3
A2
350
D7
  3
A3
350
D8
  3
A4
350
D9
  3
A5
350
DA
  3
A6
350
DB
  3
A7
350
DC
  3
A8
350
DD
  3
A9
350
DE
  3
B0
350
DF
  3
B1
350
E0
  3
B2
350
E1
  3
B3
350
E2
  3
B4
350
E3
  3
B5
350
E4
  3
B6
350
E5
  3
B7
350
E6
  3
B8
350
E7
  3
B9
350
E8
  3
C0
350
E9
  3
C1
350
EA
  3
C2
350
EB
  3
C3
350
EC
  3
C4
350
ED
  3
C5
350
EE
  3
C6
350
EF
  3
C7
350
F0
  3
C8
350
F1
  3
C9
350
F2
  3
D0
350
F3
  3
D1
350
F4
  3
D2
350
F5
  0
DICTIONARY
  5
92
102
{ACAD_REACTORS
330
C
102
}
330
C
100
AcDbDictionary
281
     1
  0
DICTIONARY
  5
44E
102
{ACAD_REACTORS
330
C
102
}
330
C
100
AcDbDictionary
281
     1
  3
COLORDICT
350
44F
  3
MATERIALDICT
350
450
  0
DICTIONARY
  5
59
102
{ACAD_REACTORS
330
C
102
}
330
C
100
AcDbDictionary
281
     1
  3
CTABLESTYLE
350
98
  3
DIMASSOC
350
5A
  3
HIDETEXT
350
5E
  0
XRECORD
  5
451
102
{ACAD_REACTORS
330
C
102
}
330
C
100
AcDbXrecord
280
     1
  1
DWGPROPS COOKIE
  2

  3

  4

  6

  7

  8
BelottiMc
  9

300
=
301
=
302
=
303
=
304
=
305
=
306
=
307
=
308
=
309
=
 40
0.0
 41
2455091.522008229
 42
2455091.563674896
  1

 90
        0
  0
LAYOUT
  5
74
102
{ACAD_REACTORS
330
1A
102
}
330
1A
100
AcDbPlotSettings
  1

  2
ProgeSOFT PDF Wizard
  4
A4
  6

 40
5.926666666666667
 41
6.011333333333317
 42
6.095999999999985
 43
5.926666666666667
 44
210.0
 45
297.0
 46
88.56200000000001
 47
136.531
 48
0.0
 49
0.0
140
0.0
141
0.0
142
1.0
143
1.0
 70
   692
 72
     1
 73
     0
 74
     0
  7

 75
    16
147
1.0
148
4.426666666666668
149
1.5
100
AcDbLayout
  1
Layout1
 70
     1
 71
     1
 10
0.0
 20
0.0
 11
0.0
 21
0.0
 12
0.0
 22
0.0
 32
0.0
 14
0.0
 24
0.0
 34
0.0
 15
0.0
 25
0.0
 35
0.0
146
0.0
 13
0.0
 23
0.0
 33
0.0
 16
1.0
 26
0.0
 36
0.0
 17
0.0
 27
1.0
 37
0.0
 76
     0
330
D1
331
44C
1001
PROGE_PRINT_SETTINGS
1070
    73
1070
     1
  0
LAYOUT
  5
3EB
102
{ACAD_REACTORS
330
1A
102
}
330
1A
100
AcDbPlotSettings
  1

  2
ProgeSOFT PDF Wizard
  4
A4
  6

 40
5.926666666666667
 41
6.011333333333317
 42
6.095999999999985
 43
5.926666666666667
 44
210.0
 45
297.0
 46
88.562
 47
136.531
 48
0.0
 49
0.0
140
0.0
141
0.0
142
1.0
143
1.0
 70
   692
 72
     1
 73
     0
 74
     0
  7

 75
    16
147
1.0
148
0.0
149
0.0
100
AcDbLayout
  1
Layout2
 70
     1
 71
     2
 10
0.0
 20
0.0
 11
12.0
 21
9.0
 12
0.0
 22
0.0
 32
0.0
 14
0.0
 24
0.0
 34
0.0
 15
12.0
 25
9.0
 35
0.0
146
0.0
 13
0.0
 23
0.0
 33
0.0
 16
1.0
 26
0.0
 36
0.0
 17
0.0
 27
1.0
 37
0.0
 76
     0
330
73
331
BB
1001
PROGE_PRINT_SETTINGS
1070
    73
1070
     1
  0
LAYOUT
  5
22
102
{ACAD_REACTORS
330
1A
102
}
330
1A
100
AcDbPlotSettings
  1

  2
ProgeSOFT PDF Wizard
  4
A4
  6

 40
5.926666666666667
 41
6.011333333333317
 42
6.095999999999985
 43
5.926666666666667
 44
210.0
 45
297.0
 46
0.0000000000000032
 47
83.07219027892849
 48
0.0
 49
0.0
140
0.0
141
0.0
142
1.0
143
5.948406305948654
 70
 11956
 72
     1
 73
     0
 74
     0
  7

 75
     0
147
0.168112255378379
148
-2404.477997418471
149
-2003.950651220206
100
AcDbLayout
  1
Model
 70
     1
 71
     0
 10
0.0
 20
0.0
 11
0.0
 21
0.0
 12
0.0
 22
0.0
 32
0.0
 14
2658.394016432886
 24
2258.132810987125
 34
0.0
 15
3287.398403272004
 25
2570.295975249425
 35
0.0
146
0.0
 13
0.0
 23
0.0
 33
0.0
 16
1.0
 26
0.0
 36
0.0
 17
0.0
 27
1.0
 37
0.0
 76
     0
330
1F
331
97
1001
PROGE_PRINT_SETTINGS
1070
    73
1070
     1
  0
MLINESTYLE
  5
18
102
{ACAD_REACTORS
330
17
102
}
330
17
100
AcDbMlineStyle
  2
STANDARD
 70
     0
  3

 62
   256
 51
90.0
 52
90.0
 71
     2
 49
0.5
 62
   256
  6
BYLAYER
 49
-0.5
 62
   256
  6
BYLAYER
  0
ACDBPLACEHOLDER
  5
F
102
{ACAD_REACTORS
330
E
102
}
330
E
  0
SCALE
  5
D5
102
{ACAD_REACTORS
330
99
102
}
330
99
100
AcDbScale
 70
     0
300
1:1
140
1.0
141
1.0
290
     1
  0
SCALE
  5
D6
102
{ACAD_REACTORS
330
99
102
}
330
99
100
AcDbScale
 70
     0
300
1:2
140
1.0
141
2.0
290
     0
  0
SCALE
  5
D7
102
{ACAD_REACTORS
330
99
102
}
330
99
100
AcDbScale
 70
     0
300
1:4
140
1.0
141
4.0
290
     0
  0
SCALE
  5
D8
102
{ACAD_REACTORS
330
99
102
}
330
99
100
AcDbScale
 70
     0
300
1:5
140
1.0
141
5.0
290
     0
  0
SCALE
  5
D9
102
{ACAD_REACTORS
330
99
102
}
330
99
100
AcDbScale
 70
     0
300
1:8
140
1.0
141
8.0
290
     0
  0
SCALE
  5
DA
102
{ACAD_REACTORS
330
99
102
}
330
99
100
AcDbScale
 70
     0
300
1:10
140
1.0
141
10.0
290
     0
  0
SCALE
  5
DB
102
{ACAD_REACTORS
330
99
102
}
330
99
100
AcDbScale
 70
     0
300
1:16
140
1.0
141
16.0
290
     0
  0
SCALE
  5
DC
102
{ACAD_REACTORS
330
99
102
}
330
99
100
AcDbScale
 70
     0
300
1:20
140
1.0
141
20.0
290
     0
  0
SCALE
  5
DD
102
{ACAD_REACTORS
330
99
102
}
330
99
100
AcDbScale
 70
     0
300
1:30
140
1.0
141
30.0
290
     0
  0
SCALE
  5
DE
102
{ACAD_REACTORS
330
99
102
}
330
99
100
AcDbScale
 70
     0
300
1:40
140
1.0
141
40.0
290
     0
  0
SCALE
  5
DF
102
{ACAD_REACTORS
330
99
102
}
330
99
100
AcDbScale
 70
     0
300
1:50
140
1.0
141
50.0
290
     0
  0
SCALE
  5
E0
102
{ACAD_REACTORS
330
99
102
}
330
99
100
AcDbScale
 70
     0
300
1:100
140
1.0
141
100.0
290
     0
  0
SCALE
  5
E1
102
{ACAD_REACTORS
330
99
102
}
330
99
100
AcDbScale
 70
     0
300
2:1
140
2.0
141
1.0
290
     0
  0
SCALE
  5
E2
102
{ACAD_REACTORS
330
99
102
}
330
99
100
AcDbScale
 70
     0
300
4:1
140
4.0
141
1.0
290
     0
  0
SCALE
  5
E3
102
{ACAD_REACTORS
330
99
102
}
330
99
100
AcDbScale
 70
     0
300
8:1
140
8.0
141
1.0
290
     0
  0
SCALE
  5
E4
102
{ACAD_REACTORS
330
99
102
}
330
99
100
AcDbScale
 70
     0
300
10:1
140
10.0
141
1.0
290
     0
  0
SCALE
  5
E5
102
{ACAD_REACTORS
330
99
102
}
330
99
100
AcDbScale
 70
     0
300
100:1
140
100.0
141
1.0
290
     0
  0
SCALE
  5
E6
102
{ACAD_REACTORS
330
99
102
}
330
99
100
AcDbScale
 70
     0
300
1/128" = 1'-0"
140
0.0078125
141
12.0
290
     0
  0
SCALE
  5
E7
102
{ACAD_REACTORS
330
99
102
}
330
99
100
AcDbScale
 70
     0
300
1/64" = 1'-0"
140
0.015625
141
12.0
290
     0
  0
SCALE
  5
E8
102
{ACAD_REACTORS
330
99
102
}
330
99
100
AcDbScale
 70
     0
300
1/32" = 1'-0"
140
0.03125
141
12.0
290
     0
  0
SCALE
  5
E9
102
{ACAD_REACTORS
330
99
102
}
330
99
100
AcDbScale
 70
     0
300
1/16" = 1'-0"
140
0.0625
141
12.0
290
     0
  0
SCALE
  5
EA
102
{ACAD_REACTORS
330
99
102
}
330
99
100
AcDbScale
 70
     0
300
3/32" = 1'-0"
140
0.09375
141
12.0
290
     0
  0
SCALE
  5
EB
102
{ACAD_REACTORS
330
99
102
}
330
99
100
AcDbScale
 70
     0
300
1/8" = 1'-0"
140
0.125
141
12.0
290
     0
  0
SCALE
  5
EC
102
{ACAD_REACTORS
330
99
102
}
330
99
100
AcDbScale
 70
     0
300
3/16" = 1'-0"
140
0.1875
141
12.0
290
     0
  0
SCALE
  5
ED
102
{ACAD_REACTORS
330
99
102
}
330
99
100
AcDbScale
 70
     0
300
1/4" = 1'-0"
140
0.25
141
12.0
290
     0
  0
SCALE
  5
EE
102
{ACAD_REACTORS
330
99
102
}
330
99
100
AcDbScale
 70
     0
300
3/8" = 1'-0"
140
0.375
141
12.0
290
     0
  0
SCALE
  5
EF
102
{ACAD_REACTORS
330
99
102
}
330
99
100
AcDbScale
 70
     0
300
1/2" = 1'-0"
140
0.5
141
12.0
290
     0
  0
SCALE
  5
F0
102
{ACAD_REACTORS
330
99
102
}
330
99
100
AcDbScale
 70
     0
300
3/4" = 1'-0"
140
0.75
141
12.0
290
     0
  0
SCALE
  5
F1
102
{ACAD_REACTORS
330
99
102
}
330
99
100
AcDbScale
 70
     0
300
1" = 1'-0"
140
1.0
141
12.0
290
     0
  0
SCALE
  5
F2
102
{ACAD_REACTORS
330
99
102
}
330
99
100
AcDbScale
 70
     0
300
1-1/2" = 1'-0"
140
1.5
141
12.0
290
     0
  0
SCALE
  5
F3
102
{ACAD_REACTORS
330
99
102
}
330
99
100
AcDbScale
 70
     0
300
3" = 1'-0"
140
3.0
141
12.0
290
     0
  0
SCALE
  5
F4
102
{ACAD_REACTORS
330
99
102
}
330
99
100
AcDbScale
 70
     0
300
6" = 1'-0"
140
6.0
141
12.0
290
     0
  0
SCALE
  5
F5
102
{ACAD_REACTORS
330
99
102
}
330
99
100
AcDbScale
 70
     0
300
1'-0" = 1'-0"
140
12.0
141
12.0
290
     0
  0
XRECORD
  5
44F
102
{ACAD_REACTORS
330
44E
102
}
330
44E
100
AcDbXrecord
280
     1
340
6C
  0
XRECORD
  5
450
102
{ACAD_REACTORS
330
44E
102
}
330
44E
100
AcDbXrecord
280
     1
340
6B
  0
DICTIONARYVAR
  5
98
102
{ACAD_REACTORS
330
59
102
}
330
59
100
DictionaryVariables
280
     0
  1
Standard
  0
DICTIONARYVAR
  5
5A
102
{ACAD_REACTORS
330
59
102
}
330
59
100
DictionaryVariables
280
     0
  1
2
  0
DICTIONARYVAR
  5
5E
102
{ACAD_REACTORS
330
59
102
}
330
59
100
DictionaryVariables
280
     0
  1
1
  0
ENDSEC
  0
EOF
