  0
SECTION
  2
HEADER
  9
$ACADVER
  1
AC1015
  9
$ACADMAINTVER
 70
     6
  9
$DWGCODEPAGE
  3
ANSI_1252
  9
$INSBASE
 10
0.0
 20
0.0
 30
0.0
  9
$EXTMIN
 10
60.52973121492039
 20
196.9080410596157
 30
0.0
  9
$EXTMAX
 10
104.232039821861
 20
250.6197900596156
 30
0.0
  9
$LIMMIN
 10
0.0
 20
0.0
  9
$LIMMAX
 10
0.0
 20
0.0
  9
$ORTHOMODE
 70
     0
  9
$REGENMODE
 70
     1
  9
$FILLMODE
 70
     1
  9
$QTEXTMODE
 70
     0
  9
$MIRRTEXT
 70
     0
  9
$LTSCALE
 40
1.0
  9
$ATTMODE
 70
     1
  9
$TEXTSIZE
 40
2.5
  9
$TRACEWID
 40
1.0
  9
$TEXTSTYLE
  7
Standard
  9
$CLAYER
  8
0
  9
$CELTYPE
  6
ByLayer
  9
$CECOLOR
 62
   256
  9
$CELTSCALE
 40
1.0
  9
$DISPSILH
 70
     0
  9
$DIMSCALE
 40
1.0
  9
$DIMASZ
 40
2.5
  9
$DIMEXO
 40
0.625
  9
$DIMDLI
 40
3.75
  9
$DIMRND
 40
0.0
  9
$DIMDLE
 40
0.0
  9
$DIMEXE
 40
1.25
  9
$DIMTP
 40
0.0
  9
$DIMTM
 40
0.0
  9
$DIMTXT
 40
2.5
  9
$DIMCEN
 40
2.5
  9
$DIMTSZ
 40
0.0
  9
$DIMTOL
 70
     0
  9
$DIMLIM
 70
     0
  9
$DIMTIH
 70
     0
  9
$DIMTOH
 70
     0
  9
$DIMSE1
 70
     0
  9
$DIMSE2
 70
     0
  9
$DIMTAD
 70
     1
  9
$DIMZIN
 70
     8
  9
$DIMBLK
  1

  9
$DIMASO
 70
     1
  9
$DIMSHO
 70
     1
  9
$DIMPOST
  1

  9
$DIMAPOST
  1

  9
$DIMALT
 70
     0
  9
$DIMALTD
 70
     3
  9
$DIMALTF
 40
0.03937007874016
  9
$DIMLFAC
 40
1.0
  9
$DIMTOFL
 70
     1
  9
$DIMTVP
 40
0.0
  9
$DIMTIX
 70
     0
  9
$DIMSOXD
 70
     0
  9
$DIMSAH
 70
     0
  9
$DIMBLK1
  1

  9
$DIMBLK2
  1

  9
$DIMSTYLE
  2
ISO-25
  9
$DIMCLRD
 70
     0
  9
$DIMCLRE
 70
     0
  9
$DIMCLRT
 70
     0
  9
$DIMTFAC
 40
1.0
  9
$DIMGAP
 40
0.625
  9
$DIMJUST
 70
     0
  9
$DIMSD1
 70
     0
  9
$DIMSD2
 70
     0
  9
$DIMTOLJ
 70
     0
  9
$DIMTZIN
 70
     8
  9
$DIMALTZ
 70
     0
  9
$DIMALTTZ
 70
     0
  9
$DIMUPT
 70
     0
  9
$DIMDEC
 70
     2
  9
$DIMTDEC
 70
     2
  9
$DIMALTU
 70
     2
  9
$DIMALTTD
 70
     3
  9
$DIMTXSTY
  7
Standard
  9
$DIMAUNIT
 70
     0
  9
$DIMADEC
 70
     0
  9
$DIMALTRND
 40
0.0
  9
$DIMAZIN
 70
     0
  9
$DIMDSEP
 70
    44
  9
$DIMATFIT
 70
     3
  9
$DIMFRAC
 70
     0
  9
$DIMLDRBLK
  1

  9
$DIMLUNIT
 70
     2
  9
$DIMLWD
 70
    -2
  9
$DIMLWE
 70
    -2
  9
$DIMTMOVE
 70
     0
  9
$LUNITS
 70
     2
  9
$LUPREC
 70
     4
  9
$SKETCHINC
 40
1.0
  9
$FILLETRAD
 40
0.0
  9
$AUNITS
 70
     0
  9
$AUPREC
 70
     0
  9
$MENU
  1
.
  9
$ELEVATION
 40
0.0
  9
$PELEVATION
 40
0.0
  9
$THICKNESS
 40
0.0
  9
$LIMCHECK
 70
     0
  9
$CHAMFERA
 40
0.0
  9
$CHAMFERB
 40
0.0
  9
$CHAMFERC
 40
0.0
  9
$CHAMFERD
 40
0.0
  9
$SKPOLY
 70
     0
  9
$TDCREATE
 40
2455091.64028294
  9
$TDUCREATE
 40
2455091.556949607
  9
$TDUPDATE
 40
2455091.681949629
  9
$TDUUPDATE
 40
2455091.598616296
  9
$TDINDWG
 40
0.0377594792
  9
$TDUSRTIMER
 40
0.0377571181
  9
$USRTIMER
 70
     1
  9
$ANGBASE
 50
0.0
  9
$ANGDIR
 70
     0
  9
$PDMODE
 70
     0
  9
$PDSIZE
 40
0.0
  9
$PLINEWID
 40
0.0
  9
$SPLFRAME
 70
     0
  9
$SPLINETYPE
 70
     6
  9
$SPLINESEGS
 70
     8
  9
$HANDSEED
  5
292
  9
$SURFTAB1
 70
     6
  9
$SURFTAB2
 70
     6
  9
$SURFTYPE
 70
     6
  9
$SURFU
 70
     6
  9
$SURFV
 70
     6
  9
$UCSBASE
  2

  9
$UCSNAME
  2

  9
$UCSORG
 10
0.0
 20
0.0
 30
0.0
  9
$UCSXDIR
 10
1.0
 20
0.0
 30
0.0
  9
$UCSYDIR
 10
0.0
 20
1.0
 30
0.0
  9
$UCSORTHOREF
  2

  9
$UCSORTHOVIEW
 70
     0
  9
$UCSORGTOP
 10
0.0
 20
0.0
 30
0.0
  9
$UCSORGBOTTOM
 10
0.0
 20
0.0
 30
0.0
  9
$UCSORGLEFT
 10
0.0
 20
0.0
 30
0.0
  9
$UCSORGRIGHT
 10
0.0
 20
0.0
 30
0.0
  9
$UCSORGFRONT
 10
0.0
 20
0.0
 30
0.0
  9
$UCSORGBACK
 10
0.0
 20
0.0
 30
0.0
  9
$PUCSBASE
  2

  9
$PUCSNAME
  2

  9
$PUCSORG
 10
0.0
 20
0.0
 30
0.0
  9
$PUCSXDIR
 10
1.0
 20
0.0
 30
0.0
  9
$PUCSYDIR
 10
0.0
 20
1.0
 30
0.0
  9
$PUCSORTHOREF
  2

  9
$PUCSORTHOVIEW
 70
     0
  9
$PUCSORGTOP
 10
0.0
 20
0.0
 30
0.0
  9
$PUCSORGBOTTOM
 10
0.0
 20
0.0
 30
0.0
  9
$PUCSORGLEFT
 10
0.0
 20
0.0
 30
0.0
  9
$PUCSORGRIGHT
 10
0.0
 20
0.0
 30
0.0
  9
$PUCSORGFRONT
 10
0.0
 20
0.0
 30
0.0
  9
$PUCSORGBACK
 10
0.0
 20
0.0
 30
0.0
  9
$USERI1
 70
     0
  9
$USERI2
 70
     0
  9
$USERI3
 70
     0
  9
$USERI4
 70
     0
  9
$USERI5
 70
     0
  9
$USERR1
 40
0.0
  9
$USERR2
 40
0.0
  9
$USERR3
 40
0.0
  9
$USERR4
 40
0.0
  9
$USERR5
 40
0.0
  9
$WORLDVIEW
 70
     1
  9
$SHADEDGE
 70
     3
  9
$SHADEDIF
 70
    70
  9
$TILEMODE
 70
     1
  9
$MAXACTVP
 70
    64
  9
$PINSBASE
 10
0.0
 20
0.0
 30
0.0
  9
$PLIMCHECK
 70
     0
  9
$PEXTMIN
 10
0.0
 20
0.0
 30
0.0
  9
$PEXTMAX
 10
12.0
 20
9.0
 30
0.0
  9
$PLIMMIN
 10
0.0
 20
0.0
  9
$PLIMMAX
 10
12.0
 20
9.0
  9
$UNITMODE
 70
     0
  9
$VISRETAIN
 70
     1
  9
$PLINEGEN
 70
     0
  9
$PSLTSCALE
 70
     1
  9
$TREEDEPTH
 70
  3020
  9
$CMLSTYLE
  2
Standard
  9
$CMLJUST
 70
     0
  9
$CMLSCALE
 40
20.0
  9
$PROXYGRAPHICS
 70
     1
  9
$MEASUREMENT
 70
     1
  9
$CELWEIGHT
370
    -1
  9
$ENDCAPS
280
     0
  9
$JOINSTYLE
280
     0
  9
$LWDISPLAY
290
     0
  9
$INSUNITS
 70
     4
  9
$HYPERLINKBASE
  1

  9
$STYLESHEET
  1

  9
$XEDIT
290
     1
  9
$CEPSNTYPE
380
     0
  9
$PSTYLEMODE
290
     1
  9
$FINGERPRINTGUID
  2
{5559452E-1E62-4159-8551-BF76FFF3E7E8}
  9
$VERSIONGUID
  2
{3CEB9EF8-4431-4551-B596-6734A9F966A9}
  9
$EXTNAMES
290
     1
  9
$PSVPSCALE
 40
0.0
  9
$OLESTARTUP
290
     0
  0
ENDSEC
  0
SECTION
  2
CLASSES
  0
CLASS
  1
ACDBDICTIONARYWDFLT
  2
AcDbDictionaryWithDefault
  3
ObjectDBX Classes
 90
        0
280
     0
281
     0
  0
CLASS
  1
ACDBPLACEHOLDER
  2
AcDbPlaceHolder
  3
ObjectDBX Classes
 90
        0
280
     0
281
     0
  0
CLASS
  1
LAYOUT
  2
AcDbLayout
  3
ObjectDBX Classes
 90
        0
280
     0
281
     0
  0
CLASS
  1
DICTIONARYVAR
  2
AcDbDictionaryVar
  3
ObjectDBX Classes
 90
        0
280
     0
281
     0
  0
CLASS
  1
TABLESTYLE
  2
AcDbTableStyle
  3
ObjectDBX Classes
 90
     4095
280
     0
281
     0
  0
CLASS
  1
SCALE
  2
AcDbScale
  3
ObjectDBX Classes
 90
     1153
280
     0
281
     0
  0
ENDSEC
  0
SECTION
  2
TABLES
  0
TABLE
  2
VPORT
  5
8
330
0
100
AcDbSymbolTable
 70
     2
  0
VPORT
  5
97
330
8
100
AcDbSymbolTableRecord
100
AcDbViewportTableRecord
  2
*Active
 70
     0
 10
0.0
 20
0.0
 11
1.0
 21
1.0
 12
96.85013300909979
 22
215.7193942682903
 13
0.0
 23
0.0
 14
10.0
 24
10.0
 15
10.0
 25
10.0
 16
0.0
 26
0.0
 36
1.0
 17
0.0
 27
0.0
 37
0.0
 40
130.8485604323584
 41
1.664827586206897
 42
50.0
 43
0.0
 44
0.0
 50
0.0
 51
0.0
 71
     0
 72
  1000
 73
     1
 74
     3
 75
     0
 76
     0
 77
     0
 78
     0
281
     0
 65
     1
110
0.0
120
0.0
130
0.0
111
1.0
121
0.0
131
0.0
112
0.0
122
1.0
132
0.0
 79
     0
146
0.0
  0
ENDTAB
  0
TABLE
  2
LTYPE
  5
5
330
0
100
AcDbSymbolTable
 70
     2
  0
LTYPE
  5
14
330
5
100
AcDbSymbolTableRecord
100
AcDbLinetypeTableRecord
  2
ByBlock
 70
     0
  3

 72
    65
 73
     0
 40
0.0
  0
LTYPE
  5
15
330
5
100
AcDbSymbolTableRecord
100
AcDbLinetypeTableRecord
  2
ByLayer
 70
     0
  3

 72
    65
 73
     0
 40
0.0
  0
LTYPE
  5
16
330
5
100
AcDbSymbolTableRecord
100
AcDbLinetypeTableRecord
  2
Continuous
 70
     0
  3
Solid line
 72
    65
 73
     0
 40
0.0
  0
LTYPE
  5
261
330
5
100
AcDbSymbolTableRecord
100
AcDbLinetypeTableRecord
  2
CONTINUA
 70
     0
  3
Linea continua
 72
    65
 73
     0
 40
0.0
  0
ENDTAB
  0
TABLE
  2
LAYER
  5
2
330
0
100
AcDbSymbolTable
 70
     3
  0
LAYER
  5
10
330
2
100
AcDbSymbolTableRecord
100
AcDbLayerTableRecord
  2
0
 70
     0
 62
     7
  6
Continuous
370
    -3
390
F
  0
LAYER
  5
F9
330
2
100
AcDbSymbolTableRecord
100
AcDbLayerTableRecord
  2
A
 70
     0
 62
     7
  6
CONTINUA
370
    -3
390
F
  0
LAYER
  5
189
330
2
100
AcDbSymbolTableRecord
100
AcDbLayerTableRecord
  2
DEFPOINTS
 70
     0
 62
     7
  6
Continuous
290
     0
370
    -3
390
F
  0
ENDTAB
  0
TABLE
  2
STYLE
  5
3
330
0
100
AcDbSymbolTable
 70
     3
  0
STYLE
  5
11
330
3
100
AcDbSymbolTableRecord
100
AcDbTextStyleTableRecord
  2
Standard
 70
     0
 40
0.0
 41
1.0
 50
0.0
 71
     0
 42
2.5
  3
txt
  4

  0
STYLE
  5
FA
330
3
100
AcDbSymbolTableRecord
100
AcDbTextStyleTableRecord
  2
H
 70
     0
 40
1.75
 41
1.0
 50
0.0
 71
     0
 42
1.75
  3
swiss.ttf
  4

1001
ACAD
1000
Swis721 BT
1071
       34
  0
STYLE
  5
FC
330
3
100
AcDbSymbolTableRecord
100
AcDbTextStyleTableRecord
  2
HB
 70
     0
 40
3.0
 41
1.0
 50
0.0
 71
     0
 42
1.5
  3
swissb.ttf
  4

1001
ACAD
1000
Swis721 BT
1071
 33554466
  0
ENDTAB
  0
TABLE
  2
VIEW
  5
6
330
0
100
AcDbSymbolTable
 70
     0
  0
ENDTAB
  0
TABLE
  2
UCS
  5
7
330
0
100
AcDbSymbolTable
 70
     0
  0
ENDTAB
  0
TABLE
  2
APPID
  5
9
330
0
100
AcDbSymbolTable
 70
     2
  0
APPID
  5
12
330
9
100
AcDbSymbolTableRecord
100
AcDbRegAppTableRecord
  2
ACAD
 70
     0
  0
APPID
  5
260
330
9
100
AcDbSymbolTableRecord
100
AcDbRegAppTableRecord
  2
PROGE_PRINT_SETTINGS
 70
     0
  0
ENDTAB
  0
TABLE
  2
DIMSTYLE
  5
A
330
0
100
AcDbSymbolTable
 70
     3
100
AcDbDimStyleTable
  0
DIMSTYLE
105
27
330
A
100
AcDbSymbolTableRecord
100
AcDbDimStyleTableRecord
  2
Standard
 70
     0
278
     0
340
11
  0
DIMSTYLE
105
29
330
A
100
AcDbSymbolTableRecord
100
AcDbDimStyleTableRecord
  2
ISO-25
 70
     0
 41
2.5
 42
0.625
 43
3.75
 44
1.25
 73
     0
 74
     0
 77
     1
 78
     8
140
2.5
141
2.5
143
0.03937007874016
147
0.625
171
     3
172
     1
271
     2
272
     2
274
     3
278
    44
283
     0
284
     8
340
11
  0
DIMSTYLE
105
FB
102
{ACAD_REACTORS
330
101
102
}
330
A
100
AcDbSymbolTableRecord
100
AcDbDimStyleTableRecord
  2
GEWISS
 70
     0
 41
1.7
 42
1.0
 43
7.0
 44
0.3
 73
     0
 74
     0
 77
     1
140
1.75
141
1.5
147
0.75
172
     1
176
     1
177
     1
340
FA
  0
ENDTAB
  0
TABLE
  2
BLOCK_RECORD
  5
1
330
0
100
AcDbSymbolTable
 70
    20
  0
BLOCK_RECORD
  5
1F
330
1
100
AcDbSymbolTableRecord
100
AcDbBlockTableRecord
  2
*Model_Space
340
22
  0
BLOCK_RECORD
  5
73
330
1
100
AcDbSymbolTableRecord
100
AcDbBlockTableRecord
  2
*Paper_Space
340
263
  0
BLOCK_RECORD
  5
D1
330
1
100
AcDbSymbolTableRecord
100
AcDbBlockTableRecord
  2
*Paper_Space0
340
74
  0
BLOCK_RECORD
  5
194
330
1
100
AcDbSymbolTableRecord
100
AcDbBlockTableRecord
  2
*D1
340
0
  0
BLOCK_RECORD
  5
19F
330
1
100
AcDbSymbolTableRecord
100
AcDbBlockTableRecord
  2
*D2
340
0
  0
BLOCK_RECORD
  5
1AA
330
1
100
AcDbSymbolTableRecord
100
AcDbBlockTableRecord
  2
*D3
340
0
  0
BLOCK_RECORD
  5
1B5
330
1
100
AcDbSymbolTableRecord
100
AcDbBlockTableRecord
  2
*D4
340
0
  0
BLOCK_RECORD
  5
1C0
330
1
100
AcDbSymbolTableRecord
100
AcDbBlockTableRecord
  2
*D5
340
0
  0
BLOCK_RECORD
  5
1CB
330
1
100
AcDbSymbolTableRecord
100
AcDbBlockTableRecord
  2
*D6
340
0
  0
BLOCK_RECORD
  5
1D6
330
1
100
AcDbSymbolTableRecord
100
AcDbBlockTableRecord
  2
*D7
340
0
  0
BLOCK_RECORD
  5
1E2
330
1
100
AcDbSymbolTableRecord
100
AcDbBlockTableRecord
  2
*D8
340
0
  0
BLOCK_RECORD
  5
1EE
330
1
100
AcDbSymbolTableRecord
100
AcDbBlockTableRecord
  2
*D9
340
0
  0
BLOCK_RECORD
  5
1FA
330
1
100
AcDbSymbolTableRecord
100
AcDbBlockTableRecord
  2
*D10
340
0
  0
BLOCK_RECORD
  5
206
330
1
100
AcDbSymbolTableRecord
100
AcDbBlockTableRecord
  2
*D11
340
0
  0
BLOCK_RECORD
  5
211
330
1
100
AcDbSymbolTableRecord
100
AcDbBlockTableRecord
  2
*D12
340
0
  0
BLOCK_RECORD
  5
21C
330
1
100
AcDbSymbolTableRecord
100
AcDbBlockTableRecord
  2
*D13
340
0
  0
BLOCK_RECORD
  5
227
330
1
100
AcDbSymbolTableRecord
100
AcDbBlockTableRecord
  2
*D14
340
0
  0
BLOCK_RECORD
  5
232
330
1
100
AcDbSymbolTableRecord
100
AcDbBlockTableRecord
  2
*D15
340
0
  0
BLOCK_RECORD
  5
23D
330
1
100
AcDbSymbolTableRecord
100
AcDbBlockTableRecord
  2
*D16
340
0
  0
BLOCK_RECORD
  5
248
330
1
100
AcDbSymbolTableRecord
100
AcDbBlockTableRecord
  2
*D17
340
0
  0
BLOCK_RECORD
  5
253
330
1
100
AcDbSymbolTableRecord
100
AcDbBlockTableRecord
  2
*D18
340
0
  0
BLOCK_RECORD
  5
25E
330
1
100
AcDbSymbolTableRecord
100
AcDbBlockTableRecord
  2
*D19
340
0
  0
ENDTAB
  0
ENDSEC
  0
SECTION
  2
BLOCKS
  0
BLOCK
  5
20
330
1F
100
AcDbEntity
  8
0
100
AcDbBlockBegin
  2
*Model_Space
 70
     0
 10
0.0
 20
0.0
 30
0.0
  3
*Model_Space
  1

  0
ENDBLK
  5
21
330
1F
100
AcDbEntity
  8
0
100
AcDbBlockEnd
  0
BLOCK
  5
75
330
73
100
AcDbEntity
 67
     1
  8
0
100
AcDbBlockBegin
  2
*Paper_Space
 70
     0
 10
0.0
 20
0.0
 30
0.0
  3
*Paper_Space
  1

  0
ENDBLK
  5
76
330
73
100
AcDbEntity
 67
     1
  8
0
100
AcDbBlockEnd
  0
BLOCK
  5
264
330
D1
100
AcDbEntity
  8
0
100
AcDbBlockBegin
  2
*Paper_Space0
 70
     0
 10
0.0
 20
0.0
 30
0.0
  3
*Paper_Space0
  1

  0
VIEWPORT
  5
28C
330
D1
100
AcDbEntity
  8
0
100
AcDbViewport
 10
7.8
 20
4.5
 30
0.0
 40
15.64
 41
9.0
 68
     1
 69
     1
 12
6.0
 22
4.5
 13
0.0
 23
0.0
 14
0.5
 24
0.5
 15
0.5
 25
0.5
 16
0.0
 26
0.0
 36
1.0
 17
0.0
 27
0.0
 37
0.0
 42
50.0
 43
0.0
 44
0.0
 45
12.0
 50
0.0
 51
0.0
 72
   100
 90
   557152
  1

281
     0
 71
     1
 74
     0
110
0.0
120
0.0
130
0.0
111
1.0
121
0.0
131
0.0
112
0.0
122
1.0
132
0.0
 79
     0
146
0.0
  0
ENDBLK
  5
265
330
D1
100
AcDbEntity
  8
0
100
AcDbBlockEnd
  0
BLOCK
  5
266
330
194
100
AcDbEntity
  8
0
100
AcDbBlockBegin
  2
*D1
 70
     1
 10
0.0
 20
0.0
 30
0.0
  3
*D1
  1

  0
POINT
  5
18B
330
194
100
AcDbEntity
  8
DEFPOINTS
  6
ByBlock
 62
     1
380
     1
100
AcDbPoint
 10
22.588729
 20
56.757158
 30
0.0
  0
POINT
  5
18C
330
194
100
AcDbEntity
  8
DEFPOINTS
  6
ByBlock
 62
     1
380
     1
100
AcDbPoint
 10
8.502775
 20
3.900123
 30
0.0
  0
LINE
  5
18D
330
194
100
AcDbEntity
  8
0
  6
ByBlock
 62
     1
370
    -2
380
     1
100
AcDbLine
 10
21.588729
 20
56.757158
 30
0.0
 11
4.576269999999997
 21
56.757158
 31
0.0
  0
LINE
  5
18E
330
194
100
AcDbEntity
  8
0
  6
ByBlock
 62
     1
370
    -2
380
     1
100
AcDbLine
 10
7.502775
 20
3.900123000000001
 30
0.0
 11
4.576269999999997
 21
3.900123000000001
 31
0.0
  0
LINE
  5
18F
330
194
100
AcDbEntity
  8
0
  6
ByBlock
 62
     1
370
    -2
380
     1
100
AcDbLine
 10
4.876269999999998
 20
55.05715799999999
 30
0.0
 11
4.876269999999998
 21
5.600123000000004
 31
0.0
  0
SOLID
  5
190
330
194
100
AcDbEntity
  8
0
  6
ByBlock
 62
     1
380
     1
100
AcDbTrace
 10
4.876269999999998
 20
56.757158
 30
0.0
 11
4.592936666666663
 21
55.05715799999999
 31
0.0
 12
5.159603333333333
 22
55.05715799999999
 32
0.0
 13
5.159603333333333
 23
55.05715799999999
 33
0.0
  0
SOLID
  5
191
330
194
100
AcDbEntity
  8
0
  6
ByBlock
 62
     1
380
     1
100
AcDbTrace
 10
4.876269999999998
 20
3.900123000000001
 30
0.0
 11
4.592936666666663
 21
5.600123000000004
 31
0.0
 12
5.159603333333333
 22
5.600123000000004
 32
0.0
 13
5.159603333333333
 23
5.600123000000004
 33
0.0
  0
MTEXT
  5
192
330
194
100
AcDbEntity
  8
0
  6
ByBlock
 62
     0
370
    -2
380
     1
100
AcDbMText
 10
3.232767271487038
 20
30.3286405
 30
0.0
 40
1.75
 41
0.0
 71
     5
 72
     1
  1
min. 1000            max. 1750
  7
H
 11
6.123031769111886E-17
 21
1.0
 31
0.0
 73
     1
 44
1.0
  0
ENDBLK
  5
267
330
194
100
AcDbEntity
  8
0
100
AcDbBlockEnd
  0
BLOCK
  5
268
330
19F
100
AcDbEntity
  8
0
100
AcDbBlockBegin
  2
*D2
 70
     1
 10
0.0
 20
0.0
 30
0.0
  3
*D2
  1

  0
POINT
  5
196
330
19F
100
AcDbEntity
  8
DEFPOINTS
  6
ByBlock
 62
     1
380
     1
100
AcDbPoint
 10
82.74219021492038
 20
249.8258850596157
 30
0.0
  0
POINT
  5
197
330
19F
100
AcDbEntity
  8
DEFPOINTS
  6
ByBlock
 62
     1
380
     1
100
AcDbPoint
 10
68.6562362149204
 20
196.9688500596157
 30
0.0
  0
LINE
  5
198
330
19F
100
AcDbEntity
  8
0
  6
ByBlock
 62
     1
370
    -2
380
     1
100
AcDbLine
 10
81.74219021492038
 20
249.8258850596157
 30
0.0
 11
64.72973121492039
 21
249.8258850596157
 31
0.0
  0
LINE
  5
199
330
19F
100
AcDbEntity
  8
0
  6
ByBlock
 62
     1
370
    -2
380
     1
100
AcDbLine
 10
67.6562362149204
 20
196.9688500596157
 30
0.0
 11
64.72973121492039
 21
196.9688500596157
 31
0.0
  0
LINE
  5
19A
330
19F
100
AcDbEntity
  8
0
  6
ByBlock
 62
     1
370
    -2
380
     1
100
AcDbLine
 10
65.02973121492039
 20
248.1258850596157
 30
0.0
 11
65.02973121492039
 21
198.6688500596157
 31
0.0
  0
SOLID
  5
19B
330
19F
100
AcDbEntity
  8
0
  6
ByBlock
 62
     1
380
     1
100
AcDbTrace
 10
65.02973121492039
 20
249.8258850596157
 30
0.0
 11
64.74639788158706
 21
248.1258850596157
 31
0.0
 12
65.31306454825372
 22
248.1258850596157
 32
0.0
 13
65.31306454825372
 23
248.1258850596157
 33
0.0
  0
SOLID
  5
19C
330
19F
100
AcDbEntity
  8
0
  6
ByBlock
 62
     1
380
     1
100
AcDbTrace
 10
65.02973121492039
 20
196.9688500596157
 30
0.0
 11
64.74639788158706
 21
198.6688500596157
 31
0.0
 12
65.31306454825372
 22
198.6688500596157
 32
0.0
 13
65.31306454825372
 23
198.6688500596157
 33
0.0
  0
MTEXT
  5
19D
330
19F
100
AcDbEntity
  8
0
  6
ByBlock
 62
     0
370
    -2
380
     1
100
AcDbMText
 10
63.38622848640743
 20
223.3973675596157
 30
0.0
 40
1.75
 41
0.0
 71
     5
 72
     1
  1
min. 1000            max. 1750
  7
H
 11
6.123031769111886E-17
 21
1.0
 31
0.0
 73
     1
 44
1.0
  0
ENDBLK
  5
269
330
19F
100
AcDbEntity
  8
0
100
AcDbBlockEnd
  0
BLOCK
  5
26A
330
1AA
100
AcDbEntity
  8
0
100
AcDbBlockBegin
  2
*D3
 70
     1
 10
0.0
 20
0.0
 30
0.0
  3
*D3
  1

  0
POINT
  5
1A1
330
1AA
100
AcDbEntity
  8
DEFPOINTS
  6
ByBlock
 62
     1
380
     1
100
AcDbPoint
 10
82.74219021492038
 20
249.8258850596157
 30
0.0
  0
POINT
  5
1A2
330
1AA
100
AcDbEntity
  8
DEFPOINTS
  6
ByBlock
 62
     1
380
     1
100
AcDbPoint
 10
68.6562362149204
 20
196.9688500596157
 30
0.0
  0
LINE
  5
1A3
330
1AA
100
AcDbEntity
  8
0
  6
ByBlock
 62
     1
370
    -2
380
     1
100
AcDbLine
 10
81.74219021492038
 20
249.8258850596157
 30
0.0
 11
64.72973121492039
 21
249.8258850596157
 31
0.0
  0
LINE
  5
1A4
330
1AA
100
AcDbEntity
  8
0
  6
ByBlock
 62
     1
370
    -2
380
     1
100
AcDbLine
 10
67.6562362149204
 20
196.9688500596157
 30
0.0
 11
64.72973121492039
 21
196.9688500596157
 31
0.0
  0
LINE
  5
1A5
330
1AA
100
AcDbEntity
  8
0
  6
ByBlock
 62
     1
370
    -2
380
     1
100
AcDbLine
 10
65.02973121492039
 20
248.1258850596157
 30
0.0
 11
65.02973121492039
 21
198.6688500596157
 31
0.0
  0
SOLID
  5
1A6
330
1AA
100
AcDbEntity
  8
0
  6
ByBlock
 62
     1
380
     1
100
AcDbTrace
 10
65.02973121492039
 20
249.8258850596157
 30
0.0
 11
64.74639788158706
 21
248.1258850596157
 31
0.0
 12
65.31306454825372
 22
248.1258850596157
 32
0.0
 13
65.31306454825372
 23
248.1258850596157
 33
0.0
  0
SOLID
  5
1A7
330
1AA
100
AcDbEntity
  8
0
  6
ByBlock
 62
     1
380
     1
100
AcDbTrace
 10
65.02973121492039
 20
196.9688500596157
 30
0.0
 11
64.74639788158706
 21
198.6688500596157
 31
0.0
 12
65.31306454825372
 22
198.6688500596157
 32
0.0
 13
65.31306454825372
 23
198.6688500596157
 33
0.0
  0
MTEXT
  5
1A8
330
1AA
100
AcDbEntity
  8
0
  6
ByBlock
 62
     0
370
    -2
380
     1
100
AcDbMText
 10
63.38622848640743
 20
223.3973675596157
 30
0.0
 40
1.75
 41
0.0
 71
     5
 72
     1
  1
min. 1000            max. 1750
  7
H
 11
6.123031769111886E-17
 21
1.0
 31
0.0
 73
     1
 44
1.0
  0
ENDBLK
  5
26B
330
1AA
100
AcDbEntity
  8
0
100
AcDbBlockEnd
  0
BLOCK
  5
26C
330
1B5
100
AcDbEntity
  8
0
100
AcDbBlockBegin
  2
*D4
 70
     1
 10
0.0
 20
0.0
 30
0.0
  3
*D4
  1

  0
POINT
  5
1AC
330
1B5
100
AcDbEntity
  8
DEFPOINTS
  6
ByBlock
 62
     1
380
     1
100
AcDbPoint
 10
82.74219021492038
 20
249.8258850596157
 30
0.0
  0
POINT
  5
1AD
330
1B5
100
AcDbEntity
  8
DEFPOINTS
  6
ByBlock
 62
     1
380
     1
100
AcDbPoint
 10
68.6562362149204
 20
196.9688500596157
 30
0.0
  0
LINE
  5
1AE
330
1B5
100
AcDbEntity
  8
0
  6
ByBlock
 62
     1
370
    -2
380
     1
100
AcDbLine
 10
81.74219021492038
 20
249.8258850596157
 30
0.0
 11
64.72973121492039
 21
249.8258850596157
 31
0.0
  0
LINE
  5
1AF
330
1B5
100
AcDbEntity
  8
0
  6
ByBlock
 62
     1
370
    -2
380
     1
100
AcDbLine
 10
67.6562362149204
 20
196.9688500596157
 30
0.0
 11
64.72973121492039
 21
196.9688500596157
 31
0.0
  0
LINE
  5
1B0
330
1B5
100
AcDbEntity
  8
0
  6
ByBlock
 62
     1
370
    -2
380
     1
100
AcDbLine
 10
65.02973121492039
 20
248.1258850596157
 30
0.0
 11
65.02973121492039
 21
198.6688500596157
 31
0.0
  0
SOLID
  5
1B1
330
1B5
100
AcDbEntity
  8
0
  6
ByBlock
 62
     1
380
     1
100
AcDbTrace
 10
65.02973121492039
 20
249.8258850596157
 30
0.0
 11
64.74639788158706
 21
248.1258850596157
 31
0.0
 12
65.31306454825372
 22
248.1258850596157
 32
0.0
 13
65.31306454825372
 23
248.1258850596157
 33
0.0
  0
SOLID
  5
1B2
330
1B5
100
AcDbEntity
  8
0
  6
ByBlock
 62
     1
380
     1
100
AcDbTrace
 10
65.02973121492039
 20
196.9688500596157
 30
0.0
 11
64.74639788158706
 21
198.6688500596157
 31
0.0
 12
65.31306454825372
 22
198.6688500596157
 32
0.0
 13
65.31306454825372
 23
198.6688500596157
 33
0.0
  0
MTEXT
  5
1B3
330
1B5
100
AcDbEntity
  8
0
  6
ByBlock
 62
     0
370
    -2
380
     1
100
AcDbMText
 10
63.38622848640743
 20
223.3973675596157
 30
0.0
 40
1.75
 41
0.0
 71
     5
 72
     1
  1
min. 1000            max. 1750
  7
H
 11
6.123031769111886E-17
 21
1.0
 31
0.0
 73
     1
 44
1.0
  0
ENDBLK
  5
26D
330
1B5
100
AcDbEntity
  8
0
100
AcDbBlockEnd
  0
BLOCK
  5
26E
330
1C0
100
AcDbEntity
  8
0
100
AcDbBlockBegin
  2
*D5
 70
     1
 10
0.0
 20
0.0
 30
0.0
  3
*D5
  1

  0
POINT
  5
1B7
330
1C0
100
AcDbEntity
  8
DEFPOINTS
  6
ByBlock
 62
     1
380
     1
100
AcDbPoint
 10
82.74219021492038
 20
249.8258850596157
 30
0.0
  0
POINT
  5
1B8
330
1C0
100
AcDbEntity
  8
DEFPOINTS
  6
ByBlock
 62
     1
380
     1
100
AcDbPoint
 10
68.6562362149204
 20
196.9688500596157
 30
0.0
  0
LINE
  5
1B9
330
1C0
100
AcDbEntity
  8
0
  6
ByBlock
 62
     1
370
    -2
380
     1
100
AcDbLine
 10
81.74219021492038
 20
249.8258850596157
 30
0.0
 11
64.72973121492039
 21
249.8258850596157
 31
0.0
  0
LINE
  5
1BA
330
1C0
100
AcDbEntity
  8
0
  6
ByBlock
 62
     1
370
    -2
380
     1
100
AcDbLine
 10
67.6562362149204
 20
196.9688500596157
 30
0.0
 11
64.72973121492039
 21
196.9688500596157
 31
0.0
  0
LINE
  5
1BB
330
1C0
100
AcDbEntity
  8
0
  6
ByBlock
 62
     1
370
    -2
380
     1
100
AcDbLine
 10
65.02973121492039
 20
248.1258850596157
 30
0.0
 11
65.02973121492039
 21
198.6688500596157
 31
0.0
  0
SOLID
  5
1BC
330
1C0
100
AcDbEntity
  8
0
  6
ByBlock
 62
     1
380
     1
100
AcDbTrace
 10
65.02973121492039
 20
249.8258850596157
 30
0.0
 11
64.74639788158706
 21
248.1258850596157
 31
0.0
 12
65.31306454825372
 22
248.1258850596157
 32
0.0
 13
65.31306454825372
 23
248.1258850596157
 33
0.0
  0
SOLID
  5
1BD
330
1C0
100
AcDbEntity
  8
0
  6
ByBlock
 62
     1
380
     1
100
AcDbTrace
 10
65.02973121492039
 20
196.9688500596157
 30
0.0
 11
64.74639788158706
 21
198.6688500596157
 31
0.0
 12
65.31306454825372
 22
198.6688500596157
 32
0.0
 13
65.31306454825372
 23
198.6688500596157
 33
0.0
  0
MTEXT
  5
1BE
330
1C0
100
AcDbEntity
  8
0
  6
ByBlock
 62
     0
370
    -2
380
     1
100
AcDbMText
 10
63.38622848640743
 20
223.3973675596157
 30
0.0
 40
1.75
 41
0.0
 71
     5
 72
     1
  1
min. 1000            max. 1750
  7
H
 11
6.123031769111886E-17
 21
1.0
 31
0.0
 73
     1
 44
1.0
  0
ENDBLK
  5
26F
330
1C0
100
AcDbEntity
  8
0
100
AcDbBlockEnd
  0
BLOCK
  5
270
330
1CB
100
AcDbEntity
  8
0
100
AcDbBlockBegin
  2
*D6
 70
     1
 10
0.0
 20
0.0
 30
0.0
  3
*D6
  1

  0
POINT
  5
1C2
330
1CB
100
AcDbEntity
  8
DEFPOINTS
  6
ByBlock
 62
     1
380
     1
100
AcDbPoint
 10
87.18744521492039
 20
249.8258850596157
 30
0.0
  0
POINT
  5
1C3
330
1CB
100
AcDbEntity
  8
DEFPOINTS
  6
ByBlock
 62
     1
380
     1
100
AcDbPoint
 10
68.6562362149204
 20
196.9688500596157
 30
0.0
  0
LINE
  5
1C4
330
1CB
100
AcDbEntity
  8
0
  6
ByBlock
 62
     1
370
    -2
380
     1
100
AcDbLine
 10
86.18744521492039
 20
249.8258850596157
 30
0.0
 11
64.72973121492039
 21
249.8258850596157
 31
0.0
  0
LINE
  5
1C5
330
1CB
100
AcDbEntity
  8
0
  6
ByBlock
 62
     1
370
    -2
380
     1
100
AcDbLine
 10
67.6562362149204
 20
196.9688500596157
 30
0.0
 11
64.72973121492039
 21
196.9688500596157
 31
0.0
  0
LINE
  5
1C6
330
1CB
100
AcDbEntity
  8
0
  6
ByBlock
 62
     1
370
    -2
380
     1
100
AcDbLine
 10
65.02973121492039
 20
248.1258850596157
 30
0.0
 11
65.02973121492039
 21
198.6688500596157
 31
0.0
  0
SOLID
  5
1C7
330
1CB
100
AcDbEntity
  8
0
  6
ByBlock
 62
     1
380
     1
100
AcDbTrace
 10
65.02973121492039
 20
249.8258850596157
 30
0.0
 11
64.74639788158706
 21
248.1258850596157
 31
0.0
 12
65.31306454825372
 22
248.1258850596157
 32
0.0
 13
65.31306454825372
 23
248.1258850596157
 33
0.0
  0
SOLID
  5
1C8
330
1CB
100
AcDbEntity
  8
0
  6
ByBlock
 62
     1
380
     1
100
AcDbTrace
 10
65.02973121492039
 20
196.9688500596157
 30
0.0
 11
64.74639788158706
 21
198.6688500596157
 31
0.0
 12
65.31306454825372
 22
198.6688500596157
 32
0.0
 13
65.31306454825372
 23
198.6688500596157
 33
0.0
  0
MTEXT
  5
1C9
330
1CB
100
AcDbEntity
  8
0
  6
ByBlock
 62
     0
370
    -2
380
     1
100
AcDbMText
 10
63.38622848640743
 20
223.3973675596157
 30
0.0
 40
1.75
 41
0.0
 71
     5
 72
     1
  1
min. 1000            max. 1750
  7
H
 11
6.123031769111886E-17
 21
1.0
 31
0.0
 73
     1
 44
1.0
  0
ENDBLK
  5
271
330
1CB
100
AcDbEntity
  8
0
100
AcDbBlockEnd
  0
BLOCK
  5
272
330
1D6
100
AcDbEntity
  8
0
100
AcDbBlockBegin
  2
*D7
 70
     1
 10
0.0
 20
0.0
 30
0.0
  3
*D7
  1

  0
POINT
  5
1CD
330
1D6
100
AcDbEntity
  8
DEFPOINTS
  6
ByBlock
 62
     1
380
     1
100
AcDbPoint
 10
87.18744521492039
 20
249.8258850596157
 30
0.0
  0
POINT
  5
1CE
330
1D6
100
AcDbEntity
  8
DEFPOINTS
  6
ByBlock
 62
     1
380
     1
100
AcDbPoint
 10
68.6562362149204
 20
196.9688500596157
 30
0.0
  0
LINE
  5
1CF
330
1D6
100
AcDbEntity
  8
0
  6
ByBlock
 62
     1
370
    -2
380
     1
100
AcDbLine
 10
86.18744521492039
 20
249.8258850596157
 30
0.0
 11
64.72973121492039
 21
249.8258850596157
 31
0.0
  0
LINE
  5
1D0
330
1D6
100
AcDbEntity
  8
0
  6
ByBlock
 62
     1
370
    -2
380
     1
100
AcDbLine
 10
67.6562362149204
 20
196.9688500596157
 30
0.0
 11
64.72973121492039
 21
196.9688500596157
 31
0.0
  0
LINE
  5
1D1
330
1D6
100
AcDbEntity
  8
0
  6
ByBlock
 62
     1
370
    -2
380
     1
100
AcDbLine
 10
65.02973121492039
 20
248.1258850596157
 30
0.0
 11
65.02973121492039
 21
198.6688500596157
 31
0.0
  0
SOLID
  5
1D2
330
1D6
100
AcDbEntity
  8
0
  6
ByBlock
 62
     1
380
     1
100
AcDbTrace
 10
65.02973121492039
 20
249.8258850596157
 30
0.0
 11
64.74639788158706
 21
248.1258850596157
 31
0.0
 12
65.31306454825372
 22
248.1258850596157
 32
0.0
 13
65.31306454825372
 23
248.1258850596157
 33
0.0
  0
SOLID
  5
1D3
330
1D6
100
AcDbEntity
  8
0
  6
ByBlock
 62
     1
380
     1
100
AcDbTrace
 10
65.02973121492039
 20
196.9688500596157
 30
0.0
 11
64.74639788158706
 21
198.6688500596157
 31
0.0
 12
65.31306454825372
 22
198.6688500596157
 32
0.0
 13
65.31306454825372
 23
198.6688500596157
 33
0.0
  0
MTEXT
  5
1D4
330
1D6
100
AcDbEntity
  8
0
  6
ByBlock
 62
     0
370
    -2
380
     1
100
AcDbMText
 10
63.38622848640743
 20
223.3973675596157
 30
0.0
 40
1.75
 41
0.0
 71
     5
 72
     1
  1
min. 1000            max. 1750
  7
H
 11
6.123031769111886E-17
 21
1.0
 31
0.0
 73
     1
 44
1.0
  0
ENDBLK
  5
273
330
1D6
100
AcDbEntity
  8
0
100
AcDbBlockEnd
  0
BLOCK
  5
274
330
1E2
100
AcDbEntity
  8
0
100
AcDbBlockBegin
  2
*D8
 70
     1
 10
0.0
 20
0.0
 30
0.0
  3
*D8
  1

  0
POINT
  5
1D8
330
1E2
100
AcDbEntity
  8
DEFPOINTS
  6
ByBlock
 62
     7
380
     1
100
AcDbPoint
 10
87.18744521492039
 20
249.8258850596157
 30
0.0
  0
POINT
  5
1D9
330
1E2
100
AcDbEntity
  8
DEFPOINTS
  6
ByBlock
 62
     7
380
     1
100
AcDbPoint
 10
68.6562362149204
 20
196.9688500596157
 30
0.0
  0
LINE
  5
1DA
330
1E2
100
AcDbEntity
  8
0
  6
ByBlock
 62
     7
370
    -2
380
     1
100
AcDbLine
 10
86.18744521492039
 20
249.8258850596157
 30
0.0
 11
64.72973121492039
 21
249.8258850596157
 31
0.0
  0
LINE
  5
1DB
330
1E2
100
AcDbEntity
  8
0
  6
ByBlock
 62
     7
370
    -2
380
     1
100
AcDbLine
 10
67.6562362149204
 20
196.9688500596157
 30
0.0
 11
64.72973121492039
 21
196.9688500596157
 31
0.0
  0
LINE
  5
1DC
330
1E2
100
AcDbEntity
  8
0
  6
ByBlock
 62
     7
370
    -2
380
     1
100
AcDbLine
 10
65.02973121492039
 20
239.8258850596157
 30
0.0
 11
65.02973121492039
 21
206.9688500596157
 31
0.0
  0
LINE
  5
1DD
330
1E2
100
AcDbEntity
  8
0
  6
ByBlock
 62
     7
370
    -2
380
     1
100
AcDbLine
 10
65.02973121492039
 20
196.9688500596157
 30
0.0
 11
65.02973121492039
 21
162.9688500596156
 31
0.0
  0
SOLID
  5
1DE
330
1E2
100
AcDbEntity
  8
0
  6
ByBlock
 62
     7
380
     1
100
AcDbTrace
 10
65.02973121492039
 20
249.8258850596157
 30
0.0
 11
63.36306454825372
 21
239.8258850596157
 31
0.0
 12
66.69639788158706
 22
239.8258850596157
 32
0.0
 13
66.69639788158706
 23
239.8258850596157
 33
0.0
  0
SOLID
  5
1DF
330
1E2
100
AcDbEntity
  8
0
  6
ByBlock
 62
     7
380
     1
100
AcDbTrace
 10
65.02973121492039
 20
196.9688500596157
 30
0.0
 11
63.36306454825372
 21
206.9688500596157
 31
0.0
 12
66.69639788158706
 22
206.9688500596157
 32
0.0
 13
66.69639788158706
 23
206.9688500596157
 33
0.0
  0
MTEXT
  5
1E0
330
1E2
100
AcDbEntity
  8
0
  6
ByBlock
 62
     0
370
    -2
380
     1
100
AcDbMText
 10
53.02973121492039
 20
174.9688500596156
 30
0.0
 40
14.0
 41
0.0
 71
     5
 72
     1
  1
min. 1000            max. 1750
 11
6.123031769111886E-17
 21
1.0
 31
0.0
 73
     1
 44
1.0
  0
ENDBLK
  5
275
330
1E2
100
AcDbEntity
  8
0
100
AcDbBlockEnd
  0
BLOCK
  5
276
330
1EE
100
AcDbEntity
  8
0
100
AcDbBlockBegin
  2
*D9
 70
     1
 10
0.0
 20
0.0
 30
0.0
  3
*D9
  1

  0
POINT
  5
1E4
330
1EE
100
AcDbEntity
  8
DEFPOINTS
  6
ByBlock
 62
     7
380
     1
100
AcDbPoint
 10
87.18744521492039
 20
249.8258850596157
 30
0.0
  0
POINT
  5
1E5
330
1EE
100
AcDbEntity
  8
DEFPOINTS
  6
ByBlock
 62
     7
380
     1
100
AcDbPoint
 10
68.6562362149204
 20
196.9688500596157
 30
0.0
  0
LINE
  5
1E6
330
1EE
100
AcDbEntity
  8
0
  6
ByBlock
 62
     7
370
    -2
380
     1
100
AcDbLine
 10
86.18744521492039
 20
249.8258850596157
 30
0.0
 11
64.72973121492039
 21
249.8258850596157
 31
0.0
  0
LINE
  5
1E7
330
1EE
100
AcDbEntity
  8
0
  6
ByBlock
 62
     7
370
    -2
380
     1
100
AcDbLine
 10
67.6562362149204
 20
196.9688500596157
 30
0.0
 11
64.72973121492039
 21
196.9688500596157
 31
0.0
  0
LINE
  5
1E8
330
1EE
100
AcDbEntity
  8
0
  6
ByBlock
 62
     7
370
    -2
380
     1
100
AcDbLine
 10
65.02973121492039
 20
244.8258850596157
 30
0.0
 11
65.02973121492039
 21
201.9688500596157
 31
0.0
  0
LINE
  5
1E9
330
1EE
100
AcDbEntity
  8
0
  6
ByBlock
 62
     7
370
    -2
380
     1
100
AcDbLine
 10
65.02973121492039
 20
196.9688500596157
 30
0.0
 11
65.02973121492039
 21
179.9688500596157
 31
0.0
  0
SOLID
  5
1EA
330
1EE
100
AcDbEntity
  8
0
  6
ByBlock
 62
     7
380
     1
100
AcDbTrace
 10
65.02973121492039
 20
249.8258850596157
 30
0.0
 11
64.19639788158705
 21
244.8258850596157
 31
0.0
 12
65.86306454825373
 22
244.8258850596157
 32
0.0
 13
65.86306454825373
 23
244.8258850596157
 33
0.0
  0
SOLID
  5
1EB
330
1EE
100
AcDbEntity
  8
0
  6
ByBlock
 62
     7
380
     1
100
AcDbTrace
 10
65.02973121492039
 20
196.9688500596157
 30
0.0
 11
64.19639788158705
 21
201.9688500596157
 31
0.0
 12
65.86306454825373
 22
201.9688500596157
 32
0.0
 13
65.86306454825373
 23
201.9688500596157
 33
0.0
  0
MTEXT
  5
1EC
330
1EE
100
AcDbEntity
  8
0
  6
ByBlock
 62
     0
370
    -2
380
     1
100
AcDbMText
 10
59.02973121492039
 20
185.9688500596157
 30
0.0
 40
7.0
 41
0.0
 71
     5
 72
     1
  1
min. 1000            max. 1750
 11
6.123031769111886E-17
 21
1.0
 31
0.0
 73
     1
 44
1.0
  0
ENDBLK
  5
277
330
1EE
100
AcDbEntity
  8
0
100
AcDbBlockEnd
  0
BLOCK
  5
278
330
1FA
100
AcDbEntity
  8
0
100
AcDbBlockBegin
  2
*D10
 70
     1
 10
0.0
 20
0.0
 30
0.0
  3
*D10
  1

  0
POINT
  5
1F0
330
1FA
100
AcDbEntity
  8
DEFPOINTS
  6
ByBlock
 62
     7
380
     1
100
AcDbPoint
 10
87.18744521492039
 20
249.8258850596157
 30
0.0
  0
POINT
  5
1F1
330
1FA
100
AcDbEntity
  8
DEFPOINTS
  6
ByBlock
 62
     7
380
     1
100
AcDbPoint
 10
68.6562362149204
 20
196.9688500596157
 30
0.0
  0
LINE
  5
1F2
330
1FA
100
AcDbEntity
  8
0
  6
ByBlock
 62
     7
370
    -2
380
     1
100
AcDbLine
 10
86.18744521492039
 20
249.8258850596157
 30
0.0
 11
64.72973121492039
 21
249.8258850596157
 31
0.0
  0
LINE
  5
1F3
330
1FA
100
AcDbEntity
  8
0
  6
ByBlock
 62
     7
370
    -2
380
     1
100
AcDbLine
 10
67.6562362149204
 20
196.9688500596157
 30
0.0
 11
64.72973121492039
 21
196.9688500596157
 31
0.0
  0
LINE
  5
1F4
330
1FA
100
AcDbEntity
  8
0
  6
ByBlock
 62
     7
370
    -2
380
     1
100
AcDbLine
 10
65.02973121492039
 20
244.8258850596157
 30
0.0
 11
65.02973121492039
 21
201.9688500596157
 31
0.0
  0
LINE
  5
1F5
330
1FA
100
AcDbEntity
  8
0
  6
ByBlock
 62
     7
370
    -2
380
     1
100
AcDbLine
 10
65.02973121492039
 20
196.9688500596157
 30
0.0
 11
65.02973121492039
 21
179.9688500596157
 31
0.0
  0
SOLID
  5
1F6
330
1FA
100
AcDbEntity
  8
0
  6
ByBlock
 62
     7
380
     1
100
AcDbTrace
 10
65.02973121492039
 20
249.8258850596157
 30
0.0
 11
64.19639788158705
 21
244.8258850596157
 31
0.0
 12
65.86306454825373
 22
244.8258850596157
 32
0.0
 13
65.86306454825373
 23
244.8258850596157
 33
0.0
  0
SOLID
  5
1F7
330
1FA
100
AcDbEntity
  8
0
  6
ByBlock
 62
     7
380
     1
100
AcDbTrace
 10
65.02973121492039
 20
196.9688500596157
 30
0.0
 11
64.19639788158705
 21
201.9688500596157
 31
0.0
 12
65.86306454825373
 22
201.9688500596157
 32
0.0
 13
65.86306454825373
 23
201.9688500596157
 33
0.0
  0
MTEXT
  5
1F8
330
1FA
100
AcDbEntity
  8
0
  6
ByBlock
 62
     0
370
    -2
380
     1
100
AcDbMText
 10
59.02973121492039
 20
185.9688500596157
 30
0.0
 40
7.0
 41
0.0
 71
     5
 72
     1
  1
min. 1000 - max. 1750
 11
6.123031769111886E-17
 21
1.0
 31
0.0
 73
     1
 44
1.0
  0
ENDBLK
  5
279
330
1FA
100
AcDbEntity
  8
0
100
AcDbBlockEnd
  0
BLOCK
  5
27A
330
206
100
AcDbEntity
  8
0
100
AcDbBlockBegin
  2
*D11
 70
     1
 10
0.0
 20
0.0
 30
0.0
  3
*D11
  1

  0
POINT
  5
1FC
330
206
100
AcDbEntity
  8
DEFPOINTS
  6
ByBlock
 62
     7
380
     1
100
AcDbPoint
 10
87.18744521492039
 20
249.8258850596157
 30
0.0
  0
POINT
  5
1FD
330
206
100
AcDbEntity
  8
DEFPOINTS
  6
ByBlock
 62
     7
380
     1
100
AcDbPoint
 10
68.6562362149204
 20
196.9688500596157
 30
0.0
  0
LINE
  5
1FE
330
206
100
AcDbEntity
  8
0
  6
ByBlock
 62
     7
370
    -2
380
     1
100
AcDbLine
 10
86.18744521492039
 20
249.8258850596157
 30
0.0
 11
64.72973121492039
 21
249.8258850596157
 31
0.0
  0
LINE
  5
1FF
330
206
100
AcDbEntity
  8
0
  6
ByBlock
 62
     7
370
    -2
380
     1
100
AcDbLine
 10
67.6562362149204
 20
196.9688500596157
 30
0.0
 11
64.72973121492039
 21
196.9688500596157
 31
0.0
  0
LINE
  5
200
330
206
100
AcDbEntity
  8
0
  6
ByBlock
 62
     7
370
    -2
380
     1
100
AcDbLine
 10
65.02973121492039
 20
244.8258850596157
 30
0.0
 11
65.02973121492039
 21
201.9688500596157
 31
0.0
  0
LINE
  5
201
330
206
100
AcDbEntity
  8
0
  6
ByBlock
 62
     7
370
    -2
380
     1
100
AcDbLine
 10
65.02973121492039
 20
196.9688500596157
 30
0.0
 11
65.02973121492039
 21
179.9688500596157
 31
0.0
  0
SOLID
  5
202
330
206
100
AcDbEntity
  8
0
  6
ByBlock
 62
     7
380
     1
100
AcDbTrace
 10
65.02973121492039
 20
249.8258850596157
 30
0.0
 11
64.19639788158705
 21
244.8258850596157
 31
0.0
 12
65.86306454825373
 22
244.8258850596157
 32
0.0
 13
65.86306454825373
 23
244.8258850596157
 33
0.0
  0
SOLID
  5
203
330
206
100
AcDbEntity
  8
0
  6
ByBlock
 62
     7
380
     1
100
AcDbTrace
 10
65.02973121492039
 20
196.9688500596157
 30
0.0
 11
64.19639788158705
 21
201.9688500596157
 31
0.0
 12
65.86306454825373
 22
201.9688500596157
 32
0.0
 13
65.86306454825373
 23
201.9688500596157
 33
0.0
  0
MTEXT
  5
204
330
206
100
AcDbEntity
  8
0
  6
ByBlock
 62
     0
370
    -2
380
     1
100
AcDbMText
 10
59.02973121492039
 20
185.9688500596157
 30
0.0
 40
7.0
 41
0.0
 71
     5
 72
     1
  1
Min 1000 - Max 1750
 11
6.123031769111886E-17
 21
1.0
 31
0.0
 73
     1
 44
1.0
  0
ENDBLK
  5
27B
330
206
100
AcDbEntity
  8
0
100
AcDbBlockEnd
  0
BLOCK
  5
27C
330
211
100
AcDbEntity
  8
0
100
AcDbBlockBegin
  2
*D12
 70
     1
 10
0.0
 20
0.0
 30
0.0
  3
*D12
  1

  0
POINT
  5
208
330
211
100
AcDbEntity
  8
DEFPOINTS
  6
ByBlock
 62
     7
380
     1
100
AcDbPoint
 10
87.18744521492039
 20
249.8258850596157
 30
0.0
  0
POINT
  5
209
330
211
100
AcDbEntity
  8
DEFPOINTS
  6
ByBlock
 62
     7
380
     1
100
AcDbPoint
 10
68.6562362149204
 20
196.9688500596157
 30
0.0
  0
LINE
  5
20A
330
211
100
AcDbEntity
  8
0
  6
ByBlock
 62
     7
370
    -2
380
     1
100
AcDbLine
 10
86.18744521492039
 20
249.8258850596157
 30
0.0
 11
64.72973121492039
 21
249.8258850596157
 31
0.0
  0
LINE
  5
20B
330
211
100
AcDbEntity
  8
0
  6
ByBlock
 62
     7
370
    -2
380
     1
100
AcDbLine
 10
67.6562362149204
 20
196.9688500596157
 30
0.0
 11
64.72973121492039
 21
196.9688500596157
 31
0.0
  0
LINE
  5
20C
330
211
100
AcDbEntity
  8
0
  6
ByBlock
 62
     7
370
    -2
380
     1
100
AcDbLine
 10
65.02973121492039
 20
244.8258850596157
 30
0.0
 11
65.02973121492039
 21
201.9688500596157
 31
0.0
  0
SOLID
  5
20D
330
211
100
AcDbEntity
  8
0
  6
ByBlock
 62
     7
380
     1
100
AcDbTrace
 10
65.02973121492039
 20
249.8258850596157
 30
0.0
 11
64.19639788158705
 21
244.8258850596157
 31
0.0
 12
65.86306454825373
 22
244.8258850596157
 32
0.0
 13
65.86306454825373
 23
244.8258850596157
 33
0.0
  0
SOLID
  5
20E
330
211
100
AcDbEntity
  8
0
  6
ByBlock
 62
     7
380
     1
100
AcDbTrace
 10
65.02973121492039
 20
196.9688500596157
 30
0.0
 11
64.19639788158705
 21
201.9688500596157
 31
0.0
 12
65.86306454825373
 22
201.9688500596157
 32
0.0
 13
65.86306454825373
 23
201.9688500596157
 33
0.0
  0
MTEXT
  5
20F
330
211
100
AcDbEntity
  8
0
  6
ByBlock
 62
     0
370
    -2
380
     1
100
AcDbMText
 10
61.52973121492039
 20
223.3973675596157
 30
0.0
 40
2.0
 41
0.0
 71
     5
 72
     1
  1
Min 1000 - Max 1750
 11
6.123031769111886E-17
 21
1.0
 31
0.0
 73
     1
 44
1.0
  0
ENDBLK
  5
27D
330
211
100
AcDbEntity
  8
0
100
AcDbBlockEnd
  0
BLOCK
  5
27E
330
21C
100
AcDbEntity
  8
0
100
AcDbBlockBegin
  2
*D13
 70
     1
 10
0.0
 20
0.0
 30
0.0
  3
*D13
  1

  0
POINT
  5
213
330
21C
100
AcDbEntity
  8
DEFPOINTS
  6
ByBlock
 62
     7
380
     1
100
AcDbPoint
 10
87.18744521492039
 20
249.8258850596157
 30
0.0
  0
POINT
  5
214
330
21C
100
AcDbEntity
  8
DEFPOINTS
  6
ByBlock
 62
     7
380
     1
100
AcDbPoint
 10
69.98221421492039
 20
196.9080410596157
 30
0.0
  0
LINE
  5
215
330
21C
100
AcDbEntity
  8
0
  6
ByBlock
 62
     7
370
    -2
380
     1
100
AcDbLine
 10
86.18744521492039
 20
249.8258850596157
 30
0.0
 11
64.72973121492039
 21
249.8258850596157
 31
0.0
  0
LINE
  5
216
330
21C
100
AcDbEntity
  8
0
  6
ByBlock
 62
     7
370
    -2
380
     1
100
AcDbLine
 10
68.98221421492039
 20
196.9080410596157
 30
0.0
 11
64.72973121492039
 21
196.9080410596157
 31
0.0
  0
LINE
  5
217
330
21C
100
AcDbEntity
  8
0
  6
ByBlock
 62
     7
370
    -2
380
     1
100
AcDbLine
 10
65.02973121492039
 20
244.8258850596157
 30
0.0
 11
65.02973121492039
 21
201.9080410596157
 31
0.0
  0
SOLID
  5
218
330
21C
100
AcDbEntity
  8
0
  6
ByBlock
 62
     7
380
     1
100
AcDbTrace
 10
65.02973121492039
 20
249.8258850596157
 30
0.0
 11
64.19639788158705
 21
244.8258850596157
 31
0.0
 12
65.86306454825373
 22
244.8258850596157
 32
0.0
 13
65.86306454825373
 23
244.8258850596157
 33
0.0
  0
SOLID
  5
219
330
21C
100
AcDbEntity
  8
0
  6
ByBlock
 62
     7
380
     1
100
AcDbTrace
 10
65.02973121492039
 20
196.9080410596157
 30
0.0
 11
64.19639788158705
 21
201.9080410596157
 31
0.0
 12
65.86306454825373
 22
201.9080410596157
 32
0.0
 13
65.86306454825373
 23
201.9080410596157
 33
0.0
  0
MTEXT
  5
21A
330
21C
100
AcDbEntity
  8
0
  6
ByBlock
 62
     0
370
    -2
380
     1
100
AcDbMText
 10
61.52973121492039
 20
223.3669630596157
 30
0.0
 40
2.0
 41
0.0
 71
     5
 72
     1
  1
Min 1000 - Max 1750
 11
6.123031769111886E-17
 21
1.0
 31
0.0
 73
     1
 44
1.0
  0
ENDBLK
  5
27F
330
21C
100
AcDbEntity
  8
0
100
AcDbBlockEnd
  0
BLOCK
  5
280
330
227
100
AcDbEntity
  8
0
100
AcDbBlockBegin
  2
*D14
 70
     1
 10
0.0
 20
0.0
 30
0.0
  3
*D14
  1

  0
POINT
  5
21E
330
227
100
AcDbEntity
  8
DEFPOINTS
  6
ByBlock
 62
     7
380
     1
100
AcDbPoint
 10
87.18744521492039
 20
249.9406932825024
 30
0.0
  0
POINT
  5
21F
330
227
100
AcDbEntity
  8
DEFPOINTS
  6
ByBlock
 62
     7
380
     1
100
AcDbPoint
 10
69.98221421492039
 20
197.0228492825024
 30
0.0
  0
LINE
  5
220
330
227
100
AcDbEntity
  8
0
  6
ByBlock
 62
     7
370
    -2
380
     1
100
AcDbLine
 10
86.18744521492039
 20
249.9406932825024
 30
0.0
 11
64.72973121492039
 21
249.9406932825024
 31
0.0
  0
LINE
  5
221
330
227
100
AcDbEntity
  8
0
  6
ByBlock
 62
     7
370
    -2
380
     1
100
AcDbLine
 10
68.98221421492039
 20
197.0228492825024
 30
0.0
 11
64.72973121492039
 21
197.0228492825024
 31
0.0
  0
LINE
  5
222
330
227
100
AcDbEntity
  8
0
  6
ByBlock
 62
     7
370
    -2
380
     1
100
AcDbLine
 10
65.02973121492039
 20
244.9406932825024
 30
0.0
 11
65.02973121492039
 21
202.0228492825024
 31
0.0
  0
SOLID
  5
223
330
227
100
AcDbEntity
  8
0
  6
ByBlock
 62
     7
380
     1
100
AcDbTrace
 10
65.02973121492039
 20
249.9406932825024
 30
0.0
 11
64.19639788158705
 21
244.9406932825024
 31
0.0
 12
65.86306454825373
 22
244.9406932825024
 32
0.0
 13
65.86306454825373
 23
244.9406932825024
 33
0.0
  0
SOLID
  5
224
330
227
100
AcDbEntity
  8
0
  6
ByBlock
 62
     7
380
     1
100
AcDbTrace
 10
65.02973121492039
 20
197.0228492825024
 30
0.0
 11
64.19639788158705
 21
202.0228492825024
 31
0.0
 12
65.86306454825373
 22
202.0228492825024
 32
0.0
 13
65.86306454825373
 23
202.0228492825024
 33
0.0
  0
MTEXT
  5
225
330
227
100
AcDbEntity
  8
0
  6
ByBlock
 62
     0
370
    -2
380
     1
100
AcDbMText
 10
61.52973121492039
 20
223.4817712825024
 30
0.0
 40
2.0
 41
0.0
 71
     5
 72
     1
  1
Min 1000 - Max 1750
 11
6.123031769111886E-17
 21
1.0
 31
0.0
 73
     1
 44
1.0
  0
ENDBLK
  5
281
330
227
100
AcDbEntity
  8
0
100
AcDbBlockEnd
  0
BLOCK
  5
282
330
232
100
AcDbEntity
  8
0
100
AcDbBlockBegin
  2
*D15
 70
     1
 10
0.0
 20
0.0
 30
0.0
  3
*D15
  1

  0
POINT
  5
229
330
232
100
AcDbEntity
  8
DEFPOINTS
  6
ByBlock
 62
     7
380
     1
100
AcDbPoint
 10
87.18744521492039
 20
249.9406932825024
 30
0.0
  0
POINT
  5
22A
330
232
100
AcDbEntity
  8
DEFPOINTS
  6
ByBlock
 62
     7
380
     1
100
AcDbPoint
 10
71.0287429548253
 20
197.0228492825024
 30
0.0
  0
LINE
  5
22B
330
232
100
AcDbEntity
  8
0
  6
ByBlock
 62
     7
370
    -2
380
     1
100
AcDbLine
 10
86.18744521492039
 20
249.9406932825024
 30
0.0
 11
64.72973121492039
 21
249.9406932825024
 31
0.0
  0
LINE
  5
22C
330
232
100
AcDbEntity
  8
0
  6
ByBlock
 62
     7
370
    -2
380
     1
100
AcDbLine
 10
70.0287429548253
 20
197.0228492825024
 30
0.0
 11
64.72973121492039
 21
197.0228492825024
 31
0.0
  0
LINE
  5
22D
330
232
100
AcDbEntity
  8
0
  6
ByBlock
 62
     7
370
    -2
380
     1
100
AcDbLine
 10
65.02973121492039
 20
244.9406932825024
 30
0.0
 11
65.02973121492039
 21
202.0228492825024
 31
0.0
  0
SOLID
  5
22E
330
232
100
AcDbEntity
  8
0
  6
ByBlock
 62
     7
380
     1
100
AcDbTrace
 10
65.02973121492039
 20
249.9406932825024
 30
0.0
 11
64.19639788158705
 21
244.9406932825024
 31
0.0
 12
65.86306454825373
 22
244.9406932825024
 32
0.0
 13
65.86306454825373
 23
244.9406932825024
 33
0.0
  0
SOLID
  5
22F
330
232
100
AcDbEntity
  8
0
  6
ByBlock
 62
     7
380
     1
100
AcDbTrace
 10
65.02973121492039
 20
197.0228492825024
 30
0.0
 11
64.19639788158705
 21
202.0228492825024
 31
0.0
 12
65.86306454825373
 22
202.0228492825024
 32
0.0
 13
65.86306454825373
 23
202.0228492825024
 33
0.0
  0
MTEXT
  5
230
330
232
100
AcDbEntity
  8
0
  6
ByBlock
 62
     0
370
    -2
380
     1
100
AcDbMText
 10
61.52973121492039
 20
223.4817712825024
 30
0.0
 40
2.0
 41
0.0
 71
     5
 72
     1
  1
Min 1000 - Max 1750
 11
6.123031769111886E-17
 21
1.0
 31
0.0
 73
     1
 44
1.0
  0
ENDBLK
  5
283
330
232
100
AcDbEntity
  8
0
100
AcDbBlockEnd
  0
BLOCK
  5
284
330
23D
100
AcDbEntity
  8
0
100
AcDbBlockBegin
  2
*D16
 70
     1
 10
0.0
 20
0.0
 30
0.0
  3
*D16
  1

  0
POINT
  5
234
330
23D
100
AcDbEntity
  8
DEFPOINTS
  6
ByBlock
 62
     7
380
     1
100
AcDbPoint
 10
87.18744521492039
 20
249.9406932825024
 30
0.0
  0
POINT
  5
235
330
23D
100
AcDbEntity
  8
DEFPOINTS
  6
ByBlock
 62
     7
380
     1
100
AcDbPoint
 10
71.0287429548253
 20
197.0228492825024
 30
0.0
  0
LINE
  5
236
330
23D
100
AcDbEntity
  8
0
  6
ByBlock
 62
     7
370
    -2
380
     1
100
AcDbLine
 10
86.18744521492039
 20
249.9406932825024
 30
0.0
 11
64.72973121492039
 21
249.9406932825024
 31
0.0
  0
LINE
  5
237
330
23D
100
AcDbEntity
  8
0
  6
ByBlock
 62
     7
370
    -2
380
     1
100
AcDbLine
 10
70.0287429548253
 20
197.0228492825024
 30
0.0
 11
64.72973121492039
 21
197.0228492825024
 31
0.0
  0
LINE
  5
238
330
23D
100
AcDbEntity
  8
0
  6
ByBlock
 62
     7
370
    -2
380
     1
100
AcDbLine
 10
65.02973121492039
 20
244.9406932825024
 30
0.0
 11
65.02973121492039
 21
202.0228492825024
 31
0.0
  0
SOLID
  5
239
330
23D
100
AcDbEntity
  8
0
  6
ByBlock
 62
     7
380
     1
100
AcDbTrace
 10
65.02973121492039
 20
249.9406932825024
 30
0.0
 11
64.19639788158705
 21
244.9406932825024
 31
0.0
 12
65.86306454825373
 22
244.9406932825024
 32
0.0
 13
65.86306454825373
 23
244.9406932825024
 33
0.0
  0
SOLID
  5
23A
330
23D
100
AcDbEntity
  8
0
  6
ByBlock
 62
     7
380
     1
100
AcDbTrace
 10
65.02973121492039
 20
197.0228492825024
 30
0.0
 11
64.19639788158705
 21
202.0228492825024
 31
0.0
 12
65.86306454825373
 22
202.0228492825024
 32
0.0
 13
65.86306454825373
 23
202.0228492825024
 33
0.0
  0
MTEXT
  5
23B
330
23D
100
AcDbEntity
  8
0
  6
ByBlock
 62
     0
370
    -2
380
     1
100
AcDbMText
 10
61.52973121492039
 20
223.4817712825024
 30
0.0
 40
2.0
 41
0.0
 71
     5
 72
     1
  1
Min 1000 - Max 1750
 11
6.123031769111886E-17
 21
1.0
 31
0.0
 73
     1
 44
1.0
  0
ENDBLK
  5
285
330
23D
100
AcDbEntity
  8
0
100
AcDbBlockEnd
  0
BLOCK
  5
286
330
248
100
AcDbEntity
  8
0
100
AcDbBlockBegin
  2
*D17
 70
     1
 10
0.0
 20
0.0
 30
0.0
  3
*D17
  1

  0
POINT
  5
23F
330
248
100
AcDbEntity
  8
DEFPOINTS
  6
ByBlock
 62
     7
380
     1
100
AcDbPoint
 10
87.18744521492039
 20
249.9406932825024
 30
0.0
  0
POINT
  5
240
330
248
100
AcDbEntity
  8
DEFPOINTS
  6
ByBlock
 62
     7
380
     1
100
AcDbPoint
 10
70.30606530489423
 20
197.1281351076335
 30
0.0
  0
LINE
  5
241
330
248
100
AcDbEntity
  8
0
  6
ByBlock
 62
     7
370
    -2
380
     1
100
AcDbLine
 10
86.18744521492039
 20
249.9406932825024
 30
0.0
 11
64.72973121492039
 21
249.9406932825024
 31
0.0
  0
LINE
  5
242
330
248
100
AcDbEntity
  8
0
  6
ByBlock
 62
     7
370
    -2
380
     1
100
AcDbLine
 10
69.30606530489423
 20
197.1281351076335
 30
0.0
 11
64.72973121492039
 21
197.1281351076335
 31
0.0
  0
LINE
  5
243
330
248
100
AcDbEntity
  8
0
  6
ByBlock
 62
     7
370
    -2
380
     1
100
AcDbLine
 10
65.02973121492039
 20
244.9406932825024
 30
0.0
 11
65.02973121492039
 21
202.1281351076335
 31
0.0
  0
SOLID
  5
244
330
248
100
AcDbEntity
  8
0
  6
ByBlock
 62
     7
380
     1
100
AcDbTrace
 10
65.02973121492039
 20
249.9406932825024
 30
0.0
 11
64.19639788158705
 21
244.9406932825024
 31
0.0
 12
65.86306454825373
 22
244.9406932825024
 32
0.0
 13
65.86306454825373
 23
244.9406932825024
 33
0.0
  0
SOLID
  5
245
330
248
100
AcDbEntity
  8
0
  6
ByBlock
 62
     7
380
     1
100
AcDbTrace
 10
65.02973121492039
 20
197.1281351076335
 30
0.0
 11
64.19639788158705
 21
202.1281351076335
 31
0.0
 12
65.86306454825373
 22
202.1281351076335
 32
0.0
 13
65.86306454825373
 23
202.1281351076335
 33
0.0
  0
MTEXT
  5
246
330
248
100
AcDbEntity
  8
0
  6
ByBlock
 62
     0
370
    -2
380
     1
100
AcDbMText
 10
61.52973121492039
 20
223.534414195068
 30
0.0
 40
2.0
 41
0.0
 71
     5
 72
     1
  1
Min 1000 - Max 1750
 11
6.123031769111886E-17
 21
1.0
 31
0.0
 73
     1
 44
1.0
  0
ENDBLK
  5
287
330
248
100
AcDbEntity
  8
0
100
AcDbBlockEnd
  0
BLOCK
  5
288
330
253
100
AcDbEntity
  8
0
100
AcDbBlockBegin
  2
*D18
 70
     1
 10
0.0
 20
0.0
 30
0.0
  3
*D18
  1

  0
POINT
  5
24A
330
253
100
AcDbEntity
  8
DEFPOINTS
  6
ByBlock
 62
     7
380
     1
100
AcDbPoint
 10
87.18744521492039
 20
249.9406932825024
 30
0.0
  0
POINT
  5
24B
330
253
100
AcDbEntity
  8
DEFPOINTS
  6
ByBlock
 62
     7
380
     1
100
AcDbPoint
 10
70.30606530489423
 20
197.1281351076335
 30
0.0
  0
LINE
  5
24C
330
253
100
AcDbEntity
  8
0
  6
ByBlock
 62
     7
370
    -2
380
     1
100
AcDbLine
 10
86.18744521492039
 20
249.9406932825024
 30
0.0
 11
64.72973121492039
 21
249.9406932825024
 31
0.0
  0
LINE
  5
24D
330
253
100
AcDbEntity
  8
0
  6
ByBlock
 62
     7
370
    -2
380
     1
100
AcDbLine
 10
69.30606530489423
 20
197.1281351076335
 30
0.0
 11
64.72973121492039
 21
197.1281351076335
 31
0.0
  0
LINE
  5
24E
330
253
100
AcDbEntity
  8
0
  6
ByBlock
 62
     7
370
    -2
380
     1
100
AcDbLine
 10
65.02973121492039
 20
244.9406932825024
 30
0.0
 11
65.02973121492039
 21
202.1281351076335
 31
0.0
  0
SOLID
  5
24F
330
253
100
AcDbEntity
  8
0
  6
ByBlock
 62
     7
380
     1
100
AcDbTrace
 10
65.02973121492039
 20
249.9406932825024
 30
0.0
 11
64.19639788158705
 21
244.9406932825024
 31
0.0
 12
65.86306454825373
 22
244.9406932825024
 32
0.0
 13
65.86306454825373
 23
244.9406932825024
 33
0.0
  0
SOLID
  5
250
330
253
100
AcDbEntity
  8
0
  6
ByBlock
 62
     7
380
     1
100
AcDbTrace
 10
65.02973121492039
 20
197.1281351076335
 30
0.0
 11
64.19639788158705
 21
202.1281351076335
 31
0.0
 12
65.86306454825373
 22
202.1281351076335
 32
0.0
 13
65.86306454825373
 23
202.1281351076335
 33
0.0
  0
MTEXT
  5
251
330
253
100
AcDbEntity
  8
0
  6
ByBlock
 62
     0
370
    -2
380
     1
100
AcDbMText
 10
61.52973121492039
 20
223.534414195068
 30
0.0
 40
2.0
 41
0.0
 71
     5
 72
     1
  1
Min 1000 - Max 1750
 11
6.123031769111886E-17
 21
1.0
 31
0.0
 73
     1
 44
1.0
  0
ENDBLK
  5
289
330
253
100
AcDbEntity
  8
0
100
AcDbBlockEnd
  0
BLOCK
  5
28A
330
25E
100
AcDbEntity
  8
0
100
AcDbBlockBegin
  2
*D19
 70
     1
 10
0.0
 20
0.0
 30
0.0
  3
*D19
  1

  0
POINT
  5
255
330
25E
100
AcDbEntity
  8
DEFPOINTS
  6
ByBlock
 62
     7
380
     1
100
AcDbPoint
 10
87.18744521492039
 20
249.9406932825024
 30
0.0
  0
POINT
  5
256
330
25E
100
AcDbEntity
  8
DEFPOINTS
  6
ByBlock
 62
     7
380
     1
100
AcDbPoint
 10
69.98221421492039
 20
196.9080410596157
 30
0.0
  0
LINE
  5
257
330
25E
100
AcDbEntity
  8
0
  6
ByBlock
 62
     7
370
    -2
380
     1
100
AcDbLine
 10
86.18744521492039
 20
249.9406932825024
 30
0.0
 11
64.72973121492039
 21
249.9406932825024
 31
0.0
  0
LINE
  5
258
330
25E
100
AcDbEntity
  8
0
  6
ByBlock
 62
     7
370
    -2
380
     1
100
AcDbLine
 10
68.98221421492039
 20
196.9080410596157
 30
0.0
 11
64.72973121492039
 21
196.9080410596157
 31
0.0
  0
LINE
  5
259
330
25E
100
AcDbEntity
  8
0
  6
ByBlock
 62
     7
370
    -2
380
     1
100
AcDbLine
 10
65.02973121492039
 20
244.9406932825024
 30
0.0
 11
65.02973121492039
 21
201.9080410596157
 31
0.0
  0
SOLID
  5
25A
330
25E
100
AcDbEntity
  8
0
  6
ByBlock
 62
     7
380
     1
100
AcDbTrace
 10
65.02973121492039
 20
249.9406932825024
 30
0.0
 11
64.19639788158705
 21
244.9406932825024
 31
0.0
 12
65.86306454825373
 22
244.9406932825024
 32
0.0
 13
65.86306454825373
 23
244.9406932825024
 33
0.0
  0
SOLID
  5
25B
330
25E
100
AcDbEntity
  8
0
  6
ByBlock
 62
     7
380
     1
100
AcDbTrace
 10
65.02973121492039
 20
196.9080410596157
 30
0.0
 11
64.19639788158705
 21
201.9080410596157
 31
0.0
 12
65.86306454825373
 22
201.9080410596157
 32
0.0
 13
65.86306454825373
 23
201.9080410596157
 33
0.0
  0
MTEXT
  5
25C
330
25E
100
AcDbEntity
  8
0
  6
ByBlock
 62
     0
370
    -2
380
     1
100
AcDbMText
 10
61.52973121492039
 20
223.424367171059
 30
0.0
 40
2.0
 41
0.0
 71
     5
 72
     1
  1
Min 1000 - Max 1750
 11
6.123031769111886E-17
 21
1.0
 31
0.0
 73
     1
 44
1.0
  0
ENDBLK
  5
28B
330
25E
100
AcDbEntity
  8
0
100
AcDbBlockEnd
  0
ENDSEC
  0
SECTION
  2
ENTITIES
  0
LINE
  5
FD
330
1F
100
AcDbEntity
  8
A
  6
Continuous
370
    60
100
AcDbLine
 10
102.2603692149204
 20
198.0695320596157
 30
0.0
 11
89.41598721492039
 21
208.2983770596157
 31
0.0
  0
LINE
  5
FE
330
1F
100
AcDbEntity
  8
A
  6
Continuous
370
    60
100
AcDbLine
 10
102.8210512149204
 20
198.7735720596157
 30
0.0
 11
89.97667121492039
 21
209.0024130596157
 31
0.0
  0
LINE
  5
FF
330
1F
100
AcDbEntity
  8
A
  6
Continuous
370
    60
100
AcDbLine
 10
90.03271621492038
 20
209.0728130596157
 30
0.0
 11
87.50546021492039
 21
211.0854610596157
 31
0.0
  0
LINE
  5
100
330
1F
100
AcDbEntity
  8
A
  6
Continuous
370
    60
100
AcDbLine
 10
89.35994021492039
 20
208.2279820596157
 30
0.0
 11
87.50546021492039
 21
209.7048190596157
 31
0.0
  0
DIMENSION
  5
101
330
1F
100
AcDbEntity
  8
0
370
    25
100
AcDbDimension
  2
*D19
 10
65.02973121492039
 20
196.9080410596157
 30
0.0
 11
61.52973121492039
 21
223.424367171059
 31
0.0
 70
    32
  1
Min 1000 - Max 1750
 71
     5
 42
53.03265222288675
  3
GEWISS
100
AcDbAlignedDimension
 13
87.18744521492039
 23
249.9406932825024
 33
0.0
 14
69.98221421492039
 24
196.9080410596157
 34
0.0
 50
90.0
100
AcDbRotatedDimension
1001
ACAD
1000
DSTYLE
1002
{
1070
    41
1040
5.0
1070
    78
1070
     8
1070
   140
1040
2.0
1070
   144
1040
5.555556
1070
   147
1040
2.5
1070
   176
1070
     7
1070
   177
1070
     7
1070
   340
1005
11
1002
}
  0
LINE
  5
102
330
1F
100
AcDbEntity
  8
A
  6
Continuous
370
    60
100
AcDbLine
 10
85.9694302149204
 20
211.2549130596157
 30
0.0
 11
85.9694302149204
 21
206.7159070596157
 31
0.0
  0
LINE
  5
103
330
1F
100
AcDbEntity
  8
A
  6
Continuous
370
    60
100
AcDbLine
 10
87.50550521492039
 20
211.2549130596157
 30
0.0
 11
87.50550521492039
 21
206.7159070596157
 31
0.0
  0
CIRCLE
  5
104
330
1F
100
AcDbEntity
  8
A
  6
Continuous
370
    60
100
AcDbCircle
 10
86.7374452149204
 20
209.2299130596157
 30
0.0
 40
0.5594799999999935
  0
LINE
  5
105
330
1F
100
AcDbEntity
  8
A
  6
Continuous
370
    60
100
AcDbLine
 10
83.44217421492039
 20
209.0728130596157
 30
0.0
 11
85.9694302149204
 21
211.0854610596157
 31
0.0
  0
LINE
  5
106
330
1F
100
AcDbEntity
  8
A
  6
Continuous
370
    60
100
AcDbLine
 10
84.11494921492039
 20
208.2279820596157
 30
0.0
 11
85.9694302149204
 21
209.7048190596157
 31
0.0
  0
LINE
  5
107
330
1F
100
AcDbEntity
  8
A
  6
Continuous
370
    60
100
AcDbLine
 10
70.6538392149204
 20
198.7735720596157
 30
0.0
 11
83.4982192149204
 21
209.0024130596157
 31
0.0
  0
LINE
  5
108
330
1F
100
AcDbEntity
  8
A
  6
Continuous
370
    60
100
AcDbLine
 10
71.2145212149204
 20
198.0695320596157
 30
0.0
 11
84.05890321492039
 21
208.2983770596157
 31
0.0
  0
LINE
  5
109
330
1F
100
AcDbEntity
  8
A
  6
Continuous
370
    60
100
AcDbLine
 10
70.1360762149204
 20
196.9688500596157
 30
0.0
 11
71.2556272149204
 21
198.0179040596157
 31
0.0
  0
LINE
  5
10A
330
1F
100
AcDbEntity
  8
A
  6
Continuous
370
    60
100
AcDbLine
 10
71.2556272149204
 20
198.0179040596157
 30
0.0
 11
70.61273121492039
 21
198.8251960596157
 31
0.0
  0
LINE
  5
10B
330
1F
100
AcDbEntity
  8
A
  6
Continuous
370
    60
100
AcDbLine
 10
69.3396832149204
 20
197.9689240596157
 30
0.0
 11
70.61273021492039
 21
198.8251910596157
 31
0.0
  0
ARC
  5
10C
330
1F
100
AcDbEntity
  8
A
  6
Continuous
370
    60
100
AcDbCircle
 10
69.98221421492039
 20
197.1330370596157
 30
0.0
 40
0.2249960000000135
100
AcDbArc
 50
218.5324590000023
 51
313.1388590000024
  0
LINE
  5
10D
330
1F
100
AcDbEntity
  8
A
  6
Continuous
370
    60
100
AcDbLine
 10
69.80620721492039
 20
196.9928730596157
 30
0.0
 11
69.28925721492038
 21
197.6420510596157
 31
0.0
  0
ARC
  5
10E
330
1F
100
AcDbEntity
  8
A
  6
Continuous
370
    60
100
AcDbCircle
 10
69.4652242149204
 20
197.7822350596157
 30
0.0
 40
0.2250050000000134
100
AcDbArc
 50
123.9246590000008
 51
218.5329590000009
  0
LINE
  5
10F
330
1F
100
AcDbEntity
  8
A
  6
Continuous
370
    60
100
AcDbLine
 10
84.11495021492038
 20
208.2279810596157
 30
0.0
 11
83.44217421492039
 21
209.0728130596157
 31
0.0
  0
LINE
  5
110
330
1F
100
AcDbEntity
  8
A
  6
Continuous
370
    60
100
AcDbLine
 10
86.06244521492039
 20
206.7159070596157
 30
0.0
 11
86.06244521492039
 21
196.9249800596157
 31
0.0
  0
LINE
  5
111
330
1F
100
AcDbEntity
  8
A
  6
Continuous
370
    60
100
AcDbLine
 10
87.4124452149204
 20
206.7159070596157
 30
0.0
 11
87.4124452149204
 21
196.9249800596157
 31
0.0
  0
LINE
  5
112
330
1F
100
AcDbEntity
  8
A
  6
Continuous
370
    60
100
AcDbLine
 10
86.06244521492039
 20
196.9249800596157
 30
0.0
 11
87.4124452149204
 21
196.9249800596157
 31
0.0
  0
LINE
  5
113
330
1F
100
AcDbEntity
  8
A
  6
Continuous
370
    60
100
AcDbLine
 10
86.06244521492039
 20
197.2624800596157
 30
0.0
 11
87.4124452149204
 21
197.2624800596157
 31
0.0
  0
LINE
  5
114
330
1F
100
AcDbEntity
  8
A
  6
Continuous
370
    60
100
AcDbLine
 10
87.50546021492039
 20
207.0471380596157
 30
0.0
 11
88.35848521492039
 21
207.8561030596157
 31
0.0
  0
LINE
  5
115
330
1F
100
AcDbEntity
  8
A
  6
Continuous
370
    60
100
AcDbLine
 10
87.50546021492039
 20
209.1554060596157
 30
0.0
 11
88.0091612149204
 21
208.6809830596157
 31
0.0
  0
ARC
  5
116
330
1F
100
AcDbEntity
  8
A
  6
Continuous
370
    60
100
AcDbCircle
 10
85.4243002149204
 20
208.1012680596157
 30
0.0
 40
0.3935640000000141
100
AcDbArc
 50
218.5326590000004
 51
38.53267900000039
  0
LINE
  5
117
330
1F
100
AcDbEntity
  8
A
  6
Continuous
370
    60
100
AcDbLine
 10
85.9694302149204
 20
207.0471380596157
 30
0.0
 11
85.1164335196707
 21
207.8560931831458
 31
0.0
  0
LINE
  5
118
330
1F
100
AcDbEntity
  8
A
  6
Continuous
370
    60
100
AcDbLine
 10
85.73215121492039
 20
208.3464440596157
 30
0.0
 11
85.16226721492039
 21
209.0620330596157
 31
0.0
  0
LINE
  5
119
330
1F
100
AcDbEntity
  8
A
  6
Continuous
370
    60
100
AcDbLine
 10
85.9694302149204
 20
209.1554060596157
 30
0.0
 11
85.46572921492039
 21
208.6809830596157
 31
0.0
  0
LINE
  5
11A
330
1F
100
AcDbEntity
  8
A
  6
Continuous
370
    60
100
AcDbLine
 10
85.11640521492039
 20
207.8561030596157
 30
0.0
 11
84.54656321492038
 21
208.5716750596157
 31
0.0
  0
CIRCLE
  5
11B
330
1F
100
AcDbEntity
  8
A
  6
Continuous
370
    60
100
AcDbCircle
 10
85.4243002149204
 20
208.1012680596157
 30
0.0
 40
0.1321539999999999
  0
LINE
  5
11C
330
1F
100
AcDbEntity
  8
A
  6
Continuous
370
    60
100
AcDbLine
 10
85.9694302149204
 20
206.7159070596157
 30
0.0
 11
87.50550521492039
 21
206.7159070596157
 31
0.0
  0
LINE
  5
11D
330
1F
100
AcDbEntity
  8
A
  6
Continuous
370
    60
100
AcDbLine
 10
85.9694302149204
 20
209.0049130596157
 30
0.0
 11
86.2252102149204
 21
209.0049130596157
 31
0.0
  0
LINE
  5
11E
330
1F
100
AcDbEntity
  8
A
  6
Continuous
370
    60
100
AcDbLine
 10
85.9694302149204
 20
209.4549130596157
 30
0.0
 11
86.2252102149204
 21
209.4549130596157
 31
0.0
  0
LINE
  5
11F
330
1F
100
AcDbEntity
  8
A
  6
Continuous
370
    60
100
AcDbLine
 10
87.24968021492039
 20
209.4549130596157
 30
0.0
 11
87.50550521492039
 21
209.4549130596157
 31
0.0
  0
LINE
  5
120
330
1F
100
AcDbEntity
  8
A
  6
Continuous
370
    60
100
AcDbLine
 10
87.24968021492039
 20
209.0049130596157
 30
0.0
 11
87.50550521492039
 21
209.0049130596157
 31
0.0
  0
LINE
  5
121
330
1F
100
AcDbEntity
  8
A
  6
Continuous
370
    60
100
AcDbLine
 10
89.35994021492039
 20
208.2279810596157
 30
0.0
 11
90.03271621492038
 21
209.0728130596157
 31
0.0
  0
LINE
  5
122
330
1F
100
AcDbEntity
  8
A
  6
Continuous
370
    60
100
AcDbLine
 10
88.35848521492039
 20
207.8561030596157
 30
0.0
 11
88.92832721492039
 21
208.5716750596157
 31
0.0
  0
CIRCLE
  5
123
330
1F
100
AcDbEntity
  8
A
  6
Continuous
370
    60
100
AcDbCircle
 10
88.05059021492039
 20
208.1012680596157
 30
0.0
 40
0.1321539999999999
  0
ARC
  5
124
330
1F
100
AcDbEntity
  8
A
  6
Continuous
370
    60
100
AcDbCircle
 10
88.05059021492039
 20
208.1012680596157
 30
0.0
 40
0.3935640000000028
100
AcDbArc
 50
141.4673210000005
 51
321.4673410000004
  0
LINE
  5
125
330
1F
100
AcDbEntity
  8
A
  6
Continuous
370
    60
100
AcDbLine
 10
87.74273921492039
 20
208.3464440596157
 30
0.0
 11
88.3126232149204
 21
209.0620330596157
 31
0.0
  0
LINE
  5
126
330
1F
100
AcDbEntity
  8
A
  6
Continuous
370
    60
100
AcDbLine
 10
87.2999452149204
 20
241.1697900596157
 30
0.0
 11
87.2999452149204
 21
229.6624800596157
 31
0.0
  0
LINE
  5
127
330
1F
100
AcDbEntity
  8
A
  6
Continuous
370
    60
100
AcDbLine
 10
86.1749452149204
 20
241.1697900596157
 30
0.0
 11
86.1749452149204
 21
229.6624800596157
 31
0.0
  0
LINE
  5
128
330
1F
100
AcDbEntity
  8
A
  6
Continuous
370
    60
100
AcDbLine
 10
87.4124452149204
 20
227.9749800596157
 30
0.0
 11
87.4124452149204
 21
211.2549130596157
 31
0.0
  0
LINE
  5
129
330
1F
100
AcDbEntity
  8
A
  6
Continuous
370
    60
100
AcDbLine
 10
86.06244521492039
 20
227.9749800596157
 30
0.0
 11
86.06244521492039
 21
211.2549130596157
 31
0.0
  0
LINE
  5
12A
330
1F
100
AcDbEntity
  8
A
  6
Continuous
370
    60
100
AcDbLine
 10
85.9694302149204
 20
211.2549130596157
 30
0.0
 11
87.50550521492039
 21
211.2549130596157
 31
0.0
  0
LINE
  5
12B
330
1F
100
AcDbEntity
  8
A
  6
Continuous
370
    60
100
AcDbLine
 10
85.8374452149204
 20
229.0324800596157
 30
0.0
 11
87.63744521492039
 21
229.0324800596157
 31
0.0
  0
LINE
  5
12C
330
1F
100
AcDbEntity
  8
A
  6
Continuous
370
    60
100
AcDbLine
 10
87.63744521492039
 20
229.0324800596157
 30
0.0
 11
87.50550521492039
 21
227.9749800596157
 31
0.0
  0
LINE
  5
12D
330
1F
100
AcDbEntity
  8
A
  6
Continuous
370
    60
100
AcDbLine
 10
87.4200502149204
 20
229.6624800596157
 30
0.0
 11
87.63744521492039
 21
229.0324800596157
 31
0.0
  0
LINE
  5
12E
330
1F
100
AcDbEntity
  8
A
  6
Continuous
370
    60
100
AcDbLine
 10
85.85333021492039
 20
228.9051750596157
 30
0.0
 11
85.58117021492039
 21
228.9051750596157
 31
0.0
  0
LINE
  5
12F
330
1F
100
AcDbEntity
  8
A
  6
Continuous
370
    60
100
AcDbLine
 10
85.8813652149204
 20
229.1597850596157
 30
0.0
 11
85.58117021492039
 21
229.1597850596157
 31
0.0
  0
LINE
  5
130
330
1F
100
AcDbEntity
  8
A
  6
Continuous
370
    60
100
AcDbLine
 10
85.58117021492039
 20
229.5982650596157
 30
0.0
 11
85.58117021492039
 21
228.4732650596157
 31
0.0
  0
LINE
  5
131
330
1F
100
AcDbEntity
  8
A
  6
Continuous
370
    60
100
AcDbLine
 10
85.58117021492039
 20
229.5982650596157
 30
0.0
 11
85.28867021492039
 21
229.5982650596157
 31
0.0
  0
LINE
  5
132
330
1F
100
AcDbEntity
  8
A
  6
Continuous
370
    60
100
AcDbLine
 10
85.58117021492039
 20
228.4732650596157
 30
0.0
 11
85.28867021492039
 21
228.4732650596157
 31
0.0
  0
LINE
  5
133
330
1F
100
AcDbEntity
  8
A
  6
Continuous
370
    60
100
AcDbLine
 10
85.28867021492039
 20
228.4732650596157
 30
0.0
 11
85.28867021492039
 21
229.5982650596157
 31
0.0
  0
LINE
  5
134
330
1F
100
AcDbEntity
  8
A
  6
Continuous
370
    60
100
AcDbLine
 10
85.9693852149204
 20
227.9749800596157
 30
0.0
 11
87.50546021492039
 21
227.9749800596157
 31
0.0
  0
LINE
  5
135
330
1F
100
AcDbEntity
  8
A
  6
Continuous
370
    60
100
AcDbLine
 10
86.05484021492039
 20
229.6624800596157
 30
0.0
 11
87.4200502149204
 21
229.6624800596157
 31
0.0
  0
LINE
  5
136
330
1F
100
AcDbEntity
  8
A
  6
Continuous
370
    60
100
AcDbLine
 10
85.8374452149204
 20
229.0324800596157
 30
0.0
 11
85.9694302149204
 21
227.9749800596157
 31
0.0
  0
LINE
  5
137
330
1F
100
AcDbEntity
  8
A
  6
Continuous
370
    60
100
AcDbLine
 10
86.05484021492039
 20
229.6624800596157
 30
0.0
 11
85.8374452149204
 21
229.0324800596157
 31
0.0
  0
LINE
  5
138
330
1F
100
AcDbEntity
  8
A
  6
Continuous
370
    60
100
AcDbLine
 10
83.5874452149204
 20
246.0747900596157
 30
0.0
 11
89.88744521492039
 21
246.0747900596157
 31
0.0
  0
LINE
  5
139
330
1F
100
AcDbEntity
  8
A
  6
Continuous
370
    60
100
AcDbLine
 10
83.5874452149204
 20
246.9747900596157
 30
0.0
 11
89.88744521492039
 21
246.9747900596157
 31
0.0
  0
LINE
  5
13A
330
1F
100
AcDbEntity
  8
A
  6
Continuous
370
    60
100
AcDbLine
 10
82.68744521492039
 20
244.2747900596157
 30
0.0
 11
90.7874452149204
 21
244.2747900596157
 31
0.0
  0
LINE
  5
13B
330
1F
100
AcDbEntity
  8
A
  6
Continuous
370
    60
100
AcDbLine
 10
82.68744521492039
 20
245.1747900596157
 30
0.0
 11
90.7874452149204
 21
245.1747900596157
 31
0.0
  0
LINE
  5
13C
330
1F
100
AcDbEntity
  8
A
  6
Continuous
370
    60
100
AcDbLine
 10
82.68744521492039
 20
247.8747900596157
 30
0.0
 11
90.7874452149204
 21
247.8747900596157
 31
0.0
  0
LINE
  5
13D
330
1F
100
AcDbEntity
  8
A
  6
Continuous
370
    60
100
AcDbLine
 10
82.68744521492039
 20
248.7747900596157
 30
0.0
 11
90.7874452149204
 21
248.7747900596157
 31
0.0
  0
LINE
  5
13E
330
1F
100
AcDbEntity
  8
A
  6
Continuous
370
    60
100
AcDbLine
 10
83.40744521492039
 20
249.3372900596157
 30
0.0
 11
90.06744521492038
 21
249.3372900596157
 31
0.0
  0
LINE
  5
13F
330
1F
100
AcDbEntity
  8
A
  6
Continuous
370
    60
100
AcDbLine
 10
83.40744521492039
 20
243.5772900596157
 30
0.0
 11
90.06744521492038
 21
243.5772900596157
 31
0.0
  0
LINE
  5
140
330
1F
100
AcDbEntity
  8
A
  6
Continuous
370
    60
100
AcDbLine
 10
83.3624452149204
 20
243.1272900596157
 30
0.0
 11
90.1124452149204
 21
243.1272900596157
 31
0.0
  0
LINE
  5
141
330
1F
100
AcDbEntity
  8
A
  6
Continuous
370
    60
100
AcDbLine
 10
83.3624452149204
 20
242.9697900596157
 30
0.0
 11
86.3999452149204
 21
242.9697900596157
 31
0.0
  0
LINE
  5
142
330
1F
100
AcDbEntity
  8
A
  6
Continuous
370
    60
100
AcDbLine
 10
83.3624452149204
 20
249.7872900596157
 30
0.0
 11
90.1124452149204
 21
249.7872900596157
 31
0.0
  0
LINE
  5
143
330
1F
100
AcDbEntity
  8
A
  6
Continuous
370
    60
100
AcDbLine
 10
83.3624452149204
 20
249.9447900596157
 30
0.0
 11
86.3999452149204
 21
249.9447900596157
 31
0.0
  0
LINE
  5
144
330
1F
100
AcDbEntity
  8
A
  6
Continuous
370
    60
100
AcDbLine
 10
83.5874452149204
 20
249.9447900596157
 30
0.0
 11
83.5874452149204
 21
242.9697900596157
 31
0.0
  0
LINE
  5
145
330
1F
100
AcDbEntity
  8
A
  6
Continuous
370
    60
100
AcDbLine
 10
83.29494521492039
 20
249.2247900596157
 30
0.0
 11
83.29494521492039
 21
243.6897900596157
 31
0.0
  0
LINE
  5
146
330
1F
100
AcDbEntity
  8
A
  6
Continuous
370
    60
100
AcDbLine
 10
82.84494521492039
 20
249.2697900596157
 30
0.0
 11
82.84494521492039
 21
243.6447900596157
 31
0.0
  0
LINE
  5
147
330
1F
100
AcDbEntity
  8
A
  6
Continuous
370
    60
100
AcDbLine
 10
82.68744521492039
 20
249.2697900596157
 30
0.0
 11
82.68744521492039
 21
243.6447900596157
 31
0.0
  0
ARC
  5
148
330
1F
100
AcDbEntity
  8
A
  6
Continuous
370
    60
100
AcDbCircle
 10
83.40744521492039
 20
243.6897900596157
 30
0.0
 40
0.1124999999999972
100
AcDbArc
 50
180.0
 51
270.0
  0
ARC
  5
149
330
1F
100
AcDbEntity
  8
A
  6
Continuous
370
    60
100
AcDbCircle
 10
83.3624452149204
 20
243.6447900596157
 30
0.0
 40
0.51750100000001
100
AcDbArc
 50
180.0
 51
270.0
  0
ARC
  5
14A
330
1F
100
AcDbEntity
  8
A
  6
Continuous
370
    60
100
AcDbCircle
 10
83.3624452149204
 20
243.6447900596157
 30
0.0
 40
0.6750000000000114
100
AcDbArc
 50
180.0
 51
270.0
  0
LINE
  5
14B
330
1F
100
AcDbEntity
  8
A
  6
Continuous
370
    60
100
AcDbLine
 10
82.68744521492039
 20
246.6822900596157
 30
0.0
 11
83.5874452149204
 21
246.6822900596157
 31
0.0
  0
LINE
  5
14C
330
1F
100
AcDbEntity
  8
A
  6
Continuous
370
    60
100
AcDbLine
 10
82.68744521492039
 20
246.3672900596157
 30
0.0
 11
83.5874452149204
 21
246.3672900596157
 31
0.0
  0
ARC
  5
14D
330
1F
100
AcDbEntity
  8
A
  6
Continuous
370
    60
100
AcDbCircle
 10
83.3624452149204
 20
249.2697900596157
 30
0.0
 40
0.5175009999999894
100
AcDbArc
 50
90.00001000000039
 51
180.0000000000004
  0
ARC
  5
14E
330
1F
100
AcDbEntity
  8
A
  6
Continuous
370
    60
100
AcDbCircle
 10
83.3624452149204
 20
249.2697900596157
 30
0.0
 40
0.6749999999999933
100
AcDbArc
 50
90.00001000000077
 51
180.0000000000008
  0
ARC
  5
14F
330
1F
100
AcDbEntity
  8
A
  6
Continuous
370
    60
100
AcDbCircle
 10
83.40744521492039
 20
249.2247900596157
 30
0.0
 40
0.1125000000000131
100
AcDbArc
 50
90.00000999999956
 51
179.9999999999995
  0
LINE
  5
150
330
1F
100
AcDbEntity
  8
A
  6
Continuous
370
    60
100
AcDbLine
 10
86.1749452149204
 20
240.9447900596157
 30
0.0
 11
87.2999452149204
 21
240.9447900596157
 31
0.0
  0
LINE
  5
151
330
1F
100
AcDbEntity
  8
A
  6
Continuous
370
    60
100
AcDbLine
 10
86.97329021492038
 20
241.9891500596157
 30
0.0
 11
87.91833521492039
 21
241.9891500596157
 31
0.0
  0
LINE
  5
152
330
1F
100
AcDbEntity
  8
A
  6
Continuous
370
    60
100
AcDbLine
 10
86.97329021492038
 20
242.2141500596157
 30
0.0
 11
87.91833521492039
 21
242.2141500596157
 31
0.0
  0
LINE
  5
153
330
1F
100
AcDbEntity
  8
A
  6
Continuous
370
    60
100
AcDbLine
 10
87.07494521492039
 20
242.6641500596157
 30
0.0
 11
87.91833521492039
 21
242.6641500596157
 31
0.0
  0
LINE
  5
154
330
1F
100
AcDbEntity
  8
A
  6
Continuous
370
    60
100
AcDbLine
 10
84.93744521492039
 20
241.2822900596157
 30
0.0
 11
88.5374452149204
 21
241.2822900596157
 31
0.0
  0
LINE
  5
155
330
1F
100
AcDbEntity
  8
A
  6
Continuous
370
    60
100
AcDbLine
 10
84.93744521492039
 20
241.1697900596157
 30
0.0
 11
88.5374452149204
 21
241.1697900596157
 31
0.0
  0
LINE
  5
156
330
1F
100
AcDbEntity
  8
A
  6
Continuous
370
    60
100
AcDbLine
 10
87.07494521492039
 20
242.9697900596157
 30
0.0
 11
90.1124452149204
 21
242.9697900596157
 31
0.0
  0
LINE
  5
157
330
1F
100
AcDbEntity
  8
A
  6
Continuous
370
    60
100
AcDbLine
 10
87.07494521492039
 20
249.9447900596157
 30
0.0
 11
90.1124452149204
 21
249.9447900596157
 31
0.0
  0
LINE
  5
158
330
1F
100
AcDbEntity
  8
A
  6
Continuous
370
    60
100
AcDbLine
 10
87.18744521492039
 20
249.9447900596157
 30
0.0
 11
87.18744521492039
 21
242.9697900596157
 31
0.0
  0
LINE
  5
159
330
1F
100
AcDbEntity
  8
A
  6
Continuous
370
    60
100
AcDbLine
 10
86.2874452149204
 20
249.9447900596157
 30
0.0
 11
86.2874452149204
 21
242.9697900596157
 31
0.0
  0
LINE
  5
15A
330
1F
100
AcDbEntity
  8
A
  6
Continuous
370
    60
100
AcDbLine
 10
85.38744521492039
 20
249.9447900596157
 30
0.0
 11
85.38744521492039
 21
242.9697900596157
 31
0.0
  0
LINE
  5
15B
330
1F
100
AcDbEntity
  8
A
  6
Continuous
370
    60
100
AcDbLine
 10
84.4874452149204
 20
249.9447900596157
 30
0.0
 11
84.4874452149204
 21
242.9697900596157
 31
0.0
  0
ARC
  5
15C
330
1F
100
AcDbEntity
  8
A
  6
Continuous
370
    60
100
AcDbCircle
 10
84.93744521492039
 20
241.7322900596157
 30
0.0
 40
0.5625
100
AcDbArc
 50
180.0
 51
270.0
  0
ARC
  5
15D
330
1F
100
AcDbEntity
  8
A
  6
Continuous
370
    60
100
AcDbCircle
 10
84.93744521492039
 20
241.7322900596157
 30
0.0
 40
0.4499999999999886
100
AcDbArc
 50
180.0
 51
270.0
  0
LINE
  5
15E
330
1F
100
AcDbEntity
  8
A
  6
Continuous
370
    60
100
AcDbLine
 10
84.37494521492039
 20
242.9697900596157
 30
0.0
 11
84.37494521492039
 21
241.7322900596157
 31
0.0
  0
LINE
  5
15F
330
1F
100
AcDbEntity
  8
A
  6
Continuous
370
    60
100
AcDbLine
 10
84.4874452149204
 20
242.9697900596157
 30
0.0
 11
84.4874452149204
 21
241.7322900596157
 31
0.0
  0
CIRCLE
  5
160
330
1F
100
AcDbEntity
  8
A
  6
Continuous
370
    60
100
AcDbCircle
 10
86.7374452149204
 20
242.6322900596157
 30
0.0
 40
0.2310429999999997
  0
ARC
  5
161
330
1F
100
AcDbEntity
  8
A
  6
Continuous
370
    60
100
AcDbCircle
 10
86.7374452149204
 20
242.6322900596157
 30
0.0
 40
0.3375000000000057
100
AcDbArc
 50
180.0
 51
0.0
  0
LINE
  5
162
330
1F
100
AcDbEntity
  8
A
  6
Continuous
370
    60
100
AcDbLine
 10
86.1749452149204
 20
241.5747900596157
 30
0.0
 11
87.2999452149204
 21
241.5747900596157
 31
0.0
  0
LINE
  5
163
330
1F
100
AcDbEntity
  8
A
  6
Continuous
370
    60
100
AcDbLine
 10
86.3999452149204
 20
242.9697900596157
 30
0.0
 11
86.3999452149204
 21
242.6322900596157
 31
0.0
  0
LINE
  5
164
330
1F
100
AcDbEntity
  8
A
  6
Continuous
370
    60
100
AcDbLine
 10
86.1749452149204
 20
241.2822900596157
 30
0.0
 11
86.1749452149204
 21
241.5747900596157
 31
0.0
  0
LINE
  5
165
330
1F
100
AcDbEntity
  8
A
  6
Continuous
370
    60
100
AcDbLine
 10
87.07494521492039
 20
242.9697900596157
 30
0.0
 11
87.07494521492039
 21
242.6322900596157
 31
0.0
  0
LINE
  5
166
330
1F
100
AcDbEntity
  8
A
  6
Continuous
370
    60
100
AcDbLine
 10
87.1911802149204
 20
242.6642400596157
 30
0.0
 11
87.1911802149204
 21
241.9891500596157
 31
0.0
  0
LINE
  5
167
330
1F
100
AcDbEntity
  8
A
  6
Continuous
370
    60
100
AcDbLine
 10
86.97329021492038
 20
242.3909100596157
 30
0.0
 11
86.97329021492038
 21
241.9891500596157
 31
0.0
  0
LINE
  5
168
330
1F
100
AcDbEntity
  8
A
  6
Continuous
370
    60
100
AcDbLine
 10
87.2999452149204
 20
241.2822900596157
 30
0.0
 11
87.2999452149204
 21
241.5747900596157
 31
0.0
  0
CIRCLE
  5
169
330
1F
100
AcDbEntity
  8
A
  6
Continuous
370
    60
100
AcDbCircle
 10
86.7374452149204
 20
250.2822900596157
 30
0.0
 40
0.2310429999999997
  0
ARC
  5
16A
330
1F
100
AcDbEntity
  8
A
  6
Continuous
370
    60
100
AcDbCircle
 10
86.7374452149204
 20
250.2822900596157
 30
0.0
 40
0.3374999999999915
100
AcDbArc
 50
0.0
 51
180.0
  0
LINE
  5
16B
330
1F
100
AcDbEntity
  8
A
  6
Continuous
370
    60
100
AcDbLine
 10
86.3999452149204
 20
249.9447900596157
 30
0.0
 11
86.3999452149204
 21
250.2822900596157
 31
0.0
  0
LINE
  5
16C
330
1F
100
AcDbEntity
  8
A
  6
Continuous
370
    60
100
AcDbLine
 10
87.07494521492039
 20
249.9447900596157
 30
0.0
 11
87.07494521492039
 21
250.2822900596157
 31
0.0
  0
LINE
  5
16D
330
1F
100
AcDbEntity
  8
A
  6
Continuous
370
    60
100
AcDbLine
 10
89.88744521492039
 20
249.9447900596157
 30
0.0
 11
89.88744521492039
 21
242.9697900596157
 31
0.0
  0
LINE
  5
16E
330
1F
100
AcDbEntity
  8
A
  6
Continuous
370
    60
100
AcDbLine
 10
88.9874452149204
 20
249.9447900596157
 30
0.0
 11
88.9874452149204
 21
242.9697900596157
 31
0.0
  0
LINE
  5
16F
330
1F
100
AcDbEntity
  8
A
  6
Continuous
370
    60
100
AcDbLine
 10
88.0874452149204
 20
249.9447900596157
 30
0.0
 11
88.0874452149204
 21
242.9697900596157
 31
0.0
  0
LINE
  5
170
330
1F
100
AcDbEntity
  8
A
  6
Continuous
370
    60
100
AcDbLine
 10
90.1799452149204
 20
249.2247900596157
 30
0.0
 11
90.1799452149204
 21
243.6897900596157
 31
0.0
  0
LINE
  5
171
330
1F
100
AcDbEntity
  8
A
  6
Continuous
370
    60
100
AcDbLine
 10
90.62994521492038
 20
249.2697900596157
 30
0.0
 11
90.62994521492038
 21
243.6447900596157
 31
0.0
  0
LINE
  5
172
330
1F
100
AcDbEntity
  8
A
  6
Continuous
370
    60
100
AcDbLine
 10
90.7874452149204
 20
249.2697900596157
 30
0.0
 11
90.7874452149204
 21
243.6447900596157
 31
0.0
  0
LINE
  5
173
330
1F
100
AcDbEntity
  8
A
  6
Continuous
370
    60
100
AcDbLine
 10
87.91833521492039
 20
242.6641500596157
 30
0.0
 11
87.91833521492039
 21
241.9891500596157
 31
0.0
  0
LINE
  5
174
330
1F
100
AcDbEntity
  8
A
  6
Continuous
370
    60
100
AcDbLine
 10
87.70049021492039
 20
242.6642400596157
 30
0.0
 11
87.70049021492039
 21
241.9891500596157
 31
0.0
  0
LINE
  5
175
330
1F
100
AcDbEntity
  8
A
  6
Continuous
370
    60
100
AcDbLine
 10
87.80583521492039
 20
242.9697900596157
 30
0.0
 11
87.80583521492039
 21
242.6641500596157
 31
0.0
  0
ARC
  5
176
330
1F
100
AcDbEntity
  8
A
  6
Continuous
370
    60
100
AcDbCircle
 10
88.5374452149204
 20
241.7322900596157
 30
0.0
 40
0.4500000000000171
100
AcDbArc
 50
270.0
 51
0.0
  0
ARC
  5
177
330
1F
100
AcDbEntity
  8
A
  6
Continuous
370
    60
100
AcDbCircle
 10
88.5374452149204
 20
241.7322900596157
 30
0.0
 40
0.5625
100
AcDbArc
 50
270.0
 51
0.0
  0
LINE
  5
178
330
1F
100
AcDbEntity
  8
A
  6
Continuous
370
    60
100
AcDbLine
 10
89.0999452149204
 20
242.9697900596157
 30
0.0
 11
89.0999452149204
 21
241.7322900596157
 31
0.0
  0
LINE
  5
179
330
1F
100
AcDbEntity
  8
A
  6
Continuous
370
    60
100
AcDbLine
 10
88.9874452149204
 20
242.9697900596157
 30
0.0
 11
88.9874452149204
 21
241.7322900596157
 31
0.0
  0
ARC
  5
17A
330
1F
100
AcDbEntity
  8
A
  6
Continuous
370
    60
100
AcDbCircle
 10
90.06744521492038
 20
243.6897900596157
 30
0.0
 40
0.1124999999999829
100
AcDbArc
 50
270.0
 51
0.0
  0
ARC
  5
17B
330
1F
100
AcDbEntity
  8
A
  6
Continuous
370
    60
100
AcDbCircle
 10
90.1124452149204
 20
243.6447900596157
 30
0.0
 40
0.51750100000001
100
AcDbArc
 50
270.0
 51
0.0
  0
ARC
  5
17C
330
1F
100
AcDbEntity
  8
A
  6
Continuous
370
    60
100
AcDbCircle
 10
90.1124452149204
 20
243.6447900596157
 30
0.0
 40
0.6750000000000114
100
AcDbArc
 50
270.0
 51
0.0
  0
LINE
  5
17D
330
1F
100
AcDbEntity
  8
A
  6
Continuous
370
    60
100
AcDbLine
 10
89.88744521492039
 20
246.6822900596157
 30
0.0
 11
90.7874452149204
 21
246.6822900596157
 31
0.0
  0
LINE
  5
17E
330
1F
100
AcDbEntity
  8
A
  6
Continuous
370
    60
100
AcDbLine
 10
89.88744521492039
 20
246.3672900596157
 30
0.0
 11
90.7874452149204
 21
246.3672900596157
 31
0.0
  0
ARC
  5
17F
330
1F
100
AcDbEntity
  8
A
  6
Continuous
370
    60
100
AcDbCircle
 10
90.1124452149204
 20
249.2697900596157
 30
0.0
 40
0.5174999999999841
100
AcDbArc
 50
0.0
 51
90.00001
  0
ARC
  5
180
330
1F
100
AcDbEntity
  8
A
  6
Continuous
370
    60
100
AcDbCircle
 10
90.1124452149204
 20
249.2697900596157
 30
0.0
 40
0.6749999999999972
100
AcDbArc
 50
0.0
 51
90.00001
  0
ARC
  5
181
330
1F
100
AcDbEntity
  8
A
  6
Continuous
370
    60
100
AcDbCircle
 10
90.06744521492038
 20
249.2247900596157
 30
0.0
 40
0.1125000000000114
100
AcDbArc
 50
0.0
 51
90.00001
  0
LINE
  5
182
330
1F
100
AcDbEntity
  8
A
  6
Continuous
370
    60
100
AcDbLine
 10
103.3388142149204
 20
196.9688500596157
 30
0.0
 11
102.2192632149204
 21
198.0179040596157
 31
0.0
  0
LINE
  5
183
330
1F
100
AcDbEntity
  8
A
  6
Continuous
370
    60
100
AcDbLine
 10
102.2192632149204
 20
198.0179040596157
 30
0.0
 11
102.8621582149204
 21
198.8251960596157
 31
0.0
  0
ARC
  5
184
330
1F
100
AcDbEntity
  8
A
  6
Continuous
370
    60
100
AcDbCircle
 10
104.0096662149204
 20
197.7822350596157
 30
0.0
 40
0.2250049999999837
100
AcDbArc
 50
321.4670410000016
 51
56.07534100000157
  0
LINE
  5
185
330
1F
100
AcDbEntity
  8
A
  6
Continuous
370
    60
100
AcDbLine
 10
103.6686832149204
 20
196.9928730596157
 30
0.0
 11
104.1856332149204
 21
197.6420510596157
 31
0.0
  0
LINE
  5
186
330
1F
100
AcDbEntity
  8
A
  6
Continuous
370
    60
100
AcDbLine
 10
104.1352062149204
 20
197.9689240596157
 30
0.0
 11
102.8621602149204
 21
198.8251910596157
 31
0.0
  0
ARC
  5
187
330
1F
100
AcDbEntity
  8
A
  6
Continuous
370
    60
100
AcDbCircle
 10
103.4926752149204
 20
197.1330370596157
 30
0.0
 40
0.2249960000000027
100
AcDbArc
 50
226.8611410000033
 51
321.4675410000033
  0
VIEWPORT
  5
BB
330
73
100
AcDbEntity
 67
     1
  8
0
100
AcDbViewport
 10
7.8
 20
4.5
 30
0.0
 40
15.64
 41
9.0
 68
     1
 69
     1
 12
6.0
 22
4.5
 13
0.0
 23
0.0
 14
0.5
 24
0.5
 15
0.5
 25
0.5
 16
0.0
 26
0.0
 36
1.0
 17
0.0
 27
0.0
 37
0.0
 42
50.0
 43
0.0
 44
0.0
 45
12.0
 50
0.0
 51
0.0
 72
   100
 90
   557152
  1

281
     0
 71
     1
 74
     0
110
0.0
120
0.0
130
0.0
111
1.0
121
0.0
131
0.0
112
0.0
122
1.0
132
0.0
 79
     0
146
0.0
  0
ENDSEC
  0
SECTION
  2
OBJECTS
  0
DICTIONARY
  5
C
330
0
100
AcDbDictionary
281
     1
  3
ACAD_COLOR
350
6C
  3
ACAD_GROUP
350
D
  3
ACAD_LAYOUT
350
1A
  3
ACAD_MATERIAL
350
6B
  3
ACAD_MLEADERSTYLE
350
28D
  3
ACAD_MLINESTYLE
350
17
  3
ACAD_PLOTSETTINGS
350
19
  3
ACAD_PLOTSTYLENAME
350
E
  3
ACAD_SCALELIST
350
99
  3
ACAD_TABLESTYLE
350
92
  3
ACDBHEADERROUNDTRIPXREC
350
28E
  3
AcDbVariableDictionary
350
59
  3
DWGPROPS
350
291
  0
DICTIONARY
  5
6C
102
{ACAD_REACTORS
330
C
102
}
330
C
100
AcDbDictionary
281
     1
  0
DICTIONARY
  5
D
102
{ACAD_REACTORS
330
C
102
}
330
C
100
AcDbDictionary
281
     1
  0
DICTIONARY
  5
1A
102
{ACAD_REACTORS
330
C
102
}
330
C
100
AcDbDictionary
281
     1
  3
Layout1
350
74
  3
Layout2
350
263
  3
Model
350
22
  0
DICTIONARY
  5
6B
102
{ACAD_REACTORS
330
C
102
}
330
C
100
AcDbDictionary
281
     1
  0
DICTIONARY
  5
28D
102
{ACAD_REACTORS
330
C
102
}
330
C
100
AcDbDictionary
281
     1
  0
DICTIONARY
  5
17
102
{ACAD_REACTORS
330
C
102
}
330
C
100
AcDbDictionary
281
     1
  3
Standard
350
18
  0
DICTIONARY
  5
19
102
{ACAD_REACTORS
330
C
102
}
330
C
100
AcDbDictionary
281
     1
  0
ACDBDICTIONARYWDFLT
  5
E
102
{ACAD_REACTORS
330
C
102
}
330
C
100
AcDbDictionary
281
     1
  3
Normal
350
F
100
AcDbDictionaryWithDefault
340
F
  0
DICTIONARY
  5
99
102
{ACAD_REACTORS
330
C
102
}
330
C
100
AcDbDictionary
281
     1
  3
A0
350
D5
  3
A1
350
D6
  3
A2
350
D7
  3
A3
350
D8
  3
A4
350
D9
  3
A5
350
DA
  3
A6
350
DB
  3
A7
350
DC
  3
A8
350
DD
  3
A9
350
DE
  3
B0
350
DF
  3
B1
350
E0
  3
B2
350
E1
  3
B3
350
E2
  3
B4
350
E3
  3
B5
350
E4
  3
B6
350
E5
  3
B7
350
E6
  3
B8
350
E7
  3
B9
350
E8
  3
C0
350
E9
  3
C1
350
EA
  3
C2
350
EB
  3
C3
350
EC
  3
C4
350
ED
  3
C5
350
EE
  3
C6
350
EF
  3
C7
350
F0
  3
C8
350
F1
  3
C9
350
F2
  3
D0
350
F3
  3
D1
350
F4
  3
D2
350
F5
  0
DICTIONARY
  5
92
102
{ACAD_REACTORS
330
C
102
}
330
C
100
AcDbDictionary
281
     1
  0
DICTIONARY
  5
28E
102
{ACAD_REACTORS
330
C
102
}
330
C
100
AcDbDictionary
281
     1
  3
COLORDICT
350
28F
  3
MATERIALDICT
350
290
  0
DICTIONARY
  5
59
102
{ACAD_REACTORS
330
C
102
}
330
C
100
AcDbDictionary
281
     1
  3
CTABLESTYLE
350
98
  3
DIMASSOC
350
5A
  3
HIDETEXT
350
5E
  0
XRECORD
  5
291
102
{ACAD_REACTORS
330
C
102
}
330
C
100
AcDbXrecord
280
     1
  1
DWGPROPS COOKIE
  2

  3

  4

  6

  7

  8
BelottiMc
  9

300
=
301
=
302
=
303
=
304
=
305
=
306
=
307
=
308
=
309
=
 40
0.0
 41
2455091.556949607
 42
2455091.598616296
  1

 90
        0
  0
LAYOUT
  5
74
330
1A
100
AcDbPlotSettings
  1

  2
ProgeSOFT PDF Wizard
  4
A4
  6

 40
5.926666666666667
 41
6.011333333333317
 42
6.095999999999985
 43
5.926666666666667
 44
210.0
 45
297.0
 46
88.56200000000001
 47
136.531
 48
0.0
 49
0.0
140
0.0
141
0.0
142
1.0
143
1.0
 70
   692
 72
     1
 73
     0
 74
     0
  7

 75
    16
147
1.0
148
4.426666666666668
149
1.5
100
AcDbLayout
  1
Layout1
 70
     1
 71
     1
 10
0.0
 20
0.0
 11
0.0
 21
0.0
 12
0.0
 22
0.0
 32
0.0
 14
0.0
 24
0.0
 34
0.0
 15
0.0
 25
0.0
 35
0.0
146
0.0
 13
0.0
 23
0.0
 33
0.0
 16
1.0
 26
0.0
 36
0.0
 17
0.0
 27
1.0
 37
0.0
 76
     0
330
D1
331
28C
1001
PROGE_PRINT_SETTINGS
1070
    73
1070
     1
  0
LAYOUT
  5
263
102
{ACAD_REACTORS
330
1A
102
}
330
1A
100
AcDbPlotSettings
  1

  2
ProgeSOFT PDF Wizard
  4
A4
  6

 40
5.926666666666667
 41
6.011333333333317
 42
6.095999999999985
 43
5.926666666666667
 44
210.0
 45
297.0
 46
88.562
 47
136.531
 48
0.0
 49
0.0
140
0.0
141
0.0
142
1.0
143
1.0
 70
   692
 72
     1
 73
     0
 74
     0
  7

 75
    16
147
1.0
148
0.0
149
0.0
100
AcDbLayout
  1
Layout2
 70
     1
 71
     2
 10
0.0
 20
0.0
 11
12.0
 21
9.0
 12
0.0
 22
0.0
 32
0.0
 14
0.0
 24
0.0
 34
0.0
 15
12.0
 25
9.0
 35
0.0
146
0.0
 13
0.0
 23
0.0
 33
0.0
 16
1.0
 26
0.0
 36
0.0
 17
0.0
 27
1.0
 37
0.0
 76
     0
330
73
331
BB
1001
PROGE_PRINT_SETTINGS
1070
    73
1070
     1
  0
LAYOUT
  5
22
330
1A
100
AcDbPlotSettings
  1

  2
ProgeSOFT PDF Wizard
  4
A4
  6

 40
5.926666666666667
 41
6.011333333333317
 42
6.095999999999985
 43
5.926666666666667
 44
210.0
 45
297.0
 46
0.000000000000002
 47
83.07219027892847
 48
0.0
 49
0.0
140
0.0
141
0.0
142
1.0
143
1.100329463759743
 70
 11956
 72
     1
 73
     0
 74
     0
  7

 75
     0
147
0.9088187065200231
148
12.07001350252547
149
-150.295114052111
100
AcDbLayout
  1
Model
 70
     1
 71
     0
 10
0.0
 20
0.0
 11
0.0
 21
0.0
 12
0.0
 22
0.0
 32
0.0
 14
60.52973121492039
 24
196.9080410596157
 34
0.0
 15
104.232039821861
 25
250.6197900596156
 35
0.0
146
0.0
 13
0.0
 23
0.0
 33
0.0
 16
1.0
 26
0.0
 36
0.0
 17
0.0
 27
1.0
 37
0.0
 76
     0
330
1F
331
97
1001
PROGE_PRINT_SETTINGS
1070
    73
1070
     1
  0
MLINESTYLE
  5
18
102
{ACAD_REACTORS
330
17
102
}
330
17
100
AcDbMlineStyle
  2
STANDARD
 70
     0
  3

 62
   256
 51
90.0
 52
90.0
 71
     2
 49
0.5
 62
   256
  6
BYLAYER
 49
-0.5
 62
   256
  6
BYLAYER
  0
ACDBPLACEHOLDER
  5
F
102
{ACAD_REACTORS
330
E
102
}
330
E
  0
SCALE
  5
D5
102
{ACAD_REACTORS
330
99
102
}
330
99
100
AcDbScale
 70
     0
300
1:1
140
1.0
141
1.0
290
     1
  0
SCALE
  5
D6
102
{ACAD_REACTORS
330
99
102
}
330
99
100
AcDbScale
 70
     0
300
1:2
140
1.0
141
2.0
290
     0
  0
SCALE
  5
D7
102
{ACAD_REACTORS
330
99
102
}
330
99
100
AcDbScale
 70
     0
300
1:4
140
1.0
141
4.0
290
     0
  0
SCALE
  5
D8
102
{ACAD_REACTORS
330
99
102
}
330
99
100
AcDbScale
 70
     0
300
1:5
140
1.0
141
5.0
290
     0
  0
SCALE
  5
D9
102
{ACAD_REACTORS
330
99
102
}
330
99
100
AcDbScale
 70
     0
300
1:8
140
1.0
141
8.0
290
     0
  0
SCALE
  5
DA
102
{ACAD_REACTORS
330
99
102
}
330
99
100
AcDbScale
 70
     0
300
1:10
140
1.0
141
10.0
290
     0
  0
SCALE
  5
DB
102
{ACAD_REACTORS
330
99
102
}
330
99
100
AcDbScale
 70
     0
300
1:16
140
1.0
141
16.0
290
     0
  0
SCALE
  5
DC
102
{ACAD_REACTORS
330
99
102
}
330
99
100
AcDbScale
 70
     0
300
1:20
140
1.0
141
20.0
290
     0
  0
SCALE
  5
DD
102
{ACAD_REACTORS
330
99
102
}
330
99
100
AcDbScale
 70
     0
300
1:30
140
1.0
141
30.0
290
     0
  0
SCALE
  5
DE
102
{ACAD_REACTORS
330
99
102
}
330
99
100
AcDbScale
 70
     0
300
1:40
140
1.0
141
40.0
290
     0
  0
SCALE
  5
DF
102
{ACAD_REACTORS
330
99
102
}
330
99
100
AcDbScale
 70
     0
300
1:50
140
1.0
141
50.0
290
     0
  0
SCALE
  5
E0
102
{ACAD_REACTORS
330
99
102
}
330
99
100
AcDbScale
 70
     0
300
1:100
140
1.0
141
100.0
290
     0
  0
SCALE
  5
E1
102
{ACAD_REACTORS
330
99
102
}
330
99
100
AcDbScale
 70
     0
300
2:1
140
2.0
141
1.0
290
     0
  0
SCALE
  5
E2
102
{ACAD_REACTORS
330
99
102
}
330
99
100
AcDbScale
 70
     0
300
4:1
140
4.0
141
1.0
290
     0
  0
SCALE
  5
E3
102
{ACAD_REACTORS
330
99
102
}
330
99
100
AcDbScale
 70
     0
300
8:1
140
8.0
141
1.0
290
     0
  0
SCALE
  5
E4
102
{ACAD_REACTORS
330
99
102
}
330
99
100
AcDbScale
 70
     0
300
10:1
140
10.0
141
1.0
290
     0
  0
SCALE
  5
E5
102
{ACAD_REACTORS
330
99
102
}
330
99
100
AcDbScale
 70
     0
300
100:1
140
100.0
141
1.0
290
     0
  0
SCALE
  5
E6
102
{ACAD_REACTORS
330
99
102
}
330
99
100
AcDbScale
 70
     0
300
1/128" = 1'-0"
140
0.0078125
141
12.0
290
     0
  0
SCALE
  5
E7
102
{ACAD_REACTORS
330
99
102
}
330
99
100
AcDbScale
 70
     0
300
1/64" = 1'-0"
140
0.015625
141
12.0
290
     0
  0
SCALE
  5
E8
102
{ACAD_REACTORS
330
99
102
}
330
99
100
AcDbScale
 70
     0
300
1/32" = 1'-0"
140
0.03125
141
12.0
290
     0
  0
SCALE
  5
E9
102
{ACAD_REACTORS
330
99
102
}
330
99
100
AcDbScale
 70
     0
300
1/16" = 1'-0"
140
0.0625
141
12.0
290
     0
  0
SCALE
  5
EA
102
{ACAD_REACTORS
330
99
102
}
330
99
100
AcDbScale
 70
     0
300
3/32" = 1'-0"
140
0.09375
141
12.0
290
     0
  0
SCALE
  5
EB
102
{ACAD_REACTORS
330
99
102
}
330
99
100
AcDbScale
 70
     0
300
1/8" = 1'-0"
140
0.125
141
12.0
290
     0
  0
SCALE
  5
EC
102
{ACAD_REACTORS
330
99
102
}
330
99
100
AcDbScale
 70
     0
300
3/16" = 1'-0"
140
0.1875
141
12.0
290
     0
  0
SCALE
  5
ED
102
{ACAD_REACTORS
330
99
102
}
330
99
100
AcDbScale
 70
     0
300
1/4" = 1'-0"
140
0.25
141
12.0
290
     0
  0
SCALE
  5
EE
102
{ACAD_REACTORS
330
99
102
}
330
99
100
AcDbScale
 70
     0
300
3/8" = 1'-0"
140
0.375
141
12.0
290
     0
  0
SCALE
  5
EF
102
{ACAD_REACTORS
330
99
102
}
330
99
100
AcDbScale
 70
     0
300
1/2" = 1'-0"
140
0.5
141
12.0
290
     0
  0
SCALE
  5
F0
102
{ACAD_REACTORS
330
99
102
}
330
99
100
AcDbScale
 70
     0
300
3/4" = 1'-0"
140
0.75
141
12.0
290
     0
  0
SCALE
  5
F1
102
{ACAD_REACTORS
330
99
102
}
330
99
100
AcDbScale
 70
     0
300
1" = 1'-0"
140
1.0
141
12.0
290
     0
  0
SCALE
  5
F2
102
{ACAD_REACTORS
330
99
102
}
330
99
100
AcDbScale
 70
     0
300
1-1/2" = 1'-0"
140
1.5
141
12.0
290
     0
  0
SCALE
  5
F3
102
{ACAD_REACTORS
330
99
102
}
330
99
100
AcDbScale
 70
     0
300
3" = 1'-0"
140
3.0
141
12.0
290
     0
  0
SCALE
  5
F4
102
{ACAD_REACTORS
330
99
102
}
330
99
100
AcDbScale
 70
     0
300
6" = 1'-0"
140
6.0
141
12.0
290
     0
  0
SCALE
  5
F5
102
{ACAD_REACTORS
330
99
102
}
330
99
100
AcDbScale
 70
     0
300
1'-0" = 1'-0"
140
12.0
141
12.0
290
     0
  0
XRECORD
  5
28F
102
{ACAD_REACTORS
330
28E
102
}
330
28E
100
AcDbXrecord
280
     1
340
6C
  0
XRECORD
  5
290
102
{ACAD_REACTORS
330
28E
102
}
330
28E
100
AcDbXrecord
280
     1
340
6B
  0
DICTIONARYVAR
  5
98
102
{ACAD_REACTORS
330
59
102
}
330
59
100
DictionaryVariables
280
     0
  1
Standard
  0
DICTIONARYVAR
  5
5A
102
{ACAD_REACTORS
330
59
102
}
330
59
100
DictionaryVariables
280
     0
  1
2
  0
DICTIONARYVAR
  5
5E
102
{ACAD_REACTORS
330
59
102
}
330
59
100
DictionaryVariables
280
     0
  1
1
  0
ENDSEC
  0
EOF
