  0
SECTION
  2
HEADER
  9
$ACADVER
  1
AC1015
  9
$ACADMAINTVER
 70
     6
  9
$DWGCODEPAGE
  3
ANSI_1252
  9
$INSBASE
 10
0.0
 20
0.0
 30
0.0
  9
$EXTMIN
 10
3562.674749056084
 20
3464.098814750545
 30
0.0
  9
$EXTMAX
 10
4210.922856237599
 20
3927.06241181331
 30
0.0
  9
$LIMMIN
 10
0.0
 20
0.0
  9
$LIMMAX
 10
0.0
 20
0.0
  9
$ORTHOMODE
 70
     0
  9
$REGENMODE
 70
     1
  9
$FILLMODE
 70
     1
  9
$QTEXTMODE
 70
     0
  9
$MIRRTEXT
 70
     0
  9
$LTSCALE
 40
1.0
  9
$ATTMODE
 70
     1
  9
$TEXTSIZE
 40
2.5
  9
$TRACEWID
 40
1.0
  9
$TEXTSTYLE
  7
Standard
  9
$CLAYER
  8
0
  9
$CELTYPE
  6
ByLayer
  9
$CECOLOR
 62
   256
  9
$CELTSCALE
 40
1.0
  9
$DISPSILH
 70
     0
  9
$DIMSCALE
 40
1.0
  9
$DIMASZ
 40
2.5
  9
$DIMEXO
 40
0.625
  9
$DIMDLI
 40
3.75
  9
$DIMRND
 40
0.0
  9
$DIMDLE
 40
0.0
  9
$DIMEXE
 40
1.25
  9
$DIMTP
 40
0.0
  9
$DIMTM
 40
0.0
  9
$DIMTXT
 40
2.5
  9
$DIMCEN
 40
2.5
  9
$DIMTSZ
 40
0.0
  9
$DIMTOL
 70
     0
  9
$DIMLIM
 70
     0
  9
$DIMTIH
 70
     0
  9
$DIMTOH
 70
     0
  9
$DIMSE1
 70
     0
  9
$DIMSE2
 70
     0
  9
$DIMTAD
 70
     1
  9
$DIMZIN
 70
     8
  9
$DIMBLK
  1

  9
$DIMASO
 70
     1
  9
$DIMSHO
 70
     1
  9
$DIMPOST
  1

  9
$DIMAPOST
  1

  9
$DIMALT
 70
     0
  9
$DIMALTD
 70
     3
  9
$DIMALTF
 40
0.03937007874016
  9
$DIMLFAC
 40
1.0
  9
$DIMTOFL
 70
     1
  9
$DIMTVP
 40
0.0
  9
$DIMTIX
 70
     0
  9
$DIMSOXD
 70
     0
  9
$DIMSAH
 70
     0
  9
$DIMBLK1
  1

  9
$DIMBLK2
  1

  9
$DIMSTYLE
  2
ISO-25
  9
$DIMCLRD
 70
     0
  9
$DIMCLRE
 70
     0
  9
$DIMCLRT
 70
     0
  9
$DIMTFAC
 40
1.0
  9
$DIMGAP
 40
0.625
  9
$DIMJUST
 70
     0
  9
$DIMSD1
 70
     0
  9
$DIMSD2
 70
     0
  9
$DIMTOLJ
 70
     0
  9
$DIMTZIN
 70
     8
  9
$DIMALTZ
 70
     0
  9
$DIMALTTZ
 70
     0
  9
$DIMUPT
 70
     0
  9
$DIMDEC
 70
     2
  9
$DIMTDEC
 70
     2
  9
$DIMALTU
 70
     2
  9
$DIMALTTD
 70
     3
  9
$DIMTXSTY
  7
Standard
  9
$DIMAUNIT
 70
     0
  9
$DIMADEC
 70
     0
  9
$DIMALTRND
 40
0.0
  9
$DIMAZIN
 70
     0
  9
$DIMDSEP
 70
    44
  9
$DIMATFIT
 70
     3
  9
$DIMFRAC
 70
     0
  9
$DIMLDRBLK
  1

  9
$DIMLUNIT
 70
     2
  9
$DIMLWD
 70
    -2
  9
$DIMLWE
 70
    -2
  9
$DIMTMOVE
 70
     0
  9
$LUNITS
 70
     2
  9
$LUPREC
 70
     4
  9
$SKETCHINC
 40
1.0
  9
$FILLETRAD
 40
0.0
  9
$AUNITS
 70
     0
  9
$AUPREC
 70
     0
  9
$MENU
  1
.
  9
$ELEVATION
 40
0.0
  9
$PELEVATION
 40
0.0
  9
$THICKNESS
 40
0.0
  9
$LIMCHECK
 70
     0
  9
$CHAMFERA
 40
0.0
  9
$CHAMFERB
 40
0.0
  9
$CHAMFERC
 40
0.0
  9
$CHAMFERD
 40
0.0
  9
$SKPOLY
 70
     0
  9
$TDCREATE
 40
2455091.661116377
  9
$TDUCREATE
 40
2455091.577783044
  9
$TDUPDATE
 40
2455091.702783032
  9
$TDUUPDATE
 40
2455091.619449699
  9
$TDINDWG
 40
0.0340904977
  9
$TDUSRTIMER
 40
0.0340881366
  9
$USRTIMER
 70
     1
  9
$ANGBASE
 50
0.0
  9
$ANGDIR
 70
     0
  9
$PDMODE
 70
     0
  9
$PDSIZE
 40
0.0
  9
$PLINEWID
 40
0.0
  9
$SPLFRAME
 70
     0
  9
$SPLINETYPE
 70
     6
  9
$SPLINESEGS
 70
     8
  9
$HANDSEED
  5
491
  9
$SURFTAB1
 70
     6
  9
$SURFTAB2
 70
     6
  9
$SURFTYPE
 70
     6
  9
$SURFU
 70
     6
  9
$SURFV
 70
     6
  9
$UCSBASE
  2

  9
$UCSNAME
  2

  9
$UCSORG
 10
0.0
 20
0.0
 30
0.0
  9
$UCSXDIR
 10
1.0
 20
0.0
 30
0.0
  9
$UCSYDIR
 10
0.0
 20
1.0
 30
0.0
  9
$UCSORTHOREF
  2

  9
$UCSORTHOVIEW
 70
     0
  9
$UCSORGTOP
 10
0.0
 20
0.0
 30
0.0
  9
$UCSORGBOTTOM
 10
0.0
 20
0.0
 30
0.0
  9
$UCSORGLEFT
 10
0.0
 20
0.0
 30
0.0
  9
$UCSORGRIGHT
 10
0.0
 20
0.0
 30
0.0
  9
$UCSORGFRONT
 10
0.0
 20
0.0
 30
0.0
  9
$UCSORGBACK
 10
0.0
 20
0.0
 30
0.0
  9
$PUCSBASE
  2

  9
$PUCSNAME
  2

  9
$PUCSORG
 10
0.0
 20
0.0
 30
0.0
  9
$PUCSXDIR
 10
1.0
 20
0.0
 30
0.0
  9
$PUCSYDIR
 10
0.0
 20
1.0
 30
0.0
  9
$PUCSORTHOREF
  2

  9
$PUCSORTHOVIEW
 70
     0
  9
$PUCSORGTOP
 10
0.0
 20
0.0
 30
0.0
  9
$PUCSORGBOTTOM
 10
0.0
 20
0.0
 30
0.0
  9
$PUCSORGLEFT
 10
0.0
 20
0.0
 30
0.0
  9
$PUCSORGRIGHT
 10
0.0
 20
0.0
 30
0.0
  9
$PUCSORGFRONT
 10
0.0
 20
0.0
 30
0.0
  9
$PUCSORGBACK
 10
0.0
 20
0.0
 30
0.0
  9
$USERI1
 70
     0
  9
$USERI2
 70
     0
  9
$USERI3
 70
     0
  9
$USERI4
 70
     0
  9
$USERI5
 70
     0
  9
$USERR1
 40
0.0
  9
$USERR2
 40
0.0
  9
$USERR3
 40
0.0
  9
$USERR4
 40
0.0
  9
$USERR5
 40
0.0
  9
$WORLDVIEW
 70
     1
  9
$SHADEDGE
 70
     3
  9
$SHADEDIF
 70
    70
  9
$TILEMODE
 70
     1
  9
$MAXACTVP
 70
    64
  9
$PINSBASE
 10
0.0
 20
0.0
 30
0.0
  9
$PLIMCHECK
 70
     0
  9
$PEXTMIN
 10
0.0
 20
0.0
 30
0.0
  9
$PEXTMAX
 10
12.0
 20
9.0
 30
0.0
  9
$PLIMMIN
 10
0.0
 20
0.0
  9
$PLIMMAX
 10
12.0
 20
9.0
  9
$UNITMODE
 70
     0
  9
$VISRETAIN
 70
     1
  9
$PLINEGEN
 70
     0
  9
$PSLTSCALE
 70
     1
  9
$TREEDEPTH
 70
  3020
  9
$CMLSTYLE
  2
Standard
  9
$CMLJUST
 70
     0
  9
$CMLSCALE
 40
20.0
  9
$PROXYGRAPHICS
 70
     1
  9
$MEASUREMENT
 70
     1
  9
$CELWEIGHT
370
    -1
  9
$ENDCAPS
280
     0
  9
$JOINSTYLE
280
     0
  9
$LWDISPLAY
290
     0
  9
$INSUNITS
 70
     4
  9
$HYPERLINKBASE
  1

  9
$STYLESHEET
  1

  9
$XEDIT
290
     1
  9
$CEPSNTYPE
380
     0
  9
$PSTYLEMODE
290
     1
  9
$FINGERPRINTGUID
  2
{5559452E-1E62-4159-8551-BF76FFF3E7E8}
  9
$VERSIONGUID
  2
{3CEB9EF8-4431-4551-B596-6734A9F966A9}
  9
$EXTNAMES
290
     1
  9
$PSVPSCALE
 40
0.0
  9
$OLESTARTUP
290
     0
  0
ENDSEC
  0
SECTION
  2
CLASSES
  0
CLASS
  1
ACDBDICTIONARYWDFLT
  2
AcDbDictionaryWithDefault
  3
ObjectDBX Classes
 90
        0
280
     0
281
     0
  0
CLASS
  1
ACDBPLACEHOLDER
  2
AcDbPlaceHolder
  3
ObjectDBX Classes
 90
        0
280
     0
281
     0
  0
CLASS
  1
LAYOUT
  2
AcDbLayout
  3
ObjectDBX Classes
 90
        0
280
     0
281
     0
  0
CLASS
  1
DICTIONARYVAR
  2
AcDbDictionaryVar
  3
ObjectDBX Classes
 90
        0
280
     0
281
     0
  0
CLASS
  1
TABLESTYLE
  2
AcDbTableStyle
  3
ObjectDBX Classes
 90
     4095
280
     0
281
     0
  0
CLASS
  1
SCALE
  2
AcDbScale
  3
ObjectDBX Classes
 90
     1153
280
     0
281
     0
  0
ENDSEC
  0
SECTION
  2
TABLES
  0
TABLE
  2
VPORT
  5
8
330
0
100
AcDbSymbolTable
 70
     2
  0
VPORT
  5
97
330
8
100
AcDbSymbolTableRecord
100
AcDbViewportTableRecord
  2
*Active
 70
     0
 10
0.0
 20
0.0
 11
1.0
 21
1.0
 12
3828.300393000028
 22
3506.694490240209
 13
0.0
 23
0.0
 14
10.0
 24
10.0
 15
10.0
 25
10.0
 16
0.0
 26
0.0
 36
1.0
 17
0.0
 27
0.0
 37
0.0
 40
1275.501770729044
 41
1.664827586206897
 42
50.0
 43
0.0
 44
0.0
 50
0.0
 51
0.0
 71
     0
 72
  1000
 73
     1
 74
     3
 75
     0
 76
     0
 77
     0
 78
     0
281
     0
 65
     1
110
0.0
120
0.0
130
0.0
111
1.0
121
0.0
131
0.0
112
0.0
122
1.0
132
0.0
 79
     0
146
0.0
  0
ENDTAB
  0
TABLE
  2
LTYPE
  5
5
330
0
100
AcDbSymbolTable
 70
     1
  0
LTYPE
  5
14
330
5
100
AcDbSymbolTableRecord
100
AcDbLinetypeTableRecord
  2
ByBlock
 70
     0
  3

 72
    65
 73
     0
 40
0.0
  0
LTYPE
  5
15
330
5
100
AcDbSymbolTableRecord
100
AcDbLinetypeTableRecord
  2
ByLayer
 70
     0
  3

 72
    65
 73
     0
 40
0.0
  0
LTYPE
  5
16
330
5
100
AcDbSymbolTableRecord
100
AcDbLinetypeTableRecord
  2
Continuous
 70
     0
  3
Solid line
 72
    65
 73
     0
 40
0.0
  0
ENDTAB
  0
TABLE
  2
LAYER
  5
2
330
0
100
AcDbSymbolTable
 70
     2
  0
LAYER
  5
10
330
2
100
AcDbSymbolTableRecord
100
AcDbLayerTableRecord
  2
0
 70
     0
 62
     7
  6
Continuous
370
    -3
390
F
  0
LAYER
  5
FA
330
2
100
AcDbSymbolTableRecord
100
AcDbLayerTableRecord
  2
DEFPOINTS
 70
     0
 62
     7
  6
Continuous
290
     0
370
    -3
390
F
  0
ENDTAB
  0
TABLE
  2
STYLE
  5
3
330
0
100
AcDbSymbolTable
 70
     3
  0
STYLE
  5
11
330
3
100
AcDbSymbolTableRecord
100
AcDbTextStyleTableRecord
  2
Standard
 70
     0
 40
0.0
 41
1.0
 50
0.0
 71
     0
 42
2.5
  3
txt
  4

  0
STYLE
  5
F8
330
3
100
AcDbSymbolTableRecord
100
AcDbTextStyleTableRecord
  2
HB
 70
     0
 40
3.0
 41
1.0
 50
0.0
 71
     0
 42
1.5
  3
swissb.ttf
  4

1001
ACAD
1000
Swis721 BT
1071
 33554466
  0
STYLE
  5
F9
330
3
100
AcDbSymbolTableRecord
100
AcDbTextStyleTableRecord
  2
H
 70
     0
 40
1.75
 41
1.0
 50
0.0
 71
     0
 42
1.75
  3
swiss.ttf
  4

1001
ACAD
1000
Swis721 BT
1071
       34
  0
ENDTAB
  0
TABLE
  2
VIEW
  5
6
330
0
100
AcDbSymbolTable
 70
     0
  0
ENDTAB
  0
TABLE
  2
UCS
  5
7
330
0
100
AcDbSymbolTable
 70
     0
  0
ENDTAB
  0
TABLE
  2
APPID
  5
9
330
0
100
AcDbSymbolTable
 70
     2
  0
APPID
  5
12
330
9
100
AcDbSymbolTableRecord
100
AcDbRegAppTableRecord
  2
ACAD
 70
     0
  0
APPID
  5
43E
330
9
100
AcDbSymbolTableRecord
100
AcDbRegAppTableRecord
  2
PROGE_PRINT_SETTINGS
 70
     0
  0
ENDTAB
  0
TABLE
  2
DIMSTYLE
  5
A
330
0
100
AcDbSymbolTable
 70
     3
100
AcDbDimStyleTable
  0
DIMSTYLE
105
27
330
A
100
AcDbSymbolTableRecord
100
AcDbDimStyleTableRecord
  2
Standard
 70
     0
278
     0
340
11
  0
DIMSTYLE
105
29
102
{ACAD_REACTORS
330
3CC
330
3EE
330
410
102
}
330
A
100
AcDbSymbolTableRecord
100
AcDbDimStyleTableRecord
  2
ISO-25
 70
     0
 41
2.5
 42
0.625
 43
3.75
 44
1.25
 73
     0
 74
     0
 77
     1
 78
     8
140
2.5
141
2.5
143
0.03937007874016
147
0.625
171
     3
172
     1
271
     2
272
     2
274
     3
278
    44
283
     0
284
     8
340
11
  0
DIMSTYLE
105
FB
102
{ACAD_REACTORS
330
115
330
136
330
137
102
}
330
A
100
AcDbSymbolTableRecord
100
AcDbDimStyleTableRecord
  2
GEWISS
 70
     0
 41
1.7
 42
1.0
 43
7.0
 44
0.3
 73
     0
 74
     0
 77
     1
140
1.75
141
1.5
147
0.75
172
     1
176
     1
177
     1
340
F9
  0
ENDTAB
  0
TABLE
  2
BLOCK_RECORD
  5
1
330
0
100
AcDbSymbolTable
 70
    37
  0
BLOCK_RECORD
  5
1F
330
1
100
AcDbSymbolTableRecord
100
AcDbBlockTableRecord
  2
*Model_Space
340
22
  0
BLOCK_RECORD
  5
73
330
1
100
AcDbSymbolTableRecord
100
AcDbBlockTableRecord
  2
*Paper_Space
340
440
  0
BLOCK_RECORD
  5
D1
330
1
100
AcDbSymbolTableRecord
100
AcDbBlockTableRecord
  2
*Paper_Space0
340
74
  0
BLOCK_RECORD
  5
106
330
1
100
AcDbSymbolTableRecord
100
AcDbBlockTableRecord
  2
*D1
340
0
  0
BLOCK_RECORD
  5
111
330
1
100
AcDbSymbolTableRecord
100
AcDbBlockTableRecord
  2
*D2
340
0
  0
BLOCK_RECORD
  5
11C
330
1
100
AcDbSymbolTableRecord
100
AcDbBlockTableRecord
  2
*D3
340
0
  0
BLOCK_RECORD
  5
127
330
1
100
AcDbSymbolTableRecord
100
AcDbBlockTableRecord
  2
*D4
340
0
  0
BLOCK_RECORD
  5
132
330
1
100
AcDbSymbolTableRecord
100
AcDbBlockTableRecord
  2
*D5
340
0
  0
BLOCK_RECORD
  5
13D
330
1
100
AcDbSymbolTableRecord
100
AcDbBlockTableRecord
  2
*D6
340
0
  0
BLOCK_RECORD
  5
148
330
1
100
AcDbSymbolTableRecord
100
AcDbBlockTableRecord
  2
*D7
340
0
  0
BLOCK_RECORD
  5
153
330
1
100
AcDbSymbolTableRecord
100
AcDbBlockTableRecord
  2
*D8
340
0
  0
BLOCK_RECORD
  5
15E
330
1
100
AcDbSymbolTableRecord
100
AcDbBlockTableRecord
  2
*D9
340
0
  0
BLOCK_RECORD
  5
169
330
1
100
AcDbSymbolTableRecord
100
AcDbBlockTableRecord
  2
*D10
340
0
  0
BLOCK_RECORD
  5
174
330
1
100
AcDbSymbolTableRecord
100
AcDbBlockTableRecord
  2
*D11
340
0
  0
BLOCK_RECORD
  5
17F
330
1
100
AcDbSymbolTableRecord
100
AcDbBlockTableRecord
  2
*D12
340
0
  0
BLOCK_RECORD
  5
18A
330
1
100
AcDbSymbolTableRecord
100
AcDbBlockTableRecord
  2
*D13
340
0
  0
BLOCK_RECORD
  5
195
330
1
100
AcDbSymbolTableRecord
100
AcDbBlockTableRecord
  2
*D14
340
0
  0
BLOCK_RECORD
  5
1A0
330
1
100
AcDbSymbolTableRecord
100
AcDbBlockTableRecord
  2
*D15
340
0
  0
BLOCK_RECORD
  5
1AB
330
1
100
AcDbSymbolTableRecord
100
AcDbBlockTableRecord
  2
*D16
340
0
  0
BLOCK_RECORD
  5
1B6
330
1
100
AcDbSymbolTableRecord
100
AcDbBlockTableRecord
  2
*D17
340
0
  0
BLOCK_RECORD
  5
1C1
330
1
100
AcDbSymbolTableRecord
100
AcDbBlockTableRecord
  2
*D18
340
0
  0
BLOCK_RECORD
  5
1CC
330
1
100
AcDbSymbolTableRecord
100
AcDbBlockTableRecord
  2
*D19
340
0
  0
BLOCK_RECORD
  5
1D7
330
1
100
AcDbSymbolTableRecord
100
AcDbBlockTableRecord
  2
*D20
340
0
  0
BLOCK_RECORD
  5
2C1
330
1
100
AcDbSymbolTableRecord
100
AcDbBlockTableRecord
  2
*D21
340
0
  0
BLOCK_RECORD
  5
2ED
330
1
100
AcDbSymbolTableRecord
100
AcDbBlockTableRecord
  2
*D22
340
0
  0
BLOCK_RECORD
  5
2F9
330
1
100
AcDbSymbolTableRecord
100
AcDbBlockTableRecord
  2
*D23
340
0
  0
BLOCK_RECORD
  5
3B3
330
1
100
AcDbSymbolTableRecord
100
AcDbBlockTableRecord
  2
*D24
340
0
  0
BLOCK_RECORD
  5
3BF
330
1
100
AcDbSymbolTableRecord
100
AcDbBlockTableRecord
  2
*D25
340
0
  0
BLOCK_RECORD
  5
3CB
330
1
100
AcDbSymbolTableRecord
100
AcDbBlockTableRecord
  2
*D26
340
0
  0
BLOCK_RECORD
  5
3D7
330
1
100
AcDbSymbolTableRecord
100
AcDbBlockTableRecord
  2
*D27
340
0
  0
BLOCK_RECORD
  5
3E2
330
1
100
AcDbSymbolTableRecord
100
AcDbBlockTableRecord
  2
*D28
340
0
  0
BLOCK_RECORD
  5
3ED
330
1
100
AcDbSymbolTableRecord
100
AcDbBlockTableRecord
  2
*D29
340
0
  0
BLOCK_RECORD
  5
3F9
330
1
100
AcDbSymbolTableRecord
100
AcDbBlockTableRecord
  2
*D30
340
0
  0
BLOCK_RECORD
  5
404
330
1
100
AcDbSymbolTableRecord
100
AcDbBlockTableRecord
  2
*D31
340
0
  0
BLOCK_RECORD
  5
40F
330
1
100
AcDbSymbolTableRecord
100
AcDbBlockTableRecord
  2
*D32
340
0
  0
BLOCK_RECORD
  5
41B
330
1
100
AcDbSymbolTableRecord
100
AcDbBlockTableRecord
  2
*D33
340
0
  0
BLOCK_RECORD
  5
426
330
1
100
AcDbSymbolTableRecord
100
AcDbBlockTableRecord
  2
*D34
340
0
  0
BLOCK_RECORD
  5
431
330
1
100
AcDbSymbolTableRecord
100
AcDbBlockTableRecord
  2
*D35
340
0
  0
BLOCK_RECORD
  5
43C
330
1
100
AcDbSymbolTableRecord
100
AcDbBlockTableRecord
  2
*D36
340
0
  0
ENDTAB
  0
ENDSEC
  0
SECTION
  2
BLOCKS
  0
BLOCK
  5
20
330
1F
100
AcDbEntity
  8
0
100
AcDbBlockBegin
  2
*Model_Space
 70
     0
 10
0.0
 20
0.0
 30
0.0
  3
*Model_Space
  1

  0
ENDBLK
  5
21
330
1F
100
AcDbEntity
  8
0
100
AcDbBlockEnd
  0
BLOCK
  5
75
330
73
100
AcDbEntity
 67
     1
  8
0
100
AcDbBlockBegin
  2
*Paper_Space
 70
     0
 10
0.0
 20
0.0
 30
0.0
  3
*Paper_Space
  1

  0
ENDBLK
  5
76
330
73
100
AcDbEntity
 67
     1
  8
0
100
AcDbBlockEnd
  0
BLOCK
  5
441
330
D1
100
AcDbEntity
  8
0
100
AcDbBlockBegin
  2
*Paper_Space0
 70
     0
 10
0.0
 20
0.0
 30
0.0
  3
*Paper_Space0
  1

  0
VIEWPORT
  5
48B
330
D1
100
AcDbEntity
  8
0
100
AcDbViewport
 10
7.8
 20
4.5
 30
0.0
 40
15.64
 41
9.0
 68
     1
 69
     1
 12
6.0
 22
4.5
 13
0.0
 23
0.0
 14
0.5
 24
0.5
 15
0.5
 25
0.5
 16
0.0
 26
0.0
 36
1.0
 17
0.0
 27
0.0
 37
0.0
 42
50.0
 43
0.0
 44
0.0
 45
12.0
 50
0.0
 51
0.0
 72
   100
 90
   557152
  1

281
     0
 71
     1
 74
     0
110
0.0
120
0.0
130
0.0
111
1.0
121
0.0
131
0.0
112
0.0
122
1.0
132
0.0
 79
     0
146
0.0
  0
ENDBLK
  5
442
330
D1
100
AcDbEntity
  8
0
100
AcDbBlockEnd
  0
BLOCK
  5
443
330
106
100
AcDbEntity
  8
0
100
AcDbBlockBegin
  2
*D1
 70
     1
 10
0.0
 20
0.0
 30
0.0
  3
*D1
  1

  0
POINT
  5
FD
330
106
100
AcDbEntity
  8
DEFPOINTS
  6
ByBlock
 62
     1
100
AcDbPoint
 10
3.803129
 20
97.64868
 30
0.0
  0
POINT
  5
FE
330
106
100
AcDbEntity
  8
DEFPOINTS
  6
ByBlock
 62
     1
100
AcDbPoint
 10
17.356103
 20
95.706779
 30
0.0
  0
LINE
  5
FF
330
106
100
AcDbEntity
  8
0
  6
ByBlock
 62
     1
370
    -2
100
AcDbLine
 10
3.803129
 20
96.64868
 30
0.0
 11
3.803129
 21
90.06027300000001
 31
0.0
  0
LINE
  5
100
330
106
100
AcDbEntity
  8
0
  6
ByBlock
 62
     1
370
    -2
100
AcDbLine
 10
17.356103
 20
94.706779
 30
0.0
 11
17.356103
 21
90.06027300000001
 31
0.0
  0
LINE
  5
101
330
106
100
AcDbEntity
  8
0
  6
ByBlock
 62
     1
370
    -2
100
AcDbLine
 10
5.503129
 20
90.360273
 30
0.0
 11
15.656103
 21
90.360273
 31
0.0
  0
SOLID
  5
102
330
106
100
AcDbEntity
  8
0
  6
ByBlock
 62
     1
100
AcDbTrace
 10
3.803129
 20
90.360273
 30
0.0
 11
5.503129
 21
90.07693966666668
 31
0.0
 12
5.503129
 22
90.64360633333334
 32
0.0
 13
5.503129
 23
90.64360633333334
 33
0.0
  0
SOLID
  5
103
330
106
100
AcDbEntity
  8
0
  6
ByBlock
 62
     1
100
AcDbTrace
 10
17.356103
 20
90.360273
 30
0.0
 11
15.656103
 21
90.07693966666668
 31
0.0
 12
15.656103
 22
90.64360633333334
 32
0.0
 13
15.656103
 23
90.64360633333334
 33
0.0
  0
MTEXT
  5
104
330
106
100
AcDbEntity
  8
0
  6
ByBlock
 62
     0
370
    -2
100
AcDbMText
 10
10.579616
 20
92.01511611050478
 30
0.0
 40
1.75
 41
0.0
 71
     5
 72
     1
  1
C
  7
H
 73
     1
 44
1.0
  0
ENDBLK
  5
444
330
106
100
AcDbEntity
  8
0
100
AcDbBlockEnd
  0
BLOCK
  5
445
330
111
100
AcDbEntity
  8
0
100
AcDbBlockBegin
  2
*D2
 70
     1
 10
0.0
 20
0.0
 30
0.0
  3
*D2
  1

  0
POINT
  5
108
330
111
100
AcDbEntity
  8
DEFPOINTS
  6
ByBlock
 62
     1
100
AcDbPoint
 10
36.36391
 20
114.653114
 30
0.0
  0
POINT
  5
109
330
111
100
AcDbEntity
  8
DEFPOINTS
  6
ByBlock
 62
     1
100
AcDbPoint
 10
37.232712
 20
95.213114
 30
0.0
  0
LINE
  5
10A
330
111
100
AcDbEntity
  8
0
  6
ByBlock
 62
     1
370
    -2
100
AcDbLine
 10
37.36391
 20
114.653114
 30
0.0
 11
44.452564
 21
114.653114
 31
0.0
  0
LINE
  5
10B
330
111
100
AcDbEntity
  8
0
  6
ByBlock
 62
     1
370
    -2
100
AcDbLine
 10
38.232712
 20
95.213114
 30
0.0
 11
44.452564
 21
95.213114
 31
0.0
  0
LINE
  5
10C
330
111
100
AcDbEntity
  8
0
  6
ByBlock
 62
     1
370
    -2
100
AcDbLine
 10
44.152564
 20
112.953114
 30
0.0
 11
44.152564
 21
96.91311400000001
 31
0.0
  0
SOLID
  5
10D
330
111
100
AcDbEntity
  8
0
  6
ByBlock
 62
     1
100
AcDbTrace
 10
44.152564
 20
114.653114
 30
0.0
 11
43.86923066666667
 21
112.953114
 31
0.0
 12
44.43589733333333
 22
112.953114
 32
0.0
 13
44.43589733333333
 23
112.953114
 33
0.0
  0
SOLID
  5
10E
330
111
100
AcDbEntity
  8
0
  6
ByBlock
 62
     1
100
AcDbTrace
 10
44.152564
 20
95.213114
 30
0.0
 11
43.86923066666667
 21
96.91311400000001
 31
0.0
 12
44.43589733333333
 22
96.91311400000001
 32
0.0
 13
44.43589733333333
 23
96.91311400000001
 33
0.0
  0
MTEXT
  5
10F
330
111
100
AcDbEntity
  8
0
  6
ByBlock
 62
     0
370
    -2
100
AcDbMText
 10
42.527564
 20
104.933114
 30
0.0
 40
1.75
 41
0.0
 71
     5
 72
     1
  1
B
  7
H
 11
6.123031769111886E-17
 21
1.0
 31
0.0
 73
     1
 44
1.0
  0
ENDBLK
  5
446
330
111
100
AcDbEntity
  8
0
100
AcDbBlockEnd
  0
BLOCK
  5
447
330
11C
100
AcDbEntity
  8
0
100
AcDbBlockBegin
  2
*D3
 70
     1
 10
0.0
 20
0.0
 30
0.0
  3
*D3
  1

  0
POINT
  5
113
330
11C
100
AcDbEntity
  8
DEFPOINTS
  6
ByBlock
 62
     1
100
AcDbPoint
 10
23.67391
 20
112.223114
 30
0.0
  0
POINT
  5
114
330
11C
100
AcDbEntity
  8
DEFPOINTS
  6
ByBlock
 62
     1
100
AcDbPoint
 10
38.79391
 20
112.223114
 30
0.0
  0
LINE
  5
115
330
11C
100
AcDbEntity
  8
0
  6
ByBlock
 62
     1
370
    -2
100
AcDbLine
 10
23.67391
 20
113.223114
 30
0.0
 11
23.67391
 21
118.64037
 31
0.0
  0
LINE
  5
116
330
11C
100
AcDbEntity
  8
0
  6
ByBlock
 62
     1
370
    -2
100
AcDbLine
 10
38.79391
 20
113.223114
 30
0.0
 11
38.79391
 21
118.64037
 31
0.0
  0
LINE
  5
117
330
11C
100
AcDbEntity
  8
0
  6
ByBlock
 62
     1
370
    -2
100
AcDbLine
 10
25.37391
 20
118.34037
 30
0.0
 11
37.09390999999999
 21
118.34037
 31
0.0
  0
SOLID
  5
118
330
11C
100
AcDbEntity
  8
0
  6
ByBlock
 62
     1
100
AcDbTrace
 10
23.67391
 20
118.34037
 30
0.0
 11
25.37391
 21
118.0570366666667
 31
0.0
 12
25.37391
 22
118.6237033333333
 32
0.0
 13
25.37391
 23
118.6237033333333
 33
0.0
  0
SOLID
  5
119
330
11C
100
AcDbEntity
  8
0
  6
ByBlock
 62
     1
100
AcDbTrace
 10
38.79391
 20
118.34037
 30
0.0
 11
37.09390999999999
 21
118.0570366666667
 31
0.0
 12
37.09390999999999
 22
118.6237033333333
 32
0.0
 13
37.09390999999999
 23
118.6237033333333
 33
0.0
  0
MTEXT
  5
11A
330
11C
100
AcDbEntity
  8
0
  6
ByBlock
 62
     0
370
    -2
100
AcDbMText
 10
31.23391
 20
119.96537
 30
0.0
 40
1.75
 41
0.0
 71
     5
 72
     1
  1
A
  7
H
 73
     1
 44
1.0
  0
ENDBLK
  5
448
330
11C
100
AcDbEntity
  8
0
100
AcDbBlockEnd
  0
BLOCK
  5
449
330
127
100
AcDbEntity
  8
0
100
AcDbBlockBegin
  2
*D4
 70
     1
 10
0.0
 20
0.0
 30
0.0
  3
*D4
  1

  0
POINT
  5
11E
330
127
100
AcDbEntity
  8
DEFPOINTS
  6
ByBlock
 62
     1
100
AcDbPoint
 10
219.8709378074725
 20
199.5876751201717
 30
0.0
  0
POINT
  5
11F
330
127
100
AcDbEntity
  8
DEFPOINTS
  6
ByBlock
 62
     1
100
AcDbPoint
 10
233.4239118074725
 20
197.6457741201717
 30
0.0
  0
LINE
  5
120
330
127
100
AcDbEntity
  8
0
  6
ByBlock
 62
     1
370
    -2
100
AcDbLine
 10
219.8709378074725
 20
198.5876751201717
 30
0.0
 11
219.8709378074725
 21
191.9992681201717
 31
0.0
  0
LINE
  5
121
330
127
100
AcDbEntity
  8
0
  6
ByBlock
 62
     1
370
    -2
100
AcDbLine
 10
233.4239118074725
 20
196.6457741201717
 30
0.0
 11
233.4239118074725
 21
191.9992681201717
 31
0.0
  0
LINE
  5
122
330
127
100
AcDbEntity
  8
0
  6
ByBlock
 62
     1
370
    -2
100
AcDbLine
 10
221.5709378074725
 20
192.2992681201717
 30
0.0
 11
231.7239118074725
 21
192.2992681201717
 31
0.0
  0
SOLID
  5
123
330
127
100
AcDbEntity
  8
0
  6
ByBlock
 62
     1
100
AcDbTrace
 10
219.8709378074725
 20
192.2992681201717
 30
0.0
 11
221.5709378074725
 21
192.0159347868384
 31
0.0
 12
221.5709378074725
 22
192.582601453505
 32
0.0
 13
221.5709378074725
 23
192.582601453505
 33
0.0
  0
SOLID
  5
124
330
127
100
AcDbEntity
  8
0
  6
ByBlock
 62
     1
100
AcDbTrace
 10
233.4239118074725
 20
192.2992681201717
 30
0.0
 11
231.7239118074725
 21
192.0159347868384
 31
0.0
 12
231.7239118074725
 22
192.582601453505
 32
0.0
 13
231.7239118074725
 23
192.582601453505
 33
0.0
  0
MTEXT
  5
125
330
127
100
AcDbEntity
  8
0
  6
ByBlock
 62
     0
370
    -2
100
AcDbMText
 10
226.6474248074725
 20
193.9541112306765
 30
0.0
 40
1.75
 41
0.0
 71
     5
 72
     1
  1
C
  7
H
 73
     1
 44
1.0
  0
ENDBLK
  5
44A
330
127
100
AcDbEntity
  8
0
100
AcDbBlockEnd
  0
BLOCK
  5
44B
330
132
100
AcDbEntity
  8
0
100
AcDbBlockBegin
  2
*D5
 70
     1
 10
0.0
 20
0.0
 30
0.0
  3
*D5
  1

  0
POINT
  5
129
330
132
100
AcDbEntity
  8
DEFPOINTS
  6
ByBlock
 62
     1
100
AcDbPoint
 10
252.4317188074725
 20
216.5921091201717
 30
0.0
  0
POINT
  5
12A
330
132
100
AcDbEntity
  8
DEFPOINTS
  6
ByBlock
 62
     1
100
AcDbPoint
 10
253.3005208074725
 20
197.1521091201717
 30
0.0
  0
LINE
  5
12B
330
132
100
AcDbEntity
  8
0
  6
ByBlock
 62
     1
370
    -2
100
AcDbLine
 10
253.4317188074725
 20
216.5921091201717
 30
0.0
 11
260.5203728074725
 21
216.5921091201717
 31
0.0
  0
LINE
  5
12C
330
132
100
AcDbEntity
  8
0
  6
ByBlock
 62
     1
370
    -2
100
AcDbLine
 10
254.3005208074725
 20
197.1521091201717
 30
0.0
 11
260.5203728074725
 21
197.1521091201717
 31
0.0
  0
LINE
  5
12D
330
132
100
AcDbEntity
  8
0
  6
ByBlock
 62
     1
370
    -2
100
AcDbLine
 10
260.2203728074725
 20
214.8921091201717
 30
0.0
 11
260.2203728074725
 21
198.8521091201717
 31
0.0
  0
SOLID
  5
12E
330
132
100
AcDbEntity
  8
0
  6
ByBlock
 62
     1
100
AcDbTrace
 10
260.2203728074725
 20
216.5921091201717
 30
0.0
 11
259.9370394741391
 21
214.8921091201717
 31
0.0
 12
260.5037061408058
 22
214.8921091201717
 32
0.0
 13
260.5037061408058
 23
214.8921091201717
 33
0.0
  0
SOLID
  5
12F
330
132
100
AcDbEntity
  8
0
  6
ByBlock
 62
     1
100
AcDbTrace
 10
260.2203728074725
 20
197.1521091201717
 30
0.0
 11
259.9370394741391
 21
198.8521091201717
 31
0.0
 12
260.5037061408058
 22
198.8521091201717
 32
0.0
 13
260.5037061408058
 23
198.8521091201717
 33
0.0
  0
MTEXT
  5
130
330
132
100
AcDbEntity
  8
0
  6
ByBlock
 62
     0
370
    -2
100
AcDbMText
 10
258.5953728074725
 20
206.8721091201717
 30
0.0
 40
1.75
 41
0.0
 71
     5
 72
     1
  1
B
  7
H
 11
6.123031769111886E-17
 21
1.0
 31
0.0
 73
     1
 44
1.0
  0
ENDBLK
  5
44C
330
132
100
AcDbEntity
  8
0
100
AcDbBlockEnd
  0
BLOCK
  5
44D
330
13D
100
AcDbEntity
  8
0
100
AcDbBlockBegin
  2
*D6
 70
     1
 10
0.0
 20
0.0
 30
0.0
  3
*D6
  1

  0
POINT
  5
134
330
13D
100
AcDbEntity
  8
DEFPOINTS
  6
ByBlock
 62
     1
100
AcDbPoint
 10
239.7417188074725
 20
214.1621091201717
 30
0.0
  0
POINT
  5
135
330
13D
100
AcDbEntity
  8
DEFPOINTS
  6
ByBlock
 62
     1
100
AcDbPoint
 10
254.8617188074725
 20
214.1621091201717
 30
0.0
  0
LINE
  5
136
330
13D
100
AcDbEntity
  8
0
  6
ByBlock
 62
     1
370
    -2
100
AcDbLine
 10
239.7417188074725
 20
215.1621091201717
 30
0.0
 11
239.7417188074725
 21
220.5793651201717
 31
0.0
  0
LINE
  5
137
330
13D
100
AcDbEntity
  8
0
  6
ByBlock
 62
     1
370
    -2
100
AcDbLine
 10
254.8617188074725
 20
215.1621091201717
 30
0.0
 11
254.8617188074725
 21
220.5793651201717
 31
0.0
  0
LINE
  5
138
330
13D
100
AcDbEntity
  8
0
  6
ByBlock
 62
     1
370
    -2
100
AcDbLine
 10
241.4417188074725
 20
220.2793651201717
 30
0.0
 11
253.1617188074725
 21
220.2793651201717
 31
0.0
  0
SOLID
  5
139
330
13D
100
AcDbEntity
  8
0
  6
ByBlock
 62
     1
100
AcDbTrace
 10
239.7417188074725
 20
220.2793651201717
 30
0.0
 11
241.4417188074725
 21
219.9960317868384
 31
0.0
 12
241.4417188074725
 22
220.562698453505
 32
0.0
 13
241.4417188074725
 23
220.562698453505
 33
0.0
  0
SOLID
  5
13A
330
13D
100
AcDbEntity
  8
0
  6
ByBlock
 62
     1
100
AcDbTrace
 10
254.8617188074725
 20
220.2793651201717
 30
0.0
 11
253.1617188074725
 21
219.9960317868384
 31
0.0
 12
253.1617188074725
 22
220.562698453505
 32
0.0
 13
253.1617188074725
 23
220.562698453505
 33
0.0
  0
MTEXT
  5
13B
330
13D
100
AcDbEntity
  8
0
  6
ByBlock
 62
     0
370
    -2
100
AcDbMText
 10
247.3017188074725
 20
221.9043651201717
 30
0.0
 40
1.75
 41
0.0
 71
     5
 72
     1
  1
A
  7
H
 73
     1
 44
1.0
  0
ENDBLK
  5
44E
330
13D
100
AcDbEntity
  8
0
100
AcDbBlockEnd
  0
BLOCK
  5
44F
330
148
100
AcDbEntity
  8
0
100
AcDbBlockBegin
  2
*D7
 70
     1
 10
0.0
 20
0.0
 30
0.0
  3
*D7
  1

  0
POINT
  5
13F
330
148
100
AcDbEntity
  8
DEFPOINTS
  6
ByBlock
 62
     1
100
AcDbPoint
 10
239.7417188074725
 20
214.1621091201717
 30
0.0
  0
POINT
  5
140
330
148
100
AcDbEntity
  8
DEFPOINTS
  6
ByBlock
 62
     1
100
AcDbPoint
 10
254.8617188074725
 20
214.1621091201717
 30
0.0
  0
LINE
  5
141
330
148
100
AcDbEntity
  8
0
  6
ByBlock
 62
     1
370
    -2
100
AcDbLine
 10
239.7417188074725
 20
215.1621091201717
 30
0.0
 11
239.7417188074725
 21
220.5793651201717
 31
0.0
  0
LINE
  5
142
330
148
100
AcDbEntity
  8
0
  6
ByBlock
 62
     1
370
    -2
100
AcDbLine
 10
254.8617188074725
 20
215.1621091201717
 30
0.0
 11
254.8617188074725
 21
220.5793651201717
 31
0.0
  0
LINE
  5
143
330
148
100
AcDbEntity
  8
0
  6
ByBlock
 62
     1
370
    -2
100
AcDbLine
 10
241.4417188074725
 20
220.2793651201717
 30
0.0
 11
253.1617188074725
 21
220.2793651201717
 31
0.0
  0
SOLID
  5
144
330
148
100
AcDbEntity
  8
0
  6
ByBlock
 62
     1
100
AcDbTrace
 10
239.7417188074725
 20
220.2793651201717
 30
0.0
 11
241.4417188074725
 21
219.9960317868384
 31
0.0
 12
241.4417188074725
 22
220.562698453505
 32
0.0
 13
241.4417188074725
 23
220.562698453505
 33
0.0
  0
SOLID
  5
145
330
148
100
AcDbEntity
  8
0
  6
ByBlock
 62
     1
100
AcDbTrace
 10
254.8617188074725
 20
220.2793651201717
 30
0.0
 11
253.1617188074725
 21
219.9960317868384
 31
0.0
 12
253.1617188074725
 22
220.562698453505
 32
0.0
 13
253.1617188074725
 23
220.562698453505
 33
0.0
  0
MTEXT
  5
146
330
148
100
AcDbEntity
  8
0
  6
ByBlock
 62
     0
370
    -2
100
AcDbMText
 10
247.3017188074725
 20
221.9228678486846
 30
0.0
 40
1.75
 41
0.0
 71
     5
 72
     1
  1
245
  7
H
 73
     1
 44
1.0
  0
ENDBLK
  5
450
330
148
100
AcDbEntity
  8
0
100
AcDbBlockEnd
  0
BLOCK
  5
451
330
153
100
AcDbEntity
  8
0
100
AcDbBlockBegin
  2
*D8
 70
     1
 10
0.0
 20
0.0
 30
0.0
  3
*D8
  1

  0
POINT
  5
14A
330
153
100
AcDbEntity
  8
DEFPOINTS
  6
ByBlock
 62
     1
100
AcDbPoint
 10
252.4317188074725
 20
216.5921091201717
 30
0.0
  0
POINT
  5
14B
330
153
100
AcDbEntity
  8
DEFPOINTS
  6
ByBlock
 62
     1
100
AcDbPoint
 10
253.3005208074725
 20
197.1521091201717
 30
0.0
  0
LINE
  5
14C
330
153
100
AcDbEntity
  8
0
  6
ByBlock
 62
     1
370
    -2
100
AcDbLine
 10
253.4317188074725
 20
216.5921091201717
 30
0.0
 11
260.5203728074725
 21
216.5921091201717
 31
0.0
  0
LINE
  5
14D
330
153
100
AcDbEntity
  8
0
  6
ByBlock
 62
     1
370
    -2
100
AcDbLine
 10
254.3005208074725
 20
197.1521091201717
 30
0.0
 11
260.5203728074725
 21
197.1521091201717
 31
0.0
  0
LINE
  5
14E
330
153
100
AcDbEntity
  8
0
  6
ByBlock
 62
     1
370
    -2
100
AcDbLine
 10
260.2203728074725
 20
214.8921091201717
 30
0.0
 11
260.2203728074725
 21
198.8521091201717
 31
0.0
  0
SOLID
  5
14F
330
153
100
AcDbEntity
  8
0
  6
ByBlock
 62
     1
100
AcDbTrace
 10
260.2203728074725
 20
216.5921091201717
 30
0.0
 11
259.9370394741391
 21
214.8921091201717
 31
0.0
 12
260.5037061408058
 22
214.8921091201717
 32
0.0
 13
260.5037061408058
 23
214.8921091201717
 33
0.0
  0
SOLID
  5
150
330
153
100
AcDbEntity
  8
0
  6
ByBlock
 62
     1
100
AcDbTrace
 10
260.2203728074725
 20
197.1521091201717
 30
0.0
 11
259.9370394741391
 21
198.8521091201717
 31
0.0
 12
260.5037061408058
 22
198.8521091201717
 32
0.0
 13
260.5037061408058
 23
198.8521091201717
 33
0.0
  0
MTEXT
  5
151
330
153
100
AcDbEntity
  8
0
  6
ByBlock
 62
     0
370
    -2
100
AcDbMText
 10
258.5762732167494
 20
206.8721091201717
 30
0.0
 40
1.75
 41
0.0
 71
     5
 72
     1
  1
345
  7
H
 11
6.123031769111886E-17
 21
1.0
 31
0.0
 73
     1
 44
1.0
  0
ENDBLK
  5
452
330
153
100
AcDbEntity
  8
0
100
AcDbBlockEnd
  0
BLOCK
  5
453
330
15E
100
AcDbEntity
  8
0
100
AcDbBlockBegin
  2
*D9
 70
     1
 10
0.0
 20
0.0
 30
0.0
  3
*D9
  1

  0
POINT
  5
155
330
15E
100
AcDbEntity
  8
DEFPOINTS
  6
ByBlock
 62
     1
100
AcDbPoint
 10
219.8709378074725
 20
199.5876751201717
 30
0.0
  0
POINT
  5
156
330
15E
100
AcDbEntity
  8
DEFPOINTS
  6
ByBlock
 62
     1
100
AcDbPoint
 10
233.4239118074725
 20
197.6457741201717
 30
0.0
  0
LINE
  5
157
330
15E
100
AcDbEntity
  8
0
  6
ByBlock
 62
     1
370
    -2
100
AcDbLine
 10
219.8709378074725
 20
198.5876751201717
 30
0.0
 11
219.8709378074725
 21
191.9992681201717
 31
0.0
  0
LINE
  5
158
330
15E
100
AcDbEntity
  8
0
  6
ByBlock
 62
     1
370
    -2
100
AcDbLine
 10
233.4239118074725
 20
196.6457741201717
 30
0.0
 11
233.4239118074725
 21
191.9992681201717
 31
0.0
  0
LINE
  5
159
330
15E
100
AcDbEntity
  8
0
  6
ByBlock
 62
     1
370
    -2
100
AcDbLine
 10
221.5709378074725
 20
192.2992681201717
 30
0.0
 11
231.7239118074725
 21
192.2992681201717
 31
0.0
  0
SOLID
  5
15A
330
15E
100
AcDbEntity
  8
0
  6
ByBlock
 62
     1
100
AcDbTrace
 10
219.8709378074725
 20
192.2992681201717
 30
0.0
 11
221.5709378074725
 21
192.0159347868384
 31
0.0
 12
221.5709378074725
 22
192.582601453505
 32
0.0
 13
221.5709378074725
 23
192.582601453505
 33
0.0
  0
SOLID
  5
15B
330
15E
100
AcDbEntity
  8
0
  6
ByBlock
 62
     1
100
AcDbTrace
 10
233.4239118074725
 20
192.2992681201717
 30
0.0
 11
231.7239118074725
 21
192.0159347868384
 31
0.0
 12
231.7239118074725
 22
192.582601453505
 32
0.0
 13
231.7239118074725
 23
192.582601453505
 33
0.0
  0
MTEXT
  5
15C
330
15E
100
AcDbEntity
  8
0
  6
ByBlock
 62
     0
370
    -2
100
AcDbMText
 10
226.6474248074725
 20
193.9427708486846
 30
0.0
 40
1.75
 41
0.0
 71
     5
 72
     1
  1
245
  7
H
 73
     1
 44
1.0
  0
ENDBLK
  5
454
330
15E
100
AcDbEntity
  8
0
100
AcDbBlockEnd
  0
BLOCK
  5
455
330
169
100
AcDbEntity
  8
0
100
AcDbBlockBegin
  2
*D10
 70
     1
 10
0.0
 20
0.0
 30
0.0
  3
*D10
  1

  0
POINT
  5
160
330
169
100
AcDbEntity
  8
DEFPOINTS
  6
ByBlock
 62
     1
100
AcDbPoint
 10
239.7417188074725
 20
214.1621091201717
 30
0.0
  0
POINT
  5
161
330
169
100
AcDbEntity
  8
DEFPOINTS
  6
ByBlock
 62
     1
100
AcDbPoint
 10
254.8617188074725
 20
214.1621091201717
 30
0.0
  0
LINE
  5
162
330
169
100
AcDbEntity
  8
0
  6
ByBlock
 62
     1
370
    -2
100
AcDbLine
 10
239.7417188074725
 20
215.1621091201717
 30
0.0
 11
239.7417188074725
 21
220.5793651201717
 31
0.0
  0
LINE
  5
163
330
169
100
AcDbEntity
  8
0
  6
ByBlock
 62
     1
370
    -2
100
AcDbLine
 10
254.8617188074725
 20
215.1621091201717
 30
0.0
 11
254.8617188074725
 21
220.5793651201717
 31
0.0
  0
LINE
  5
164
330
169
100
AcDbEntity
  8
0
  6
ByBlock
 62
     1
370
    -2
100
AcDbLine
 10
241.4417188074725
 20
220.2793651201717
 30
0.0
 11
253.1617188074725
 21
220.2793651201717
 31
0.0
  0
SOLID
  5
165
330
169
100
AcDbEntity
  8
0
  6
ByBlock
 62
     1
100
AcDbTrace
 10
239.7417188074725
 20
220.2793651201717
 30
0.0
 11
241.4417188074725
 21
219.9960317868384
 31
0.0
 12
241.4417188074725
 22
220.562698453505
 32
0.0
 13
241.4417188074725
 23
220.562698453505
 33
0.0
  0
SOLID
  5
166
330
169
100
AcDbEntity
  8
0
  6
ByBlock
 62
     1
100
AcDbTrace
 10
254.8617188074725
 20
220.2793651201717
 30
0.0
 11
253.1617188074725
 21
219.9960317868384
 31
0.0
 12
253.1617188074725
 22
220.562698453505
 32
0.0
 13
253.1617188074725
 23
220.562698453505
 33
0.0
  0
MTEXT
  5
167
330
169
100
AcDbEntity
  8
0
  6
ByBlock
 62
     0
370
    -2
100
AcDbMText
 10
247.3017188074725
 20
221.9228678486846
 30
0.0
 40
1.75
 41
0.0
 71
     5
 72
     1
  1
245
  7
H
 73
     1
 44
1.0
  0
ENDBLK
  5
456
330
169
100
AcDbEntity
  8
0
100
AcDbBlockEnd
  0
BLOCK
  5
457
330
174
100
AcDbEntity
  8
0
100
AcDbBlockBegin
  2
*D11
 70
     1
 10
0.0
 20
0.0
 30
0.0
  3
*D11
  1

  0
POINT
  5
16B
330
174
100
AcDbEntity
  8
DEFPOINTS
  6
ByBlock
 62
     1
100
AcDbPoint
 10
252.4317188074725
 20
216.5921091201717
 30
0.0
  0
POINT
  5
16C
330
174
100
AcDbEntity
  8
DEFPOINTS
  6
ByBlock
 62
     1
100
AcDbPoint
 10
253.3005208074725
 20
197.1521091201717
 30
0.0
  0
LINE
  5
16D
330
174
100
AcDbEntity
  8
0
  6
ByBlock
 62
     1
370
    -2
100
AcDbLine
 10
253.4317188074725
 20
216.5921091201717
 30
0.0
 11
260.5203728074725
 21
216.5921091201717
 31
0.0
  0
LINE
  5
16E
330
174
100
AcDbEntity
  8
0
  6
ByBlock
 62
     1
370
    -2
100
AcDbLine
 10
254.3005208074725
 20
197.1521091201717
 30
0.0
 11
260.5203728074725
 21
197.1521091201717
 31
0.0
  0
LINE
  5
16F
330
174
100
AcDbEntity
  8
0
  6
ByBlock
 62
     1
370
    -2
100
AcDbLine
 10
260.2203728074725
 20
214.8921091201717
 30
0.0
 11
260.2203728074725
 21
198.8521091201717
 31
0.0
  0
SOLID
  5
170
330
174
100
AcDbEntity
  8
0
  6
ByBlock
 62
     1
100
AcDbTrace
 10
260.2203728074725
 20
216.5921091201717
 30
0.0
 11
259.9370394741391
 21
214.8921091201717
 31
0.0
 12
260.5037061408058
 22
214.8921091201717
 32
0.0
 13
260.5037061408058
 23
214.8921091201717
 33
0.0
  0
SOLID
  5
171
330
174
100
AcDbEntity
  8
0
  6
ByBlock
 62
     1
100
AcDbTrace
 10
260.2203728074725
 20
197.1521091201717
 30
0.0
 11
259.9370394741391
 21
198.8521091201717
 31
0.0
 12
260.5037061408058
 22
198.8521091201717
 32
0.0
 13
260.5037061408058
 23
198.8521091201717
 33
0.0
  0
MTEXT
  5
172
330
174
100
AcDbEntity
  8
0
  6
ByBlock
 62
     0
370
    -2
100
AcDbMText
 10
258.5762732167494
 20
206.8721091201717
 30
0.0
 40
1.75
 41
0.0
 71
     5
 72
     1
  1
345
  7
H
 11
6.123031769111886E-17
 21
1.0
 31
0.0
 73
     1
 44
1.0
  0
ENDBLK
  5
458
330
174
100
AcDbEntity
  8
0
100
AcDbBlockEnd
  0
BLOCK
  5
459
330
17F
100
AcDbEntity
  8
0
100
AcDbBlockBegin
  2
*D12
 70
     1
 10
0.0
 20
0.0
 30
0.0
  3
*D12
  1

  0
POINT
  5
176
330
17F
100
AcDbEntity
  8
DEFPOINTS
  6
ByBlock
 62
     1
100
AcDbPoint
 10
219.8709378074725
 20
199.5876751201717
 30
0.0
  0
POINT
  5
177
330
17F
100
AcDbEntity
  8
DEFPOINTS
  6
ByBlock
 62
     1
100
AcDbPoint
 10
233.4239118074725
 20
197.6457741201717
 30
0.0
  0
LINE
  5
178
330
17F
100
AcDbEntity
  8
0
  6
ByBlock
 62
     1
370
    -2
100
AcDbLine
 10
219.8709378074725
 20
198.5876751201717
 30
0.0
 11
219.8709378074725
 21
191.9992681201717
 31
0.0
  0
LINE
  5
179
330
17F
100
AcDbEntity
  8
0
  6
ByBlock
 62
     1
370
    -2
100
AcDbLine
 10
233.4239118074725
 20
196.6457741201717
 30
0.0
 11
233.4239118074725
 21
191.9992681201717
 31
0.0
  0
LINE
  5
17A
330
17F
100
AcDbEntity
  8
0
  6
ByBlock
 62
     1
370
    -2
100
AcDbLine
 10
221.5709378074725
 20
192.2992681201717
 30
0.0
 11
231.7239118074725
 21
192.2992681201717
 31
0.0
  0
SOLID
  5
17B
330
17F
100
AcDbEntity
  8
0
  6
ByBlock
 62
     1
100
AcDbTrace
 10
219.8709378074725
 20
192.2992681201717
 30
0.0
 11
221.5709378074725
 21
192.0159347868384
 31
0.0
 12
221.5709378074725
 22
192.582601453505
 32
0.0
 13
221.5709378074725
 23
192.582601453505
 33
0.0
  0
SOLID
  5
17C
330
17F
100
AcDbEntity
  8
0
  6
ByBlock
 62
     1
100
AcDbTrace
 10
233.4239118074725
 20
192.2992681201717
 30
0.0
 11
231.7239118074725
 21
192.0159347868384
 31
0.0
 12
231.7239118074725
 22
192.582601453505
 32
0.0
 13
231.7239118074725
 23
192.582601453505
 33
0.0
  0
MTEXT
  5
17D
330
17F
100
AcDbEntity
  8
0
  6
ByBlock
 62
     0
370
    -2
100
AcDbMText
 10
226.6474248074725
 20
193.9427708486846
 30
0.0
 40
1.75
 41
0.0
 71
     5
 72
     1
  1
245
  7
H
 73
     1
 44
1.0
  0
ENDBLK
  5
45A
330
17F
100
AcDbEntity
  8
0
100
AcDbBlockEnd
  0
BLOCK
  5
45B
330
18A
100
AcDbEntity
  8
0
100
AcDbBlockBegin
  2
*D13
 70
     1
 10
0.0
 20
0.0
 30
0.0
  3
*D13
  1

  0
POINT
  5
181
330
18A
100
AcDbEntity
  8
DEFPOINTS
  6
ByBlock
 62
     1
100
AcDbPoint
 10
219.8709378074725
 20
199.5876751201717
 30
0.0
  0
POINT
  5
182
330
18A
100
AcDbEntity
  8
DEFPOINTS
  6
ByBlock
 62
     1
100
AcDbPoint
 10
233.4239118074725
 20
197.6457741201717
 30
0.0
  0
LINE
  5
183
330
18A
100
AcDbEntity
  8
0
  6
ByBlock
 62
     1
370
    -2
100
AcDbLine
 10
219.8709378074725
 20
198.5876751201717
 30
0.0
 11
219.8709378074725
 21
191.9992681201717
 31
0.0
  0
LINE
  5
184
330
18A
100
AcDbEntity
  8
0
  6
ByBlock
 62
     1
370
    -2
100
AcDbLine
 10
233.4239118074725
 20
196.6457741201717
 30
0.0
 11
233.4239118074725
 21
191.9992681201717
 31
0.0
  0
LINE
  5
185
330
18A
100
AcDbEntity
  8
0
  6
ByBlock
 62
     1
370
    -2
100
AcDbLine
 10
221.5709378074725
 20
192.2992681201717
 30
0.0
 11
231.7239118074725
 21
192.2992681201717
 31
0.0
  0
SOLID
  5
186
330
18A
100
AcDbEntity
  8
0
  6
ByBlock
 62
     1
100
AcDbTrace
 10
219.8709378074725
 20
192.2992681201717
 30
0.0
 11
221.5709378074725
 21
192.0159347868384
 31
0.0
 12
221.5709378074725
 22
192.582601453505
 32
0.0
 13
221.5709378074725
 23
192.582601453505
 33
0.0
  0
SOLID
  5
187
330
18A
100
AcDbEntity
  8
0
  6
ByBlock
 62
     1
100
AcDbTrace
 10
233.4239118074725
 20
192.2992681201717
 30
0.0
 11
231.7239118074725
 21
192.0159347868384
 31
0.0
 12
231.7239118074725
 22
192.582601453505
 32
0.0
 13
231.7239118074725
 23
192.582601453505
 33
0.0
  0
MTEXT
  5
188
330
18A
100
AcDbEntity
  8
0
  6
ByBlock
 62
     0
370
    -2
100
AcDbMText
 10
226.6474248074725
 20
193.9427708486846
 30
0.0
 40
1.75
 41
0.0
 71
     5
 72
     1
  1
245
  7
H
 73
     1
 44
1.0
  0
ENDBLK
  5
45C
330
18A
100
AcDbEntity
  8
0
100
AcDbBlockEnd
  0
BLOCK
  5
45D
330
195
100
AcDbEntity
  8
0
100
AcDbBlockBegin
  2
*D14
 70
     1
 10
0.0
 20
0.0
 30
0.0
  3
*D14
  1

  0
POINT
  5
18C
330
195
100
AcDbEntity
  8
DEFPOINTS
  6
ByBlock
 62
     1
100
AcDbPoint
 10
252.4317188074725
 20
216.5921091201717
 30
0.0
  0
POINT
  5
18D
330
195
100
AcDbEntity
  8
DEFPOINTS
  6
ByBlock
 62
     1
100
AcDbPoint
 10
253.3005208074725
 20
197.1521091201717
 30
0.0
  0
LINE
  5
18E
330
195
100
AcDbEntity
  8
0
  6
ByBlock
 62
     1
370
    -2
100
AcDbLine
 10
253.4317188074725
 20
216.5921091201717
 30
0.0
 11
260.5203728074725
 21
216.5921091201717
 31
0.0
  0
LINE
  5
18F
330
195
100
AcDbEntity
  8
0
  6
ByBlock
 62
     1
370
    -2
100
AcDbLine
 10
254.3005208074725
 20
197.1521091201717
 30
0.0
 11
260.5203728074725
 21
197.1521091201717
 31
0.0
  0
LINE
  5
190
330
195
100
AcDbEntity
  8
0
  6
ByBlock
 62
     1
370
    -2
100
AcDbLine
 10
260.2203728074725
 20
214.8921091201717
 30
0.0
 11
260.2203728074725
 21
198.8521091201717
 31
0.0
  0
SOLID
  5
191
330
195
100
AcDbEntity
  8
0
  6
ByBlock
 62
     1
100
AcDbTrace
 10
260.2203728074725
 20
216.5921091201717
 30
0.0
 11
259.9370394741391
 21
214.8921091201717
 31
0.0
 12
260.5037061408058
 22
214.8921091201717
 32
0.0
 13
260.5037061408058
 23
214.8921091201717
 33
0.0
  0
SOLID
  5
192
330
195
100
AcDbEntity
  8
0
  6
ByBlock
 62
     1
100
AcDbTrace
 10
260.2203728074725
 20
197.1521091201717
 30
0.0
 11
259.9370394741391
 21
198.8521091201717
 31
0.0
 12
260.5037061408058
 22
198.8521091201717
 32
0.0
 13
260.5037061408058
 23
198.8521091201717
 33
0.0
  0
MTEXT
  5
193
330
195
100
AcDbEntity
  8
0
  6
ByBlock
 62
     0
370
    -2
100
AcDbMText
 10
258.5762732167494
 20
206.8721091201717
 30
0.0
 40
1.75
 41
0.0
 71
     5
 72
     1
  1
345
  7
H
 11
6.123031769111886E-17
 21
1.0
 31
0.0
 73
     1
 44
1.0
  0
ENDBLK
  5
45E
330
195
100
AcDbEntity
  8
0
100
AcDbBlockEnd
  0
BLOCK
  5
45F
330
1A0
100
AcDbEntity
  8
0
100
AcDbBlockBegin
  2
*D15
 70
     1
 10
0.0
 20
0.0
 30
0.0
  3
*D15
  1

  0
POINT
  5
197
330
1A0
100
AcDbEntity
  8
DEFPOINTS
  6
ByBlock
 62
     1
100
AcDbPoint
 10
239.7417188074725
 20
214.1621091201717
 30
0.0
  0
POINT
  5
198
330
1A0
100
AcDbEntity
  8
DEFPOINTS
  6
ByBlock
 62
     1
100
AcDbPoint
 10
254.8617188074725
 20
214.1621091201717
 30
0.0
  0
LINE
  5
199
330
1A0
100
AcDbEntity
  8
0
  6
ByBlock
 62
     1
370
    -2
100
AcDbLine
 10
239.7417188074725
 20
215.1621091201717
 30
0.0
 11
239.7417188074725
 21
220.5793651201717
 31
0.0
  0
LINE
  5
19A
330
1A0
100
AcDbEntity
  8
0
  6
ByBlock
 62
     1
370
    -2
100
AcDbLine
 10
254.8617188074725
 20
215.1621091201717
 30
0.0
 11
254.8617188074725
 21
220.5793651201717
 31
0.0
  0
LINE
  5
19B
330
1A0
100
AcDbEntity
  8
0
  6
ByBlock
 62
     1
370
    -2
100
AcDbLine
 10
241.4417188074725
 20
220.2793651201717
 30
0.0
 11
253.1617188074725
 21
220.2793651201717
 31
0.0
  0
SOLID
  5
19C
330
1A0
100
AcDbEntity
  8
0
  6
ByBlock
 62
     1
100
AcDbTrace
 10
239.7417188074725
 20
220.2793651201717
 30
0.0
 11
241.4417188074725
 21
219.9960317868384
 31
0.0
 12
241.4417188074725
 22
220.562698453505
 32
0.0
 13
241.4417188074725
 23
220.562698453505
 33
0.0
  0
SOLID
  5
19D
330
1A0
100
AcDbEntity
  8
0
  6
ByBlock
 62
     1
100
AcDbTrace
 10
254.8617188074725
 20
220.2793651201717
 30
0.0
 11
253.1617188074725
 21
219.9960317868384
 31
0.0
 12
253.1617188074725
 22
220.562698453505
 32
0.0
 13
253.1617188074725
 23
220.562698453505
 33
0.0
  0
MTEXT
  5
19E
330
1A0
100
AcDbEntity
  8
0
  6
ByBlock
 62
     0
370
    -2
100
AcDbMText
 10
247.3017188074725
 20
221.9228678486846
 30
0.0
 40
1.75
 41
0.0
 71
     5
 72
     1
  1
245
  7
H
 73
     1
 44
1.0
  0
ENDBLK
  5
460
330
1A0
100
AcDbEntity
  8
0
100
AcDbBlockEnd
  0
BLOCK
  5
461
330
1AB
100
AcDbEntity
  8
0
100
AcDbBlockBegin
  2
*D16
 70
     1
 10
0.0
 20
0.0
 30
0.0
  3
*D16
  1

  0
POINT
  5
1A2
330
1AB
100
AcDbEntity
  8
DEFPOINTS
  6
ByBlock
 62
     1
100
AcDbPoint
 10
239.7417188074725
 20
214.1621091201717
 30
0.0
  0
POINT
  5
1A3
330
1AB
100
AcDbEntity
  8
DEFPOINTS
  6
ByBlock
 62
     1
100
AcDbPoint
 10
254.8617188074725
 20
214.1621091201717
 30
0.0
  0
LINE
  5
1A4
330
1AB
100
AcDbEntity
  8
0
  6
ByBlock
 62
     1
370
    -2
100
AcDbLine
 10
239.7417188074725
 20
215.1621091201717
 30
0.0
 11
239.7417188074725
 21
220.5793651201717
 31
0.0
  0
LINE
  5
1A5
330
1AB
100
AcDbEntity
  8
0
  6
ByBlock
 62
     1
370
    -2
100
AcDbLine
 10
254.8617188074725
 20
215.1621091201717
 30
0.0
 11
254.8617188074725
 21
220.5793651201717
 31
0.0
  0
LINE
  5
1A6
330
1AB
100
AcDbEntity
  8
0
  6
ByBlock
 62
     1
370
    -2
100
AcDbLine
 10
241.4417188074725
 20
220.2793651201717
 30
0.0
 11
253.1617188074725
 21
220.2793651201717
 31
0.0
  0
SOLID
  5
1A7
330
1AB
100
AcDbEntity
  8
0
  6
ByBlock
 62
     1
100
AcDbTrace
 10
239.7417188074725
 20
220.2793651201717
 30
0.0
 11
241.4417188074725
 21
219.9960317868384
 31
0.0
 12
241.4417188074725
 22
220.562698453505
 32
0.0
 13
241.4417188074725
 23
220.562698453505
 33
0.0
  0
SOLID
  5
1A8
330
1AB
100
AcDbEntity
  8
0
  6
ByBlock
 62
     1
100
AcDbTrace
 10
254.8617188074725
 20
220.2793651201717
 30
0.0
 11
253.1617188074725
 21
219.9960317868384
 31
0.0
 12
253.1617188074725
 22
220.562698453505
 32
0.0
 13
253.1617188074725
 23
220.562698453505
 33
0.0
  0
MTEXT
  5
1A9
330
1AB
100
AcDbEntity
  8
0
  6
ByBlock
 62
     0
370
    -2
100
AcDbMText
 10
247.3017188074725
 20
221.9228678486846
 30
0.0
 40
1.75
 41
0.0
 71
     5
 72
     1
  1
245
  7
H
 73
     1
 44
1.0
  0
ENDBLK
  5
462
330
1AB
100
AcDbEntity
  8
0
100
AcDbBlockEnd
  0
BLOCK
  5
463
330
1B6
100
AcDbEntity
  8
0
100
AcDbBlockBegin
  2
*D17
 70
     1
 10
0.0
 20
0.0
 30
0.0
  3
*D17
  1

  0
POINT
  5
1AD
330
1B6
100
AcDbEntity
  8
DEFPOINTS
  6
ByBlock
 62
     1
100
AcDbPoint
 10
252.4317188074725
 20
216.5921091201717
 30
0.0
  0
POINT
  5
1AE
330
1B6
100
AcDbEntity
  8
DEFPOINTS
  6
ByBlock
 62
     1
100
AcDbPoint
 10
253.3005208074725
 20
197.1521091201717
 30
0.0
  0
LINE
  5
1AF
330
1B6
100
AcDbEntity
  8
0
  6
ByBlock
 62
     1
370
    -2
100
AcDbLine
 10
253.4317188074725
 20
216.5921091201717
 30
0.0
 11
260.5203728074725
 21
216.5921091201717
 31
0.0
  0
LINE
  5
1B0
330
1B6
100
AcDbEntity
  8
0
  6
ByBlock
 62
     1
370
    -2
100
AcDbLine
 10
254.3005208074725
 20
197.1521091201717
 30
0.0
 11
260.5203728074725
 21
197.1521091201717
 31
0.0
  0
LINE
  5
1B1
330
1B6
100
AcDbEntity
  8
0
  6
ByBlock
 62
     1
370
    -2
100
AcDbLine
 10
260.2203728074725
 20
214.8921091201717
 30
0.0
 11
260.2203728074725
 21
198.8521091201717
 31
0.0
  0
SOLID
  5
1B2
330
1B6
100
AcDbEntity
  8
0
  6
ByBlock
 62
     1
100
AcDbTrace
 10
260.2203728074725
 20
216.5921091201717
 30
0.0
 11
259.9370394741391
 21
214.8921091201717
 31
0.0
 12
260.5037061408058
 22
214.8921091201717
 32
0.0
 13
260.5037061408058
 23
214.8921091201717
 33
0.0
  0
SOLID
  5
1B3
330
1B6
100
AcDbEntity
  8
0
  6
ByBlock
 62
     1
100
AcDbTrace
 10
260.2203728074725
 20
197.1521091201717
 30
0.0
 11
259.9370394741391
 21
198.8521091201717
 31
0.0
 12
260.5037061408058
 22
198.8521091201717
 32
0.0
 13
260.5037061408058
 23
198.8521091201717
 33
0.0
  0
MTEXT
  5
1B4
330
1B6
100
AcDbEntity
  8
0
  6
ByBlock
 62
     0
370
    -2
100
AcDbMText
 10
258.5762732167494
 20
206.8721091201717
 30
0.0
 40
1.75
 41
0.0
 71
     5
 72
     1
  1
345
  7
H
 11
6.123031769111886E-17
 21
1.0
 31
0.0
 73
     1
 44
1.0
  0
ENDBLK
  5
464
330
1B6
100
AcDbEntity
  8
0
100
AcDbBlockEnd
  0
BLOCK
  5
465
330
1C1
100
AcDbEntity
  8
0
100
AcDbBlockBegin
  2
*D18
 70
     1
 10
0.0
 20
0.0
 30
0.0
  3
*D18
  1

  0
POINT
  5
1B8
330
1C1
100
AcDbEntity
  8
DEFPOINTS
  6
ByBlock
 62
     1
100
AcDbPoint
 10
219.8709378074725
 20
199.5876751201717
 30
0.0
  0
POINT
  5
1B9
330
1C1
100
AcDbEntity
  8
DEFPOINTS
  6
ByBlock
 62
     1
100
AcDbPoint
 10
233.4239118074725
 20
197.6457741201717
 30
0.0
  0
LINE
  5
1BA
330
1C1
100
AcDbEntity
  8
0
  6
ByBlock
 62
     1
370
    -2
100
AcDbLine
 10
219.8709378074725
 20
198.5876751201717
 30
0.0
 11
219.8709378074725
 21
191.9992681201717
 31
0.0
  0
LINE
  5
1BB
330
1C1
100
AcDbEntity
  8
0
  6
ByBlock
 62
     1
370
    -2
100
AcDbLine
 10
233.4239118074725
 20
196.6457741201717
 30
0.0
 11
233.4239118074725
 21
191.9992681201717
 31
0.0
  0
LINE
  5
1BC
330
1C1
100
AcDbEntity
  8
0
  6
ByBlock
 62
     1
370
    -2
100
AcDbLine
 10
221.5709378074725
 20
192.2992681201717
 30
0.0
 11
231.7239118074725
 21
192.2992681201717
 31
0.0
  0
SOLID
  5
1BD
330
1C1
100
AcDbEntity
  8
0
  6
ByBlock
 62
     1
100
AcDbTrace
 10
219.8709378074725
 20
192.2992681201717
 30
0.0
 11
221.5709378074725
 21
192.0159347868384
 31
0.0
 12
221.5709378074725
 22
192.582601453505
 32
0.0
 13
221.5709378074725
 23
192.582601453505
 33
0.0
  0
SOLID
  5
1BE
330
1C1
100
AcDbEntity
  8
0
  6
ByBlock
 62
     1
100
AcDbTrace
 10
233.4239118074725
 20
192.2992681201717
 30
0.0
 11
231.7239118074725
 21
192.0159347868384
 31
0.0
 12
231.7239118074725
 22
192.582601453505
 32
0.0
 13
231.7239118074725
 23
192.582601453505
 33
0.0
  0
MTEXT
  5
1BF
330
1C1
100
AcDbEntity
  8
0
  6
ByBlock
 62
     0
370
    -2
100
AcDbMText
 10
226.6474248074725
 20
193.9427708486846
 30
0.0
 40
1.75
 41
0.0
 71
     5
 72
     1
  1
245
  7
H
 73
     1
 44
1.0
  0
ENDBLK
  5
466
330
1C1
100
AcDbEntity
  8
0
100
AcDbBlockEnd
  0
BLOCK
  5
467
330
1CC
100
AcDbEntity
  8
0
100
AcDbBlockBegin
  2
*D19
 70
     1
 10
0.0
 20
0.0
 30
0.0
  3
*D19
  1

  0
POINT
  5
1C3
330
1CC
100
AcDbEntity
  8
DEFPOINTS
  6
ByBlock
 62
     0
100
AcDbPoint
 10
239.7417188074725
 20
214.1621091201717
 30
0.0
  0
POINT
  5
1C4
330
1CC
100
AcDbEntity
  8
DEFPOINTS
  6
ByBlock
 62
     0
100
AcDbPoint
 10
254.8617188074725
 20
213.0949279062846
 30
0.0
  0
LINE
  5
1C5
330
1CC
100
AcDbEntity
  8
0
  6
ByBlock
 62
     0
370
    -2
100
AcDbLine
 10
239.7417188074725
 20
214.7871091201717
 30
0.0
 11
239.7417188074725
 21
227.3339553133056
 31
0.0
  0
LINE
  5
1C6
330
1CC
100
AcDbEntity
  8
0
  6
ByBlock
 62
     0
370
    -2
100
AcDbLine
 10
254.8617188074725
 20
213.7199279062846
 30
0.0
 11
254.8617188074725
 21
227.3339553133056
 31
0.0
  0
LINE
  5
1C7
330
1CC
100
AcDbEntity
  8
0
  6
ByBlock
 62
     0
370
    -2
100
AcDbLine
 10
242.2417188074725
 20
226.0839553133056
 30
0.0
 11
252.3617188074725
 21
226.0839553133056
 31
0.0
  0
SOLID
  5
1C8
330
1CC
100
AcDbEntity
  8
0
  6
ByBlock
 62
     0
100
AcDbTrace
 10
239.7417188074725
 20
226.0839553133056
 30
0.0
 11
242.2417188074725
 21
225.667288646639
 31
0.0
 12
242.2417188074725
 22
226.5006219799723
 32
0.0
 13
242.2417188074725
 23
226.5006219799723
 33
0.0
  0
SOLID
  5
1C9
330
1CC
100
AcDbEntity
  8
0
  6
ByBlock
 62
     0
100
AcDbTrace
 10
254.8617188074725
 20
226.0839553133056
 30
0.0
 11
252.3617188074725
 21
225.667288646639
 31
0.0
 12
252.3617188074725
 22
226.5006219799723
 32
0.0
 13
252.3617188074725
 23
226.5006219799723
 33
0.0
  0
MTEXT
  5
1CA
330
1CC
100
AcDbEntity
  8
0
  6
ByBlock
 62
     0
370
    -2
100
AcDbMText
 10
247.3017188074725
 20
228.167288646639
 30
0.0
 40
2.5
 41
0.0
 71
     5
 72
     1
  1
\A1;15,12
 73
     1
 44
1.0
  0
ENDBLK
  5
468
330
1CC
100
AcDbEntity
  8
0
100
AcDbBlockEnd
  0
BLOCK
  5
469
330
1D7
100
AcDbEntity
  8
0
100
AcDbBlockBegin
  2
*D20
 70
     1
 10
0.0
 20
0.0
 30
0.0
  3
*D20
  1

  0
POINT
  5
1CE
330
1D7
100
AcDbEntity
  8
DEFPOINTS
  6
ByBlock
 62
     0
100
AcDbPoint
 10
252.4317188074725
 20
216.5921091201717
 30
0.0
  0
POINT
  5
1CF
330
1D7
100
AcDbEntity
  8
DEFPOINTS
  6
ByBlock
 62
     0
100
AcDbPoint
 10
250.7859108074725
 20
197.1521091201717
 30
0.0
  0
LINE
  5
1D0
330
1D7
100
AcDbEntity
  8
0
  6
ByBlock
 62
     0
370
    -2
100
AcDbLine
 10
253.0567188074725
 20
216.5921091201717
 30
0.0
 11
267.7232881878006
 21
216.5921091201717
 31
0.0
  0
LINE
  5
1D1
330
1D7
100
AcDbEntity
  8
0
  6
ByBlock
 62
     0
370
    -2
100
AcDbLine
 10
251.4109108074725
 20
197.1521091201717
 30
0.0
 11
267.7232881878006
 21
197.1521091201717
 31
0.0
  0
LINE
  5
1D2
330
1D7
100
AcDbEntity
  8
0
  6
ByBlock
 62
     0
370
    -2
100
AcDbLine
 10
266.4732881878006
 20
214.0921091201717
 30
0.0
 11
266.4732881878006
 21
199.6521091201717
 31
0.0
  0
SOLID
  5
1D3
330
1D7
100
AcDbEntity
  8
0
  6
ByBlock
 62
     0
100
AcDbTrace
 10
266.4732881878006
 20
216.5921091201717
 30
0.0
 11
266.0566215211339
 21
214.0921091201717
 31
0.0
 12
266.8899548544673
 22
214.0921091201717
 32
0.0
 13
266.8899548544673
 23
214.0921091201717
 33
0.0
  0
SOLID
  5
1D4
330
1D7
100
AcDbEntity
  8
0
  6
ByBlock
 62
     0
100
AcDbTrace
 10
266.4732881878006
 20
197.1521091201717
 30
0.0
 11
266.0566215211339
 21
199.6521091201717
 31
0.0
 12
266.8899548544673
 22
199.6521091201717
 32
0.0
 13
266.8899548544673
 23
199.6521091201717
 33
0.0
  0
MTEXT
  5
1D5
330
1D7
100
AcDbEntity
  8
0
  6
ByBlock
 62
     0
370
    -2
100
AcDbMText
 10
264.3899548544673
 20
206.8721091201717
 30
0.0
 40
2.5
 41
0.0
 71
     5
 72
     1
  1
\A1;19,44
 11
6.123031769111886E-17
 21
1.0
 31
0.0
 73
     1
 44
1.0
  0
ENDBLK
  5
46A
330
1D7
100
AcDbEntity
  8
0
100
AcDbBlockEnd
  0
BLOCK
  5
46B
330
2C1
100
AcDbEntity
  8
0
100
AcDbBlockBegin
  2
*D21
 70
     1
 10
0.0
 20
0.0
 30
0.0
  3
*D21
  1

  0
POINT
  5
2B8
330
2C1
100
AcDbEntity
  8
DEFPOINTS
  6
ByBlock
 62
     1
380
     1
100
AcDbPoint
 10
3562.722714950943
 20
3542.062511590175
 30
0.0
  0
POINT
  5
2B9
330
2C1
100
AcDbEntity
  8
DEFPOINTS
  6
ByBlock
 62
     1
380
     1
100
AcDbPoint
 10
3782.331039754743
 20
3507.599788733275
 30
0.0
  0
LINE
  5
2BA
330
2C1
100
AcDbEntity
  8
0
  6
ByBlock
 62
     1
370
    -2
380
     1
100
AcDbLine
 10
3562.722714950943
 20
3541.062511590175
 30
0.0
 11
3562.722714950943
 21
3412.415881401875
 31
0.0
  0
LINE
  5
2BB
330
2C1
100
AcDbEntity
  8
0
  6
ByBlock
 62
     1
370
    -2
380
     1
100
AcDbLine
 10
3782.331039754743
 20
3506.599788733275
 30
0.0
 11
3782.331039754743
 21
3412.415881401875
 31
0.0
  0
LINE
  5
2BC
330
2C1
100
AcDbEntity
  8
0
  6
ByBlock
 62
     1
370
    -2
380
     1
100
AcDbLine
 10
3564.422714950942
 20
3412.715881401875
 30
0.0
 11
3780.631039754743
 21
3412.715881401875
 31
0.0
  0
SOLID
  5
2BD
330
2C1
100
AcDbEntity
  8
0
  6
ByBlock
 62
     1
380
     1
100
AcDbTrace
 10
3562.722714950943
 20
3412.715881401875
 30
0.0
 11
3564.422714950942
 21
3412.432548068542
 31
0.0
 12
3564.422714950942
 22
3412.999214735208
 32
0.0
 13
3564.422714950942
 23
3412.999214735208
 33
0.0
  0
SOLID
  5
2BE
330
2C1
100
AcDbEntity
  8
0
  6
ByBlock
 62
     1
380
     1
100
AcDbTrace
 10
3782.331039754743
 20
3412.715881401875
 30
0.0
 11
3780.631039754743
 21
3412.432548068542
 31
0.0
 12
3780.631039754743
 22
3412.999214735208
 32
0.0
 13
3780.631039754743
 23
3412.999214735208
 33
0.0
  0
MTEXT
  5
2BF
330
2C1
100
AcDbEntity
  8
0
  6
ByBlock
 62
     0
370
    -2
380
     1
100
AcDbMText
 10
3672.526877352842
 20
3414.359384130388
 30
0.0
 40
1.75
 41
0.0
 71
     5
 72
     1
  1
245
  7
H
 73
     1
 44
1.0
  0
ENDBLK
  5
46C
330
2C1
100
AcDbEntity
  8
0
100
AcDbBlockEnd
  0
BLOCK
  5
46D
330
2ED
100
AcDbEntity
  8
0
100
AcDbBlockBegin
  2
*D22
 70
     1
 10
0.0
 20
0.0
 30
0.0
  3
*D22
  1

  0
POINT
  5
2E4
330
2ED
100
AcDbEntity
  8
DEFPOINTS
  6
ByBlock
 62
     1
380
     1
100
AcDbPoint
 10
4090.327842040642
 20
3843.838501344775
 30
0.0
  0
POINT
  5
2E5
330
2ED
100
AcDbEntity
  8
DEFPOINTS
  6
ByBlock
 62
     1
380
     1
100
AcDbPoint
 10
4104.405649008043
 20
3498.838765344775
 30
0.0
  0
LINE
  5
2E6
330
2ED
100
AcDbEntity
  8
0
  6
ByBlock
 62
     1
370
    -2
380
     1
100
AcDbLine
 10
4091.327842040642
 20
3843.838501344775
 30
0.0
 11
4216.832854860442
 21
3843.838501344775
 31
0.0
  0
LINE
  5
2E7
330
2ED
100
AcDbEntity
  8
0
  6
ByBlock
 62
     1
370
    -2
380
     1
100
AcDbLine
 10
4105.405649008043
 20
3498.838765344775
 30
0.0
 11
4216.832854860442
 21
3498.838765344775
 31
0.0
  0
LINE
  5
2E8
330
2ED
100
AcDbEntity
  8
0
  6
ByBlock
 62
     1
370
    -2
380
     1
100
AcDbLine
 10
4216.532854860442
 20
3842.138501344775
 30
0.0
 11
4216.532854860442
 21
3500.538765344775
 31
0.0
  0
SOLID
  5
2E9
330
2ED
100
AcDbEntity
  8
0
  6
ByBlock
 62
     1
380
     1
100
AcDbTrace
 10
4216.532854860442
 20
3843.838501344775
 30
0.0
 11
4216.249521527108
 21
3842.138501344775
 31
0.0
 12
4216.816188193776
 22
3842.138501344775
 32
0.0
 13
4216.816188193776
 23
3842.138501344775
 33
0.0
  0
SOLID
  5
2EA
330
2ED
100
AcDbEntity
  8
0
  6
ByBlock
 62
     1
380
     1
100
AcDbTrace
 10
4216.532854860442
 20
3498.838765344775
 30
0.0
 11
4216.249521527108
 21
3500.538765344775
 31
0.0
 12
4216.816188193776
 22
3500.538765344775
 32
0.0
 13
4216.816188193776
 23
3500.538765344775
 33
0.0
  0
MTEXT
  5
2EB
330
2ED
100
AcDbEntity
  8
0
  6
ByBlock
 62
     0
370
    -2
380
     1
100
AcDbMText
 10
4214.888755269719
 20
3671.338633344775
 30
0.0
 40
1.75
 41
0.0
 71
     5
 72
     1
  1
345
  7
H
 11
6.123031769111886E-17
 21
1.0
 31
0.0
 73
     1
 44
1.0
  0
ENDBLK
  5
46E
330
2ED
100
AcDbEntity
  8
0
100
AcDbBlockEnd
  0
BLOCK
  5
46F
330
2F9
100
AcDbEntity
  8
0
100
AcDbBlockBegin
  2
*D23
 70
     1
 10
0.0
 20
0.0
 30
0.0
  3
*D23
  1

  0
POINT
  5
2F0
330
2F9
100
AcDbEntity
  8
DEFPOINTS
  6
ByBlock
 62
     1
380
     1
100
AcDbPoint
 10
3884.702889040642
 20
3800.713534344775
 30
0.0
  0
POINT
  5
2F1
330
2F9
100
AcDbEntity
  8
DEFPOINTS
  6
ByBlock
 62
     1
380
     1
100
AcDbPoint
 10
4129.702833040643
 20
3800.713534344775
 30
0.0
  0
LINE
  5
2F2
330
2F9
100
AcDbEntity
  8
0
  6
ByBlock
 62
     1
370
    -2
380
     1
100
AcDbLine
 10
3884.702889040642
 20
3801.713534344775
 30
0.0
 11
3884.702889040642
 21
3909.575864851175
 31
0.0
  0
LINE
  5
2F3
330
2F9
100
AcDbEntity
  8
0
  6
ByBlock
 62
     1
370
    -2
380
     1
100
AcDbLine
 10
4129.702833040643
 20
3801.713534344775
 30
0.0
 11
4129.702833040643
 21
3909.575864851175
 31
0.0
  0
LINE
  5
2F4
330
2F9
100
AcDbEntity
  8
0
  6
ByBlock
 62
     1
370
    -2
380
     1
100
AcDbLine
 10
3886.402889040642
 20
3909.275864851175
 30
0.0
 11
4128.002833040643
 21
3909.275864851175
 31
0.0
  0
SOLID
  5
2F5
330
2F9
100
AcDbEntity
  8
0
  6
ByBlock
 62
     1
380
     1
100
AcDbTrace
 10
3884.702889040642
 20
3909.275864851175
 30
0.0
 11
3886.402889040642
 21
3908.992531517842
 31
0.0
 12
3886.402889040642
 22
3909.559198184508
 32
0.0
 13
3886.402889040642
 23
3909.559198184508
 33
0.0
  0
SOLID
  5
2F6
330
2F9
100
AcDbEntity
  8
0
  6
ByBlock
 62
     1
380
     1
100
AcDbTrace
 10
4129.702833040643
 20
3909.275864851175
 30
0.0
 11
4128.002833040643
 21
3908.992531517842
 31
0.0
 12
4128.002833040643
 22
3909.559198184508
 32
0.0
 13
4128.002833040643
 23
3909.559198184508
 33
0.0
  0
MTEXT
  5
2F7
330
2F9
100
AcDbEntity
  8
0
  6
ByBlock
 62
     0
370
    -2
380
     1
100
AcDbMText
 10
4007.202861040642
 20
3910.919367579688
 30
0.0
 40
1.75
 41
0.0
 71
     5
 72
     1
  1
245
  7
H
 73
     1
 44
1.0
  0
ENDBLK
  5
470
330
2F9
100
AcDbEntity
  8
0
100
AcDbBlockEnd
  0
BLOCK
  5
471
330
3B3
100
AcDbEntity
  8
0
100
AcDbBlockBegin
  2
*D24
 70
     1
 10
0.0
 20
0.0
 30
0.0
  3
*D24
  1

  0
POINT
  5
3AA
330
3B3
100
AcDbEntity
  8
DEFPOINTS
  6
ByBlock
 62
     0
380
     1
100
AcDbPoint
 10
3884.702889040642
 20
3800.713534344775
 30
0.0
  0
POINT
  5
3AB
330
3B3
100
AcDbEntity
  8
DEFPOINTS
  6
ByBlock
 62
     0
380
     1
100
AcDbPoint
 10
4129.702833040643
 20
3781.774376060042
 30
0.0
  0
LINE
  5
3AC
330
3B3
100
AcDbEntity
  8
0
  6
ByBlock
 62
     0
370
    -2
380
     1
100
AcDbLine
 10
3884.702889040642
 20
3801.338534344775
 30
0.0
 11
3884.702889040642
 21
4013.539346549703
 31
0.0
  0
LINE
  5
3AD
330
3B3
100
AcDbEntity
  8
0
  6
ByBlock
 62
     0
370
    -2
380
     1
100
AcDbLine
 10
4129.702833040643
 20
3782.399376060042
 30
0.0
 11
4129.702833040643
 21
4013.539346549703
 31
0.0
  0
LINE
  5
3AE
330
3B3
100
AcDbEntity
  8
0
  6
ByBlock
 62
     0
370
    -2
380
     1
100
AcDbLine
 10
3887.202889040642
 20
4012.289346549703
 30
0.0
 11
4127.202833040643
 21
4012.289346549703
 31
0.0
  0
SOLID
  5
3AF
330
3B3
100
AcDbEntity
  8
0
  6
ByBlock
 62
     0
380
     1
100
AcDbTrace
 10
3884.702889040642
 20
4012.289346549703
 30
0.0
 11
3887.202889040642
 21
4011.872679883037
 31
0.0
 12
3887.202889040642
 22
4012.70601321637
 32
0.0
 13
3887.202889040642
 23
4012.70601321637
 33
0.0
  0
SOLID
  5
3B0
330
3B3
100
AcDbEntity
  8
0
  6
ByBlock
 62
     0
380
     1
100
AcDbTrace
 10
4129.702833040643
 20
4012.289346549703
 30
0.0
 11
4127.202833040643
 21
4011.872679883037
 31
0.0
 12
4127.202833040643
 22
4012.70601321637
 32
0.0
 13
4127.202833040643
 23
4012.70601321637
 33
0.0
  0
MTEXT
  5
3B1
330
3B3
100
AcDbEntity
  8
0
  6
ByBlock
 62
     0
370
    -2
380
     1
100
AcDbMText
 10
4007.202861040642
 20
4014.164346549703
 30
0.0
 40
2.5
 41
0.0
 71
     5
 72
     1
  1
\A1;245
 73
     1
 44
1.0
  0
ENDBLK
  5
472
330
3B3
100
AcDbEntity
  8
0
100
AcDbBlockEnd
  0
BLOCK
  5
473
330
3BF
100
AcDbEntity
  8
0
100
AcDbBlockBegin
  2
*D25
 70
     1
 10
0.0
 20
0.0
 30
0.0
  3
*D25
  1

  0
POINT
  5
3B6
330
3BF
100
AcDbEntity
  8
DEFPOINTS
  6
ByBlock
 62
     0
380
     1
100
AcDbPoint
 10
4090.327842040642
 20
3843.838501344775
 30
0.0
  0
POINT
  5
3B7
330
3BF
100
AcDbEntity
  8
DEFPOINTS
  6
ByBlock
 62
     0
380
     1
100
AcDbPoint
 10
4063.659662951043
 20
3498.838765344775
 30
0.0
  0
LINE
  5
3B8
330
3BF
100
AcDbEntity
  8
0
  6
ByBlock
 62
     0
370
    -2
380
     1
100
AcDbLine
 10
4090.952842040642
 20
3843.838501344775
 30
0.0
 11
4319.103219808665
 21
3843.838501344775
 31
0.0
  0
LINE
  5
3B9
330
3BF
100
AcDbEntity
  8
0
  6
ByBlock
 62
     0
370
    -2
380
     1
100
AcDbLine
 10
4064.284662951043
 20
3498.838765344775
 30
0.0
 11
4319.103219808665
 21
3498.838765344775
 31
0.0
  0
LINE
  5
3BA
330
3BF
100
AcDbEntity
  8
0
  6
ByBlock
 62
     0
370
    -2
380
     1
100
AcDbLine
 10
4317.853219808665
 20
3841.338501344775
 30
0.0
 11
4317.853219808665
 21
3501.338765344775
 31
0.0
  0
SOLID
  5
3BB
330
3BF
100
AcDbEntity
  8
0
  6
ByBlock
 62
     0
380
     1
100
AcDbTrace
 10
4317.853219808665
 20
3843.838501344775
 30
0.0
 11
4317.436553141998
 21
3841.338501344775
 31
0.0
 12
4318.269886475332
 22
3841.338501344775
 32
0.0
 13
4318.269886475332
 23
3841.338501344775
 33
0.0
  0
SOLID
  5
3BC
330
3BF
100
AcDbEntity
  8
0
  6
ByBlock
 62
     0
380
     1
100
AcDbTrace
 10
4317.853219808665
 20
3498.838765344775
 30
0.0
 11
4317.436553141998
 21
3501.338765344775
 31
0.0
 12
4318.269886475332
 22
3501.338765344775
 32
0.0
 13
4318.269886475332
 23
3501.338765344775
 33
0.0
  0
MTEXT
  5
3BD
330
3BF
100
AcDbEntity
  8
0
  6
ByBlock
 62
     0
370
    -2
380
     1
100
AcDbMText
 10
4315.978219808665
 20
3671.338633344775
 30
0.0
 40
2.5
 41
0.0
 71
     5
 72
     1
  1
\A1;345
 11
6.123031769111886E-17
 21
1.0
 31
0.0
 73
     1
 44
1.0
  0
ENDBLK
  5
474
330
3BF
100
AcDbEntity
  8
0
100
AcDbBlockEnd
  0
BLOCK
  5
475
330
3CB
100
AcDbEntity
  8
0
100
AcDbBlockBegin
  2
*D26
 70
     1
 10
0.0
 20
0.0
 30
0.0
  3
*D26
  1

  0
POINT
  5
3C2
330
3CB
100
AcDbEntity
  8
DEFPOINTS
  6
ByBlock
 62
     0
380
     1
100
AcDbPoint
 10
3562.669761259343
 20
3544.359563844775
 30
0.0
  0
POINT
  5
3C3
330
3CB
100
AcDbEntity
  8
DEFPOINTS
  6
ByBlock
 62
     0
380
     1
100
AcDbPoint
 10
3782.363317525142
 20
3508.422091344775
 30
0.0
  0
LINE
  5
3C4
330
3CB
100
AcDbEntity
  8
0
  6
ByBlock
 62
     0
370
    -2
380
     1
100
AcDbLine
 10
3562.669761259343
 20
3543.734563844775
 30
0.0
 11
3562.669761259343
 21
3363.369158427249
 31
0.0
  0
LINE
  5
3C5
330
3CB
100
AcDbEntity
  8
0
  6
ByBlock
 62
     0
370
    -2
380
     1
100
AcDbLine
 10
3782.363317525142
 20
3507.797091344775
 30
0.0
 11
3782.363317525142
 21
3363.369158427249
 31
0.0
  0
LINE
  5
3C6
330
3CB
100
AcDbEntity
  8
0
  6
ByBlock
 62
     0
370
    -2
380
     1
100
AcDbLine
 10
3565.169761259343
 20
3364.619158427249
 30
0.0
 11
3779.863317525142
 21
3364.619158427249
 31
0.0
  0
SOLID
  5
3C7
330
3CB
100
AcDbEntity
  8
0
  6
ByBlock
 62
     0
380
     1
100
AcDbTrace
 10
3562.669761259343
 20
3364.619158427249
 30
0.0
 11
3565.169761259343
 21
3364.202491760583
 31
0.0
 12
3565.169761259343
 22
3365.035825093916
 32
0.0
 13
3565.169761259343
 23
3365.035825093916
 33
0.0
  0
SOLID
  5
3C8
330
3CB
100
AcDbEntity
  8
0
  6
ByBlock
 62
     0
380
     1
100
AcDbTrace
 10
3782.363317525142
 20
3364.619158427249
 30
0.0
 11
3779.863317525142
 21
3364.202491760583
 31
0.0
 12
3779.863317525142
 22
3365.035825093916
 32
0.0
 13
3779.863317525142
 23
3365.035825093916
 33
0.0
  0
MTEXT
  5
3C9
330
3CB
100
AcDbEntity
  8
0
  6
ByBlock
 62
     0
370
    -2
380
     1
100
AcDbMText
 10
3672.516539392243
 20
3366.702491760582
 30
0.0
 40
2.5
 41
0.0
 71
     5
 72
     1
  1
\A1;219,69
 73
     1
 44
1.0
  0
ENDBLK
  5
476
330
3CB
100
AcDbEntity
  8
0
100
AcDbBlockEnd
  0
BLOCK
  5
477
330
3D7
100
AcDbEntity
  8
0
100
AcDbBlockBegin
  2
*D27
 70
     1
 10
0.0
 20
0.0
 30
0.0
  3
*D27
  1

  0
POINT
  5
3CE
330
3D7
100
AcDbEntity
  8
DEFPOINTS
  6
ByBlock
 62
     0
380
     1
100
AcDbPoint
 10
3884.702889040642
 20
3771.708644706609
 30
0.0
  0
POINT
  5
3CF
330
3D7
100
AcDbEntity
  8
DEFPOINTS
  6
ByBlock
 62
     0
380
     1
100
AcDbPoint
 10
4129.702833040643
 20
3765.366609027228
 30
0.0
  0
LINE
  5
3D0
330
3D7
100
AcDbEntity
  8
0
  6
ByBlock
 62
     0
370
    -2
380
     1
100
AcDbLine
 10
3884.702889040642
 20
3772.333644706609
 30
0.0
 11
3884.702889040642
 21
3909.31241181331
 31
0.0
  0
LINE
  5
3D1
330
3D7
100
AcDbEntity
  8
0
  6
ByBlock
 62
     0
370
    -2
380
     1
100
AcDbLine
 10
4129.702833040643
 20
3765.991609027228
 30
0.0
 11
4129.702833040643
 21
3909.31241181331
 31
0.0
  0
LINE
  5
3D2
330
3D7
100
AcDbEntity
  8
0
  6
ByBlock
 62
     0
370
    -2
380
     1
100
AcDbLine
 10
3887.202889040642
 20
3908.06241181331
 30
0.0
 11
4127.202833040643
 21
3908.06241181331
 31
0.0
  0
SOLID
  5
3D3
330
3D7
100
AcDbEntity
  8
0
  6
ByBlock
 62
     0
380
     1
100
AcDbTrace
 10
3884.702889040642
 20
3908.06241181331
 30
0.0
 11
3887.202889040642
 21
3907.645745146643
 31
0.0
 12
3887.202889040642
 22
3908.479078479976
 32
0.0
 13
3887.202889040642
 23
3908.479078479976
 33
0.0
  0
SOLID
  5
3D4
330
3D7
100
AcDbEntity
  8
0
  6
ByBlock
 62
     0
380
     1
100
AcDbTrace
 10
4129.702833040643
 20
3908.06241181331
 30
0.0
 11
4127.202833040643
 21
3907.645745146643
 31
0.0
 12
4127.202833040643
 22
3908.479078479976
 32
0.0
 13
4127.202833040643
 23
3908.479078479976
 33
0.0
  0
MTEXT
  5
3D5
330
3D7
100
AcDbEntity
  8
0
  6
ByBlock
 62
     0
370
    -2
380
     1
100
AcDbMText
 10
4007.202861040642
 20
3909.93741181331
 30
0.0
 40
2.5
 41
0.0
 71
     5
 72
     1
  1
\A1;245
 73
     1
 44
1.0
  0
ENDBLK
  5
478
330
3D7
100
AcDbEntity
  8
0
100
AcDbBlockEnd
  0
BLOCK
  5
479
330
3E2
100
AcDbEntity
  8
0
100
AcDbBlockBegin
  2
*D28
 70
     1
 10
0.0
 20
0.0
 30
0.0
  3
*D28
  1

  0
POINT
  5
3D9
330
3E2
100
AcDbEntity
  8
DEFPOINTS
  6
ByBlock
 62
     0
380
     1
100
AcDbPoint
 10
3884.702889040642
 20
3771.708644706609
 30
0.0
  0
POINT
  5
3DA
330
3E2
100
AcDbEntity
  8
DEFPOINTS
  6
ByBlock
 62
     0
380
     1
100
AcDbPoint
 10
4129.702833040643
 20
3765.366609027228
 30
0.0
  0
LINE
  5
3DB
330
3E2
100
AcDbEntity
  8
0
  6
ByBlock
 62
     0
370
    -2
380
     1
100
AcDbLine
 10
3884.702889040642
 20
3772.333644706609
 30
0.0
 11
3884.702889040642
 21
3909.31241181331
 31
0.0
  0
LINE
  5
3DC
330
3E2
100
AcDbEntity
  8
0
  6
ByBlock
 62
     0
370
    -2
380
     1
100
AcDbLine
 10
4129.702833040643
 20
3765.991609027228
 30
0.0
 11
4129.702833040643
 21
3909.31241181331
 31
0.0
  0
LINE
  5
3DD
330
3E2
100
AcDbEntity
  8
0
  6
ByBlock
 62
     0
370
    -2
380
     1
100
AcDbLine
 10
3887.202889040642
 20
3908.06241181331
 30
0.0
 11
4127.202833040643
 21
3908.06241181331
 31
0.0
  0
SOLID
  5
3DE
330
3E2
100
AcDbEntity
  8
0
  6
ByBlock
 62
     0
380
     1
100
AcDbTrace
 10
3884.702889040642
 20
3908.06241181331
 30
0.0
 11
3887.202889040642
 21
3907.645745146643
 31
0.0
 12
3887.202889040642
 22
3908.479078479976
 32
0.0
 13
3887.202889040642
 23
3908.479078479976
 33
0.0
  0
SOLID
  5
3DF
330
3E2
100
AcDbEntity
  8
0
  6
ByBlock
 62
     0
380
     1
100
AcDbTrace
 10
4129.702833040643
 20
3908.06241181331
 30
0.0
 11
4127.202833040643
 21
3907.645745146643
 31
0.0
 12
4127.202833040643
 22
3908.479078479976
 32
0.0
 13
4127.202833040643
 23
3908.479078479976
 33
0.0
  0
MTEXT
  5
3E0
330
3E2
100
AcDbEntity
  8
0
  6
ByBlock
 62
     0
370
    -2
380
     1
100
AcDbMText
 10
4007.202861040642
 20
3909.93741181331
 30
0.0
 40
2.5
 41
0.0
 71
     5
 72
     1
  1
\A1;245
 73
     1
 44
1.0
  0
ENDBLK
  5
47A
330
3E2
100
AcDbEntity
  8
0
100
AcDbBlockEnd
  0
BLOCK
  5
47B
330
3ED
100
AcDbEntity
  8
0
100
AcDbBlockBegin
  2
*D29
 70
     1
 10
0.0
 20
0.0
 30
0.0
  3
*D29
  1

  0
POINT
  5
3E4
330
3ED
100
AcDbEntity
  8
DEFPOINTS
  6
ByBlock
 62
     7
380
     1
100
AcDbPoint
 10
3884.702889040642
 20
3771.708644706609
 30
0.0
  0
POINT
  5
3E5
330
3ED
100
AcDbEntity
  8
DEFPOINTS
  6
ByBlock
 62
     7
380
     1
100
AcDbPoint
 10
4129.702833040643
 20
3765.366609027228
 30
0.0
  0
LINE
  5
3E6
330
3ED
100
AcDbEntity
  8
0
  6
ByBlock
 62
     7
370
    -2
380
     1
100
AcDbLine
 10
3884.702889040642
 20
3772.333644706609
 30
0.0
 11
3884.702889040642
 21
3909.31241181331
 31
0.0
  0
LINE
  5
3E7
330
3ED
100
AcDbEntity
  8
0
  6
ByBlock
 62
     7
370
    -2
380
     1
100
AcDbLine
 10
4129.702833040643
 20
3765.991609027228
 30
0.0
 11
4129.702833040643
 21
3909.31241181331
 31
0.0
  0
LINE
  5
3E8
330
3ED
100
AcDbEntity
  8
0
  6
ByBlock
 62
     7
370
    -2
380
     1
100
AcDbLine
 10
3894.702889040642
 20
3908.06241181331
 30
0.0
 11
4119.702833040643
 21
3908.06241181331
 31
0.0
  0
SOLID
  5
3E9
330
3ED
100
AcDbEntity
  8
0
  6
ByBlock
 62
     7
380
     1
100
AcDbTrace
 10
3884.702889040642
 20
3908.06241181331
 30
0.0
 11
3894.702889040642
 21
3906.395745146643
 31
0.0
 12
3894.702889040642
 22
3909.729078479976
 32
0.0
 13
3894.702889040642
 23
3909.729078479976
 33
0.0
  0
SOLID
  5
3EA
330
3ED
100
AcDbEntity
  8
0
  6
ByBlock
 62
     7
380
     1
100
AcDbTrace
 10
4129.702833040643
 20
3908.06241181331
 30
0.0
 11
4119.702833040643
 21
3906.395745146643
 31
0.0
 12
4119.702833040643
 22
3909.729078479976
 32
0.0
 13
4119.702833040643
 23
3909.729078479976
 33
0.0
  0
MTEXT
  5
3EB
330
3ED
100
AcDbEntity
  8
0
  6
ByBlock
 62
     0
370
    -2
380
     1
100
AcDbMText
 10
4007.202861040642
 20
3920.06241181331
 30
0.0
 40
14.0
 41
0.0
 71
     5
 72
     1
  1
\A1;245
 73
     1
 44
1.0
  0
ENDBLK
  5
47C
330
3ED
100
AcDbEntity
  8
0
100
AcDbBlockEnd
  0
BLOCK
  5
47D
330
3F9
100
AcDbEntity
  8
0
100
AcDbBlockBegin
  2
*D30
 70
     1
 10
0.0
 20
0.0
 30
0.0
  3
*D30
  1

  0
POINT
  5
3F0
330
3F9
100
AcDbEntity
  8
DEFPOINTS
  6
ByBlock
 62
     0
380
     1
100
AcDbPoint
 10
4016.840951775911
 20
3843.838501344775
 30
0.0
  0
POINT
  5
3F1
330
3F9
100
AcDbEntity
  8
DEFPOINTS
  6
ByBlock
 62
     0
380
     1
100
AcDbPoint
 10
4022.769399622243
 20
3498.838765344775
 30
0.0
  0
LINE
  5
3F2
330
3F9
100
AcDbEntity
  8
0
  6
ByBlock
 62
     0
370
    -2
380
     1
100
AcDbLine
 10
4017.465951775911
 20
3843.838501344775
 30
0.0
 11
4210.506189570932
 21
3843.838501344775
 31
0.0
  0
LINE
  5
3F3
330
3F9
100
AcDbEntity
  8
0
  6
ByBlock
 62
     0
370
    -2
380
     1
100
AcDbLine
 10
4023.394399622243
 20
3498.838765344775
 30
0.0
 11
4210.506189570932
 21
3498.838765344775
 31
0.0
  0
LINE
  5
3F4
330
3F9
100
AcDbEntity
  8
0
  6
ByBlock
 62
     0
370
    -2
380
     1
100
AcDbLine
 10
4209.256189570932
 20
3841.338501344775
 30
0.0
 11
4209.256189570932
 21
3501.338765344775
 31
0.0
  0
SOLID
  5
3F5
330
3F9
100
AcDbEntity
  8
0
  6
ByBlock
 62
     0
380
     1
100
AcDbTrace
 10
4209.256189570932
 20
3843.838501344775
 30
0.0
 11
4208.839522904265
 21
3841.338501344775
 31
0.0
 12
4209.672856237599
 22
3841.338501344775
 32
0.0
 13
4209.672856237599
 23
3841.338501344775
 33
0.0
  0
SOLID
  5
3F6
330
3F9
100
AcDbEntity
  8
0
  6
ByBlock
 62
     0
380
     1
100
AcDbTrace
 10
4209.256189570932
 20
3498.838765344775
 30
0.0
 11
4208.839522904265
 21
3501.338765344775
 31
0.0
 12
4209.672856237599
 22
3501.338765344775
 32
0.0
 13
4209.672856237599
 23
3501.338765344775
 33
0.0
  0
MTEXT
  5
3F7
330
3F9
100
AcDbEntity
  8
0
  6
ByBlock
 62
     0
370
    -2
380
     1
100
AcDbMText
 10
4207.381189570932
 20
3671.338633344775
 30
0.0
 40
2.5
 41
0.0
 71
     5
 72
     1
  1
\A1;345
 11
6.123031769111886E-17
 21
1.0
 31
0.0
 73
     1
 44
1.0
  0
ENDBLK
  5
47E
330
3F9
100
AcDbEntity
  8
0
100
AcDbBlockEnd
  0
BLOCK
  5
47F
330
404
100
AcDbEntity
  8
0
100
AcDbBlockBegin
  2
*D31
 70
     1
 10
0.0
 20
0.0
 30
0.0
  3
*D31
  1

  0
POINT
  5
3FB
330
404
100
AcDbEntity
  8
DEFPOINTS
  6
ByBlock
 62
     0
380
     1
100
AcDbPoint
 10
4016.840951775911
 20
3843.838501344775
 30
0.0
  0
POINT
  5
3FC
330
404
100
AcDbEntity
  8
DEFPOINTS
  6
ByBlock
 62
     0
380
     1
100
AcDbPoint
 10
4022.769399622243
 20
3498.838765344775
 30
0.0
  0
LINE
  5
3FD
330
404
100
AcDbEntity
  8
0
  6
ByBlock
 62
     0
370
    -2
380
     1
100
AcDbLine
 10
4017.465951775911
 20
3843.838501344775
 30
0.0
 11
4210.506189570932
 21
3843.838501344775
 31
0.0
  0
LINE
  5
3FE
330
404
100
AcDbEntity
  8
0
  6
ByBlock
 62
     0
370
    -2
380
     1
100
AcDbLine
 10
4023.394399622243
 20
3498.838765344775
 30
0.0
 11
4210.506189570932
 21
3498.838765344775
 31
0.0
  0
LINE
  5
3FF
330
404
100
AcDbEntity
  8
0
  6
ByBlock
 62
     0
370
    -2
380
     1
100
AcDbLine
 10
4209.256189570932
 20
3841.338501344775
 30
0.0
 11
4209.256189570932
 21
3501.338765344775
 31
0.0
  0
SOLID
  5
400
330
404
100
AcDbEntity
  8
0
  6
ByBlock
 62
     0
380
     1
100
AcDbTrace
 10
4209.256189570932
 20
3843.838501344775
 30
0.0
 11
4208.839522904265
 21
3841.338501344775
 31
0.0
 12
4209.672856237599
 22
3841.338501344775
 32
0.0
 13
4209.672856237599
 23
3841.338501344775
 33
0.0
  0
SOLID
  5
401
330
404
100
AcDbEntity
  8
0
  6
ByBlock
 62
     0
380
     1
100
AcDbTrace
 10
4209.256189570932
 20
3498.838765344775
 30
0.0
 11
4208.839522904265
 21
3501.338765344775
 31
0.0
 12
4209.672856237599
 22
3501.338765344775
 32
0.0
 13
4209.672856237599
 23
3501.338765344775
 33
0.0
  0
MTEXT
  5
402
330
404
100
AcDbEntity
  8
0
  6
ByBlock
 62
     0
370
    -2
380
     1
100
AcDbMText
 10
4207.381189570932
 20
3671.338633344775
 30
0.0
 40
2.5
 41
0.0
 71
     5
 72
     1
  1
\A1;345
 11
6.123031769111886E-17
 21
1.0
 31
0.0
 73
     1
 44
1.0
  0
ENDBLK
  5
480
330
404
100
AcDbEntity
  8
0
100
AcDbBlockEnd
  0
BLOCK
  5
481
330
40F
100
AcDbEntity
  8
0
100
AcDbBlockBegin
  2
*D32
 70
     1
 10
0.0
 20
0.0
 30
0.0
  3
*D32
  1

  0
POINT
  5
406
330
40F
100
AcDbEntity
  8
DEFPOINTS
  6
ByBlock
 62
     7
380
     1
100
AcDbPoint
 10
4016.840951775911
 20
3843.838501344775
 30
0.0
  0
POINT
  5
407
330
40F
100
AcDbEntity
  8
DEFPOINTS
  6
ByBlock
 62
     7
380
     1
100
AcDbPoint
 10
4022.769399622243
 20
3498.838765344775
 30
0.0
  0
LINE
  5
408
330
40F
100
AcDbEntity
  8
0
  6
ByBlock
 62
     7
370
    -2
380
     1
100
AcDbLine
 10
4017.465951775911
 20
3843.838501344775
 30
0.0
 11
4210.506189570932
 21
3843.838501344775
 31
0.0
  0
LINE
  5
409
330
40F
100
AcDbEntity
  8
0
  6
ByBlock
 62
     7
370
    -2
380
     1
100
AcDbLine
 10
4023.394399622243
 20
3498.838765344775
 30
0.0
 11
4210.506189570932
 21
3498.838765344775
 31
0.0
  0
LINE
  5
40A
330
40F
100
AcDbEntity
  8
0
  6
ByBlock
 62
     7
370
    -2
380
     1
100
AcDbLine
 10
4209.256189570932
 20
3833.838501344775
 30
0.0
 11
4209.256189570932
 21
3508.838765344775
 31
0.0
  0
SOLID
  5
40B
330
40F
100
AcDbEntity
  8
0
  6
ByBlock
 62
     7
380
     1
100
AcDbTrace
 10
4209.256189570932
 20
3843.838501344775
 30
0.0
 11
4207.589522904265
 21
3833.838501344775
 31
0.0
 12
4210.922856237599
 22
3833.838501344775
 32
0.0
 13
4210.922856237599
 23
3833.838501344775
 33
0.0
  0
SOLID
  5
40C
330
40F
100
AcDbEntity
  8
0
  6
ByBlock
 62
     7
380
     1
100
AcDbTrace
 10
4209.256189570932
 20
3498.838765344775
 30
0.0
 11
4207.589522904265
 21
3508.838765344775
 31
0.0
 12
4210.922856237599
 22
3508.838765344775
 32
0.0
 13
4210.922856237599
 23
3508.838765344775
 33
0.0
  0
MTEXT
  5
40D
330
40F
100
AcDbEntity
  8
0
  6
ByBlock
 62
     0
370
    -2
380
     1
100
AcDbMText
 10
4197.256189570932
 20
3671.338633344775
 30
0.0
 40
14.0
 41
0.0
 71
     5
 72
     1
  1
\A1;345
 11
6.123031769111886E-17
 21
1.0
 31
0.0
 73
     1
 44
1.0
  0
ENDBLK
  5
482
330
40F
100
AcDbEntity
  8
0
100
AcDbBlockEnd
  0
BLOCK
  5
483
330
41B
100
AcDbEntity
  8
0
100
AcDbBlockBegin
  2
*D33
 70
     1
 10
0.0
 20
0.0
 30
0.0
  3
*D33
  1

  0
POINT
  5
412
330
41B
100
AcDbEntity
  8
DEFPOINTS
  6
ByBlock
 62
     0
380
     1
100
AcDbPoint
 10
3562.753306453063
 20
3547.24436888539
 30
0.0
  0
POINT
  5
413
330
41B
100
AcDbEntity
  8
DEFPOINTS
  6
ByBlock
 62
     0
380
     1
100
AcDbPoint
 10
3782.363317525142
 20
3508.422091344775
 30
0.0
  0
LINE
  5
414
330
41B
100
AcDbEntity
  8
0
  6
ByBlock
 62
     0
370
    -2
380
     1
100
AcDbLine
 10
3562.753306453063
 20
3546.61936888539
 30
0.0
 11
3562.753306453063
 21
3464.515481417212
 31
0.0
  0
LINE
  5
415
330
41B
100
AcDbEntity
  8
0
  6
ByBlock
 62
     0
370
    -2
380
     1
100
AcDbLine
 10
3782.363317525142
 20
3507.797091344775
 30
0.0
 11
3782.363317525142
 21
3464.515481417212
 31
0.0
  0
LINE
  5
416
330
41B
100
AcDbEntity
  8
0
  6
ByBlock
 62
     0
370
    -2
380
     1
100
AcDbLine
 10
3565.253306453063
 20
3465.765481417212
 30
0.0
 11
3779.863317525142
 21
3465.765481417212
 31
0.0
  0
SOLID
  5
417
330
41B
100
AcDbEntity
  8
0
  6
ByBlock
 62
     0
380
     1
100
AcDbTrace
 10
3562.753306453063
 20
3465.765481417212
 30
0.0
 11
3565.253306453063
 21
3465.348814750545
 31
0.0
 12
3565.253306453063
 22
3466.182148083878
 32
0.0
 13
3565.253306453063
 23
3466.182148083878
 33
0.0
  0
SOLID
  5
418
330
41B
100
AcDbEntity
  8
0
  6
ByBlock
 62
     0
380
     1
100
AcDbTrace
 10
3782.363317525142
 20
3465.765481417212
 30
0.0
 11
3779.863317525142
 21
3465.348814750545
 31
0.0
 12
3779.863317525142
 22
3466.182148083878
 32
0.0
 13
3779.863317525142
 23
3466.182148083878
 33
0.0
  0
MTEXT
  5
419
330
41B
100
AcDbEntity
  8
0
  6
ByBlock
 62
     0
370
    -2
380
     1
100
AcDbMText
 10
3672.558311989103
 20
3467.848814750545
 30
0.0
 40
2.5
 41
0.0
 71
     5
 72
     1
  1
\A1;219,61
 73
     1
 44
1.0
  0
ENDBLK
  5
484
330
41B
100
AcDbEntity
  8
0
100
AcDbBlockEnd
  0
BLOCK
  5
485
330
426
100
AcDbEntity
  8
0
100
AcDbBlockBegin
  2
*D34
 70
     1
 10
0.0
 20
0.0
 30
0.0
  3
*D34
  1

  0
POINT
  5
41D
330
426
100
AcDbEntity
  8
DEFPOINTS
  6
ByBlock
 62
     0
380
     1
100
AcDbPoint
 10
3562.753306453063
 20
3547.24436888539
 30
0.0
  0
POINT
  5
41E
330
426
100
AcDbEntity
  8
DEFPOINTS
  6
ByBlock
 62
     0
380
     1
100
AcDbPoint
 10
3782.363317525142
 20
3508.422091344775
 30
0.0
  0
LINE
  5
41F
330
426
100
AcDbEntity
  8
0
  6
ByBlock
 62
     0
370
    -2
380
     1
100
AcDbLine
 10
3562.753306453063
 20
3546.61936888539
 30
0.0
 11
3562.753306453063
 21
3464.515481417212
 31
0.0
  0
LINE
  5
420
330
426
100
AcDbEntity
  8
0
  6
ByBlock
 62
     0
370
    -2
380
     1
100
AcDbLine
 10
3782.363317525142
 20
3507.797091344775
 30
0.0
 11
3782.363317525142
 21
3464.515481417212
 31
0.0
  0
LINE
  5
421
330
426
100
AcDbEntity
  8
0
  6
ByBlock
 62
     0
370
    -2
380
     1
100
AcDbLine
 10
3565.253306453063
 20
3465.765481417212
 30
0.0
 11
3779.863317525142
 21
3465.765481417212
 31
0.0
  0
SOLID
  5
422
330
426
100
AcDbEntity
  8
0
  6
ByBlock
 62
     0
380
     1
100
AcDbTrace
 10
3562.753306453063
 20
3465.765481417212
 30
0.0
 11
3565.253306453063
 21
3465.348814750545
 31
0.0
 12
3565.253306453063
 22
3466.182148083878
 32
0.0
 13
3565.253306453063
 23
3466.182148083878
 33
0.0
  0
SOLID
  5
423
330
426
100
AcDbEntity
  8
0
  6
ByBlock
 62
     0
380
     1
100
AcDbTrace
 10
3782.363317525142
 20
3465.765481417212
 30
0.0
 11
3779.863317525142
 21
3465.348814750545
 31
0.0
 12
3779.863317525142
 22
3466.182148083878
 32
0.0
 13
3779.863317525142
 23
3466.182148083878
 33
0.0
  0
MTEXT
  5
424
330
426
100
AcDbEntity
  8
0
  6
ByBlock
 62
     0
370
    -2
380
     1
100
AcDbMText
 10
3672.558311989103
 20
3467.848814750545
 30
0.0
 40
2.5
 41
0.0
 71
     5
 72
     1
  1
\A1;219,61
 73
     1
 44
1.0
  0
ENDBLK
  5
486
330
426
100
AcDbEntity
  8
0
100
AcDbBlockEnd
  0
BLOCK
  5
487
330
431
100
AcDbEntity
  8
0
100
AcDbBlockBegin
  2
*D35
 70
     1
 10
0.0
 20
0.0
 30
0.0
  3
*D35
  1

  0
POINT
  5
428
330
431
100
AcDbEntity
  8
DEFPOINTS
  6
ByBlock
 62
     7
380
     1
100
AcDbPoint
 10
3562.753306453063
 20
3547.24436888539
 30
0.0
  0
POINT
  5
429
330
431
100
AcDbEntity
  8
DEFPOINTS
  6
ByBlock
 62
     7
380
     1
100
AcDbPoint
 10
3782.363317525142
 20
3508.422091344775
 30
0.0
  0
LINE
  5
42A
330
431
100
AcDbEntity
  8
0
  6
ByBlock
 62
     7
370
    -2
380
     1
100
AcDbLine
 10
3562.753306453063
 20
3546.61936888539
 30
0.0
 11
3562.753306453063
 21
3464.515481417212
 31
0.0
  0
LINE
  5
42B
330
431
100
AcDbEntity
  8
0
  6
ByBlock
 62
     7
370
    -2
380
     1
100
AcDbLine
 10
3782.363317525142
 20
3507.797091344775
 30
0.0
 11
3782.363317525142
 21
3464.515481417212
 31
0.0
  0
LINE
  5
42C
330
431
100
AcDbEntity
  8
0
  6
ByBlock
 62
     7
370
    -2
380
     1
100
AcDbLine
 10
3572.753306453063
 20
3465.765481417212
 30
0.0
 11
3772.363317525142
 21
3465.765481417212
 31
0.0
  0
SOLID
  5
42D
330
431
100
AcDbEntity
  8
0
  6
ByBlock
 62
     7
380
     1
100
AcDbTrace
 10
3562.753306453063
 20
3465.765481417212
 30
0.0
 11
3572.753306453063
 21
3464.098814750545
 31
0.0
 12
3572.753306453063
 22
3467.432148083878
 32
0.0
 13
3572.753306453063
 23
3467.432148083878
 33
0.0
  0
SOLID
  5
42E
330
431
100
AcDbEntity
  8
0
  6
ByBlock
 62
     7
380
     1
100
AcDbTrace
 10
3782.363317525142
 20
3465.765481417212
 30
0.0
 11
3772.363317525142
 21
3464.098814750545
 31
0.0
 12
3772.363317525142
 22
3467.432148083878
 32
0.0
 13
3772.363317525142
 23
3467.432148083878
 33
0.0
  0
MTEXT
  5
42F
330
431
100
AcDbEntity
  8
0
  6
ByBlock
 62
     0
370
    -2
380
     1
100
AcDbMText
 10
3672.558311989103
 20
3478.932148083879
 30
0.0
 40
14.0
 41
0.0
 71
     5
 72
     1
  1
\A1;219,61
 73
     1
 44
1.0
  0
ENDBLK
  5
488
330
431
100
AcDbEntity
  8
0
100
AcDbBlockEnd
  0
BLOCK
  5
489
330
43C
100
AcDbEntity
  8
0
100
AcDbBlockBegin
  2
*D36
 70
     1
 10
0.0
 20
0.0
 30
0.0
  3
*D36
  1

  0
POINT
  5
433
330
43C
100
AcDbEntity
  8
DEFPOINTS
  6
ByBlock
 62
     7
380
     1
100
AcDbPoint
 10
3562.753306453063
 20
3547.24436888539
 30
0.0
  0
POINT
  5
434
330
43C
100
AcDbEntity
  8
DEFPOINTS
  6
ByBlock
 62
     7
380
     1
100
AcDbPoint
 10
3782.363317525142
 20
3508.422091344775
 30
0.0
  0
LINE
  5
435
330
43C
100
AcDbEntity
  8
0
  6
ByBlock
 62
     7
370
    -2
380
     1
100
AcDbLine
 10
3562.753306453063
 20
3546.61936888539
 30
0.0
 11
3562.753306453063
 21
3464.515481417212
 31
0.0
  0
LINE
  5
436
330
43C
100
AcDbEntity
  8
0
  6
ByBlock
 62
     7
370
    -2
380
     1
100
AcDbLine
 10
3782.363317525142
 20
3507.797091344775
 30
0.0
 11
3782.363317525142
 21
3464.515481417212
 31
0.0
  0
LINE
  5
437
330
43C
100
AcDbEntity
  8
0
  6
ByBlock
 62
     7
370
    -2
380
     1
100
AcDbLine
 10
3572.753306453063
 20
3465.765481417212
 30
0.0
 11
3772.363317525142
 21
3465.765481417212
 31
0.0
  0
SOLID
  5
438
330
43C
100
AcDbEntity
  8
0
  6
ByBlock
 62
     7
380
     1
100
AcDbTrace
 10
3562.753306453063
 20
3465.765481417212
 30
0.0
 11
3572.753306453063
 21
3464.098814750545
 31
0.0
 12
3572.753306453063
 22
3467.432148083878
 32
0.0
 13
3572.753306453063
 23
3467.432148083878
 33
0.0
  0
SOLID
  5
439
330
43C
100
AcDbEntity
  8
0
  6
ByBlock
 62
     7
380
     1
100
AcDbTrace
 10
3782.363317525142
 20
3465.765481417212
 30
0.0
 11
3772.363317525142
 21
3464.098814750545
 31
0.0
 12
3772.363317525142
 22
3467.432148083878
 32
0.0
 13
3772.363317525142
 23
3467.432148083878
 33
0.0
  0
MTEXT
  5
43A
330
43C
100
AcDbEntity
  8
0
  6
ByBlock
 62
     0
370
    -2
380
     1
100
AcDbMText
 10
3672.558311989103
 20
3477.765481417212
 30
0.0
 40
14.0
 41
0.0
 71
     5
 72
     1
  1
220
 73
     1
 44
1.0
  0
ENDBLK
  5
48A
330
43C
100
AcDbEntity
  8
0
100
AcDbBlockEnd
  0
ENDSEC
  0
SECTION
  2
ENTITIES
  0
LINE
  5
2B2
330
1F
100
AcDbEntity
  8
0
370
    60
100
AcDbLine
 10
3686.113339525143
 20
3836.651006844775
 30
0.0
 11
3686.113339525143
 21
3644.248256698275
 31
0.0
  0
LINE
  5
2B3
330
1F
100
AcDbEntity
  8
0
370
    60
100
AcDbLine
 10
3672.988342525143
 20
3836.651006844775
 30
0.0
 11
3672.988342525143
 21
3659.922638222475
 31
0.0
  0
ELLIPSE
  5
2B4
330
1F
100
AcDbEntity
  8
0
370
    60
100
AcDbEllipse
 10
3604.232251759342
 20
3544.359563844775
 30
0.0
 11
0.0
 21
45.52079849999974
 31
0.0
210
0.0
220
0.0
230
1.0
 40
0.9130439682423408
 41
0.5070985026631054
 42
3.141592653589783
  0
ELLIPSE
  5
2B5
330
1F
100
AcDbEntity
  8
0
370
    60
100
AcDbEllipse
 10
3603.665413925942
 20
3546.755395344775
 30
0.0
 11
0.0
 21
28.74997799999949
 31
0.0
210
0.0
220
0.0
230
1.0
 40
0.9130439682423409
 41
0.5070985026631187
 42
3.141592653589796
  0
LINE
  5
2C2
330
1F
100
AcDbEntity
  8
0
370
    60
100
AcDbLine
 10
3604.232251759342
 20
3498.838765344775
 30
0.0
 11
3773.613319525142
 21
3498.838765344775
 31
0.0
  0
LINE
  5
2C3
330
1F
100
AcDbEntity
  8
0
370
    60
100
AcDbLine
 10
3603.665413925942
 20
3518.005417344775
 30
0.0
 11
3773.613319525142
 21
3518.005417344775
 31
0.0
  0
ELLIPSE
  5
2C4
330
1F
100
AcDbEntity
  8
0
370
    60
100
AcDbEllipse
 10
3773.613319525142
 20
3508.422091344775
 30
0.0
 11
0.0
 21
9.583325999999859
 31
0.0
210
0.0
220
0.0
230
1.0
 40
0.9130439682423409
 41
3.14159265358979
 42
4.712388980384686
  0
ELLIPSE
  5
2C5
330
1F
100
AcDbEntity
  8
0
370
    60
100
AcDbEllipse
 10
3773.613319525142
 20
3508.422091344775
 30
0.0
 11
0.0
 21
9.583325999999859
 31
0.0
210
0.0
220
0.0
230
1.0
 40
0.9130439682423409
 41
-1.5707963267949
 42
-0.0000000000000036
  0
LINE
  5
2C6
330
1F
100
AcDbEntity
  8
0
370
    60
100
AcDbLine
 10
3782.363317525143
 20
3508.422091344775
 30
0.0
 11
3782.363317525143
 21
3508.422091344775
 31
0.0
  0
LINE
  5
2C7
330
1F
100
AcDbEntity
  8
0
370
    60
100
AcDbLine
 10
3659.065929040743
 20
3629.797861120175
 30
0.0
 11
3584.047723965542
 21
3584.151893734475
 31
0.0
  0
LINE
  5
2C8
330
1F
100
AcDbEntity
  8
0
370
    60
100
AcDbLine
 10
3658.964526286142
 20
3613.291771127475
 30
0.0
 11
3590.917298784242
 21
3571.887383829375
 31
0.0
  0
LINE
  5
2C9
330
1F
100
AcDbEntity
  8
0
370
    60
100
AcDbLine
 10
3607.363357525142
 20
3795.921871344775
 30
0.0
 11
3624.863353525142
 21
3795.921871344775
 31
0.0
  0
LINE
  5
2CA
330
1F
100
AcDbEntity
  8
0
370
    60
100
AcDbLine
 10
3607.363357525142
 20
3623.422003344775
 30
0.0
 11
3624.863353525142
 21
3623.422003344775
 31
0.0
  0
LINE
  5
2CB
330
1F
100
AcDbEntity
  8
0
370
    60
100
AcDbLine
 10
3603.863358325142
 20
3771.963556344775
 30
0.0
 11
3603.863358325142
 21
3647.380318344775
 31
0.0
  0
LINE
  5
2CC
330
1F
100
AcDbEntity
  8
0
370
    60
100
AcDbLine
 10
3607.363357525142
 20
3795.921871344775
 30
0.0
 11
3607.363357525142
 21
3623.422003344775
 31
0.0
  0
LINE
  5
2CD
330
1F
100
AcDbEntity
  8
0
370
    60
100
AcDbLine
 10
3603.863358325142
 20
3647.380318344775
 30
0.0
 11
3607.363357525142
 21
3643.194090838275
 31
0.0
  0
LINE
  5
2CE
330
1F
100
AcDbEntity
  8
0
370
    60
100
AcDbLine
 10
3603.863358325142
 20
3771.963556344775
 30
0.0
 11
3607.363357525142
 21
3776.149766104375
 31
0.0
  0
LINE
  5
2CF
330
1F
100
AcDbEntity
  8
0
370
    60
100
AcDbLine
 10
3686.113339525143
 20
3679.179533208975
 30
0.0
 11
3694.906277330143
 21
3684.432455886875
 31
0.0
  0
LINE
  5
2D0
330
1F
100
AcDbEntity
  8
0
370
    60
100
AcDbLine
 10
3616.113355525142
 20
3623.422003344775
 30
0.0
 11
3616.113355525142
 21
3795.921871344775
 31
0.0
  0
LINE
  5
2D1
330
1F
100
AcDbEntity
  8
0
370
    60
100
AcDbLine
 10
3624.863353525142
 20
3795.921871344775
 30
0.0
 11
3624.863353525142
 21
3623.422003344775
 31
0.0
  0
LINE
  5
2D2
330
1F
100
AcDbEntity
  8
0
370
    60
100
AcDbLine
 10
3703.518187398743
 20
3607.422338890475
 30
0.0
 11
3697.321406407743
 21
3607.422338890475
 31
0.0
  0
LINE
  5
2D3
330
1F
100
AcDbEntity
  8
0
370
    60
100
AcDbLine
 10
3706.555830222943
 20
3634.862169744875
 30
0.0
 11
3697.641915593742
 21
3634.862169744875
 31
0.0
  0
LINE
  5
2D4
330
1F
100
AcDbEntity
  8
0
370
    60
100
AcDbLine
 10
3685.964103448142
 20
3677.664551343575
 30
0.0
 11
3706.555830222943
 21
3677.664551343575
 31
0.0
  0
ELLIPSE
  5
2D5
330
1F
100
AcDbEntity
  8
0
370
    60
100
AcDbEllipse
 10
3679.550841025143
 20
3621.393479434075
 30
0.0
 11
0.0
 21
23.9583149999999
 31
0.0
210
0.0
220
0.0
230
1.0
 40
0.913043968242341
 41
-1.5707963267949
 42
4.712388980384686
  0
LINE
  5
2D6
330
1F
100
AcDbEntity
  8
0
370
    60
100
AcDbLine
 10
3624.863353525142
 20
3642.588655344775
 30
0.0
 11
3672.988342525143
 21
3664.580880028275
 31
0.0
  0
LINE
  5
2D7
330
1F
100
AcDbEntity
  8
0
370
    60
100
AcDbLine
 10
3624.863353525142
 20
3642.588655344775
 30
0.0
 11
3672.988342525143
 21
3671.338615597875
 31
0.0
  0
ELLIPSE
  5
2D8
330
1F
100
AcDbEntity
  8
0
370
    60
100
AcDbEllipse
 10
3696.743776910141
 20
3636.013535376175
 30
0.0
 11
0.0
 21
35.33516046089976
 31
0.0
210
0.0
220
0.0
230
1.0
 40
0.9130439682423409
 41
0.8276098240215539
 42
1.489897313998642
  0
LINE
  5
2D9
330
1F
100
AcDbEntity
  8
0
370
    60
100
AcDbLine
 10
3703.518187398743
 20
3634.862169744875
 30
0.0
 11
3703.518187398743
 21
3607.422338890475
 31
0.0
  0
LINE
  5
2DA
330
1F
100
AcDbEntity
  8
0
370
    60
100
AcDbLine
 10
3706.555830222943
 20
3677.664551343575
 30
0.0
 11
3706.555830222943
 21
3634.862169744875
 31
0.0
  0
ELLIPSE
  5
2DB
330
1F
100
AcDbEntity
  8
0
370
    60
100
AcDbEllipse
 10
3682.336419092141
 20
3709.671919597875
 30
0.0
 11
0.0
 21
28.74997800000006
 31
0.0
210
0.0
220
0.0
230
1.0
 40
0.9130439682423409
 41
3.640939381099936
 42
5.783838579669455
  0
LINE
  5
2DC
330
1F
100
AcDbEntity
  8
0
370
    60
100
AcDbLine
 10
3686.113339525143
 20
3740.164323733675
 30
0.0
 11
3694.906277330143
 21
3734.911401055775
 31
0.0
  0
LINE
  5
2DD
330
1F
100
AcDbEntity
  8
0
370
    60
100
AcDbLine
 10
3624.863353525142
 20
3776.755219344775
 30
0.0
 11
3672.988342525143
 21
3754.762976914375
 31
0.0
  0
LINE
  5
2DE
330
1F
100
AcDbEntity
  8
0
370
    60
100
AcDbLine
 10
3624.863353525142
 20
3776.755219344775
 30
0.0
 11
3672.988342525143
 21
3748.005223597875
 31
0.0
  0
ELLIPSE
  5
2DF
330
1F
100
AcDbEntity
  8
0
370
    60
100
AcDbEllipse
 10
3679.550841025143
 20
3836.651006844775
 30
0.0
 11
0.0
 21
7.187494500000021
 31
0.0
210
0.0
220
0.0
230
1.0
 40
0.9130439682423409
 41
-1.5707963267949
 42
-0.0000000000000036
  0
ELLIPSE
  5
2E0
330
1F
100
AcDbEntity
  8
0
370
    60
100
AcDbEllipse
 10
3679.550841025143
 20
3836.651006844775
 30
0.0
 11
0.0
 21
7.187494500000525
 31
0.0
210
0.0
220
0.0
230
1.0
 40
0.9130439682423409
 41
-0.0000000000000036
 42
1.570796326794893
  0
LINE
  5
2E1
330
1F
100
AcDbEntity
  8
0
370
    60
100
AcDbLine
 10
3679.550841025143
 20
3843.838501344775
 30
0.0
 11
3679.550841025143
 21
3843.838501344775
 31
0.0
  0
LINE
  5
2FA
330
1F
100
AcDbEntity
  8
0
370
    60
100
AcDbLine
 10
4116.577836040642
 20
3807.901028844775
 30
0.0
 11
4116.577836040642
 21
3657.169739094476
 31
0.0
  0
ELLIPSE
  5
2FB
330
1F
100
AcDbEntity
  8
0
370
    60
100
AcDbEllipse
 10
4090.327842040642
 20
3800.713534344775
 30
0.0
 11
0.0
 21
43.12496700000013
 31
0.0
210
0.0
220
0.0
230
1.0
 40
0.9130439682423409
 41
-1.5707963267949
 42
-0.0000000000000036
  0
ELLIPSE
  5
2FC
330
1F
100
AcDbEntity
  8
0
370
    60
100
AcDbEllipse
 10
4007.202861040642
 20
3800.749365335875
 30
0.0
 11
0.0
 21
7.187494500000021
 31
0.0
210
0.0
220
0.0
230
1.0
 40
0.9130439682423409
 41
-1.5707963267949
 42
1.570796326794893
  0
ELLIPSE
  5
2FD
330
1F
100
AcDbEntity
  8
0
370
    60
100
AcDbEllipse
 10
3924.077880040642
 20
3800.713534344775
 30
0.0
 11
0.0
 21
43.12496700000013
 31
0.0
210
0.0
220
0.0
230
1.0
 40
0.9130439682423409
 41
-0.0000000000000036
 42
1.570796326794893
  0
LINE
  5
2FE
330
1F
100
AcDbEntity
  8
0
370
    60
100
AcDbLine
 10
3897.827886040643
 20
3807.901028844775
 30
0.0
 11
3897.827886040643
 21
3657.169739094476
 31
0.0
  0
LINE
  5
2FF
330
1F
100
AcDbEntity
  8
0
370
    60
100
AcDbLine
 10
4121.296450702843
 20
3630.976805434075
 30
0.0
 11
4082.018357828842
 21
3630.976805434075
 31
0.0
  0
LINE
  5
300
330
1F
100
AcDbEntity
  8
0
370
    60
100
AcDbLine
 10
4121.296450702843
 20
3645.351794434075
 30
0.0
 11
4085.952843040643
 21
3645.351794434075
 31
0.0
  0
ELLIPSE
  5
301
330
1F
100
AcDbEntity
  8
0
370
    60
100
AcDbEllipse
 10
4120.116464861443
 20
3506.026259844775
 30
0.0
 11
0.0
 21
7.187494500000021
 31
0.0
210
0.0
220
0.0
230
1.0
 40
0.9130439682423409
 41
1.570796326794893
 42
3.14159265358979
  0
LINE
  5
302
330
1F
100
AcDbEntity
  8
0
370
    60
100
AcDbLine
 10
4120.116464861443
 20
3498.838765344775
 30
0.0
 11
4007.202861040642
 21
3498.838765344775
 31
0.0
  0
ELLIPSE
  5
303
330
1F
100
AcDbEntity
  8
0
370
    60
100
AcDbEllipse
 10
4126.211389394242
 20
3599.766716662275
 30
0.0
 11
0.0
 21
13.86402025519978
 31
0.0
210
0.0
220
0.0
230
1.0
 40
0.9130439682423409
 41
0.6380676781202457
 42
1.583609015726624
  0
ELLIPSE
  5
304
330
1F
100
AcDbEntity
  8
0
370
    60
100
AcDbEllipse
 10
4129.235259073443
 20
3656.992110372375
 30
0.0
 11
0.0
 21
13.86402025519976
 31
0.0
210
0.0
220
0.0
230
1.0
 40
0.9130439682423408
 41
1.557983637863205
 42
2.463698045468936
  0
LINE
  5
305
330
1F
100
AcDbEntity
  8
0
370
    60
100
AcDbLine
 10
4113.553966361443
 20
3599.944345384375
 30
0.0
 11
4113.553966361443
 21
3506.026259844775
 31
0.0
  0
LINE
  5
306
330
1F
100
AcDbEntity
  8
0
370
    60
100
AcDbLine
 10
3900.851755719842
 20
3599.944345384375
 30
0.0
 11
3900.851755719842
 21
3506.026259844775
 31
0.0
  0
LINE
  5
307
330
1F
100
AcDbEntity
  8
0
370
    60
100
AcDbLine
 10
3887.726758719843
 20
3599.944345384375
 30
0.0
 11
3887.726758719843
 21
3506.026259844775
 31
0.0
  0
LINE
  5
308
330
1F
100
AcDbEntity
  8
0
370
    60
100
AcDbLine
 10
3894.289257219843
 20
3498.838765344775
 30
0.0
 11
4007.202861040642
 21
3498.838765344775
 31
0.0
  0
LINE
  5
309
330
1F
100
AcDbEntity
  8
0
370
    60
100
AcDbLine
 10
3900.851755719842
 20
3518.005417344775
 30
0.0
 11
4007.202861040642
 21
3518.005417344775
 31
0.0
  0
ELLIPSE
  5
30A
330
1F
100
AcDbEntity
  8
0
370
    60
100
AcDbEllipse
 10
3894.289257219843
 20
3506.026259844775
 30
0.0
 11
0.0
 21
7.187494499999517
 31
0.0
210
0.0
220
0.0
230
1.0
 40
0.9130439682423409
 41
3.14159265358979
 42
4.712388980384686
  0
ELLIPSE
  5
30B
330
1F
100
AcDbEntity
  8
0
370
    60
100
AcDbEllipse
 10
3894.289257219843
 20
3506.026259844775
 30
0.0
 11
0.0
 21
7.187494500000021
 31
0.0
210
0.0
220
0.0
230
1.0
 40
0.9130439682423409
 41
1.570796326794893
 42
3.14159265358979
  0
LINE
  5
30C
330
1F
100
AcDbEntity
  8
0
370
    60
100
AcDbLine
 10
3894.289257219843
 20
3498.838765344775
 30
0.0
 11
3894.289257219843
 21
3498.838765344775
 31
0.0
  0
LINE
  5
30D
330
1F
100
AcDbEntity
  8
0
370
    60
100
AcDbLine
 10
4113.553966361443
 20
3518.005417344775
 30
0.0
 11
4007.202861040642
 21
3518.005417344775
 31
0.0
  0
LINE
  5
30E
330
1F
100
AcDbEntity
  8
0
370
    60
100
AcDbLine
 10
3934.907039602443
 20
3654.384274404975
 30
0.0
 11
4007.202861040642
 21
3654.384274404975
 31
0.0
  0
LINE
  5
30F
330
1F
100
AcDbEntity
  8
0
370
    60
100
AcDbLine
 10
3934.907039602443
 20
3667.053253907975
 30
0.0
 11
4007.202861040642
 21
3667.053253907975
 31
0.0
  0
LINE
  5
310
330
1F
100
AcDbEntity
  8
0
370
    60
100
AcDbLine
 10
3934.907039602443
 20
3679.722233410975
 30
0.0
 11
4007.202861040642
 21
3679.722233410975
 31
0.0
  0
LINE
  5
311
330
1F
100
AcDbEntity
  8
0
370
    60
100
AcDbLine
 10
3934.907039602443
 20
3692.391212913975
 30
0.0
 11
4007.202861040642
 21
3692.391212913975
 31
0.0
  0
LINE
  5
312
330
1F
100
AcDbEntity
  8
0
370
    60
100
AcDbLine
 10
3934.907039602443
 20
3726.952644028675
 30
0.0
 11
4007.202861040642
 21
3726.952644028675
 31
0.0
  0
LINE
  5
313
330
1F
100
AcDbEntity
  8
0
370
    60
100
AcDbLine
 10
3934.907039602443
 20
3739.621623531675
 30
0.0
 11
4007.202861040642
 21
3739.621623531675
 31
0.0
  0
LINE
  5
314
330
1F
100
AcDbEntity
  8
0
370
    60
100
AcDbLine
 10
3934.907039602443
 20
3752.290603034675
 30
0.0
 11
4007.202861040642
 21
3752.290603034675
 31
0.0
  0
LINE
  5
315
330
1F
100
AcDbEntity
  8
0
370
    60
100
AcDbLine
 10
3934.907039602443
 20
3764.959582537675
 30
0.0
 11
4007.202861040642
 21
3764.959582537675
 31
0.0
  0
ELLIPSE
  5
316
330
1F
100
AcDbEntity
  8
0
370
    60
100
AcDbEllipse
 10
3949.645617252143
 20
3719.598772341175
 30
0.0
 11
0.0
 21
16.26222983979979
 31
0.0
210
0.0
220
0.0
230
1.0
 40
0.9130439682423409
 41
2.453917656673079
 42
3.131071704139025
  0
ELLIPSE
  5
317
330
1F
100
AcDbEntity
  8
0
370
    60
100
AcDbEllipse
 10
3944.546491102843
 20
3646.994039319375
 30
0.0
 11
0.0
 21
5.27874441740014
 31
0.0
210
0.0
220
0.0
230
1.0
 40
0.9130439682423409
 41
1.570796326794893
 42
3.14159265358979
  0
ELLIPSE
  5
318
330
1F
100
AcDbEntity
  8
0
370
    60
100
AcDbEllipse
 10
3944.546491102843
 20
3772.349817623275
 30
0.0
 11
0.0
 21
5.278744417399636
 31
0.0
210
0.0
220
0.0
230
1.0
 40
0.9130439682423409
 41
-0.0000000000000036
 42
1.570796326794893
  0
ELLIPSE
  5
319
330
1F
100
AcDbEntity
  8
0
370
    60
100
AcDbEllipse
 10
3949.645617252143
 20
3699.745084601475
 30
0.0
 11
0.0
 21
16.26222983980032
 31
0.0
210
0.0
220
0.0
230
1.0
 40
0.9130439682423409
 41
0.0105209494507723
 42
0.6876749969167175
  0
ELLIPSE
  5
31A
330
1F
100
AcDbEntity
  8
0
370
    60
100
AcDbEllipse
 10
3844.904398137443
 20
3709.392778607775
 30
0.0
 11
0.0
 21
126.2033879948002
 31
0.0
210
0.0
220
0.0
230
1.0
 40
0.9130439682423409
 41
4.151252727885337
 42
5.27747395305021
  0
ELLIPSE
  5
31B
330
1F
100
AcDbEntity
  8
0
370
    60
100
AcDbEllipse
 10
3945.952875040643
 20
3642.588655344775
 30
0.0
 11
0.0
 21
19.16665200000023
 31
0.0
210
0.0
220
0.0
230
1.0
 40
0.9130439682423408
 41
1.570796326794893
 42
3.14159265358979
  0
ELLIPSE
  5
31C
330
1F
100
AcDbEntity
  8
0
370
    60
100
AcDbEllipse
 10
3944.546491102843
 20
3646.994039319375
 30
0.0
 11
0.0
 21
10.55747108790032
 31
0.0
210
0.0
220
0.0
230
1.0
 40
0.9130439682423409
 41
1.570796326794893
 42
3.14159265358979
  0
ELLIPSE
  5
31D
330
1F
100
AcDbEntity
  8
0
370
    60
100
AcDbEllipse
 10
3944.546491102843
 20
3772.349817623275
 30
0.0
 11
0.0
 21
10.55747108789982
 31
0.0
210
0.0
220
0.0
230
1.0
 40
0.9130439682423408
 41
-0.0000000000000036
 42
1.570796326794893
  0
ELLIPSE
  5
31E
330
1F
100
AcDbEntity
  8
0
370
    60
100
AcDbEllipse
 10
3945.952875040643
 20
3776.755219344775
 30
0.0
 11
0.0
 21
19.16665200000023
 31
0.0
210
0.0
220
0.0
230
1.0
 40
0.9130439682423408
 41
-0.0000000000000036
 42
1.570796326794893
  0
LINE
  5
31F
330
1F
100
AcDbEntity
  8
0
370
    60
100
AcDbLine
 10
3939.726765352642
 20
3646.994039319375
 30
0.0
 11
3939.726765352642
 21
3709.671937344775
 31
0.0
  0
LINE
  5
320
330
1F
100
AcDbEntity
  8
0
370
    60
100
AcDbLine
 10
3928.452879040643
 20
3642.588655344775
 30
0.0
 11
3928.452879040643
 21
3709.671937344775
 31
0.0
  0
LINE
  5
321
330
1F
100
AcDbEntity
  8
0
370
    60
100
AcDbLine
 10
3934.907039602443
 20
3646.994039319375
 30
0.0
 11
3934.907039602443
 21
3709.671937344775
 31
0.0
  0
LINE
  5
322
330
1F
100
AcDbEntity
  8
0
370
    60
100
AcDbLine
 10
3884.702889040642
 20
3800.713534344775
 30
0.0
 11
3884.702889040642
 21
3657.169739094476
 31
0.0
  0
LINE
  5
323
330
1F
100
AcDbEntity
  8
0
370
    60
100
AcDbLine
 10
3895.734286982143
 20
3628.580973934075
 30
0.0
 11
3895.734286982143
 21
3610.902949652976
 31
0.0
  0
LINE
  5
324
330
1F
100
AcDbEntity
  8
0
370
    60
100
AcDbLine
 10
3893.109287582141
 20
3628.580973934075
 30
0.0
 11
3893.109287582141
 21
3611.112451807475
 31
0.0
  0
LINE
  5
325
330
1F
100
AcDbEntity
  8
0
370
    60
100
AcDbLine
 10
3890.484288182142
 20
3630.976805434075
 30
0.0
 11
3890.484288182142
 21
3614.205984934075
 31
0.0
  0
LINE
  5
326
330
1F
100
AcDbEntity
  8
0
370
    60
100
AcDbLine
 10
3870.162320604941
 20
3645.351794434075
 30
0.0
 11
3870.162320604941
 21
3597.435164434075
 31
0.0
  0
LINE
  5
327
330
1F
100
AcDbEntity
  8
0
370
    60
100
AcDbLine
 10
3878.912318604942
 20
3645.351794434075
 30
0.0
 11
3878.912318604942
 21
3597.435164434075
 31
0.0
  0
ELLIPSE
  5
328
330
1F
100
AcDbEntity
  8
0
370
    60
100
AcDbEllipse
 10
3888.194348890742
 20
3599.766716662275
 30
0.0
 11
0.0
 21
13.86402025519976
 31
0.0
210
0.0
220
0.0
230
1.0
 40
0.9130439682423408
 41
4.699576291452998
 42
5.645117629059374
  0
LINE
  5
329
330
1F
100
AcDbEntity
  8
0
370
    60
100
AcDbLine
 10
3878.912318604942
 20
3614.205984934075
 30
0.0
 11
3890.484288182142
 21
3614.205984934075
 31
0.0
  0
LINE
  5
32A
330
1F
100
AcDbEntity
  8
0
370
    60
100
AcDbLine
 10
3870.162320604941
 20
3597.435164434075
 30
0.0
 11
3878.912318604942
 21
3597.435164434075
 31
0.0
  0
ELLIPSE
  5
32B
330
1F
100
AcDbEntity
  8
0
370
    60
100
AcDbEllipse
 10
3900.384181752642
 20
3599.766716662275
 30
0.0
 11
0.0
 21
13.8640202552
 31
0.0
210
0.0
220
0.0
230
1.0
 40
0.9130439682423409
 41
0.6122456889166035
 42
1.583609015726607
  0
LINE
  5
32C
330
1F
100
AcDbEntity
  8
0
370
    60
100
AcDbLine
 10
3890.484288182142
 20
3614.205984934075
 30
0.0
 11
3893.109287582141
 21
3614.205984934075
 31
0.0
  0
LINE
  5
32D
330
1F
100
AcDbEntity
  8
0
370
    60
100
AcDbLine
 10
3893.109287582141
 20
3630.976805434075
 30
0.0
 11
3932.387380456142
 21
3630.976805434075
 31
0.0
  0
LINE
  5
32E
330
1F
100
AcDbEntity
  8
0
370
    60
100
AcDbLine
 10
3893.109287582141
 20
3645.351794434075
 30
0.0
 11
3928.452879040643
 21
3645.351794434075
 31
0.0
  0
ELLIPSE
  5
32F
330
1F
100
AcDbEntity
  8
0
370
    60
100
AcDbEllipse
 10
3885.170479211542
 20
3656.992110372375
 30
0.0
 11
0.0
 21
13.86402025520004
 31
0.0
210
0.0
220
0.0
230
1.0
 40
0.9130439682423409
 41
3.81948726171064
 42
4.725201669316374
  0
ELLIPSE
  5
330
330
1F
100
AcDbEntity
  8
0
370
    60
100
AcDbEllipse
 10
3897.360312073441
 20
3656.992110372375
 30
0.0
 11
0.0
 21
13.86402025519976
 31
0.0
210
0.0
220
0.0
230
1.0
 40
0.9130439682423408
 41
1.557983637863205
 42
2.567352992665244
  0
LINE
  5
331
330
1F
100
AcDbEntity
  8
0
370
    60
100
AcDbLine
 10
3878.912318604942
 20
3628.580973934075
 30
0.0
 11
3890.484288182142
 21
3628.580973934075
 31
0.0
  0
LINE
  5
332
330
1F
100
AcDbEntity
  8
0
370
    60
100
AcDbLine
 10
3870.162320604941
 20
3645.351794434075
 30
0.0
 11
3878.912318604942
 21
3645.351794434075
 31
0.0
  0
LINE
  5
333
330
1F
100
AcDbEntity
  8
0
370
    60
100
AcDbLine
 10
3893.109287582141
 20
3628.580973934075
 30
0.0
 11
3895.734286982143
 21
3628.580973934075
 31
0.0
  0
LINE
  5
334
330
1F
100
AcDbEntity
  8
0
370
    60
100
AcDbLine
 10
3893.109287582141
 20
3646.193494407275
 30
0.0
 11
3893.109287582141
 21
3628.580973934075
 31
0.0
  0
LINE
  5
335
330
1F
100
AcDbEntity
  8
0
370
    60
100
AcDbLine
 10
3886.109289182142
 20
3630.976805434075
 30
0.0
 11
3890.484288182142
 21
3630.976805434075
 31
0.0
  0
LINE
  5
336
330
1F
100
AcDbEntity
  8
0
370
    60
100
AcDbLine
 10
3890.484288182142
 20
3645.351794434075
 30
0.0
 11
3890.484288182142
 21
3630.976805434075
 31
0.0
  0
LINE
  5
337
330
1F
100
AcDbEntity
  8
0
370
    60
100
AcDbLine
 10
3886.109289182142
 20
3645.351794434075
 30
0.0
 11
3890.484288182142
 21
3645.351794434075
 31
0.0
  0
LINE
  5
338
330
1F
100
AcDbEntity
  8
0
370
    60
100
AcDbLine
 10
3886.109289182142
 20
3645.351794434075
 30
0.0
 11
3886.109289182142
 21
3630.976805434075
 31
0.0
  0
LINE
  5
339
330
1F
100
AcDbEntity
  8
0
370
    60
100
AcDbLine
 10
3939.726765352642
 20
3772.349817623275
 30
0.0
 11
3939.726765352642
 21
3709.671937344775
 31
0.0
  0
LINE
  5
33A
330
1F
100
AcDbEntity
  8
0
370
    60
100
AcDbLine
 10
3934.907039602443
 20
3772.349817623275
 30
0.0
 11
3934.907039602443
 21
3709.671937344775
 31
0.0
  0
LINE
  5
33B
330
1F
100
AcDbEntity
  8
0
370
    60
100
AcDbLine
 10
3928.452879040643
 20
3776.755219344775
 30
0.0
 11
3928.452879040643
 21
3709.671937344775
 31
0.0
  0
LINE
  5
33C
330
1F
100
AcDbEntity
  8
0
370
    60
100
AcDbLine
 10
3934.907039602443
 20
3707.032565136075
 30
0.0
 11
3940.220880980442
 21
3707.032565136075
 31
0.0
  0
LINE
  5
33D
330
1F
100
AcDbEntity
  8
0
370
    60
100
AcDbLine
 10
3934.907039602443
 20
3712.311291806575
 30
0.0
 11
3940.220880980442
 21
3712.311291806575
 31
0.0
  0
LINE
  5
33E
330
1F
100
AcDbEntity
  8
0
370
    60
100
AcDbLine
 10
4007.202861040642
 20
3782.907288711175
 30
0.0
 11
4007.202861040642
 21
3636.436568231475
 31
0.0
  0
ELLIPSE
  5
33F
330
1F
100
AcDbEntity
  8
0
370
    60
100
AcDbEllipse
 10
4169.501340147543
 20
3709.392778607775
 30
0.0
 11
0.0
 21
126.2033879948003
 31
0.0
210
0.0
220
0.0
230
1.0
 40
0.9130439682423409
 41
1.005711354129374
 42
2.131932579294244
  0
LINE
  5
340
330
1F
100
AcDbEntity
  8
0
370
    60
100
AcDbLine
 10
4074.678956728642
 20
3646.994039319375
 30
0.0
 11
4074.678956728642
 21
3709.671937344775
 31
0.0
  0
LINE
  5
341
330
1F
100
AcDbEntity
  8
0
370
    60
100
AcDbLine
 10
4085.952843040643
 20
3642.588655344775
 30
0.0
 11
4085.952843040643
 21
3709.671937344775
 31
0.0
  0
LINE
  5
342
330
1F
100
AcDbEntity
  8
0
370
    60
100
AcDbLine
 10
4079.498682478843
 20
3646.994039319375
 30
0.0
 11
4079.498682478843
 21
3709.671937344775
 31
0.0
  0
LINE
  5
343
330
1F
100
AcDbEntity
  8
0
370
    60
100
AcDbLine
 10
4063.111637613342
 20
3636.436568231475
 30
0.0
 11
4063.111637613342
 21
3709.671937344775
 31
0.0
  0
LINE
  5
344
330
1F
100
AcDbEntity
  8
0
370
    60
100
AcDbLine
 10
4016.842312541043
 20
3636.436568231475
 30
0.0
 11
4016.842312541043
 21
3709.671937344775
 31
0.0
  0
LINE
  5
345
330
1F
100
AcDbEntity
  8
0
370
    60
100
AcDbLine
 10
4028.409647860042
 20
3636.436568231475
 30
0.0
 11
4028.409647860042
 21
3709.671937344775
 31
0.0
  0
LINE
  5
346
330
1F
100
AcDbEntity
  8
0
370
    60
100
AcDbLine
 10
4039.976966975342
 20
3636.436568231475
 30
0.0
 11
4039.976966975342
 21
3709.671937344775
 31
0.0
  0
LINE
  5
347
330
1F
100
AcDbEntity
  8
0
370
    60
100
AcDbLine
 10
4051.54430229434
 20
3636.436568231475
 30
0.0
 11
4051.54430229434
 21
3709.671937344775
 31
0.0
  0
LINE
  5
348
330
1F
100
AcDbEntity
  8
0
370
    60
100
AcDbLine
 10
3951.294100671641
 20
3636.436568231475
 30
0.0
 11
3951.294100671641
 21
3709.671937344775
 31
0.0
  0
LINE
  5
349
330
1F
100
AcDbEntity
  8
0
370
    60
100
AcDbLine
 10
3985.996090424942
 20
3636.436568231475
 30
0.0
 11
3985.996090424942
 21
3709.671937344775
 31
0.0
  0
LINE
  5
34A
330
1F
100
AcDbEntity
  8
0
370
    60
100
AcDbLine
 10
3997.563425743942
 20
3636.436568231475
 30
0.0
 11
3997.563425743942
 21
3709.671937344775
 31
0.0
  0
LINE
  5
34B
330
1F
100
AcDbEntity
  8
0
370
    60
100
AcDbLine
 10
3962.861435990642
 20
3636.436568231475
 30
0.0
 11
3962.861435990642
 21
3709.671937344775
 31
0.0
  0
LINE
  5
34C
330
1F
100
AcDbEntity
  8
0
370
    60
100
AcDbLine
 10
3974.428755105942
 20
3636.436568231475
 30
0.0
 11
3974.428755105942
 21
3709.671937344775
 31
0.0
  0
LINE
  5
34D
330
1F
100
AcDbEntity
  8
0
370
    60
100
AcDbLine
 10
4010.780929667241
 20
3598.442123540075
 30
0.0
 11
4035.962548911443
 21
3598.442123540075
 31
0.0
  0
LINE
  5
34E
330
1F
100
AcDbEntity
  8
0
370
    60
100
AcDbLine
 10
4012.817961609042
 20
3615.907912644075
 30
0.0
 11
4037.827854040643
 21
3615.907912644075
 31
0.0
  0
LINE
  5
34F
330
1F
100
AcDbEntity
  8
0
370
    60
100
AcDbLine
 10
4069.859247182143
 20
3641.715312648875
 30
0.0
 11
4007.202861040642
 21
3641.715312648875
 31
0.0
  0
LINE
  5
350
330
1F
100
AcDbEntity
  8
0
370
    60
100
AcDbLine
 10
4068.452847040643
 20
3623.422003344775
 30
0.0
 11
4013.765359540642
 21
3623.422003344775
 31
0.0
  0
LINE
  5
351
330
1F
100
AcDbEntity
  8
0
370
    60
100
AcDbLine
 10
4069.859247182143
 20
3636.436568231475
 30
0.0
 11
4007.202861040642
 21
3636.436568231475
 31
0.0
  0
LINE
  5
352
330
1F
100
AcDbEntity
  8
0
370
    60
100
AcDbLine
 10
4079.498682478843
 20
3679.722233410975
 30
0.0
 11
4007.202861040642
 21
3679.722233410975
 31
0.0
  0
LINE
  5
353
330
1F
100
AcDbEntity
  8
0
370
    60
100
AcDbLine
 10
4079.498682478843
 20
3667.053253907975
 30
0.0
 11
4007.202861040642
 21
3667.053253907975
 31
0.0
  0
LINE
  5
354
330
1F
100
AcDbEntity
  8
0
370
    60
100
AcDbLine
 10
4079.498682478843
 20
3654.384274404975
 30
0.0
 11
4007.202861040642
 21
3654.384274404975
 31
0.0
  0
LINE
  5
355
330
1F
100
AcDbEntity
  8
0
370
    60
100
AcDbLine
 10
3976.577868040642
 20
3623.422003344775
 30
0.0
 11
3976.577868040642
 21
3615.907912644075
 31
0.0
  0
LINE
  5
356
330
1F
100
AcDbEntity
  8
0
370
    60
100
AcDbLine
 10
4013.765359540642
 20
3618.594491606776
 30
0.0
 11
4013.765359540642
 21
3623.422003344775
 31
0.0
  0
ELLIPSE
  5
357
330
1F
100
AcDbEntity
  8
0
370
    60
100
AcDbEllipse
 10
4007.202861040642
 20
3618.594491606776
 30
0.0
 11
0.0
 21
3.236200455699606
 31
0.0
210
0.0
220
0.0
230
1.0
 40
0.9130439682423409
 41
-1.5707963267949
 42
4.712388980384686
  0
LINE
  5
358
330
1F
100
AcDbEntity
  8
0
370
    60
100
AcDbLine
 10
4000.640362540642
 20
3618.594491606776
 30
0.0
 11
4000.640362540642
 21
3623.422003344775
 31
0.0
  0
LINE
  5
359
330
1F
100
AcDbEntity
  8
0
370
    60
100
AcDbLine
 10
3976.577868040642
 20
3615.907912644075
 30
0.0
 11
4001.587776675942
 21
3615.907912644075
 31
0.0
  0
ELLIPSE
  5
35A
330
1F
100
AcDbEntity
  8
0
370
    60
100
AcDbEllipse
 10
4007.202861040642
 20
3618.594491606776
 30
0.0
 11
0.0
 21
7.187494500000021
 31
0.0
210
0.0
220
0.0
230
1.0
 40
0.9130439682423409
 41
1.570796326794893
 42
4.712388980384686
  0
LINE
  5
35B
330
1F
100
AcDbEntity
  8
0
370
    60
100
AcDbLine
 10
4010.780929667241
 20
3612.569312575376
 30
0.0
 11
4010.780929667241
 21
3598.442123540075
 31
0.0
  0
LINE
  5
35C
330
1F
100
AcDbEntity
  8
0
370
    60
100
AcDbLine
 10
3944.546491102843
 20
3641.715312648875
 30
0.0
 11
4007.202861040642
 21
3641.715312648875
 31
0.0
  0
LINE
  5
35D
330
1F
100
AcDbEntity
  8
0
370
    60
100
AcDbLine
 10
3944.546491102843
 20
3636.436568231475
 30
0.0
 11
4007.202861040642
 21
3636.436568231475
 31
0.0
  0
LINE
  5
35E
330
1F
100
AcDbEntity
  8
0
370
    60
100
AcDbLine
 10
3945.952875040643
 20
3623.422003344775
 30
0.0
 11
4000.640362540642
 21
3623.422003344775
 31
0.0
  0
LINE
  5
35F
330
1F
100
AcDbEntity
  8
0
370
    60
100
AcDbLine
 10
4037.827854040643
 20
3623.422003344775
 30
0.0
 11
4037.827854040643
 21
3615.907912644075
 31
0.0
  0
ELLIPSE
  5
360
330
1F
100
AcDbEntity
  8
0
370
    60
100
AcDbEllipse
 10
4068.452847040643
 20
3642.588655344775
 30
0.0
 11
0.0
 21
19.16665199999972
 31
0.0
210
0.0
220
0.0
230
1.0
 40
0.9130439682423409
 41
3.14159265358979
 42
4.712388980384686
  0
LINE
  5
361
330
1F
100
AcDbEntity
  8
0
370
    60
100
AcDbLine
 10
4035.962548911443
 20
3615.907912644075
 30
0.0
 11
4035.962548911443
 21
3598.442123540075
 31
0.0
  0
ELLIPSE
  5
362
330
1F
100
AcDbEntity
  8
0
370
    60
100
AcDbEllipse
 10
4069.859247182143
 20
3646.994039319375
 30
0.0
 11
0.0
 21
5.27874441740014
 31
0.0
210
0.0
220
0.0
230
1.0
 40
0.9130439682423409
 41
3.14159265358979
 42
4.712388980384686
  0
ELLIPSE
  5
363
330
1F
100
AcDbEntity
  8
0
370
    60
100
AcDbEllipse
 10
4069.859247182143
 20
3646.994039319375
 30
0.0
 11
0.0
 21
10.55747108790032
 31
0.0
210
0.0
220
0.0
230
1.0
 40
0.9130439682423409
 41
3.14159265358979
 42
4.712388980384686
  0
LINE
  5
364
330
1F
100
AcDbEntity
  8
0
370
    60
100
AcDbLine
 10
4069.859247182143
 20
3777.628544293775
 30
0.0
 11
4007.202861040642
 21
3777.628544293775
 31
0.0
  0
LINE
  5
365
330
1F
100
AcDbEntity
  8
0
370
    60
100
AcDbLine
 10
4064.916324700842
 20
3716.006409349375
 30
0.0
 11
4007.202861040642
 21
3716.006409349375
 31
0.0
  0
LINE
  5
366
330
1F
100
AcDbEntity
  8
0
370
    60
100
AcDbLine
 10
4064.916324700842
 20
3703.337447593275
 30
0.0
 11
4007.202861040642
 21
3703.337447593275
 31
0.0
  0
LINE
  5
367
330
1F
100
AcDbEntity
  8
0
370
    60
100
AcDbLine
 10
4068.452847040643
 20
3795.921871344775
 30
0.0
 11
4013.765359540642
 21
3795.921871344775
 31
0.0
  0
LINE
  5
368
330
1F
100
AcDbEntity
  8
0
370
    60
100
AcDbLine
 10
4069.859247182143
 20
3782.907288711175
 30
0.0
 11
4007.202861040642
 21
3782.907288711175
 31
0.0
  0
LINE
  5
369
330
1F
100
AcDbEntity
  8
0
370
    60
100
AcDbLine
 10
4079.498682478843
 20
3764.959582537675
 30
0.0
 11
4007.202861040642
 21
3764.959582537675
 31
0.0
  0
LINE
  5
36A
330
1F
100
AcDbEntity
  8
0
370
    60
100
AcDbLine
 10
4079.498682478843
 20
3752.290603034675
 30
0.0
 11
4007.202861040642
 21
3752.290603034675
 31
0.0
  0
LINE
  5
36B
330
1F
100
AcDbEntity
  8
0
370
    60
100
AcDbLine
 10
4079.498682478843
 20
3739.621623531675
 30
0.0
 11
4007.202861040642
 21
3739.621623531675
 31
0.0
  0
LINE
  5
36C
330
1F
100
AcDbEntity
  8
0
370
    60
100
AcDbLine
 10
4079.498682478843
 20
3726.952644028675
 30
0.0
 11
4007.202861040642
 21
3726.952644028675
 31
0.0
  0
LINE
  5
36D
330
1F
100
AcDbEntity
  8
0
370
    60
100
AcDbLine
 10
4079.498682478843
 20
3692.391212913975
 30
0.0
 11
4007.202861040642
 21
3692.391212913975
 31
0.0
  0
LINE
  5
36E
330
1F
100
AcDbEntity
  8
0
370
    60
100
AcDbLine
 10
4028.409647860042
 20
3782.907288711175
 30
0.0
 11
4028.409647860042
 21
3709.671937344775
 31
0.0
  0
LINE
  5
36F
330
1F
100
AcDbEntity
  8
0
370
    60
100
AcDbLine
 10
4016.842312541043
 20
3782.907288711175
 30
0.0
 11
4016.842312541043
 21
3709.671937344775
 31
0.0
  0
LINE
  5
370
330
1F
100
AcDbEntity
  8
0
370
    60
100
AcDbLine
 10
3997.563425743942
 20
3782.907288711175
 30
0.0
 11
3997.563425743942
 21
3709.671937344775
 31
0.0
  0
LINE
  5
371
330
1F
100
AcDbEntity
  8
0
370
    60
100
AcDbLine
 10
3985.996090424942
 20
3782.907288711175
 30
0.0
 11
3985.996090424942
 21
3709.671937344775
 31
0.0
  0
LINE
  5
372
330
1F
100
AcDbEntity
  8
0
370
    60
100
AcDbLine
 10
3974.428755105942
 20
3782.907288711175
 30
0.0
 11
3974.428755105942
 21
3709.671937344775
 31
0.0
  0
LINE
  5
373
330
1F
100
AcDbEntity
  8
0
370
    60
100
AcDbLine
 10
3962.861435990642
 20
3782.907288711175
 30
0.0
 11
3962.861435990642
 21
3709.671937344775
 31
0.0
  0
LINE
  5
374
330
1F
100
AcDbEntity
  8
0
370
    60
100
AcDbLine
 10
3951.294100671641
 20
3782.907288711175
 30
0.0
 11
3951.294100671641
 21
3709.671937344775
 31
0.0
  0
LINE
  5
375
330
1F
100
AcDbEntity
  8
0
370
    60
100
AcDbLine
 10
3949.489413584142
 20
3703.337447593275
 30
0.0
 11
4007.202861040642
 21
3703.337447593275
 31
0.0
  0
LINE
  5
376
330
1F
100
AcDbEntity
  8
0
370
    60
100
AcDbLine
 10
3949.489413584142
 20
3716.006409349375
 30
0.0
 11
4007.202861040642
 21
3716.006409349375
 31
0.0
  0
LINE
  5
377
330
1F
100
AcDbEntity
  8
0
370
    60
100
AcDbLine
 10
3955.346435393543
 20
3716.006409349375
 30
0.0
 11
3955.346435393543
 21
3703.337447593275
 31
0.0
  0
LINE
  5
378
330
1F
100
AcDbEntity
  8
0
370
    60
100
AcDbLine
 10
3944.546491102843
 20
3777.628544293775
 30
0.0
 11
4007.202861040642
 21
3777.628544293775
 31
0.0
  0
LINE
  5
379
330
1F
100
AcDbEntity
  8
0
370
    60
100
AcDbLine
 10
3944.546491102843
 20
3782.907288711175
 30
0.0
 11
4007.202861040642
 21
3782.907288711175
 31
0.0
  0
LINE
  5
37A
330
1F
100
AcDbEntity
  8
0
370
    60
100
AcDbLine
 10
3945.952875040643
 20
3795.921871344775
 30
0.0
 11
4000.640362540642
 21
3795.921871344775
 31
0.0
  0
ELLIPSE
  5
37B
330
1F
100
AcDbEntity
  8
0
370
    60
100
AcDbEllipse
 10
4007.202861040642
 20
3800.749365335875
 30
0.0
 11
0.0
 21
3.236200455699606
 31
0.0
210
0.0
220
0.0
230
1.0
 40
0.9130439682423409
 41
-1.5707963267949
 42
4.712388980384686
  0
LINE
  5
37C
330
1F
100
AcDbEntity
  8
0
370
    60
100
AcDbLine
 10
4000.640362540642
 20
3800.749365335875
 30
0.0
 11
4000.640362540642
 21
3795.921871344775
 31
0.0
  0
LINE
  5
37D
330
1F
100
AcDbEntity
  8
0
370
    60
100
AcDbLine
 10
4013.765359540642
 20
3800.749365335875
 30
0.0
 11
4013.765359540642
 21
3795.921871344775
 31
0.0
  0
LINE
  5
37E
330
1F
100
AcDbEntity
  8
0
370
    60
100
AcDbLine
 10
4074.678956728642
 20
3772.349817623275
 30
0.0
 11
4074.678956728642
 21
3709.671937344775
 31
0.0
  0
LINE
  5
37F
330
1F
100
AcDbEntity
  8
0
370
    60
100
AcDbLine
 10
4085.952843040643
 20
3776.755219344775
 30
0.0
 11
4085.952843040643
 21
3709.671937344775
 31
0.0
  0
LINE
  5
380
330
1F
100
AcDbEntity
  8
0
370
    60
100
AcDbLine
 10
4079.498682478843
 20
3772.349817623275
 30
0.0
 11
4079.498682478843
 21
3709.671937344775
 31
0.0
  0
LINE
  5
381
330
1F
100
AcDbEntity
  8
0
370
    60
100
AcDbLine
 10
4063.111637613342
 20
3782.907288711175
 30
0.0
 11
4063.111637613342
 21
3709.671937344775
 31
0.0
  0
LINE
  5
382
330
1F
100
AcDbEntity
  8
0
370
    60
100
AcDbLine
 10
4051.54430229434
 20
3782.907288711175
 30
0.0
 11
4051.54430229434
 21
3709.671937344775
 31
0.0
  0
LINE
  5
383
330
1F
100
AcDbEntity
  8
0
370
    60
100
AcDbLine
 10
4039.976966975342
 20
3782.907288711175
 30
0.0
 11
4039.976966975342
 21
3709.671937344775
 31
0.0
  0
ELLIPSE
  5
384
330
1F
100
AcDbEntity
  8
0
370
    60
100
AcDbEllipse
 10
4064.760104829143
 20
3699.745084601475
 30
0.0
 11
0.0
 21
16.2622298398005
 31
0.0
210
0.0
220
0.0
230
1.0
 40
0.9130439682423409
 41
-0.6876749969167185
 42
-0.0105209494507736
  0
ELLIPSE
  5
385
330
1F
100
AcDbEntity
  8
0
370
    60
100
AcDbEllipse
 10
4064.760104829143
 20
3719.598772341175
 30
0.0
 11
0.0
 21
16.26222983979982
 31
0.0
210
0.0
220
0.0
230
1.0
 40
0.9130439682423409
 41
3.152113603040566
 42
3.82926765050651
  0
LINE
  5
386
330
1F
100
AcDbEntity
  8
0
370
    60
100
AcDbLine
 10
4059.059302891443
 20
3716.006409349375
 30
0.0
 11
4059.059302891443
 21
3703.337447593275
 31
0.0
  0
LINE
  5
387
330
1F
100
AcDbEntity
  8
0
370
    60
100
AcDbLine
 10
4079.498682478843
 20
3712.311291806575
 30
0.0
 11
4074.184857304542
 21
3712.311291806575
 31
0.0
  0
LINE
  5
388
330
1F
100
AcDbEntity
  8
0
370
    60
100
AcDbLine
 10
4079.498682478843
 20
3707.032565136075
 30
0.0
 11
4074.184857304542
 21
3707.032565136075
 31
0.0
  0
ELLIPSE
  5
389
330
1F
100
AcDbEntity
  8
0
370
    60
100
AcDbEllipse
 10
4069.859247182143
 20
3772.349817623275
 30
0.0
 11
0.0
 21
5.27874441740014
 31
0.0
210
0.0
220
0.0
230
1.0
 40
0.9130439682423409
 41
-1.5707963267949
 42
-0.0000000000000036
  0
ELLIPSE
  5
38A
330
1F
100
AcDbEntity
  8
0
370
    60
100
AcDbEllipse
 10
4068.452847040643
 20
3776.755219344775
 30
0.0
 11
0.0
 21
19.16665199999972
 31
0.0
210
0.0
220
0.0
230
1.0
 40
0.9130439682423409
 41
-1.5707963267949
 42
-0.0000000000000036
  0
ELLIPSE
  5
38B
330
1F
100
AcDbEntity
  8
0
370
    60
100
AcDbEllipse
 10
4069.859247182143
 20
3772.349817623275
 30
0.0
 11
0.0
 21
10.55747108789982
 31
0.0
210
0.0
220
0.0
230
1.0
 40
0.9130439682423408
 41
-1.5707963267949
 42
-0.0000000000000036
  0
LINE
  5
38C
330
1F
100
AcDbEntity
  8
0
370
    60
100
AcDbLine
 10
4126.678963361443
 20
3599.944345384375
 30
0.0
 11
4126.678963361443
 21
3506.026259844775
 31
0.0
  0
ELLIPSE
  5
38D
330
1F
100
AcDbEntity
  8
0
370
    60
100
AcDbEllipse
 10
4120.116464861443
 20
3506.026259844775
 30
0.0
 11
0.0
 21
7.187494499999517
 31
0.0
210
0.0
220
0.0
230
1.0
 40
0.9130439682423409
 41
3.14159265358979
 42
4.712388980384686
  0
LINE
  5
38E
330
1F
100
AcDbEntity
  8
0
370
    60
100
AcDbLine
 10
4120.116464861443
 20
3498.838765344775
 30
0.0
 11
4120.116464861443
 21
3498.838765344775
 31
0.0
  0
LINE
  5
38F
330
1F
100
AcDbEntity
  8
0
370
    60
100
AcDbLine
 10
4129.702833040643
 20
3800.713534344775
 30
0.0
 11
4129.702833040643
 21
3657.169739094476
 31
0.0
  0
LINE
  5
390
330
1F
100
AcDbEntity
  8
0
370
    60
100
AcDbLine
 10
4135.493419680042
 20
3645.351794434075
 30
0.0
 11
4135.493419680042
 21
3597.435164434075
 31
0.0
  0
LINE
  5
391
330
1F
100
AcDbEntity
  8
0
370
    60
100
AcDbLine
 10
4123.921450102843
 20
3630.976805434075
 30
0.0
 11
4123.921450102843
 21
3614.205984934075
 31
0.0
  0
LINE
  5
392
330
1F
100
AcDbEntity
  8
0
370
    60
100
AcDbLine
 10
4118.671451302843
 20
3628.580973934075
 30
0.0
 11
4118.671451302843
 21
3610.902949652976
 31
0.0
  0
LINE
  5
393
330
1F
100
AcDbEntity
  8
0
370
    60
100
AcDbLine
 10
4121.296450702843
 20
3628.580973934075
 30
0.0
 11
4121.296450702843
 21
3611.112451807475
 31
0.0
  0
LINE
  5
394
330
1F
100
AcDbEntity
  8
0
370
    60
100
AcDbLine
 10
4144.243417680043
 20
3645.351794434075
 30
0.0
 11
4144.243417680043
 21
3597.435164434075
 31
0.0
  0
LINE
  5
395
330
1F
100
AcDbEntity
  8
0
370
    60
100
AcDbLine
 10
4144.243417680043
 20
3597.435164434075
 30
0.0
 11
4135.493419680042
 21
3597.435164434075
 31
0.0
  0
LINE
  5
396
330
1F
100
AcDbEntity
  8
0
370
    60
100
AcDbLine
 10
4135.493419680042
 20
3614.205984934075
 30
0.0
 11
4123.921450102843
 21
3614.205984934075
 31
0.0
  0
LINE
  5
397
330
1F
100
AcDbEntity
  8
0
370
    60
100
AcDbLine
 10
4123.921450102843
 20
3614.205984934075
 30
0.0
 11
4121.296450702843
 21
3614.205984934075
 31
0.0
  0
ELLIPSE
  5
398
330
1F
100
AcDbEntity
  8
0
370
    60
100
AcDbEllipse
 10
4114.021556532342
 20
3599.766716662275
 30
0.0
 11
0.0
 21
13.86402025519976
 31
0.0
210
0.0
220
0.0
230
1.0
 40
0.9130439682423408
 41
4.699576291452998
 42
5.670939618262998
  0
ELLIPSE
  5
399
330
1F
100
AcDbEntity
  8
0
370
    60
100
AcDbEllipse
 10
4117.045426211543
 20
3656.992110372375
 30
0.0
 11
0.0
 21
13.86402025519975
 31
0.0
210
0.0
220
0.0
230
1.0
 40
0.9130439682423409
 41
3.715832314514339
 42
4.725201669316383
  0
LINE
  5
39A
330
1F
100
AcDbEntity
  8
0
370
    60
100
AcDbLine
 10
4144.243417680043
 20
3645.351794434075
 30
0.0
 11
4135.493419680042
 21
3645.351794434075
 31
0.0
  0
LINE
  5
39B
330
1F
100
AcDbEntity
  8
0
370
    60
100
AcDbLine
 10
4128.296449102842
 20
3645.351794434075
 30
0.0
 11
4128.296449102842
 21
3630.976805434075
 31
0.0
  0
LINE
  5
39C
330
1F
100
AcDbEntity
  8
0
370
    60
100
AcDbLine
 10
4128.296449102842
 20
3645.351794434075
 30
0.0
 11
4123.921450102843
 21
3645.351794434075
 31
0.0
  0
LINE
  5
39D
330
1F
100
AcDbEntity
  8
0
370
    60
100
AcDbLine
 10
4123.921450102843
 20
3645.351794434075
 30
0.0
 11
4123.921450102843
 21
3630.976805434075
 31
0.0
  0
LINE
  5
39E
330
1F
100
AcDbEntity
  8
0
370
    60
100
AcDbLine
 10
4128.296449102842
 20
3630.976805434075
 30
0.0
 11
4123.921450102843
 21
3630.976805434075
 31
0.0
  0
LINE
  5
39F
330
1F
100
AcDbEntity
  8
0
370
    60
100
AcDbLine
 10
4135.493419680042
 20
3628.580973934075
 30
0.0
 11
4123.921450102843
 21
3628.580973934075
 31
0.0
  0
LINE
  5
3A0
330
1F
100
AcDbEntity
  8
0
370
    60
100
AcDbLine
 10
4121.296450702843
 20
3628.580973934075
 30
0.0
 11
4118.671451302843
 21
3628.580973934075
 31
0.0
  0
LINE
  5
3A1
330
1F
100
AcDbEntity
  8
0
370
    60
100
AcDbLine
 10
4121.296450702843
 20
3646.193494407275
 30
0.0
 11
4121.296450702843
 21
3628.580973934075
 31
0.0
  0
ELLIPSE
  5
3A2
330
1F
100
AcDbEntity
  8
0
370
    60
100
AcDbEllipse
 10
4096.890340540643
 20
3807.901028844775
 30
0.0
 11
0.0
 21
21.56248350000006
 31
0.0
210
0.0
220
0.0
230
1.0
 40
0.9130439682423409
 41
-1.5707963267949
 42
-0.0000000000000036
  0
LINE
  5
3A3
330
1F
100
AcDbEntity
  8
0
370
    60
100
AcDbLine
 10
3917.515381540642
 20
3829.463512344775
 30
0.0
 11
4007.202861040642
 21
3829.463512344775
 31
0.0
  0
LINE
  5
3A4
330
1F
100
AcDbEntity
  8
0
370
    60
100
AcDbLine
 10
3924.077880040642
 20
3843.838501344775
 30
0.0
 11
4007.202861040642
 21
3843.838501344775
 31
0.0
  0
ELLIPSE
  5
3A5
330
1F
100
AcDbEntity
  8
0
370
    60
100
AcDbEllipse
 10
3917.515381540642
 20
3807.901028844775
 30
0.0
 11
0.0
 21
21.56248350000056
 31
0.0
210
0.0
220
0.0
230
1.0
 40
0.9130439682423409
 41
-0.0000000000000036
 42
1.570796326794893
  0
LINE
  5
3A6
330
1F
100
AcDbEntity
  8
0
370
    60
100
AcDbLine
 10
4090.327842040642
 20
3843.838501344775
 30
0.0
 11
4007.202861040642
 21
3843.838501344775
 31
0.0
  0
LINE
  5
3A7
330
1F
100
AcDbEntity
  8
0
370
    60
100
AcDbLine
 10
4096.890340540643
 20
3829.463512344775
 30
0.0
 11
4007.202861040642
 21
3829.463512344775
 31
0.0
  0
DIMENSION
  5
3CC
330
1F
100
AcDbEntity
  8
0
370
    25
100
AcDbDimension
  2
*D29
 10
4129.702833040643
 20
3908.06241181331
 30
0.0
 11
4007.202861040642
 21
3920.06241181331
 31
0.0
 70
    32
 71
     5
 41
2.5
 42
244.9999440000006
  3
ISO-25
100
AcDbAlignedDimension
 13
3884.702889040642
 23
3771.708644706609
 33
0.0
 14
4129.702833040643
 24
3765.366609027228
 34
0.0
100
AcDbRotatedDimension
1001
ACAD
1000
DSTYLE
1002
{
1070
    41
1040
10.0
1070
   140
1040
14.0
1070
   147
1040
5.0
1070
   176
1070
     7
1070
   177
1070
     7
1002
}
  0
DIMENSION
  5
3EE
330
1F
100
AcDbEntity
  8
0
370
    25
100
AcDbDimension
  2
*D32
 10
4209.256189570932
 20
3498.838765344775
 30
0.0
 11
4197.256189570932
 21
3671.338633344775
 31
0.0
 70
    32
 71
     5
 41
2.5
 42
344.9997359999998
  3
ISO-25
100
AcDbAlignedDimension
 13
4016.840951775911
 23
3843.838501344775
 33
0.0
 14
4022.769399622243
 24
3498.838765344775
 34
0.0
 50
90.0
100
AcDbRotatedDimension
1001
ACAD
1000
DSTYLE
1002
{
1070
    41
1040
10.0
1070
   140
1040
14.0
1070
   147
1040
5.0
1070
   176
1070
     7
1070
   177
1070
     7
1002
}
  0
DIMENSION
  5
410
330
1F
100
AcDbEntity
  8
0
370
    25
100
AcDbDimension
  2
*D36
 10
3782.363317525142
 20
3465.765481417212
 30
0.0
 11
3672.558311989103
 21
3477.765481417212
 31
0.0
 70
    32
  1
220
 71
     5
 41
2.5
 42
219.6100110720795
  3
ISO-25
100
AcDbAlignedDimension
 13
3562.753306453063
 23
3547.24436888539
 33
0.0
 14
3782.363317525142
 24
3508.422091344775
 34
0.0
100
AcDbRotatedDimension
1001
ACAD
1000
DSTYLE
1002
{
1070
    41
1040
10.0
1070
   140
1040
14.0
1070
   147
1040
5.0
1070
   176
1070
     7
1070
   177
1070
     7
1002
}
  0
VIEWPORT
  5
BB
330
73
100
AcDbEntity
 67
     1
  8
0
100
AcDbViewport
 10
7.8
 20
4.5
 30
0.0
 40
15.64
 41
9.0
 68
     1
 69
     1
 12
6.0
 22
4.5
 13
0.0
 23
0.0
 14
0.5
 24
0.5
 15
0.5
 25
0.5
 16
0.0
 26
0.0
 36
1.0
 17
0.0
 27
0.0
 37
0.0
 42
50.0
 43
0.0
 44
0.0
 45
12.0
 50
0.0
 51
0.0
 72
   100
 90
   557152
  1

281
     0
 71
     1
 74
     0
110
0.0
120
0.0
130
0.0
111
1.0
121
0.0
131
0.0
112
0.0
122
1.0
132
0.0
 79
     0
146
0.0
  0
ENDSEC
  0
SECTION
  2
OBJECTS
  0
DICTIONARY
  5
C
330
0
100
AcDbDictionary
281
     1
  3
ACAD_COLOR
350
6C
  3
ACAD_GROUP
350
D
  3
ACAD_LAYOUT
350
1A
  3
ACAD_MATERIAL
350
6B
  3
ACAD_MLEADERSTYLE
350
48C
  3
ACAD_MLINESTYLE
350
17
  3
ACAD_PLOTSETTINGS
350
19
  3
ACAD_PLOTSTYLENAME
350
E
  3
ACAD_SCALELIST
350
99
  3
ACAD_TABLESTYLE
350
92
  3
ACDBHEADERROUNDTRIPXREC
350
48D
  3
AcDbVariableDictionary
350
59
  3
DWGPROPS
350
490
  0
DICTIONARY
  5
6C
102
{ACAD_REACTORS
330
C
102
}
330
C
100
AcDbDictionary
281
     1
  0
DICTIONARY
  5
D
102
{ACAD_REACTORS
330
C
102
}
330
C
100
AcDbDictionary
281
     1
  0
DICTIONARY
  5
1A
102
{ACAD_REACTORS
330
C
102
}
330
C
100
AcDbDictionary
281
     1
  3
Layout1
350
74
  3
Layout2
350
440
  3
Model
350
22
  0
DICTIONARY
  5
6B
102
{ACAD_REACTORS
330
C
102
}
330
C
100
AcDbDictionary
281
     1
  0
DICTIONARY
  5
48C
102
{ACAD_REACTORS
330
C
102
}
330
C
100
AcDbDictionary
281
     1
  0
DICTIONARY
  5
17
102
{ACAD_REACTORS
330
C
102
}
330
C
100
AcDbDictionary
281
     1
  3
Standard
350
18
  0
DICTIONARY
  5
19
102
{ACAD_REACTORS
330
C
102
}
330
C
100
AcDbDictionary
281
     1
  0
ACDBDICTIONARYWDFLT
  5
E
102
{ACAD_REACTORS
330
C
102
}
330
C
100
AcDbDictionary
281
     1
  3
Normal
350
F
100
AcDbDictionaryWithDefault
340
F
  0
DICTIONARY
  5
99
102
{ACAD_REACTORS
330
C
102
}
330
C
100
AcDbDictionary
281
     1
  3
A0
350
D5
  3
A1
350
D6
  3
A2
350
D7
  3
A3
350
D8
  3
A4
350
D9
  3
A5
350
DA
  3
A6
350
DB
  3
A7
350
DC
  3
A8
350
DD
  3
A9
350
DE
  3
B0
350
DF
  3
B1
350
E0
  3
B2
350
E1
  3
B3
350
E2
  3
B4
350
E3
  3
B5
350
E4
  3
B6
350
E5
  3
B7
350
E6
  3
B8
350
E7
  3
B9
350
E8
  3
C0
350
E9
  3
C1
350
EA
  3
C2
350
EB
  3
C3
350
EC
  3
C4
350
ED
  3
C5
350
EE
  3
C6
350
EF
  3
C7
350
F0
  3
C8
350
F1
  3
C9
350
F2
  3
D0
350
F3
  3
D1
350
F4
  3
D2
350
F5
  0
DICTIONARY
  5
92
102
{ACAD_REACTORS
330
C
102
}
330
C
100
AcDbDictionary
281
     1
  0
DICTIONARY
  5
48D
102
{ACAD_REACTORS
330
C
102
}
330
C
100
AcDbDictionary
281
     1
  3
COLORDICT
350
48E
  3
MATERIALDICT
350
48F
  0
DICTIONARY
  5
59
102
{ACAD_REACTORS
330
C
102
}
330
C
100
AcDbDictionary
281
     1
  3
CTABLESTYLE
350
98
  3
DIMASSOC
350
5A
  3
HIDETEXT
350
5E
  0
XRECORD
  5
490
102
{ACAD_REACTORS
330
C
102
}
330
C
100
AcDbXrecord
280
     1
  1
DWGPROPS COOKIE
  2

  3

  4

  6

  7

  8
BelottiMc
  9

300
=
301
=
302
=
303
=
304
=
305
=
306
=
307
=
308
=
309
=
 40
0.0
 41
2455091.577783044
 42
2455091.619449699
  1

 90
        0
  0
LAYOUT
  5
74
330
1A
100
AcDbPlotSettings
  1

  2
ProgeSOFT PDF Wizard
  4
A4
  6

 40
5.926666666666667
 41
6.011333333333317
 42
6.095999999999985
 43
5.926666666666667
 44
210.0
 45
297.0
 46
88.56200000000001
 47
136.531
 48
0.0
 49
0.0
140
0.0
141
0.0
142
1.0
143
1.0
 70
   692
 72
     1
 73
     0
 74
     0
  7

 75
    16
147
1.0
148
4.426666666666668
149
1.5
100
AcDbLayout
  1
Layout1
 70
     1
 71
     1
 10
0.0
 20
0.0
 11
0.0
 21
0.0
 12
0.0
 22
0.0
 32
0.0
 14
0.0
 24
0.0
 34
0.0
 15
0.0
 25
0.0
 35
0.0
146
0.0
 13
0.0
 23
0.0
 33
0.0
 16
1.0
 26
0.0
 36
0.0
 17
0.0
 27
1.0
 37
0.0
 76
     0
330
D1
331
48B
1001
PROGE_PRINT_SETTINGS
1070
    73
1070
     1
  0
LAYOUT
  5
440
102
{ACAD_REACTORS
330
1A
102
}
330
1A
100
AcDbPlotSettings
  1

  2
ProgeSOFT PDF Wizard
  4
A4
  6

 40
5.926666666666667
 41
6.011333333333317
 42
6.095999999999985
 43
5.926666666666667
 44
210.0
 45
297.0
 46
88.562
 47
136.531
 48
0.0
 49
0.0
140
0.0
141
0.0
142
1.0
143
1.0
 70
   692
 72
     1
 73
     0
 74
     0
  7

 75
    16
147
1.0
148
0.0
149
0.0
100
AcDbLayout
  1
Layout2
 70
     1
 71
     2
 10
0.0
 20
0.0
 11
12.0
 21
9.0
 12
0.0
 22
0.0
 32
0.0
 14
0.0
 24
0.0
 34
0.0
 15
12.0
 25
9.0
 35
0.0
146
0.0
 13
0.0
 23
0.0
 33
0.0
 16
1.0
 26
0.0
 36
0.0
 17
0.0
 27
1.0
 37
0.0
 76
     0
330
73
331
BB
1001
PROGE_PRINT_SETTINGS
1070
    73
1070
     1
  0
LAYOUT
  5
22
330
1A
100
AcDbPlotSettings
  1

  2
ProgeSOFT PDF Wizard
  4
A4
  6

 40
5.926666666666667
 41
6.011333333333317
 42
6.095999999999985
 43
5.926666666666667
 44
210.0
 45
297.0
 46
13.37559707263189
 47
0.0000000000000017
 48
0.0
 49
0.0
140
0.0
141
0.0
142
1.0
143
7.449223446707931
 70
 11956
 72
     1
 73
     1
 74
     0
  7

 75
     0
147
0.134242180698974
148
-2766.5551259173
149
-2868.943604875687
100
AcDbLayout
  1
Model
 70
     1
 71
     0
 10
0.0
 20
0.0
 11
0.0
 21
0.0
 12
0.0
 22
0.0
 32
0.0
 14
3562.674749056084
 24
3464.098814750545
 34
0.0
 15
4210.922856237599
 25
3927.06241181331
 35
0.0
146
0.0
 13
0.0
 23
0.0
 33
0.0
 16
1.0
 26
0.0
 36
0.0
 17
0.0
 27
1.0
 37
0.0
 76
     0
330
1F
331
97
  0
MLINESTYLE
  5
18
102
{ACAD_REACTORS
330
17
102
}
330
17
100
AcDbMlineStyle
  2
STANDARD
 70
     0
  3

 62
   256
 51
90.0
 52
90.0
 71
     2
 49
0.5
 62
   256
  6
BYLAYER
 49
-0.5
 62
   256
  6
BYLAYER
  0
ACDBPLACEHOLDER
  5
F
102
{ACAD_REACTORS
330
E
102
}
330
E
  0
SCALE
  5
D5
102
{ACAD_REACTORS
330
99
102
}
330
99
100
AcDbScale
 70
     0
300
1:1
140
1.0
141
1.0
290
     1
  0
SCALE
  5
D6
102
{ACAD_REACTORS
330
99
102
}
330
99
100
AcDbScale
 70
     0
300
1:2
140
1.0
141
2.0
290
     0
  0
SCALE
  5
D7
102
{ACAD_REACTORS
330
99
102
}
330
99
100
AcDbScale
 70
     0
300
1:4
140
1.0
141
4.0
290
     0
  0
SCALE
  5
D8
102
{ACAD_REACTORS
330
99
102
}
330
99
100
AcDbScale
 70
     0
300
1:5
140
1.0
141
5.0
290
     0
  0
SCALE
  5
D9
102
{ACAD_REACTORS
330
99
102
}
330
99
100
AcDbScale
 70
     0
300
1:8
140
1.0
141
8.0
290
     0
  0
SCALE
  5
DA
102
{ACAD_REACTORS
330
99
102
}
330
99
100
AcDbScale
 70
     0
300
1:10
140
1.0
141
10.0
290
     0
  0
SCALE
  5
DB
102
{ACAD_REACTORS
330
99
102
}
330
99
100
AcDbScale
 70
     0
300
1:16
140
1.0
141
16.0
290
     0
  0
SCALE
  5
DC
102
{ACAD_REACTORS
330
99
102
}
330
99
100
AcDbScale
 70
     0
300
1:20
140
1.0
141
20.0
290
     0
  0
SCALE
  5
DD
102
{ACAD_REACTORS
330
99
102
}
330
99
100
AcDbScale
 70
     0
300
1:30
140
1.0
141
30.0
290
     0
  0
SCALE
  5
DE
102
{ACAD_REACTORS
330
99
102
}
330
99
100
AcDbScale
 70
     0
300
1:40
140
1.0
141
40.0
290
     0
  0
SCALE
  5
DF
102
{ACAD_REACTORS
330
99
102
}
330
99
100
AcDbScale
 70
     0
300
1:50
140
1.0
141
50.0
290
     0
  0
SCALE
  5
E0
102
{ACAD_REACTORS
330
99
102
}
330
99
100
AcDbScale
 70
     0
300
1:100
140
1.0
141
100.0
290
     0
  0
SCALE
  5
E1
102
{ACAD_REACTORS
330
99
102
}
330
99
100
AcDbScale
 70
     0
300
2:1
140
2.0
141
1.0
290
     0
  0
SCALE
  5
E2
102
{ACAD_REACTORS
330
99
102
}
330
99
100
AcDbScale
 70
     0
300
4:1
140
4.0
141
1.0
290
     0
  0
SCALE
  5
E3
102
{ACAD_REACTORS
330
99
102
}
330
99
100
AcDbScale
 70
     0
300
8:1
140
8.0
141
1.0
290
     0
  0
SCALE
  5
E4
102
{ACAD_REACTORS
330
99
102
}
330
99
100
AcDbScale
 70
     0
300
10:1
140
10.0
141
1.0
290
     0
  0
SCALE
  5
E5
102
{ACAD_REACTORS
330
99
102
}
330
99
100
AcDbScale
 70
     0
300
100:1
140
100.0
141
1.0
290
     0
  0
SCALE
  5
E6
102
{ACAD_REACTORS
330
99
102
}
330
99
100
AcDbScale
 70
     0
300
1/128" = 1'-0"
140
0.0078125
141
12.0
290
     0
  0
SCALE
  5
E7
102
{ACAD_REACTORS
330
99
102
}
330
99
100
AcDbScale
 70
     0
300
1/64" = 1'-0"
140
0.015625
141
12.0
290
     0
  0
SCALE
  5
E8
102
{ACAD_REACTORS
330
99
102
}
330
99
100
AcDbScale
 70
     0
300
1/32" = 1'-0"
140
0.03125
141
12.0
290
     0
  0
SCALE
  5
E9
102
{ACAD_REACTORS
330
99
102
}
330
99
100
AcDbScale
 70
     0
300
1/16" = 1'-0"
140
0.0625
141
12.0
290
     0
  0
SCALE
  5
EA
102
{ACAD_REACTORS
330
99
102
}
330
99
100
AcDbScale
 70
     0
300
3/32" = 1'-0"
140
0.09375
141
12.0
290
     0
  0
SCALE
  5
EB
102
{ACAD_REACTORS
330
99
102
}
330
99
100
AcDbScale
 70
     0
300
1/8" = 1'-0"
140
0.125
141
12.0
290
     0
  0
SCALE
  5
EC
102
{ACAD_REACTORS
330
99
102
}
330
99
100
AcDbScale
 70
     0
300
3/16" = 1'-0"
140
0.1875
141
12.0
290
     0
  0
SCALE
  5
ED
102
{ACAD_REACTORS
330
99
102
}
330
99
100
AcDbScale
 70
     0
300
1/4" = 1'-0"
140
0.25
141
12.0
290
     0
  0
SCALE
  5
EE
102
{ACAD_REACTORS
330
99
102
}
330
99
100
AcDbScale
 70
     0
300
3/8" = 1'-0"
140
0.375
141
12.0
290
     0
  0
SCALE
  5
EF
102
{ACAD_REACTORS
330
99
102
}
330
99
100
AcDbScale
 70
     0
300
1/2" = 1'-0"
140
0.5
141
12.0
290
     0
  0
SCALE
  5
F0
102
{ACAD_REACTORS
330
99
102
}
330
99
100
AcDbScale
 70
     0
300
3/4" = 1'-0"
140
0.75
141
12.0
290
     0
  0
SCALE
  5
F1
102
{ACAD_REACTORS
330
99
102
}
330
99
100
AcDbScale
 70
     0
300
1" = 1'-0"
140
1.0
141
12.0
290
     0
  0
SCALE
  5
F2
102
{ACAD_REACTORS
330
99
102
}
330
99
100
AcDbScale
 70
     0
300
1-1/2" = 1'-0"
140
1.5
141
12.0
290
     0
  0
SCALE
  5
F3
102
{ACAD_REACTORS
330
99
102
}
330
99
100
AcDbScale
 70
     0
300
3" = 1'-0"
140
3.0
141
12.0
290
     0
  0
SCALE
  5
F4
102
{ACAD_REACTORS
330
99
102
}
330
99
100
AcDbScale
 70
     0
300
6" = 1'-0"
140
6.0
141
12.0
290
     0
  0
SCALE
  5
F5
102
{ACAD_REACTORS
330
99
102
}
330
99
100
AcDbScale
 70
     0
300
1'-0" = 1'-0"
140
12.0
141
12.0
290
     0
  0
XRECORD
  5
48E
102
{ACAD_REACTORS
330
48D
102
}
330
48D
100
AcDbXrecord
280
     1
340
6C
  0
XRECORD
  5
48F
102
{ACAD_REACTORS
330
48D
102
}
330
48D
100
AcDbXrecord
280
     1
340
6B
  0
DICTIONARYVAR
  5
98
102
{ACAD_REACTORS
330
59
102
}
330
59
100
DictionaryVariables
280
     0
  1
Standard
  0
DICTIONARYVAR
  5
5A
102
{ACAD_REACTORS
330
59
102
}
330
59
100
DictionaryVariables
280
     0
  1
2
  0
DICTIONARYVAR
  5
5E
102
{ACAD_REACTORS
330
59
102
}
330
59
100
DictionaryVariables
280
     0
  1
1
  0
ENDSEC
  0
EOF
