  0
SECTION
  2
HEADER
  9
$ACADVER
  1
AC1015
  9
$ACADMAINTVER
 70
     6
  9
$DWGCODEPAGE
  3
ANSI_1252
  9
$INSBASE
 10
0.0
 20
0.0
 30
0.0
  9
$EXTMIN
 10
2531.211552958347
 20
2440.862942253219
 30
0.0
  9
$EXTMAX
 10
3330.474599934946
 20
2840.419701939662
 30
0.0
  9
$LIMMIN
 10
0.0
 20
0.0
  9
$LIMMAX
 10
0.0
 20
0.0
  9
$ORTHOMODE
 70
     0
  9
$REGENMODE
 70
     1
  9
$FILLMODE
 70
     1
  9
$QTEXTMODE
 70
     0
  9
$MIRRTEXT
 70
     0
  9
$LTSCALE
 40
1.0
  9
$ATTMODE
 70
     1
  9
$TEXTSIZE
 40
2.5
  9
$TRACEWID
 40
1.0
  9
$TEXTSTYLE
  7
Standard
  9
$CLAYER
  8
0
  9
$CELTYPE
  6
ByLayer
  9
$CECOLOR
 62
   256
  9
$CELTSCALE
 40
1.0
  9
$DISPSILH
 70
     0
  9
$DIMSCALE
 40
1.0
  9
$DIMASZ
 40
2.5
  9
$DIMEXO
 40
0.625
  9
$DIMDLI
 40
3.75
  9
$DIMRND
 40
0.0
  9
$DIMDLE
 40
0.0
  9
$DIMEXE
 40
1.25
  9
$DIMTP
 40
0.0
  9
$DIMTM
 40
0.0
  9
$DIMTXT
 40
2.5
  9
$DIMCEN
 40
2.5
  9
$DIMTSZ
 40
0.0
  9
$DIMTOL
 70
     0
  9
$DIMLIM
 70
     0
  9
$DIMTIH
 70
     0
  9
$DIMTOH
 70
     0
  9
$DIMSE1
 70
     0
  9
$DIMSE2
 70
     0
  9
$DIMTAD
 70
     1
  9
$DIMZIN
 70
     8
  9
$DIMBLK
  1

  9
$DIMASO
 70
     1
  9
$DIMSHO
 70
     1
  9
$DIMPOST
  1

  9
$DIMAPOST
  1

  9
$DIMALT
 70
     0
  9
$DIMALTD
 70
     3
  9
$DIMALTF
 40
0.03937007874016
  9
$DIMLFAC
 40
1.0
  9
$DIMTOFL
 70
     1
  9
$DIMTVP
 40
0.0
  9
$DIMTIX
 70
     0
  9
$DIMSOXD
 70
     0
  9
$DIMSAH
 70
     0
  9
$DIMBLK1
  1

  9
$DIMBLK2
  1

  9
$DIMSTYLE
  2
ISO-25
  9
$DIMCLRD
 70
     0
  9
$DIMCLRE
 70
     0
  9
$DIMCLRT
 70
     0
  9
$DIMTFAC
 40
1.0
  9
$DIMGAP
 40
0.625
  9
$DIMJUST
 70
     0
  9
$DIMSD1
 70
     0
  9
$DIMSD2
 70
     0
  9
$DIMTOLJ
 70
     0
  9
$DIMTZIN
 70
     8
  9
$DIMALTZ
 70
     0
  9
$DIMALTTZ
 70
     0
  9
$DIMUPT
 70
     0
  9
$DIMDEC
 70
     2
  9
$DIMTDEC
 70
     2
  9
$DIMALTU
 70
     2
  9
$DIMALTTD
 70
     3
  9
$DIMTXSTY
  7
Standard
  9
$DIMAUNIT
 70
     0
  9
$DIMADEC
 70
     0
  9
$DIMALTRND
 40
0.0
  9
$DIMAZIN
 70
     0
  9
$DIMDSEP
 70
    44
  9
$DIMATFIT
 70
     3
  9
$DIMFRAC
 70
     0
  9
$DIMLDRBLK
  1

  9
$DIMLUNIT
 70
     2
  9
$DIMLWD
 70
    -2
  9
$DIMLWE
 70
    -2
  9
$DIMTMOVE
 70
     0
  9
$LUNITS
 70
     2
  9
$LUPREC
 70
     4
  9
$SKETCHINC
 40
1.0
  9
$FILLETRAD
 40
0.0
  9
$AUNITS
 70
     0
  9
$AUPREC
 70
     0
  9
$MENU
  1
.
  9
$ELEVATION
 40
0.0
  9
$PELEVATION
 40
0.0
  9
$THICKNESS
 40
0.0
  9
$LIMCHECK
 70
     0
  9
$CHAMFERA
 40
0.0
  9
$CHAMFERB
 40
0.0
  9
$CHAMFERC
 40
0.0
  9
$CHAMFERD
 40
0.0
  9
$SKPOLY
 70
     0
  9
$TDCREATE
 40
2455090.72223706
  9
$TDUCREATE
 40
2455090.638903727
  9
$TDUPDATE
 40
2455090.763903715
  9
$TDUUPDATE
 40
2455090.680570382
  9
$TDINDWG
 40
0.044923831
  9
$TDUSRTIMER
 40
0.0449214699
  9
$USRTIMER
 70
     1
  9
$ANGBASE
 50
0.0
  9
$ANGDIR
 70
     0
  9
$PDMODE
 70
     0
  9
$PDSIZE
 40
0.0
  9
$PLINEWID
 40
0.0
  9
$SPLFRAME
 70
     0
  9
$SPLINETYPE
 70
     6
  9
$SPLINESEGS
 70
     8
  9
$HANDSEED
  5
605
  9
$SURFTAB1
 70
     6
  9
$SURFTAB2
 70
     6
  9
$SURFTYPE
 70
     6
  9
$SURFU
 70
     6
  9
$SURFV
 70
     6
  9
$UCSBASE
  2

  9
$UCSNAME
  2

  9
$UCSORG
 10
0.0
 20
0.0
 30
0.0
  9
$UCSXDIR
 10
1.0
 20
0.0
 30
0.0
  9
$UCSYDIR
 10
0.0
 20
1.0
 30
0.0
  9
$UCSORTHOREF
  2

  9
$UCSORTHOVIEW
 70
     0
  9
$UCSORGTOP
 10
0.0
 20
0.0
 30
0.0
  9
$UCSORGBOTTOM
 10
0.0
 20
0.0
 30
0.0
  9
$UCSORGLEFT
 10
0.0
 20
0.0
 30
0.0
  9
$UCSORGRIGHT
 10
0.0
 20
0.0
 30
0.0
  9
$UCSORGFRONT
 10
0.0
 20
0.0
 30
0.0
  9
$UCSORGBACK
 10
0.0
 20
0.0
 30
0.0
  9
$PUCSBASE
  2

  9
$PUCSNAME
  2

  9
$PUCSORG
 10
0.0
 20
0.0
 30
0.0
  9
$PUCSXDIR
 10
1.0
 20
0.0
 30
0.0
  9
$PUCSYDIR
 10
0.0
 20
1.0
 30
0.0
  9
$PUCSORTHOREF
  2

  9
$PUCSORTHOVIEW
 70
     0
  9
$PUCSORGTOP
 10
0.0
 20
0.0
 30
0.0
  9
$PUCSORGBOTTOM
 10
0.0
 20
0.0
 30
0.0
  9
$PUCSORGLEFT
 10
0.0
 20
0.0
 30
0.0
  9
$PUCSORGRIGHT
 10
0.0
 20
0.0
 30
0.0
  9
$PUCSORGFRONT
 10
0.0
 20
0.0
 30
0.0
  9
$PUCSORGBACK
 10
0.0
 20
0.0
 30
0.0
  9
$USERI1
 70
     0
  9
$USERI2
 70
     0
  9
$USERI3
 70
     0
  9
$USERI4
 70
     0
  9
$USERI5
 70
     0
  9
$USERR1
 40
0.0
  9
$USERR2
 40
0.0
  9
$USERR3
 40
0.0
  9
$USERR4
 40
0.0
  9
$USERR5
 40
0.0
  9
$WORLDVIEW
 70
     1
  9
$SHADEDGE
 70
     3
  9
$SHADEDIF
 70
    70
  9
$TILEMODE
 70
     1
  9
$MAXACTVP
 70
    64
  9
$PINSBASE
 10
0.0
 20
0.0
 30
0.0
  9
$PLIMCHECK
 70
     0
  9
$PEXTMIN
 10
0.0
 20
0.0
 30
0.0
  9
$PEXTMAX
 10
12.0
 20
9.0
 30
0.0
  9
$PLIMMIN
 10
0.0
 20
0.0
  9
$PLIMMAX
 10
12.0
 20
9.0
  9
$UNITMODE
 70
     0
  9
$VISRETAIN
 70
     1
  9
$PLINEGEN
 70
     0
  9
$PSLTSCALE
 70
     1
  9
$TREEDEPTH
 70
  3020
  9
$CMLSTYLE
  2
Standard
  9
$CMLJUST
 70
     0
  9
$CMLSCALE
 40
20.0
  9
$PROXYGRAPHICS
 70
     1
  9
$MEASUREMENT
 70
     1
  9
$CELWEIGHT
370
    -1
  9
$ENDCAPS
280
     0
  9
$JOINSTYLE
280
     0
  9
$LWDISPLAY
290
     0
  9
$INSUNITS
 70
     4
  9
$HYPERLINKBASE
  1

  9
$STYLESHEET
  1

  9
$XEDIT
290
     1
  9
$CEPSNTYPE
380
     0
  9
$PSTYLEMODE
290
     1
  9
$FINGERPRINTGUID
  2
{5559452E-1E62-4159-8551-BF76FFF3E7E8}
  9
$VERSIONGUID
  2
{3CEB9EF8-4431-4551-B596-6734A9F966A9}
  9
$EXTNAMES
290
     1
  9
$PSVPSCALE
 40
0.0
  9
$OLESTARTUP
290
     0
  0
ENDSEC
  0
SECTION
  2
CLASSES
  0
CLASS
  1
ACDBDICTIONARYWDFLT
  2
AcDbDictionaryWithDefault
  3
ObjectDBX Classes
 90
        0
280
     0
281
     0
  0
CLASS
  1
ACDBPLACEHOLDER
  2
AcDbPlaceHolder
  3
ObjectDBX Classes
 90
        0
280
     0
281
     0
  0
CLASS
  1
LAYOUT
  2
AcDbLayout
  3
ObjectDBX Classes
 90
        0
280
     0
281
     0
  0
CLASS
  1
DICTIONARYVAR
  2
AcDbDictionaryVar
  3
ObjectDBX Classes
 90
        0
280
     0
281
     0
  0
CLASS
  1
TABLESTYLE
  2
AcDbTableStyle
  3
ObjectDBX Classes
 90
     4095
280
     0
281
     0
  0
CLASS
  1
SCALE
  2
AcDbScale
  3
ObjectDBX Classes
 90
     1153
280
     0
281
     0
  0
ENDSEC
  0
SECTION
  2
TABLES
  0
TABLE
  2
VPORT
  5
8
330
0
100
AcDbSymbolTable
 70
     2
  0
VPORT
  5
97
330
8
100
AcDbSymbolTableRecord
100
AcDbViewportTableRecord
  2
*Active
 70
     0
 10
0.0
 20
0.0
 11
1.0
 21
1.0
 12
3030.036688812324
 22
2538.22132143217
 13
0.0
 23
0.0
 14
10.0
 24
10.0
 15
10.0
 25
10.0
 16
0.0
 26
0.0
 36
1.0
 17
0.0
 27
0.0
 37
0.0
 40
1055.013521148006
 41
1.664827586206897
 42
50.0
 43
0.0
 44
0.0
 50
0.0
 51
0.0
 71
     0
 72
  1000
 73
     1
 74
     3
 75
     0
 76
     0
 77
     0
 78
     0
281
     0
 65
     1
110
0.0
120
0.0
130
0.0
111
1.0
121
0.0
131
0.0
112
0.0
122
1.0
132
0.0
 79
     0
146
0.0
  0
ENDTAB
  0
TABLE
  2
LTYPE
  5
5
330
0
100
AcDbSymbolTable
 70
     5
  0
LTYPE
  5
14
330
5
100
AcDbSymbolTableRecord
100
AcDbLinetypeTableRecord
  2
ByBlock
 70
     0
  3

 72
    65
 73
     0
 40
0.0
  0
LTYPE
  5
15
330
5
100
AcDbSymbolTableRecord
100
AcDbLinetypeTableRecord
  2
ByLayer
 70
     0
  3

 72
    65
 73
     0
 40
0.0
  0
LTYPE
  5
16
330
5
100
AcDbSymbolTableRecord
100
AcDbLinetypeTableRecord
  2
Continuous
 70
     0
  3
Solid line
 72
    65
 73
     0
 40
0.0
  0
LTYPE
  5
56F
330
5
100
AcDbSymbolTableRecord
100
AcDbLinetypeTableRecord
  2
CONTINUA
 70
     0
  3
Linea continua
 72
    65
 73
     0
 40
0.0
  0
LTYPE
  5
570
330
5
100
AcDbSymbolTableRecord
100
AcDbLinetypeTableRecord
  2
TRATTO-PUNTO
 70
     0
  3
__ . __ . __ . __ . __ . __ . __ . __ . __ . __
 72
    65
 73
     4
 40
1.0
 49
0.5
 74
     0
 49
-0.25
 74
     0
 49
0.0
 74
     0
 49
-0.25
 74
     0
  0
LTYPE
  5
571
330
5
100
AcDbSymbolTableRecord
100
AcDbLinetypeTableRecord
  2
CENTER
 70
     0
  3
____ _ ____ _ ____ _ ____ _ ____ _ ____ _ ____
 72
    65
 73
     4
 40
2.0
 49
1.25
 74
     0
 49
-0.25
 74
     0
 49
0.25
 74
     0
 49
-0.25
 74
     0
  0
LTYPE
  5
572
330
5
100
AcDbSymbolTableRecord
100
AcDbLinetypeTableRecord
  2
SOLID
 70
     0
  3

 72
    65
 73
     0
 40
0.0
  0
ENDTAB
  0
TABLE
  2
LAYER
  5
2
330
0
100
AcDbSymbolTable
 70
     4
  0
LAYER
  5
10
330
2
100
AcDbSymbolTableRecord
100
AcDbLayerTableRecord
  2
0
 70
     0
 62
     7
  6
Continuous
370
    -3
390
F
  0
LAYER
  5
FD
330
2
100
AcDbSymbolTableRecord
100
AcDbLayerTableRecord
  2
A
 70
     0
 62
     7
  6
CONTINUA
370
    -3
390
F
  0
LAYER
  5
FE
330
2
100
AcDbSymbolTableRecord
100
AcDbLayerTableRecord
  2
DEFPOINTS
 70
     0
 62
     7
  6
Continuous
290
     0
370
    -3
390
F
  0
LAYER
  5
4D4
330
2
100
AcDbSymbolTableRecord
100
AcDbLayerTableRecord
  2
STANDARD_LAYER
 70
     0
 62
     7
  6
SOLID
370
    -3
390
F
  0
ENDTAB
  0
TABLE
  2
STYLE
  5
3
330
0
100
AcDbSymbolTable
 70
     3
  0
STYLE
  5
11
330
3
100
AcDbSymbolTableRecord
100
AcDbTextStyleTableRecord
  2
Standard
 70
     0
 40
0.0
 41
1.0
 50
0.0
 71
     0
 42
2.5
  3
txt
  4

  0
STYLE
  5
F8
330
3
100
AcDbSymbolTableRecord
100
AcDbTextStyleTableRecord
  2
H
 70
     0
 40
1.75
 41
1.0
 50
0.0
 71
     0
 42
1.75
  3
swiss.ttf
  4

1001
ACAD
1000
Swis721 BT
1071
       34
  0
STYLE
  5
F9
330
3
100
AcDbSymbolTableRecord
100
AcDbTextStyleTableRecord
  2
HB
 70
     0
 40
3.0
 41
1.0
 50
0.0
 71
     0
 42
1.5
  3
swissb.ttf
  4

1001
ACAD
1000
Swis721 BT
1071
 33554466
  0
ENDTAB
  0
TABLE
  2
VIEW
  5
6
330
0
100
AcDbSymbolTable
 70
     0
  0
ENDTAB
  0
TABLE
  2
UCS
  5
7
330
0
100
AcDbSymbolTable
 70
     0
  0
ENDTAB
  0
TABLE
  2
APPID
  5
9
330
0
100
AcDbSymbolTable
 70
     2
  0
APPID
  5
12
330
9
100
AcDbSymbolTableRecord
100
AcDbRegAppTableRecord
  2
ACAD
 70
     0
  0
APPID
  5
56E
330
9
100
AcDbSymbolTableRecord
100
AcDbRegAppTableRecord
  2
PROGE_PRINT_SETTINGS
 70
     0
  0
ENDTAB
  0
TABLE
  2
DIMSTYLE
  5
A
330
0
100
AcDbSymbolTable
 70
     3
100
AcDbDimStyleTable
  0
DIMSTYLE
105
27
330
A
100
AcDbSymbolTableRecord
100
AcDbDimStyleTableRecord
  2
Standard
 70
     0
278
     0
340
11
  0
DIMSTYLE
105
29
102
{ACAD_REACTORS
330
423
330
45C
330
489
330
4E6
330
540
102
}
330
A
100
AcDbSymbolTableRecord
100
AcDbDimStyleTableRecord
  2
ISO-25
 70
     0
 41
2.5
 42
0.625
 43
3.75
 44
1.25
 73
     0
 74
     0
 77
     1
 78
     8
140
2.5
141
2.5
143
0.03937007874016
147
0.625
171
     3
172
     1
271
     2
272
     2
274
     3
278
    44
283
     0
284
     8
340
11
  0
DIMSTYLE
105
FF
102
{ACAD_REACTORS
330
101
330
10D
330
174
330
175
102
}
330
A
100
AcDbSymbolTableRecord
100
AcDbDimStyleTableRecord
  2
GEWISS
 70
     0
 41
1.7
 42
1.0
 43
7.0
 44
0.3
 73
     0
 74
     0
 77
     1
140
1.75
141
1.5
147
0.75
172
     1
176
     1
177
     1
340
F8
  0
ENDTAB
  0
TABLE
  2
BLOCK_RECORD
  5
1
330
0
100
AcDbSymbolTable
 70
    69
  0
BLOCK_RECORD
  5
1F
330
1
100
AcDbSymbolTableRecord
100
AcDbBlockTableRecord
  2
*Model_Space
340
22
  0
BLOCK_RECORD
  5
73
330
1
100
AcDbSymbolTableRecord
100
AcDbBlockTableRecord
  2
*Paper_Space
340
574
  0
BLOCK_RECORD
  5
D1
330
1
100
AcDbSymbolTableRecord
100
AcDbBlockTableRecord
  2
*Paper_Space0
340
74
  0
BLOCK_RECORD
  5
10A
330
1
100
AcDbSymbolTableRecord
100
AcDbBlockTableRecord
  2
*D1
340
0
  0
BLOCK_RECORD
  5
115
330
1
100
AcDbSymbolTableRecord
100
AcDbBlockTableRecord
  2
*D2
340
0
  0
BLOCK_RECORD
  5
120
330
1
100
AcDbSymbolTableRecord
100
AcDbBlockTableRecord
  2
*D3
340
0
  0
BLOCK_RECORD
  5
12B
330
1
100
AcDbSymbolTableRecord
100
AcDbBlockTableRecord
  2
*D4
340
0
  0
BLOCK_RECORD
  5
136
330
1
100
AcDbSymbolTableRecord
100
AcDbBlockTableRecord
  2
*D5
340
0
  0
BLOCK_RECORD
  5
141
330
1
100
AcDbSymbolTableRecord
100
AcDbBlockTableRecord
  2
*D6
340
0
  0
BLOCK_RECORD
  5
14C
330
1
100
AcDbSymbolTableRecord
100
AcDbBlockTableRecord
  2
*D7
340
0
  0
BLOCK_RECORD
  5
157
330
1
100
AcDbSymbolTableRecord
100
AcDbBlockTableRecord
  2
*D8
340
0
  0
BLOCK_RECORD
  5
162
330
1
100
AcDbSymbolTableRecord
100
AcDbBlockTableRecord
  2
*D9
340
0
  0
BLOCK_RECORD
  5
16D
330
1
100
AcDbSymbolTableRecord
100
AcDbBlockTableRecord
  2
*D10
340
0
  0
BLOCK_RECORD
  5
178
330
1
100
AcDbSymbolTableRecord
100
AcDbBlockTableRecord
  2
*D11
340
0
  0
BLOCK_RECORD
  5
183
330
1
100
AcDbSymbolTableRecord
100
AcDbBlockTableRecord
  2
*D12
340
0
  0
BLOCK_RECORD
  5
248
330
1
100
AcDbSymbolTableRecord
100
AcDbBlockTableRecord
  2
*D13
340
0
  0
BLOCK_RECORD
  5
25B
330
1
100
AcDbSymbolTableRecord
100
AcDbBlockTableRecord
  2
*D14
340
0
  0
BLOCK_RECORD
  5
26A
330
1
100
AcDbSymbolTableRecord
100
AcDbBlockTableRecord
  2
*D15
340
0
  0
BLOCK_RECORD
  5
2DC
330
1
100
AcDbSymbolTableRecord
100
AcDbBlockTableRecord
  2
*D16
340
0
  0
BLOCK_RECORD
  5
2E8
330
1
100
AcDbSymbolTableRecord
100
AcDbBlockTableRecord
  2
*D17
340
0
  0
BLOCK_RECORD
  5
32F
330
1
100
AcDbSymbolTableRecord
100
AcDbBlockTableRecord
  2
*D18
340
0
  0
BLOCK_RECORD
  5
33B
330
1
100
AcDbSymbolTableRecord
100
AcDbBlockTableRecord
  2
*D19
340
0
  0
BLOCK_RECORD
  5
346
330
1
100
AcDbSymbolTableRecord
100
AcDbBlockTableRecord
  2
*D20
340
0
  0
BLOCK_RECORD
  5
351
330
1
100
AcDbSymbolTableRecord
100
AcDbBlockTableRecord
  2
*D21
340
0
  0
BLOCK_RECORD
  5
35C
330
1
100
AcDbSymbolTableRecord
100
AcDbBlockTableRecord
  2
*D22
340
0
  0
BLOCK_RECORD
  5
367
330
1
100
AcDbSymbolTableRecord
100
AcDbBlockTableRecord
  2
*D23
340
0
  0
BLOCK_RECORD
  5
372
330
1
100
AcDbSymbolTableRecord
100
AcDbBlockTableRecord
  2
*D24
340
0
  0
BLOCK_RECORD
  5
37D
330
1
100
AcDbSymbolTableRecord
100
AcDbBlockTableRecord
  2
*D25
340
0
  0
BLOCK_RECORD
  5
388
330
1
100
AcDbSymbolTableRecord
100
AcDbBlockTableRecord
  2
*D26
340
0
  0
BLOCK_RECORD
  5
393
330
1
100
AcDbSymbolTableRecord
100
AcDbBlockTableRecord
  2
*D27
340
0
  0
BLOCK_RECORD
  5
39E
330
1
100
AcDbSymbolTableRecord
100
AcDbBlockTableRecord
  2
*D28
340
0
  0
BLOCK_RECORD
  5
3A9
330
1
100
AcDbSymbolTableRecord
100
AcDbBlockTableRecord
  2
*D29
340
0
  0
BLOCK_RECORD
  5
3B4
330
1
100
AcDbSymbolTableRecord
100
AcDbBlockTableRecord
  2
*D30
340
0
  0
BLOCK_RECORD
  5
3BF
330
1
100
AcDbSymbolTableRecord
100
AcDbBlockTableRecord
  2
*D31
340
0
  0
BLOCK_RECORD
  5
3CA
330
1
100
AcDbSymbolTableRecord
100
AcDbBlockTableRecord
  2
*D32
340
0
  0
BLOCK_RECORD
  5
3D5
330
1
100
AcDbSymbolTableRecord
100
AcDbBlockTableRecord
  2
*D33
340
0
  0
BLOCK_RECORD
  5
3E0
330
1
100
AcDbSymbolTableRecord
100
AcDbBlockTableRecord
  2
*D34
340
0
  0
BLOCK_RECORD
  5
3EB
330
1
100
AcDbSymbolTableRecord
100
AcDbBlockTableRecord
  2
*D35
340
0
  0
BLOCK_RECORD
  5
3F6
330
1
100
AcDbSymbolTableRecord
100
AcDbBlockTableRecord
  2
*D36
340
0
  0
BLOCK_RECORD
  5
401
330
1
100
AcDbSymbolTableRecord
100
AcDbBlockTableRecord
  2
*D37
340
0
  0
BLOCK_RECORD
  5
40C
330
1
100
AcDbSymbolTableRecord
100
AcDbBlockTableRecord
  2
*D38
340
0
  0
BLOCK_RECORD
  5
417
330
1
100
AcDbSymbolTableRecord
100
AcDbBlockTableRecord
  2
*D39
340
0
  0
BLOCK_RECORD
  5
422
330
1
100
AcDbSymbolTableRecord
100
AcDbBlockTableRecord
  2
*D40
340
0
  0
BLOCK_RECORD
  5
42E
330
1
100
AcDbSymbolTableRecord
100
AcDbBlockTableRecord
  2
*D41
340
0
  0
BLOCK_RECORD
  5
439
330
1
100
AcDbSymbolTableRecord
100
AcDbBlockTableRecord
  2
*D42
340
0
  0
BLOCK_RECORD
  5
444
330
1
100
AcDbSymbolTableRecord
100
AcDbBlockTableRecord
  2
*D43
340
0
  0
BLOCK_RECORD
  5
44F
330
1
100
AcDbSymbolTableRecord
100
AcDbBlockTableRecord
  2
*D44
340
0
  0
BLOCK_RECORD
  5
45B
330
1
100
AcDbSymbolTableRecord
100
AcDbBlockTableRecord
  2
*D45
340
0
  0
BLOCK_RECORD
  5
467
330
1
100
AcDbSymbolTableRecord
100
AcDbBlockTableRecord
  2
*D46
340
0
  0
BLOCK_RECORD
  5
472
330
1
100
AcDbSymbolTableRecord
100
AcDbBlockTableRecord
  2
*D47
340
0
  0
BLOCK_RECORD
  5
47D
330
1
100
AcDbSymbolTableRecord
100
AcDbBlockTableRecord
  2
*D48
340
0
  0
BLOCK_RECORD
  5
488
330
1
100
AcDbSymbolTableRecord
100
AcDbBlockTableRecord
  2
*D49
340
0
  0
BLOCK_RECORD
  5
494
330
1
100
AcDbSymbolTableRecord
100
AcDbBlockTableRecord
  2
*D50
340
0
  0
BLOCK_RECORD
  5
49F
330
1
100
AcDbSymbolTableRecord
100
AcDbBlockTableRecord
  2
*D51
340
0
  0
BLOCK_RECORD
  5
4AA
330
1
100
AcDbSymbolTableRecord
100
AcDbBlockTableRecord
  2
*D52
340
0
  0
BLOCK_RECORD
  5
4B5
330
1
100
AcDbSymbolTableRecord
100
AcDbBlockTableRecord
  2
*D53
340
0
  0
BLOCK_RECORD
  5
4C0
330
1
100
AcDbSymbolTableRecord
100
AcDbBlockTableRecord
  2
*D54
340
0
  0
BLOCK_RECORD
  5
4CB
330
1
100
AcDbSymbolTableRecord
100
AcDbBlockTableRecord
  2
*D55
340
0
  0
BLOCK_RECORD
  5
4E5
330
1
100
AcDbSymbolTableRecord
100
AcDbBlockTableRecord
  2
*D56
340
0
  0
BLOCK_RECORD
  5
4F1
330
1
100
AcDbSymbolTableRecord
100
AcDbBlockTableRecord
  2
*D57
340
0
  0
BLOCK_RECORD
  5
4FD
330
1
100
AcDbSymbolTableRecord
100
AcDbBlockTableRecord
  2
*D58
340
0
  0
BLOCK_RECORD
  5
508
330
1
100
AcDbSymbolTableRecord
100
AcDbBlockTableRecord
  2
*D59
340
0
  0
BLOCK_RECORD
  5
513
330
1
100
AcDbSymbolTableRecord
100
AcDbBlockTableRecord
  2
*D60
340
0
  0
BLOCK_RECORD
  5
51E
330
1
100
AcDbSymbolTableRecord
100
AcDbBlockTableRecord
  2
*D61
340
0
  0
BLOCK_RECORD
  5
529
330
1
100
AcDbSymbolTableRecord
100
AcDbBlockTableRecord
  2
*D62
340
0
  0
BLOCK_RECORD
  5
534
330
1
100
AcDbSymbolTableRecord
100
AcDbBlockTableRecord
  2
*D63
340
0
  0
BLOCK_RECORD
  5
53F
330
1
100
AcDbSymbolTableRecord
100
AcDbBlockTableRecord
  2
*D64
340
0
  0
BLOCK_RECORD
  5
54B
330
1
100
AcDbSymbolTableRecord
100
AcDbBlockTableRecord
  2
*D65
340
0
  0
BLOCK_RECORD
  5
556
330
1
100
AcDbSymbolTableRecord
100
AcDbBlockTableRecord
  2
*D66
340
0
  0
BLOCK_RECORD
  5
561
330
1
100
AcDbSymbolTableRecord
100
AcDbBlockTableRecord
  2
*D67
340
0
  0
BLOCK_RECORD
  5
56C
330
1
100
AcDbSymbolTableRecord
100
AcDbBlockTableRecord
  2
*D68
340
0
  0
ENDTAB
  0
ENDSEC
  0
SECTION
  2
BLOCKS
  0
BLOCK
  5
20
330
1F
100
AcDbEntity
  8
0
100
AcDbBlockBegin
  2
*Model_Space
 70
     0
 10
0.0
 20
0.0
 30
0.0
  3
*Model_Space
  1

  0
ENDBLK
  5
21
330
1F
100
AcDbEntity
  8
0
100
AcDbBlockEnd
  0
BLOCK
  5
75
330
73
100
AcDbEntity
 67
     1
  8
0
100
AcDbBlockBegin
  2
*Paper_Space
 70
     0
 10
0.0
 20
0.0
 30
0.0
  3
*Paper_Space
  1

  0
ENDBLK
  5
76
330
73
100
AcDbEntity
 67
     1
  8
0
100
AcDbBlockEnd
  0
BLOCK
  5
575
330
D1
100
AcDbEntity
  8
0
100
AcDbBlockBegin
  2
*Paper_Space0
 70
     0
 10
0.0
 20
0.0
 30
0.0
  3
*Paper_Space0
  1

  0
VIEWPORT
  5
5FF
330
D1
100
AcDbEntity
  8
0
100
AcDbViewport
 10
7.8
 20
4.5
 30
0.0
 40
15.64
 41
9.0
 68
     1
 69
     1
 12
6.0
 22
4.5
 13
0.0
 23
0.0
 14
0.5
 24
0.5
 15
0.5
 25
0.5
 16
0.0
 26
0.0
 36
1.0
 17
0.0
 27
0.0
 37
0.0
 42
50.0
 43
0.0
 44
0.0
 45
12.0
 50
0.0
 51
0.0
 72
   100
 90
   557152
  1

281
     0
 71
     1
 74
     0
110
0.0
120
0.0
130
0.0
111
1.0
121
0.0
131
0.0
112
0.0
122
1.0
132
0.0
 79
     0
146
0.0
  0
ENDBLK
  5
576
330
D1
100
AcDbEntity
  8
0
100
AcDbBlockEnd
  0
BLOCK
  5
577
330
10A
100
AcDbEntity
  8
0
100
AcDbBlockBegin
  2
*D1
 70
     1
 10
0.0
 20
0.0
 30
0.0
  3
*D1
  1

  0
POINT
  5
101
330
10A
100
AcDbEntity
  8
DEFPOINTS
  6
ByBlock
 62
     1
100
AcDbPoint
 10
75.463451
 20
106.951745
 30
0.0
  0
POINT
  5
102
330
10A
100
AcDbEntity
  8
DEFPOINTS
  6
ByBlock
 62
     1
100
AcDbPoint
 10
101.702853
 20
106.951745
 30
0.0
  0
LINE
  5
103
330
10A
100
AcDbEntity
  8
0
  6
ByBlock
 62
     1
370
    -2
100
AcDbLine
 10
75.463451
 20
107.951745
 30
0.0
 11
75.463451
 21
113.098989
 31
0.0
  0
LINE
  5
104
330
10A
100
AcDbEntity
  8
0
  6
ByBlock
 62
     1
370
    -2
100
AcDbLine
 10
101.702853
 20
107.951745
 30
0.0
 11
101.702853
 21
113.098989
 31
0.0
  0
LINE
  5
105
330
10A
100
AcDbEntity
  8
0
  6
ByBlock
 62
     1
370
    -2
100
AcDbLine
 10
77.16345100000001
 20
112.798989
 30
0.0
 11
100.002853
 21
112.798989
 31
0.0
  0
SOLID
  5
106
330
10A
100
AcDbEntity
  8
0
  6
ByBlock
 62
     1
100
AcDbTrace
 10
75.463451
 20
112.798989
 30
0.0
 11
77.16345100000001
 21
112.5156556666667
 31
0.0
 12
77.16345100000001
 22
113.0823223333333
 32
0.0
 13
77.16345100000001
 23
113.0823223333333
 33
0.0
  0
SOLID
  5
107
330
10A
100
AcDbEntity
  8
0
  6
ByBlock
 62
     1
100
AcDbTrace
 10
101.702853
 20
112.798989
 30
0.0
 11
100.002853
 21
112.5156556666667
 31
0.0
 12
100.002853
 22
113.0823223333333
 32
0.0
 13
100.002853
 23
113.0823223333333
 33
0.0
  0
MTEXT
  5
108
330
10A
100
AcDbEntity
  8
0
  6
ByBlock
 62
     0
370
    -2
100
AcDbMText
 10
88.58315200000001
 20
114.4430885907231
 30
0.0
 40
1.75
 41
0.0
 71
     5
 72
     1
  1
355
  7
H
 73
     1
 44
1.0
  0
ENDBLK
  5
578
330
10A
100
AcDbEntity
  8
0
100
AcDbBlockEnd
  0
BLOCK
  5
579
330
115
100
AcDbEntity
  8
0
100
AcDbBlockBegin
  2
*D2
 70
     1
 10
0.0
 20
0.0
 30
0.0
  3
*D2
  1

  0
POINT
  5
10C
330
115
100
AcDbEntity
  8
DEFPOINTS
  6
ByBlock
 62
     1
100
AcDbPoint
 10
118.451128
 20
109.472206
 30
0.0
  0
POINT
  5
10D
330
115
100
AcDbEntity
  8
DEFPOINTS
  6
ByBlock
 62
     1
100
AcDbPoint
 10
118.451128
 20
92.97464
 30
0.0
  0
LINE
  5
10E
330
115
100
AcDbEntity
  8
0
  6
ByBlock
 62
     1
370
    -2
100
AcDbLine
 10
119.451128
 20
109.472206
 30
0.0
 11
124.119415
 21
109.472206
 31
0.0
  0
LINE
  5
10F
330
115
100
AcDbEntity
  8
0
  6
ByBlock
 62
     1
370
    -2
100
AcDbLine
 10
119.451128
 20
92.97464
 30
0.0
 11
124.119415
 21
92.97464
 31
0.0
  0
LINE
  5
110
330
115
100
AcDbEntity
  8
0
  6
ByBlock
 62
     1
370
    -2
100
AcDbLine
 10
123.819415
 20
107.772206
 30
0.0
 11
123.819415
 21
94.67464
 31
0.0
  0
SOLID
  5
111
330
115
100
AcDbEntity
  8
0
  6
ByBlock
 62
     1
100
AcDbTrace
 10
123.819415
 20
109.472206
 30
0.0
 11
123.5360816666667
 21
107.772206
 31
0.0
 12
124.1027483333333
 22
107.772206
 32
0.0
 13
124.1027483333333
 23
107.772206
 33
0.0
  0
SOLID
  5
112
330
115
100
AcDbEntity
  8
0
  6
ByBlock
 62
     1
100
AcDbTrace
 10
123.819415
 20
92.97464
 30
0.0
 11
123.5360816666667
 21
94.67464
 31
0.0
 12
124.1027483333333
 22
94.67464
 32
0.0
 13
124.1027483333333
 23
94.67464
 33
0.0
  0
MTEXT
  5
113
330
115
100
AcDbEntity
  8
0
  6
ByBlock
 62
     0
370
    -2
100
AcDbMText
 10
122.1759122714871
 20
101.223423
 30
0.0
 40
1.75
 41
0.0
 71
     5
 72
     1
  1
270
  7
H
 11
6.123031769111886E-17
 21
1.0
 31
0.0
 73
     1
 44
1.0
  0
ENDBLK
  5
57A
330
115
100
AcDbEntity
  8
0
100
AcDbBlockEnd
  0
BLOCK
  5
57B
330
120
100
AcDbEntity
  8
0
100
AcDbBlockBegin
  2
*D3
 70
     1
 10
0.0
 20
0.0
 30
0.0
  3
*D3
  1

  0
POINT
  5
117
330
120
100
AcDbEntity
  8
DEFPOINTS
  6
ByBlock
 62
     1
100
AcDbPoint
 10
107.544407
 20
101.223425
 30
0.0
  0
POINT
  5
118
330
120
100
AcDbEntity
  8
DEFPOINTS
  6
ByBlock
 62
     1
100
AcDbPoint
 10
118.726042
 20
108.051583
 30
0.0
  0
LINE
  5
119
330
120
100
AcDbEntity
  8
0
  6
ByBlock
 62
     1
370
    -2
100
AcDbLine
 10
107.544407
 20
102.223425
 30
0.0
 11
107.544407
 21
113.043276
 31
0.0
  0
LINE
  5
11A
330
120
100
AcDbEntity
  8
0
  6
ByBlock
 62
     1
370
    -2
100
AcDbLine
 10
118.726042
 20
109.051583
 30
0.0
 11
118.726042
 21
113.043276
 31
0.0
  0
LINE
  5
11B
330
120
100
AcDbEntity
  8
0
  6
ByBlock
 62
     1
370
    -2
100
AcDbLine
 10
109.244407
 20
112.743276
 30
0.0
 11
117.026042
 21
112.743276
 31
0.0
  0
SOLID
  5
11C
330
120
100
AcDbEntity
  8
0
  6
ByBlock
 62
     1
100
AcDbTrace
 10
107.544407
 20
112.743276
 30
0.0
 11
109.244407
 21
112.4599426666667
 31
0.0
 12
109.244407
 22
113.0266093333333
 32
0.0
 13
109.244407
 23
113.0266093333333
 33
0.0
  0
SOLID
  5
11D
330
120
100
AcDbEntity
  8
0
  6
ByBlock
 62
     1
100
AcDbTrace
 10
118.726042
 20
112.743276
 30
0.0
 11
117.026042
 21
112.4599426666667
 31
0.0
 12
117.026042
 22
113.0266093333333
 32
0.0
 13
117.026042
 23
113.0266093333333
 33
0.0
  0
MTEXT
  5
11E
330
120
100
AcDbEntity
  8
0
  6
ByBlock
 62
     0
370
    -2
100
AcDbMText
 10
113.1352245
 20
114.386778728513
 30
0.0
 40
1.75
 41
0.0
 71
     5
 72
     1
  1
150
  7
H
 73
     1
 44
1.0
  0
ENDBLK
  5
57C
330
120
100
AcDbEntity
  8
0
100
AcDbBlockEnd
  0
BLOCK
  5
57D
330
12B
100
AcDbEntity
  8
0
100
AcDbBlockBegin
  2
*D4
 70
     1
 10
0.0
 20
0.0
 30
0.0
  3
*D4
  1

  0
POINT
  5
122
330
12B
100
AcDbEntity
  8
DEFPOINTS
  6
ByBlock
 62
     1
100
AcDbPoint
 10
76.838248
 20
108.326542
 30
0.0
  0
POINT
  5
123
330
12B
100
AcDbEntity
  8
DEFPOINTS
  6
ByBlock
 62
     1
100
AcDbPoint
 10
76.838248
 20
94.120308
 30
0.0
  0
LINE
  5
124
330
12B
100
AcDbEntity
  8
0
  6
ByBlock
 62
     1
370
    -2
100
AcDbLine
 10
75.838248
 20
108.326542
 30
0.0
 11
70.821805
 21
108.326542
 31
0.0
  0
LINE
  5
125
330
12B
100
AcDbEntity
  8
0
  6
ByBlock
 62
     1
370
    -2
100
AcDbLine
 10
75.838248
 20
94.120308
 30
0.0
 11
70.821805
 21
94.120308
 31
0.0
  0
LINE
  5
126
330
12B
100
AcDbEntity
  8
0
  6
ByBlock
 62
     1
370
    -2
100
AcDbLine
 10
71.121805
 20
106.626542
 30
0.0
 11
71.121805
 21
95.820308
 31
0.0
  0
SOLID
  5
127
330
12B
100
AcDbEntity
  8
0
  6
ByBlock
 62
     1
100
AcDbTrace
 10
71.121805
 20
108.326542
 30
0.0
 11
70.83847166666666
 21
106.626542
 31
0.0
 12
71.40513833333333
 22
106.626542
 32
0.0
 13
71.40513833333333
 23
106.626542
 33
0.0
  0
SOLID
  5
128
330
12B
100
AcDbEntity
  8
0
  6
ByBlock
 62
     1
100
AcDbTrace
 10
71.121805
 20
94.120308
 30
0.0
 11
70.83847166666666
 21
95.820308
 31
0.0
 12
71.40513833333333
 22
95.820308
 32
0.0
 13
71.40513833333333
 23
95.820308
 33
0.0
  0
MTEXT
  5
129
330
12B
100
AcDbEntity
  8
0
  6
ByBlock
 62
     0
370
    -2
100
AcDbMText
 10
69.47770540927695
 20
101.223425
 30
0.0
 40
1.75
 41
0.0
 71
     5
 72
     1
  1
230
  7
H
 11
6.123031769111886E-17
 21
1.0
 31
0.0
 73
     1
 44
1.0
  0
ENDBLK
  5
57E
330
12B
100
AcDbEntity
  8
0
100
AcDbBlockEnd
  0
BLOCK
  5
57F
330
136
100
AcDbEntity
  8
0
100
AcDbBlockBegin
  2
*D5
 70
     1
 10
0.0
 20
0.0
 30
0.0
  3
*D5
  1

  0
POINT
  5
12D
330
136
100
AcDbEntity
  8
DEFPOINTS
  6
ByBlock
 62
     1
100
AcDbPoint
 10
76.647304
 20
108.326542
 30
0.0
  0
POINT
  5
12E
330
136
100
AcDbEntity
  8
DEFPOINTS
  6
ByBlock
 62
     1
100
AcDbPoint
 10
83.690203
 20
87.665023
 30
0.0
  0
LINE
  5
12F
330
136
100
AcDbEntity
  8
0
  6
ByBlock
 62
     1
370
    -2
100
AcDbLine
 10
75.647304
 20
108.326542
 30
0.0
 11
66.874587
 21
108.326542
 31
0.0
  0
LINE
  5
130
330
136
100
AcDbEntity
  8
0
  6
ByBlock
 62
     1
370
    -2
100
AcDbLine
 10
82.690203
 20
87.665023
 30
0.0
 11
66.874587
 21
87.665023
 31
0.0
  0
LINE
  5
131
330
136
100
AcDbEntity
  8
0
  6
ByBlock
 62
     1
370
    -2
100
AcDbLine
 10
67.174587
 20
106.626542
 30
0.0
 11
67.174587
 21
89.36502300000001
 31
0.0
  0
SOLID
  5
132
330
136
100
AcDbEntity
  8
0
  6
ByBlock
 62
     1
100
AcDbTrace
 10
67.174587
 20
108.326542
 30
0.0
 11
66.89125366666667
 21
106.626542
 31
0.0
 12
67.45792033333333
 22
106.626542
 32
0.0
 13
67.45792033333333
 23
106.626542
 33
0.0
  0
SOLID
  5
133
330
136
100
AcDbEntity
  8
0
  6
ByBlock
 62
     1
100
AcDbTrace
 10
67.174587
 20
87.665023
 30
0.0
 11
66.89125366666667
 21
89.36502300000001
 31
0.0
 12
67.45792033333333
 22
89.36502300000001
 32
0.0
 13
67.45792033333333
 23
89.36502300000001
 33
0.0
  0
MTEXT
  5
134
330
136
100
AcDbEntity
  8
0
  6
ByBlock
 62
     0
370
    -2
100
AcDbMText
 10
65.53048740927696
 20
97.9957825
 30
0.0
 40
1.75
 41
0.0
 71
     5
 72
     1
  1
310
  7
H
 11
6.123031769111886E-17
 21
1.0
 31
0.0
 73
     1
 44
1.0
  0
ENDBLK
  5
580
330
136
100
AcDbEntity
  8
0
100
AcDbBlockEnd
  0
BLOCK
  5
581
330
141
100
AcDbEntity
  8
0
100
AcDbBlockBegin
  2
*D6
 70
     1
 10
0.0
 20
0.0
 30
0.0
  3
*D6
  1

  0
POINT
  5
138
330
141
100
AcDbEntity
  8
DEFPOINTS
  6
ByBlock
 62
     1
100
AcDbPoint
 10
197.3031396633473
 20
182.2259861502146
 30
0.0
  0
POINT
  5
139
330
141
100
AcDbEntity
  8
DEFPOINTS
  6
ByBlock
 62
     1
100
AcDbPoint
 10
223.5425416633473
 20
182.2259861502146
 30
0.0
  0
LINE
  5
13A
330
141
100
AcDbEntity
  8
0
  6
ByBlock
 62
     1
370
    -2
100
AcDbLine
 10
197.3031396633473
 20
183.2259861502146
 30
0.0
 11
197.3031396633473
 21
188.3732301502146
 31
0.0
  0
LINE
  5
13B
330
141
100
AcDbEntity
  8
0
  6
ByBlock
 62
     1
370
    -2
100
AcDbLine
 10
223.5425416633473
 20
183.2259861502146
 30
0.0
 11
223.5425416633473
 21
188.3732301502146
 31
0.0
  0
LINE
  5
13C
330
141
100
AcDbEntity
  8
0
  6
ByBlock
 62
     1
370
    -2
100
AcDbLine
 10
199.0031396633472
 20
188.0732301502146
 30
0.0
 11
221.8425416633473
 21
188.0732301502146
 31
0.0
  0
SOLID
  5
13D
330
141
100
AcDbEntity
  8
0
  6
ByBlock
 62
     1
100
AcDbTrace
 10
197.3031396633473
 20
188.0732301502146
 30
0.0
 11
199.0031396633472
 21
187.7898968168813
 31
0.0
 12
199.0031396633472
 22
188.3565634835479
 32
0.0
 13
199.0031396633472
 23
188.3565634835479
 33
0.0
  0
SOLID
  5
13E
330
141
100
AcDbEntity
  8
0
  6
ByBlock
 62
     1
100
AcDbTrace
 10
223.5425416633473
 20
188.0732301502146
 30
0.0
 11
221.8425416633473
 21
187.7898968168813
 31
0.0
 12
221.8425416633473
 22
188.3565634835479
 32
0.0
 13
221.8425416633473
 23
188.3565634835479
 33
0.0
  0
MTEXT
  5
13F
330
141
100
AcDbEntity
  8
0
  6
ByBlock
 62
     0
370
    -2
100
AcDbMText
 10
210.4228406633472
 20
189.7173297409377
 30
0.0
 40
1.75
 41
0.0
 71
     5
 72
     1
  1
355
  7
H
 73
     1
 44
1.0
  0
ENDBLK
  5
582
330
141
100
AcDbEntity
  8
0
100
AcDbBlockEnd
  0
BLOCK
  5
583
330
14C
100
AcDbEntity
  8
0
100
AcDbBlockBegin
  2
*D7
 70
     1
 10
0.0
 20
0.0
 30
0.0
  3
*D7
  1

  0
POINT
  5
143
330
14C
100
AcDbEntity
  8
DEFPOINTS
  6
ByBlock
 62
     1
100
AcDbPoint
 10
198.4869926633473
 20
183.6007831502146
 30
0.0
  0
POINT
  5
144
330
14C
100
AcDbEntity
  8
DEFPOINTS
  6
ByBlock
 62
     1
100
AcDbPoint
 10
205.5298916633473
 20
162.9392641502146
 30
0.0
  0
LINE
  5
145
330
14C
100
AcDbEntity
  8
0
  6
ByBlock
 62
     1
370
    -2
100
AcDbLine
 10
197.4869926633473
 20
183.6007831502146
 30
0.0
 11
188.7142756633472
 21
183.6007831502146
 31
0.0
  0
LINE
  5
146
330
14C
100
AcDbEntity
  8
0
  6
ByBlock
 62
     1
370
    -2
100
AcDbLine
 10
204.5298916633473
 20
162.9392641502146
 30
0.0
 11
188.7142756633472
 21
162.9392641502146
 31
0.0
  0
LINE
  5
147
330
14C
100
AcDbEntity
  8
0
  6
ByBlock
 62
     1
370
    -2
100
AcDbLine
 10
189.0142756633472
 20
181.9007831502146
 30
0.0
 11
189.0142756633472
 21
164.6392641502146
 31
0.0
  0
SOLID
  5
148
330
14C
100
AcDbEntity
  8
0
  6
ByBlock
 62
     1
100
AcDbTrace
 10
189.0142756633472
 20
183.6007831502146
 30
0.0
 11
188.7309423300139
 21
181.9007831502146
 31
0.0
 12
189.2976089966806
 22
181.9007831502146
 32
0.0
 13
189.2976089966806
 23
181.9007831502146
 33
0.0
  0
SOLID
  5
149
330
14C
100
AcDbEntity
  8
0
  6
ByBlock
 62
     1
100
AcDbTrace
 10
189.0142756633472
 20
162.9392641502146
 30
0.0
 11
188.7309423300139
 21
164.6392641502146
 31
0.0
 12
189.2976089966806
 22
164.6392641502146
 32
0.0
 13
189.2976089966806
 23
164.6392641502146
 33
0.0
  0
MTEXT
  5
14A
330
14C
100
AcDbEntity
  8
0
  6
ByBlock
 62
     0
370
    -2
100
AcDbMText
 10
187.3701760726242
 20
173.2700236502146
 30
0.0
 40
1.75
 41
0.0
 71
     5
 72
     1
  1
310
  7
H
 11
6.123031769111886E-17
 21
1.0
 31
0.0
 73
     1
 44
1.0
  0
ENDBLK
  5
584
330
14C
100
AcDbEntity
  8
0
100
AcDbBlockEnd
  0
BLOCK
  5
585
330
157
100
AcDbEntity
  8
0
100
AcDbBlockBegin
  2
*D8
 70
     1
 10
0.0
 20
0.0
 30
0.0
  3
*D8
  1

  0
POINT
  5
14E
330
157
100
AcDbEntity
  8
DEFPOINTS
  6
ByBlock
 62
     1
100
AcDbPoint
 10
198.6779366633472
 20
183.6007831502146
 30
0.0
  0
POINT
  5
14F
330
157
100
AcDbEntity
  8
DEFPOINTS
  6
ByBlock
 62
     1
100
AcDbPoint
 10
198.6779366633472
 20
169.3945491502146
 30
0.0
  0
LINE
  5
150
330
157
100
AcDbEntity
  8
0
  6
ByBlock
 62
     1
370
    -2
100
AcDbLine
 10
197.6779366633472
 20
183.6007831502146
 30
0.0
 11
192.6614936633472
 21
183.6007831502146
 31
0.0
  0
LINE
  5
151
330
157
100
AcDbEntity
  8
0
  6
ByBlock
 62
     1
370
    -2
100
AcDbLine
 10
197.6779366633472
 20
169.3945491502146
 30
0.0
 11
192.6614936633472
 21
169.3945491502146
 31
0.0
  0
LINE
  5
152
330
157
100
AcDbEntity
  8
0
  6
ByBlock
 62
     1
370
    -2
100
AcDbLine
 10
192.9614936633473
 20
181.9007831502146
 30
0.0
 11
192.9614936633473
 21
171.0945491502146
 31
0.0
  0
SOLID
  5
153
330
157
100
AcDbEntity
  8
0
  6
ByBlock
 62
     1
100
AcDbTrace
 10
192.9614936633473
 20
183.6007831502146
 30
0.0
 11
192.6781603300139
 21
181.9007831502146
 31
0.0
 12
193.2448269966806
 22
181.9007831502146
 32
0.0
 13
193.2448269966806
 23
181.9007831502146
 33
0.0
  0
SOLID
  5
154
330
157
100
AcDbEntity
  8
0
  6
ByBlock
 62
     1
100
AcDbTrace
 10
192.9614936633473
 20
169.3945491502146
 30
0.0
 11
192.6781603300139
 21
171.0945491502146
 31
0.0
 12
193.2448269966806
 22
171.0945491502146
 32
0.0
 13
193.2448269966806
 23
171.0945491502146
 33
0.0
  0
MTEXT
  5
155
330
157
100
AcDbEntity
  8
0
  6
ByBlock
 62
     0
370
    -2
100
AcDbMText
 10
191.3173940726242
 20
176.4976661502146
 30
0.0
 40
1.75
 41
0.0
 71
     5
 72
     1
  1
230
  7
H
 11
6.123031769111886E-17
 21
1.0
 31
0.0
 73
     1
 44
1.0
  0
ENDBLK
  5
586
330
157
100
AcDbEntity
  8
0
100
AcDbBlockEnd
  0
BLOCK
  5
587
330
162
100
AcDbEntity
  8
0
100
AcDbBlockBegin
  2
*D9
 70
     1
 10
0.0
 20
0.0
 30
0.0
  3
*D9
  1

  0
POINT
  5
159
330
162
100
AcDbEntity
  8
DEFPOINTS
  6
ByBlock
 62
     1
100
AcDbPoint
 10
229.3840956633472
 20
176.4976661502146
 30
0.0
  0
POINT
  5
15A
330
162
100
AcDbEntity
  8
DEFPOINTS
  6
ByBlock
 62
     1
100
AcDbPoint
 10
240.5657306633473
 20
183.3258241502146
 30
0.0
  0
LINE
  5
15B
330
162
100
AcDbEntity
  8
0
  6
ByBlock
 62
     1
370
    -2
100
AcDbLine
 10
229.3840956633472
 20
177.4976661502146
 30
0.0
 11
229.3840956633472
 21
188.3175171502146
 31
0.0
  0
LINE
  5
15C
330
162
100
AcDbEntity
  8
0
  6
ByBlock
 62
     1
370
    -2
100
AcDbLine
 10
240.5657306633473
 20
184.3258241502146
 30
0.0
 11
240.5657306633473
 21
188.3175171502146
 31
0.0
  0
LINE
  5
15D
330
162
100
AcDbEntity
  8
0
  6
ByBlock
 62
     1
370
    -2
100
AcDbLine
 10
231.0840956633472
 20
188.0175171502146
 30
0.0
 11
238.8657306633473
 21
188.0175171502146
 31
0.0
  0
SOLID
  5
15E
330
162
100
AcDbEntity
  8
0
  6
ByBlock
 62
     1
100
AcDbTrace
 10
229.3840956633472
 20
188.0175171502146
 30
0.0
 11
231.0840956633472
 21
187.7341838168813
 31
0.0
 12
231.0840956633472
 22
188.3008504835479
 32
0.0
 13
231.0840956633472
 23
188.3008504835479
 33
0.0
  0
SOLID
  5
15F
330
162
100
AcDbEntity
  8
0
  6
ByBlock
 62
     1
100
AcDbTrace
 10
240.5657306633473
 20
188.0175171502146
 30
0.0
 11
238.8657306633473
 21
187.7341838168813
 31
0.0
 12
238.8657306633473
 22
188.3008504835479
 32
0.0
 13
238.8657306633473
 23
188.3008504835479
 33
0.0
  0
MTEXT
  5
160
330
162
100
AcDbEntity
  8
0
  6
ByBlock
 62
     0
370
    -2
100
AcDbMText
 10
234.9749131633473
 20
189.6610198787275
 30
0.0
 40
1.75
 41
0.0
 71
     5
 72
     1
  1
150
  7
H
 73
     1
 44
1.0
  0
ENDBLK
  5
588
330
162
100
AcDbEntity
  8
0
100
AcDbBlockEnd
  0
BLOCK
  5
589
330
16D
100
AcDbEntity
  8
0
100
AcDbBlockBegin
  2
*D10
 70
     1
 10
0.0
 20
0.0
 30
0.0
  3
*D10
  1

  0
POINT
  5
164
330
16D
100
AcDbEntity
  8
DEFPOINTS
  6
ByBlock
 62
     1
100
AcDbPoint
 10
240.2908166633472
 20
184.7464471502146
 30
0.0
  0
POINT
  5
165
330
16D
100
AcDbEntity
  8
DEFPOINTS
  6
ByBlock
 62
     1
100
AcDbPoint
 10
240.2908166633472
 20
168.2488811502146
 30
0.0
  0
LINE
  5
166
330
16D
100
AcDbEntity
  8
0
  6
ByBlock
 62
     1
370
    -2
100
AcDbLine
 10
241.2908166633472
 20
184.7464471502146
 30
0.0
 11
245.9591036633473
 21
184.7464471502146
 31
0.0
  0
LINE
  5
167
330
16D
100
AcDbEntity
  8
0
  6
ByBlock
 62
     1
370
    -2
100
AcDbLine
 10
241.2908166633472
 20
168.2488811502146
 30
0.0
 11
245.9591036633473
 21
168.2488811502146
 31
0.0
  0
LINE
  5
168
330
16D
100
AcDbEntity
  8
0
  6
ByBlock
 62
     1
370
    -2
100
AcDbLine
 10
245.6591036633473
 20
183.0464471502146
 30
0.0
 11
245.6591036633473
 21
169.9488811502146
 31
0.0
  0
SOLID
  5
169
330
16D
100
AcDbEntity
  8
0
  6
ByBlock
 62
     1
100
AcDbTrace
 10
245.6591036633473
 20
184.7464471502146
 30
0.0
 11
245.3757703300139
 21
183.0464471502146
 31
0.0
 12
245.9424369966806
 22
183.0464471502146
 32
0.0
 13
245.9424369966806
 23
183.0464471502146
 33
0.0
  0
SOLID
  5
16A
330
16D
100
AcDbEntity
  8
0
  6
ByBlock
 62
     1
100
AcDbTrace
 10
245.6591036633473
 20
168.2488811502146
 30
0.0
 11
245.3757703300139
 21
169.9488811502146
 31
0.0
 12
245.9424369966806
 22
169.9488811502146
 32
0.0
 13
245.9424369966806
 23
169.9488811502146
 33
0.0
  0
MTEXT
  5
16B
330
16D
100
AcDbEntity
  8
0
  6
ByBlock
 62
     0
370
    -2
100
AcDbMText
 10
244.0156009348343
 20
176.4976641502146
 30
0.0
 40
1.75
 41
0.0
 71
     5
 72
     1
  1
270
  7
H
 11
6.123031769111886E-17
 21
1.0
 31
0.0
 73
     1
 44
1.0
  0
ENDBLK
  5
58A
330
16D
100
AcDbEntity
  8
0
100
AcDbBlockEnd
  0
BLOCK
  5
58B
330
178
100
AcDbEntity
  8
0
100
AcDbBlockBegin
  2
*D11
 70
     1
 10
0.0
 20
0.0
 30
0.0
  3
*D11
  1

  0
POINT
  5
16F
330
178
100
AcDbEntity
  8
DEFPOINTS
  6
ByBlock
 62
     0
100
AcDbPoint
 10
197.3031396633473
 20
185.7996081502146
 30
0.0
  0
POINT
  5
170
330
178
100
AcDbEntity
  8
DEFPOINTS
  6
ByBlock
 62
     0
100
AcDbPoint
 10
223.5425416633473
 20
185.7996081502146
 30
0.0
  0
LINE
  5
171
330
178
100
AcDbEntity
  8
0
  6
ByBlock
 62
     0
370
    -2
100
AcDbLine
 10
197.3031396633473
 20
186.4246081502146
 30
0.0
 11
197.3031396633473
 21
194.0802300580069
 31
0.0
  0
LINE
  5
172
330
178
100
AcDbEntity
  8
0
  6
ByBlock
 62
     0
370
    -2
100
AcDbLine
 10
223.5425416633473
 20
186.4246081502146
 30
0.0
 11
223.5425416633473
 21
194.0802300580069
 31
0.0
  0
LINE
  5
173
330
178
100
AcDbEntity
  8
0
  6
ByBlock
 62
     0
370
    -2
100
AcDbLine
 10
199.8031396633473
 20
192.8302300580069
 30
0.0
 11
221.0425416633473
 21
192.8302300580069
 31
0.0
  0
SOLID
  5
174
330
178
100
AcDbEntity
  8
0
  6
ByBlock
 62
     0
100
AcDbTrace
 10
197.3031396633473
 20
192.8302300580069
 30
0.0
 11
199.8031396633473
 21
192.4135633913402
 31
0.0
 12
199.8031396633473
 22
193.2468967246735
 32
0.0
 13
199.8031396633473
 23
193.2468967246735
 33
0.0
  0
SOLID
  5
175
330
178
100
AcDbEntity
  8
0
  6
ByBlock
 62
     0
100
AcDbTrace
 10
223.5425416633473
 20
192.8302300580069
 30
0.0
 11
221.0425416633473
 21
192.4135633913402
 31
0.0
 12
221.0425416633473
 22
193.2468967246735
 32
0.0
 13
221.0425416633473
 23
193.2468967246735
 33
0.0
  0
MTEXT
  5
176
330
178
100
AcDbEntity
  8
0
  6
ByBlock
 62
     0
370
    -2
100
AcDbMText
 10
210.4228406633472
 20
194.9135633913402
 30
0.0
 40
2.5
 41
0.0
 71
     5
 72
     1
  1
\A1;26,24
 73
     1
 44
1.0
  0
ENDBLK
  5
58C
330
178
100
AcDbEntity
  8
0
100
AcDbBlockEnd
  0
BLOCK
  5
58D
330
183
100
AcDbEntity
  8
0
100
AcDbBlockBegin
  2
*D12
 70
     1
 10
0.0
 20
0.0
 30
0.0
  3
*D12
  1

  0
POINT
  5
17A
330
183
100
AcDbEntity
  8
DEFPOINTS
  6
ByBlock
 62
     0
100
AcDbPoint
 10
191.1099247516877
 20
183.6007831502146
 30
0.0
  0
POINT
  5
17B
330
183
100
AcDbEntity
  8
DEFPOINTS
  6
ByBlock
 62
     0
100
AcDbPoint
 10
191.1099247516877
 20
162.9392641502146
 30
0.0
  0
LINE
  5
17C
330
183
100
AcDbEntity
  8
0
  6
ByBlock
 62
     0
370
    -2
100
AcDbLine
 10
190.4849247516877
 20
183.6007831502146
 30
0.0
 11
182.6356225358309
 21
183.6007831502146
 31
0.0
  0
LINE
  5
17D
330
183
100
AcDbEntity
  8
0
  6
ByBlock
 62
     0
370
    -2
100
AcDbLine
 10
190.4849247516877
 20
162.9392641502146
 30
0.0
 11
182.6356225358309
 21
162.9392641502146
 31
0.0
  0
LINE
  5
17E
330
183
100
AcDbEntity
  8
0
  6
ByBlock
 62
     0
370
    -2
100
AcDbLine
 10
183.8856225358309
 20
181.1007831502146
 30
0.0
 11
183.8856225358309
 21
165.4392641502146
 31
0.0
  0
SOLID
  5
17F
330
183
100
AcDbEntity
  8
0
  6
ByBlock
 62
     0
100
AcDbTrace
 10
183.8856225358309
 20
183.6007831502146
 30
0.0
 11
183.4689558691642
 21
181.1007831502146
 31
0.0
 12
184.3022892024975
 22
181.1007831502146
 32
0.0
 13
184.3022892024975
 23
181.1007831502146
 33
0.0
  0
SOLID
  5
180
330
183
100
AcDbEntity
  8
0
  6
ByBlock
 62
     0
100
AcDbTrace
 10
183.8856225358309
 20
162.9392641502146
 30
0.0
 11
183.4689558691642
 21
165.4392641502146
 31
0.0
 12
184.3022892024975
 22
165.4392641502146
 32
0.0
 13
184.3022892024975
 23
165.4392641502146
 33
0.0
  0
MTEXT
  5
181
330
183
100
AcDbEntity
  8
0
  6
ByBlock
 62
     0
370
    -2
100
AcDbMText
 10
181.8022892024975
 20
173.2700236502146
 30
0.0
 40
2.5
 41
0.0
 71
     5
 72
     1
  1
\A1;20,66
 11
6.123031769111886E-17
 21
1.0
 31
0.0
 73
     1
 44
1.0
  0
ENDBLK
  5
58E
330
183
100
AcDbEntity
  8
0
100
AcDbBlockEnd
  0
BLOCK
  5
58F
330
248
100
AcDbEntity
  8
0
100
AcDbBlockBegin
  2
*D13
 70
     1
 10
0.0
 20
0.0
 30
0.0
  3
*D13
  1

  0
POINT
  5
23F
330
248
100
AcDbEntity
  8
DEFPOINTS
  6
ByBlock
 62
     1
380
     1
100
AcDbPoint
 10
2669.511479645089
 20
2733.389792253219
 30
0.0
  0
POINT
  5
240
330
248
100
AcDbEntity
  8
DEFPOINTS
  6
ByBlock
 62
     1
380
     1
100
AcDbPoint
 10
3024.530588705089
 20
2733.389792253219
 30
0.0
  0
LINE
  5
241
330
248
100
AcDbEntity
  8
0
  6
ByBlock
 62
     1
370
    -2
380
     1
100
AcDbLine
 10
2669.511479645089
 20
2734.389792253219
 30
0.0
 11
2669.511479645089
 21
2821.398452253219
 31
0.0
  0
LINE
  5
242
330
248
100
AcDbEntity
  8
0
  6
ByBlock
 62
     1
370
    -2
380
     1
100
AcDbLine
 10
3024.530588705089
 20
2734.389792253219
 30
0.0
 11
3024.530588705089
 21
2821.398452253219
 31
0.0
  0
LINE
  5
243
330
248
100
AcDbEntity
  8
0
  6
ByBlock
 62
     1
370
    -2
380
     1
100
AcDbLine
 10
2671.211479645089
 20
2821.098452253219
 30
0.0
 11
3022.830588705089
 21
2821.098452253219
 31
0.0
  0
SOLID
  5
244
330
248
100
AcDbEntity
  8
0
  6
ByBlock
 62
     1
380
     1
100
AcDbTrace
 10
2669.511479645089
 20
2821.098452253219
 30
0.0
 11
2671.211479645089
 21
2820.815118919886
 31
0.0
 12
2671.211479645089
 22
2821.381785586552
 32
0.0
 13
2671.211479645089
 23
2821.381785586552
 33
0.0
  0
SOLID
  5
245
330
248
100
AcDbEntity
  8
0
  6
ByBlock
 62
     1
380
     1
100
AcDbTrace
 10
3024.530588705089
 20
2821.098452253219
 30
0.0
 11
3022.830588705089
 21
2820.815118919886
 31
0.0
 12
3022.830588705089
 22
2821.381785586552
 32
0.0
 13
3022.830588705089
 23
2821.381785586552
 33
0.0
  0
MTEXT
  5
246
330
248
100
AcDbEntity
  8
0
  6
ByBlock
 62
     0
370
    -2
380
     1
100
AcDbMText
 10
2847.021034175089
 20
2822.742551843942
 30
0.0
 40
1.75
 41
0.0
 71
     5
 72
     1
  1
355
  7
H
 73
     1
 44
1.0
  0
ENDBLK
  5
590
330
248
100
AcDbEntity
  8
0
100
AcDbBlockEnd
  0
BLOCK
  5
591
330
25B
100
AcDbEntity
  8
0
100
AcDbBlockBegin
  2
*D14
 70
     1
 10
0.0
 20
0.0
 30
0.0
  3
*D14
  1

  0
POINT
  5
252
330
25B
100
AcDbEntity
  8
DEFPOINTS
  6
ByBlock
 62
     1
380
     1
100
AcDbPoint
 10
2685.529010735089
 20
2754.011747253219
 30
0.0
  0
POINT
  5
253
330
25B
100
AcDbEntity
  8
DEFPOINTS
  6
ByBlock
 62
     1
380
     1
100
AcDbPoint
 10
2780.819434205089
 20
2444.088962253219
 30
0.0
  0
LINE
  5
254
330
25B
100
AcDbEntity
  8
0
  6
ByBlock
 62
     1
370
    -2
380
     1
100
AcDbLine
 10
2684.529010735089
 20
2754.011747253219
 30
0.0
 11
2557.063149725087
 21
2754.011747253219
 31
0.0
  0
LINE
  5
255
330
25B
100
AcDbEntity
  8
0
  6
ByBlock
 62
     1
370
    -2
380
     1
100
AcDbLine
 10
2779.819434205089
 20
2444.088962253219
 30
0.0
 11
2557.063149725087
 21
2444.088962253219
 31
0.0
  0
LINE
  5
256
330
25B
100
AcDbEntity
  8
0
  6
ByBlock
 62
     1
370
    -2
380
     1
100
AcDbLine
 10
2557.363149725088
 20
2752.311747253219
 30
0.0
 11
2557.363149725088
 21
2445.788962253219
 31
0.0
  0
SOLID
  5
257
330
25B
100
AcDbEntity
  8
0
  6
ByBlock
 62
     1
380
     1
100
AcDbTrace
 10
2557.363149725088
 20
2754.011747253219
 30
0.0
 11
2557.079816391754
 21
2752.311747253219
 31
0.0
 12
2557.646483058421
 22
2752.311747253219
 32
0.0
 13
2557.646483058421
 23
2752.311747253219
 33
0.0
  0
SOLID
  5
258
330
25B
100
AcDbEntity
  8
0
  6
ByBlock
 62
     1
380
     1
100
AcDbTrace
 10
2557.363149725088
 20
2444.088962253219
 30
0.0
 11
2557.079816391754
 21
2445.788962253219
 31
0.0
 12
2557.646483058421
 22
2445.788962253219
 32
0.0
 13
2557.646483058421
 23
2445.788962253219
 33
0.0
  0
MTEXT
  5
259
330
25B
100
AcDbEntity
  8
0
  6
ByBlock
 62
     0
370
    -2
380
     1
100
AcDbMText
 10
2555.719050134365
 20
2599.050354753219
 30
0.0
 40
1.75
 41
0.0
 71
     5
 72
     1
  1
310
  7
H
 11
6.123031769111886E-17
 21
1.0
 31
0.0
 73
     1
 44
1.0
  0
ENDBLK
  5
592
330
25B
100
AcDbEntity
  8
0
100
AcDbBlockEnd
  0
BLOCK
  5
593
330
26A
100
AcDbEntity
  8
0
100
AcDbBlockBegin
  2
*D15
 70
     1
 10
0.0
 20
0.0
 30
0.0
  3
*D15
  1

  0
POINT
  5
261
330
26A
100
AcDbEntity
  8
DEFPOINTS
  6
ByBlock
 62
     1
380
     1
100
AcDbPoint
 10
2688.112483055088
 20
2754.011747253219
 30
0.0
  0
POINT
  5
262
330
26A
100
AcDbEntity
  8
DEFPOINTS
  6
ByBlock
 62
     1
380
     1
100
AcDbPoint
 10
2688.112483055088
 20
2540.918237253219
 30
0.0
  0
LINE
  5
263
330
26A
100
AcDbEntity
  8
0
  6
ByBlock
 62
     1
370
    -2
380
     1
100
AcDbLine
 10
2687.112483055088
 20
2754.011747253219
 30
0.0
 11
2610.469009265089
 21
2754.011747253219
 31
0.0
  0
LINE
  5
264
330
26A
100
AcDbEntity
  8
0
  6
ByBlock
 62
     1
370
    -2
380
     1
100
AcDbLine
 10
2687.112483055088
 20
2540.918237253219
 30
0.0
 11
2610.469009265089
 21
2540.918237253219
 31
0.0
  0
LINE
  5
265
330
26A
100
AcDbEntity
  8
0
  6
ByBlock
 62
     1
370
    -2
380
     1
100
AcDbLine
 10
2610.769009265089
 20
2752.311747253219
 30
0.0
 11
2610.769009265089
 21
2542.618237253219
 31
0.0
  0
SOLID
  5
266
330
26A
100
AcDbEntity
  8
0
  6
ByBlock
 62
     1
380
     1
100
AcDbTrace
 10
2610.769009265089
 20
2754.011747253219
 30
0.0
 11
2610.485675931756
 21
2752.311747253219
 31
0.0
 12
2611.052342598422
 22
2752.311747253219
 32
0.0
 13
2611.052342598422
 23
2752.311747253219
 33
0.0
  0
SOLID
  5
267
330
26A
100
AcDbEntity
  8
0
  6
ByBlock
 62
     1
380
     1
100
AcDbTrace
 10
2610.769009265089
 20
2540.918237253219
 30
0.0
 11
2610.485675931756
 21
2542.618237253219
 31
0.0
 12
2611.052342598422
 22
2542.618237253219
 32
0.0
 13
2611.052342598422
 23
2542.618237253219
 33
0.0
  0
MTEXT
  5
268
330
26A
100
AcDbEntity
  8
0
  6
ByBlock
 62
     0
370
    -2
380
     1
100
AcDbMText
 10
2609.124909674366
 20
2647.464992253219
 30
0.0
 40
1.75
 41
0.0
 71
     5
 72
     1
  1
230
  7
H
 11
6.123031769111886E-17
 21
1.0
 31
0.0
 73
     1
 44
1.0
  0
ENDBLK
  5
594
330
26A
100
AcDbEntity
  8
0
100
AcDbBlockEnd
  0
BLOCK
  5
595
330
2DC
100
AcDbEntity
  8
0
100
AcDbBlockBegin
  2
*D16
 70
     1
 10
0.0
 20
0.0
 30
0.0
  3
*D16
  1

  0
POINT
  5
2D3
330
2DC
100
AcDbEntity
  8
DEFPOINTS
  6
ByBlock
 62
     1
380
     1
100
AcDbPoint
 10
3103.566814325088
 20
2647.464992253219
 30
0.0
  0
POINT
  5
2D4
330
2DC
100
AcDbEntity
  8
DEFPOINTS
  6
ByBlock
 62
     1
380
     1
100
AcDbPoint
 10
3254.854335875089
 20
2749.887362253219
 30
0.0
  0
LINE
  5
2D5
330
2DC
100
AcDbEntity
  8
0
  6
ByBlock
 62
     1
370
    -2
380
     1
100
AcDbLine
 10
3103.566814325088
 20
2648.464992253219
 30
0.0
 11
3103.566814325088
 21
2820.562757253219
 31
0.0
  0
LINE
  5
2D6
330
2DC
100
AcDbEntity
  8
0
  6
ByBlock
 62
     1
370
    -2
380
     1
100
AcDbLine
 10
3254.854335875089
 20
2750.887362253219
 30
0.0
 11
3254.854335875089
 21
2820.562757253219
 31
0.0
  0
LINE
  5
2D7
330
2DC
100
AcDbEntity
  8
0
  6
ByBlock
 62
     1
370
    -2
380
     1
100
AcDbLine
 10
3105.266814325088
 20
2820.262757253219
 30
0.0
 11
3253.154335875089
 21
2820.262757253219
 31
0.0
  0
SOLID
  5
2D8
330
2DC
100
AcDbEntity
  8
0
  6
ByBlock
 62
     1
380
     1
100
AcDbTrace
 10
3103.566814325088
 20
2820.262757253219
 30
0.0
 11
3105.266814325088
 21
2819.979423919885
 31
0.0
 12
3105.266814325088
 22
2820.546090586552
 32
0.0
 13
3105.266814325088
 23
2820.546090586552
 33
0.0
  0
SOLID
  5
2D9
330
2DC
100
AcDbEntity
  8
0
  6
ByBlock
 62
     1
380
     1
100
AcDbTrace
 10
3254.854335875089
 20
2820.262757253219
 30
0.0
 11
3253.154335875089
 21
2819.979423919885
 31
0.0
 12
3253.154335875089
 22
2820.546090586552
 32
0.0
 13
3253.154335875089
 23
2820.546090586552
 33
0.0
  0
MTEXT
  5
2DA
330
2DC
100
AcDbEntity
  8
0
  6
ByBlock
 62
     0
370
    -2
380
     1
100
AcDbMText
 10
3179.210575100088
 20
2821.906259981732
 30
0.0
 40
1.75
 41
0.0
 71
     5
 72
     1
  1
150
  7
H
 73
     1
 44
1.0
  0
ENDBLK
  5
596
330
2DC
100
AcDbEntity
  8
0
100
AcDbBlockEnd
  0
BLOCK
  5
597
330
2E8
100
AcDbEntity
  8
0
100
AcDbBlockBegin
  2
*D17
 70
     1
 10
0.0
 20
0.0
 30
0.0
  3
*D17
  1

  0
POINT
  5
2DF
330
2E8
100
AcDbEntity
  8
DEFPOINTS
  6
ByBlock
 62
     1
380
     1
100
AcDbPoint
 10
3251.134749455087
 20
2771.196707253219
 30
0.0
  0
POINT
  5
2E0
330
2E8
100
AcDbEntity
  8
DEFPOINTS
  6
ByBlock
 62
     1
380
     1
100
AcDbPoint
 10
3251.134749455087
 20
2523.733217253219
 30
0.0
  0
LINE
  5
2E1
330
2E8
100
AcDbEntity
  8
0
  6
ByBlock
 62
     1
370
    -2
380
     1
100
AcDbLine
 10
3252.134749455087
 20
2771.196707253219
 30
0.0
 11
3324.067672565089
 21
2771.196707253219
 31
0.0
  0
LINE
  5
2E2
330
2E8
100
AcDbEntity
  8
0
  6
ByBlock
 62
     1
370
    -2
380
     1
100
AcDbLine
 10
3252.134749455087
 20
2523.733217253219
 30
0.0
 11
3324.067672565089
 21
2523.733217253219
 31
0.0
  0
LINE
  5
2E3
330
2E8
100
AcDbEntity
  8
0
  6
ByBlock
 62
     1
370
    -2
380
     1
100
AcDbLine
 10
3323.767672565089
 20
2769.496707253219
 30
0.0
 11
3323.767672565089
 21
2525.433217253219
 31
0.0
  0
SOLID
  5
2E4
330
2E8
100
AcDbEntity
  8
0
  6
ByBlock
 62
     1
380
     1
100
AcDbTrace
 10
3323.767672565089
 20
2771.196707253219
 30
0.0
 11
3323.484339231756
 21
2769.496707253219
 31
0.0
 12
3324.051005898422
 22
2769.496707253219
 32
0.0
 13
3324.051005898422
 23
2769.496707253219
 33
0.0
  0
SOLID
  5
2E5
330
2E8
100
AcDbEntity
  8
0
  6
ByBlock
 62
     1
380
     1
100
AcDbTrace
 10
3323.767672565089
 20
2523.733217253219
 30
0.0
 11
3323.484339231756
 21
2525.433217253219
 31
0.0
 12
3324.051005898422
 22
2525.433217253219
 32
0.0
 13
3324.051005898422
 23
2525.433217253219
 33
0.0
  0
MTEXT
  5
2E6
330
2E8
100
AcDbEntity
  8
0
  6
ByBlock
 62
     0
370
    -2
380
     1
100
AcDbMText
 10
3322.124169836576
 20
2647.464962253219
 30
0.0
 40
1.75
 41
0.0
 71
     5
 72
     1
  1
270
  7
H
 11
6.123031769111886E-17
 21
1.0
 31
0.0
 73
     1
 44
1.0
  0
ENDBLK
  5
598
330
2E8
100
AcDbEntity
  8
0
100
AcDbBlockEnd
  0
BLOCK
  5
599
330
32F
100
AcDbEntity
  8
0
100
AcDbBlockBegin
  2
*D18
 70
     1
 10
0.0
 20
0.0
 30
0.0
  3
*D18
  1

  0
POINT
  5
326
330
32F
100
AcDbEntity
  8
DEFPOINTS
  6
ByBlock
 62
     0
380
     1
100
AcDbPoint
 10
2669.511479645089
 20
2786.994122253219
 30
0.0
  0
POINT
  5
327
330
32F
100
AcDbEntity
  8
DEFPOINTS
  6
ByBlock
 62
     0
380
     1
100
AcDbPoint
 10
3024.530588705089
 20
2786.994122253219
 30
0.0
  0
LINE
  5
328
330
32F
100
AcDbEntity
  8
0
  6
ByBlock
 62
     0
370
    -2
380
     1
100
AcDbLine
 10
2669.511479645089
 20
2787.619122253219
 30
0.0
 11
2669.511479645089
 21
2893.703450870104
 31
0.0
  0
LINE
  5
329
330
32F
100
AcDbEntity
  8
0
  6
ByBlock
 62
     0
370
    -2
380
     1
100
AcDbLine
 10
3024.530588705089
 20
2787.619122253219
 30
0.0
 11
3024.530588705089
 21
2893.703450870104
 31
0.0
  0
LINE
  5
32A
330
32F
100
AcDbEntity
  8
0
  6
ByBlock
 62
     0
370
    -2
380
     1
100
AcDbLine
 10
2672.011479645089
 20
2892.453450870104
 30
0.0
 11
3022.030588705089
 21
2892.453450870104
 31
0.0
  0
SOLID
  5
32B
330
32F
100
AcDbEntity
  8
0
  6
ByBlock
 62
     0
380
     1
100
AcDbTrace
 10
2669.511479645089
 20
2892.453450870104
 30
0.0
 11
2672.011479645089
 21
2892.036784203437
 31
0.0
 12
2672.011479645089
 22
2892.87011753677
 32
0.0
 13
2672.011479645089
 23
2892.87011753677
 33
0.0
  0
SOLID
  5
32C
330
32F
100
AcDbEntity
  8
0
  6
ByBlock
 62
     0
380
     1
100
AcDbTrace
 10
3024.530588705089
 20
2892.453450870104
 30
0.0
 11
3022.030588705089
 21
2892.036784203437
 31
0.0
 12
3022.030588705089
 22
2892.87011753677
 32
0.0
 13
3022.030588705089
 23
2892.87011753677
 33
0.0
  0
MTEXT
  5
32D
330
32F
100
AcDbEntity
  8
0
  6
ByBlock
 62
     0
370
    -2
380
     1
100
AcDbMText
 10
2847.021034175089
 20
2894.536784203437
 30
0.0
 40
2.5
 41
0.0
 71
     5
 72
     1
  1
\A1;355,02
 73
     1
 44
1.0
  0
ENDBLK
  5
59A
330
32F
100
AcDbEntity
  8
0
100
AcDbBlockEnd
  0
BLOCK
  5
59B
330
33B
100
AcDbEntity
  8
0
100
AcDbBlockBegin
  2
*D19
 70
     1
 10
0.0
 20
0.0
 30
0.0
  3
*D19
  1

  0
POINT
  5
332
330
33B
100
AcDbEntity
  8
DEFPOINTS
  6
ByBlock
 62
     0
380
     1
100
AcDbPoint
 10
2585.717281890335
 20
2754.011747253219
 30
0.0
  0
POINT
  5
333
330
33B
100
AcDbEntity
  8
DEFPOINTS
  6
ByBlock
 62
     0
380
     1
100
AcDbPoint
 10
2585.717281890335
 20
2444.088962253219
 30
0.0
  0
LINE
  5
334
330
33B
100
AcDbEntity
  8
0
  6
ByBlock
 62
     0
370
    -2
380
     1
100
AcDbLine
 10
2585.092281890335
 20
2754.011747253219
 30
0.0
 11
2486.722472909792
 21
2754.011747253219
 31
0.0
  0
LINE
  5
335
330
33B
100
AcDbEntity
  8
0
  6
ByBlock
 62
     0
370
    -2
380
     1
100
AcDbLine
 10
2585.092281890335
 20
2444.088962253219
 30
0.0
 11
2486.722472909792
 21
2444.088962253219
 31
0.0
  0
LINE
  5
336
330
33B
100
AcDbEntity
  8
0
  6
ByBlock
 62
     0
370
    -2
380
     1
100
AcDbLine
 10
2487.972472909792
 20
2751.511747253219
 30
0.0
 11
2487.972472909792
 21
2446.588962253219
 31
0.0
  0
SOLID
  5
337
330
33B
100
AcDbEntity
  8
0
  6
ByBlock
 62
     0
380
     1
100
AcDbTrace
 10
2487.972472909792
 20
2754.011747253219
 30
0.0
 11
2487.555806243126
 21
2751.511747253219
 31
0.0
 12
2488.389139576459
 22
2751.511747253219
 32
0.0
 13
2488.389139576459
 23
2751.511747253219
 33
0.0
  0
SOLID
  5
338
330
33B
100
AcDbEntity
  8
0
  6
ByBlock
 62
     0
380
     1
100
AcDbTrace
 10
2487.972472909792
 20
2444.088962253219
 30
0.0
 11
2487.555806243126
 21
2446.588962253219
 31
0.0
 12
2488.389139576459
 22
2446.588962253219
 32
0.0
 13
2488.389139576459
 23
2446.588962253219
 33
0.0
  0
MTEXT
  5
339
330
33B
100
AcDbEntity
  8
0
  6
ByBlock
 62
     0
370
    -2
380
     1
100
AcDbMText
 10
2485.889139576459
 20
2599.050354753219
 30
0.0
 40
2.5
 41
0.0
 71
     5
 72
     1
  1
\A1;309,92
 11
6.123031769111886E-17
 21
1.0
 31
0.0
 73
     1
 44
1.0
  0
ENDBLK
  5
59C
330
33B
100
AcDbEntity
  8
0
100
AcDbBlockEnd
  0
BLOCK
  5
59D
330
346
100
AcDbEntity
  8
0
100
AcDbBlockBegin
  2
*D20
 70
     1
 10
0.0
 20
0.0
 30
0.0
  3
*D20
  1

  0
POINT
  5
33D
330
346
100
AcDbEntity
  8
DEFPOINTS
  6
ByBlock
 62
     0
380
     1
100
AcDbPoint
 10
2585.717281890335
 20
2754.011747253219
 30
0.0
  0
POINT
  5
33E
330
346
100
AcDbEntity
  8
DEFPOINTS
  6
ByBlock
 62
     0
380
     1
100
AcDbPoint
 10
2585.717281890335
 20
2444.088962253219
 30
0.0
  0
LINE
  5
33F
330
346
100
AcDbEntity
  8
0
  6
ByBlock
 62
     0
370
    -2
380
     1
100
AcDbLine
 10
2585.092281890335
 20
2754.011747253219
 30
0.0
 11
2486.722472909792
 21
2754.011747253219
 31
0.0
  0
LINE
  5
340
330
346
100
AcDbEntity
  8
0
  6
ByBlock
 62
     0
370
    -2
380
     1
100
AcDbLine
 10
2585.092281890335
 20
2444.088962253219
 30
0.0
 11
2486.722472909792
 21
2444.088962253219
 31
0.0
  0
LINE
  5
341
330
346
100
AcDbEntity
  8
0
  6
ByBlock
 62
     0
370
    -2
380
     1
100
AcDbLine
 10
2487.972472909792
 20
2751.511747253219
 30
0.0
 11
2487.972472909792
 21
2446.588962253219
 31
0.0
  0
SOLID
  5
342
330
346
100
AcDbEntity
  8
0
  6
ByBlock
 62
     0
380
     1
100
AcDbTrace
 10
2487.972472909792
 20
2754.011747253219
 30
0.0
 11
2487.555806243126
 21
2751.511747253219
 31
0.0
 12
2488.389139576459
 22
2751.511747253219
 32
0.0
 13
2488.389139576459
 23
2751.511747253219
 33
0.0
  0
SOLID
  5
343
330
346
100
AcDbEntity
  8
0
  6
ByBlock
 62
     0
380
     1
100
AcDbTrace
 10
2487.972472909792
 20
2444.088962253219
 30
0.0
 11
2487.555806243126
 21
2446.588962253219
 31
0.0
 12
2488.389139576459
 22
2446.588962253219
 32
0.0
 13
2488.389139576459
 23
2446.588962253219
 33
0.0
  0
MTEXT
  5
344
330
346
100
AcDbEntity
  8
0
  6
ByBlock
 62
     0
370
    -2
380
     1
100
AcDbMText
 10
2485.889139576459
 20
2599.050354753219
 30
0.0
 40
2.5
 41
0.0
 71
     5
 72
     1
  1
\A1;309,92
 11
6.123031769111886E-17
 21
1.0
 31
0.0
 73
     1
 44
1.0
  0
ENDBLK
  5
59E
330
346
100
AcDbEntity
  8
0
100
AcDbBlockEnd
  0
BLOCK
  5
59F
330
351
100
AcDbEntity
  8
0
100
AcDbBlockBegin
  2
*D21
 70
     1
 10
0.0
 20
0.0
 30
0.0
  3
*D21
  1

  0
POINT
  5
348
330
351
100
AcDbEntity
  8
DEFPOINTS
  6
ByBlock
 62
     0
380
     1
100
AcDbPoint
 10
2669.511479645089
 20
2786.994122253219
 30
0.0
  0
POINT
  5
349
330
351
100
AcDbEntity
  8
DEFPOINTS
  6
ByBlock
 62
     0
380
     1
100
AcDbPoint
 10
3024.530588705089
 20
2786.994122253219
 30
0.0
  0
LINE
  5
34A
330
351
100
AcDbEntity
  8
0
  6
ByBlock
 62
     0
370
    -2
380
     1
100
AcDbLine
 10
2669.511479645089
 20
2787.619122253219
 30
0.0
 11
2669.511479645089
 21
2893.703450870104
 31
0.0
  0
LINE
  5
34B
330
351
100
AcDbEntity
  8
0
  6
ByBlock
 62
     0
370
    -2
380
     1
100
AcDbLine
 10
3024.530588705089
 20
2787.619122253219
 30
0.0
 11
3024.530588705089
 21
2893.703450870104
 31
0.0
  0
LINE
  5
34C
330
351
100
AcDbEntity
  8
0
  6
ByBlock
 62
     0
370
    -2
380
     1
100
AcDbLine
 10
2672.011479645089
 20
2892.453450870104
 30
0.0
 11
3022.030588705089
 21
2892.453450870104
 31
0.0
  0
SOLID
  5
34D
330
351
100
AcDbEntity
  8
0
  6
ByBlock
 62
     0
380
     1
100
AcDbTrace
 10
2669.511479645089
 20
2892.453450870104
 30
0.0
 11
2672.011479645089
 21
2892.036784203437
 31
0.0
 12
2672.011479645089
 22
2892.87011753677
 32
0.0
 13
2672.011479645089
 23
2892.87011753677
 33
0.0
  0
SOLID
  5
34E
330
351
100
AcDbEntity
  8
0
  6
ByBlock
 62
     0
380
     1
100
AcDbTrace
 10
3024.530588705089
 20
2892.453450870104
 30
0.0
 11
3022.030588705089
 21
2892.036784203437
 31
0.0
 12
3022.030588705089
 22
2892.87011753677
 32
0.0
 13
3022.030588705089
 23
2892.87011753677
 33
0.0
  0
MTEXT
  5
34F
330
351
100
AcDbEntity
  8
0
  6
ByBlock
 62
     0
370
    -2
380
     1
100
AcDbMText
 10
2847.021034175089
 20
2894.536784203437
 30
0.0
 40
2.5
 41
0.0
 71
     5
 72
     1
  1
\A1;355,02
 73
     1
 44
1.0
  0
ENDBLK
  5
5A0
330
351
100
AcDbEntity
  8
0
100
AcDbBlockEnd
  0
BLOCK
  5
5A1
330
35C
100
AcDbEntity
  8
0
100
AcDbBlockBegin
  2
*D22
 70
     1
 10
0.0
 20
0.0
 30
0.0
  3
*D22
  1

  0
POINT
  5
353
330
35C
100
AcDbEntity
  8
DEFPOINTS
  6
ByBlock
 62
     1
380
     1
100
AcDbPoint
 10
3251.134749455087
 20
2771.196707253219
 30
0.0
  0
POINT
  5
354
330
35C
100
AcDbEntity
  8
DEFPOINTS
  6
ByBlock
 62
     1
380
     1
100
AcDbPoint
 10
3251.134749455087
 20
2523.733217253219
 30
0.0
  0
LINE
  5
355
330
35C
100
AcDbEntity
  8
0
  6
ByBlock
 62
     1
370
    -2
380
     1
100
AcDbLine
 10
3252.134749455087
 20
2771.196707253219
 30
0.0
 11
3324.067672565089
 21
2771.196707253219
 31
0.0
  0
LINE
  5
356
330
35C
100
AcDbEntity
  8
0
  6
ByBlock
 62
     1
370
    -2
380
     1
100
AcDbLine
 10
3252.134749455087
 20
2523.733217253219
 30
0.0
 11
3324.067672565089
 21
2523.733217253219
 31
0.0
  0
LINE
  5
357
330
35C
100
AcDbEntity
  8
0
  6
ByBlock
 62
     1
370
    -2
380
     1
100
AcDbLine
 10
3323.767672565089
 20
2769.496707253219
 30
0.0
 11
3323.767672565089
 21
2525.433217253219
 31
0.0
  0
SOLID
  5
358
330
35C
100
AcDbEntity
  8
0
  6
ByBlock
 62
     1
380
     1
100
AcDbTrace
 10
3323.767672565089
 20
2771.196707253219
 30
0.0
 11
3323.484339231756
 21
2769.496707253219
 31
0.0
 12
3324.051005898422
 22
2769.496707253219
 32
0.0
 13
3324.051005898422
 23
2769.496707253219
 33
0.0
  0
SOLID
  5
359
330
35C
100
AcDbEntity
  8
0
  6
ByBlock
 62
     1
380
     1
100
AcDbTrace
 10
3323.767672565089
 20
2523.733217253219
 30
0.0
 11
3323.484339231756
 21
2525.433217253219
 31
0.0
 12
3324.051005898422
 22
2525.433217253219
 32
0.0
 13
3324.051005898422
 23
2525.433217253219
 33
0.0
  0
MTEXT
  5
35A
330
35C
100
AcDbEntity
  8
0
  6
ByBlock
 62
     0
370
    -2
380
     1
100
AcDbMText
 10
3322.124169836576
 20
2647.464962253219
 30
0.0
 40
1.75
 41
0.0
 71
     5
 72
     1
  1
270
  7
H
 11
6.123031769111886E-17
 21
1.0
 31
0.0
 73
     1
 44
1.0
  0
ENDBLK
  5
5A2
330
35C
100
AcDbEntity
  8
0
100
AcDbBlockEnd
  0
BLOCK
  5
5A3
330
367
100
AcDbEntity
  8
0
100
AcDbBlockBegin
  2
*D23
 70
     1
 10
0.0
 20
0.0
 30
0.0
  3
*D23
  1

  0
POINT
  5
35E
330
367
100
AcDbEntity
  8
DEFPOINTS
  6
ByBlock
 62
     1
380
     1
100
AcDbPoint
 10
3103.566814325088
 20
2647.464992253219
 30
0.0
  0
POINT
  5
35F
330
367
100
AcDbEntity
  8
DEFPOINTS
  6
ByBlock
 62
     1
380
     1
100
AcDbPoint
 10
3254.854335875089
 20
2749.887362253219
 30
0.0
  0
LINE
  5
360
330
367
100
AcDbEntity
  8
0
  6
ByBlock
 62
     1
370
    -2
380
     1
100
AcDbLine
 10
3103.566814325088
 20
2648.464992253219
 30
0.0
 11
3103.566814325088
 21
2820.562757253219
 31
0.0
  0
LINE
  5
361
330
367
100
AcDbEntity
  8
0
  6
ByBlock
 62
     1
370
    -2
380
     1
100
AcDbLine
 10
3254.854335875089
 20
2750.887362253219
 30
0.0
 11
3254.854335875089
 21
2820.562757253219
 31
0.0
  0
LINE
  5
362
330
367
100
AcDbEntity
  8
0
  6
ByBlock
 62
     1
370
    -2
380
     1
100
AcDbLine
 10
3105.266814325088
 20
2820.262757253219
 30
0.0
 11
3253.154335875089
 21
2820.262757253219
 31
0.0
  0
SOLID
  5
363
330
367
100
AcDbEntity
  8
0
  6
ByBlock
 62
     1
380
     1
100
AcDbTrace
 10
3103.566814325088
 20
2820.262757253219
 30
0.0
 11
3105.266814325088
 21
2819.979423919885
 31
0.0
 12
3105.266814325088
 22
2820.546090586552
 32
0.0
 13
3105.266814325088
 23
2820.546090586552
 33
0.0
  0
SOLID
  5
364
330
367
100
AcDbEntity
  8
0
  6
ByBlock
 62
     1
380
     1
100
AcDbTrace
 10
3254.854335875089
 20
2820.262757253219
 30
0.0
 11
3253.154335875089
 21
2819.979423919885
 31
0.0
 12
3253.154335875089
 22
2820.546090586552
 32
0.0
 13
3253.154335875089
 23
2820.546090586552
 33
0.0
  0
MTEXT
  5
365
330
367
100
AcDbEntity
  8
0
  6
ByBlock
 62
     0
370
    -2
380
     1
100
AcDbMText
 10
3179.210575100088
 20
2821.906259981732
 30
0.0
 40
1.75
 41
0.0
 71
     5
 72
     1
  1
150
  7
H
 73
     1
 44
1.0
  0
ENDBLK
  5
5A4
330
367
100
AcDbEntity
  8
0
100
AcDbBlockEnd
  0
BLOCK
  5
5A5
330
372
100
AcDbEntity
  8
0
100
AcDbBlockBegin
  2
*D24
 70
     1
 10
0.0
 20
0.0
 30
0.0
  3
*D24
  1

  0
POINT
  5
369
330
372
100
AcDbEntity
  8
DEFPOINTS
  6
ByBlock
 62
     1
380
     1
100
AcDbPoint
 10
2688.112483055088
 20
2754.011747253219
 30
0.0
  0
POINT
  5
36A
330
372
100
AcDbEntity
  8
DEFPOINTS
  6
ByBlock
 62
     1
380
     1
100
AcDbPoint
 10
2688.112483055088
 20
2540.918237253219
 30
0.0
  0
LINE
  5
36B
330
372
100
AcDbEntity
  8
0
  6
ByBlock
 62
     1
370
    -2
380
     1
100
AcDbLine
 10
2687.112483055088
 20
2754.011747253219
 30
0.0
 11
2610.469009265089
 21
2754.011747253219
 31
0.0
  0
LINE
  5
36C
330
372
100
AcDbEntity
  8
0
  6
ByBlock
 62
     1
370
    -2
380
     1
100
AcDbLine
 10
2687.112483055088
 20
2540.918237253219
 30
0.0
 11
2610.469009265089
 21
2540.918237253219
 31
0.0
  0
LINE
  5
36D
330
372
100
AcDbEntity
  8
0
  6
ByBlock
 62
     1
370
    -2
380
     1
100
AcDbLine
 10
2610.769009265089
 20
2752.311747253219
 30
0.0
 11
2610.769009265089
 21
2542.618237253219
 31
0.0
  0
SOLID
  5
36E
330
372
100
AcDbEntity
  8
0
  6
ByBlock
 62
     1
380
     1
100
AcDbTrace
 10
2610.769009265089
 20
2754.011747253219
 30
0.0
 11
2610.485675931756
 21
2752.311747253219
 31
0.0
 12
2611.052342598422
 22
2752.311747253219
 32
0.0
 13
2611.052342598422
 23
2752.311747253219
 33
0.0
  0
SOLID
  5
36F
330
372
100
AcDbEntity
  8
0
  6
ByBlock
 62
     1
380
     1
100
AcDbTrace
 10
2610.769009265089
 20
2540.918237253219
 30
0.0
 11
2610.485675931756
 21
2542.618237253219
 31
0.0
 12
2611.052342598422
 22
2542.618237253219
 32
0.0
 13
2611.052342598422
 23
2542.618237253219
 33
0.0
  0
MTEXT
  5
370
330
372
100
AcDbEntity
  8
0
  6
ByBlock
 62
     0
370
    -2
380
     1
100
AcDbMText
 10
2609.124909674366
 20
2647.464992253219
 30
0.0
 40
1.75
 41
0.0
 71
     5
 72
     1
  1
230
  7
H
 11
6.123031769111886E-17
 21
1.0
 31
0.0
 73
     1
 44
1.0
  0
ENDBLK
  5
5A6
330
372
100
AcDbEntity
  8
0
100
AcDbBlockEnd
  0
BLOCK
  5
5A7
330
37D
100
AcDbEntity
  8
0
100
AcDbBlockBegin
  2
*D25
 70
     1
 10
0.0
 20
0.0
 30
0.0
  3
*D25
  1

  0
POINT
  5
374
330
37D
100
AcDbEntity
  8
DEFPOINTS
  6
ByBlock
 62
     1
380
     1
100
AcDbPoint
 10
2685.529010735089
 20
2754.011747253219
 30
0.0
  0
POINT
  5
375
330
37D
100
AcDbEntity
  8
DEFPOINTS
  6
ByBlock
 62
     1
380
     1
100
AcDbPoint
 10
2780.819434205089
 20
2444.088962253219
 30
0.0
  0
LINE
  5
376
330
37D
100
AcDbEntity
  8
0
  6
ByBlock
 62
     1
370
    -2
380
     1
100
AcDbLine
 10
2684.529010735089
 20
2754.011747253219
 30
0.0
 11
2557.063149725087
 21
2754.011747253219
 31
0.0
  0
LINE
  5
377
330
37D
100
AcDbEntity
  8
0
  6
ByBlock
 62
     1
370
    -2
380
     1
100
AcDbLine
 10
2779.819434205089
 20
2444.088962253219
 30
0.0
 11
2557.063149725087
 21
2444.088962253219
 31
0.0
  0
LINE
  5
378
330
37D
100
AcDbEntity
  8
0
  6
ByBlock
 62
     1
370
    -2
380
     1
100
AcDbLine
 10
2557.363149725088
 20
2752.311747253219
 30
0.0
 11
2557.363149725088
 21
2445.788962253219
 31
0.0
  0
SOLID
  5
379
330
37D
100
AcDbEntity
  8
0
  6
ByBlock
 62
     1
380
     1
100
AcDbTrace
 10
2557.363149725088
 20
2754.011747253219
 30
0.0
 11
2557.079816391754
 21
2752.311747253219
 31
0.0
 12
2557.646483058421
 22
2752.311747253219
 32
0.0
 13
2557.646483058421
 23
2752.311747253219
 33
0.0
  0
SOLID
  5
37A
330
37D
100
AcDbEntity
  8
0
  6
ByBlock
 62
     1
380
     1
100
AcDbTrace
 10
2557.363149725088
 20
2444.088962253219
 30
0.0
 11
2557.079816391754
 21
2445.788962253219
 31
0.0
 12
2557.646483058421
 22
2445.788962253219
 32
0.0
 13
2557.646483058421
 23
2445.788962253219
 33
0.0
  0
MTEXT
  5
37B
330
37D
100
AcDbEntity
  8
0
  6
ByBlock
 62
     0
370
    -2
380
     1
100
AcDbMText
 10
2555.719050134365
 20
2599.050354753219
 30
0.0
 40
1.75
 41
0.0
 71
     5
 72
     1
  1
310
  7
H
 11
6.123031769111886E-17
 21
1.0
 31
0.0
 73
     1
 44
1.0
  0
ENDBLK
  5
5A8
330
37D
100
AcDbEntity
  8
0
100
AcDbBlockEnd
  0
BLOCK
  5
5A9
330
388
100
AcDbEntity
  8
0
100
AcDbBlockBegin
  2
*D26
 70
     1
 10
0.0
 20
0.0
 30
0.0
  3
*D26
  1

  0
POINT
  5
37F
330
388
100
AcDbEntity
  8
DEFPOINTS
  6
ByBlock
 62
     1
380
     1
100
AcDbPoint
 10
2669.511479645089
 20
2733.389792253219
 30
0.0
  0
POINT
  5
380
330
388
100
AcDbEntity
  8
DEFPOINTS
  6
ByBlock
 62
     1
380
     1
100
AcDbPoint
 10
3024.530588705089
 20
2733.389792253219
 30
0.0
  0
LINE
  5
381
330
388
100
AcDbEntity
  8
0
  6
ByBlock
 62
     1
370
    -2
380
     1
100
AcDbLine
 10
2669.511479645089
 20
2734.389792253219
 30
0.0
 11
2669.511479645089
 21
2821.398452253219
 31
0.0
  0
LINE
  5
382
330
388
100
AcDbEntity
  8
0
  6
ByBlock
 62
     1
370
    -2
380
     1
100
AcDbLine
 10
3024.530588705089
 20
2734.389792253219
 30
0.0
 11
3024.530588705089
 21
2821.398452253219
 31
0.0
  0
LINE
  5
383
330
388
100
AcDbEntity
  8
0
  6
ByBlock
 62
     1
370
    -2
380
     1
100
AcDbLine
 10
2671.211479645089
 20
2821.098452253219
 30
0.0
 11
3022.830588705089
 21
2821.098452253219
 31
0.0
  0
SOLID
  5
384
330
388
100
AcDbEntity
  8
0
  6
ByBlock
 62
     1
380
     1
100
AcDbTrace
 10
2669.511479645089
 20
2821.098452253219
 30
0.0
 11
2671.211479645089
 21
2820.815118919886
 31
0.0
 12
2671.211479645089
 22
2821.381785586552
 32
0.0
 13
2671.211479645089
 23
2821.381785586552
 33
0.0
  0
SOLID
  5
385
330
388
100
AcDbEntity
  8
0
  6
ByBlock
 62
     1
380
     1
100
AcDbTrace
 10
3024.530588705089
 20
2821.098452253219
 30
0.0
 11
3022.830588705089
 21
2820.815118919886
 31
0.0
 12
3022.830588705089
 22
2821.381785586552
 32
0.0
 13
3022.830588705089
 23
2821.381785586552
 33
0.0
  0
MTEXT
  5
386
330
388
100
AcDbEntity
  8
0
  6
ByBlock
 62
     0
370
    -2
380
     1
100
AcDbMText
 10
2847.021034175089
 20
2822.742551843942
 30
0.0
 40
1.75
 41
0.0
 71
     5
 72
     1
  1
355
  7
H
 73
     1
 44
1.0
  0
ENDBLK
  5
5AA
330
388
100
AcDbEntity
  8
0
100
AcDbBlockEnd
  0
BLOCK
  5
5AB
330
393
100
AcDbEntity
  8
0
100
AcDbBlockBegin
  2
*D27
 70
     1
 10
0.0
 20
0.0
 30
0.0
  3
*D27
  1

  0
POINT
  5
38A
330
393
100
AcDbEntity
  8
DEFPOINTS
  6
ByBlock
 62
     1
380
     1
100
AcDbPoint
 10
2669.511479645089
 20
2733.389792253219
 30
0.0
  0
POINT
  5
38B
330
393
100
AcDbEntity
  8
DEFPOINTS
  6
ByBlock
 62
     1
380
     1
100
AcDbPoint
 10
3024.530588705089
 20
2733.389792253219
 30
0.0
  0
LINE
  5
38C
330
393
100
AcDbEntity
  8
0
  6
ByBlock
 62
     1
370
    -2
380
     1
100
AcDbLine
 10
2669.511479645089
 20
2734.389792253219
 30
0.0
 11
2669.511479645089
 21
2821.398452253219
 31
0.0
  0
LINE
  5
38D
330
393
100
AcDbEntity
  8
0
  6
ByBlock
 62
     1
370
    -2
380
     1
100
AcDbLine
 10
3024.530588705089
 20
2734.389792253219
 30
0.0
 11
3024.530588705089
 21
2821.398452253219
 31
0.0
  0
LINE
  5
38E
330
393
100
AcDbEntity
  8
0
  6
ByBlock
 62
     1
370
    -2
380
     1
100
AcDbLine
 10
2671.211479645089
 20
2821.098452253219
 30
0.0
 11
3022.830588705089
 21
2821.098452253219
 31
0.0
  0
SOLID
  5
38F
330
393
100
AcDbEntity
  8
0
  6
ByBlock
 62
     1
380
     1
100
AcDbTrace
 10
2669.511479645089
 20
2821.098452253219
 30
0.0
 11
2671.211479645089
 21
2820.815118919886
 31
0.0
 12
2671.211479645089
 22
2821.381785586552
 32
0.0
 13
2671.211479645089
 23
2821.381785586552
 33
0.0
  0
SOLID
  5
390
330
393
100
AcDbEntity
  8
0
  6
ByBlock
 62
     1
380
     1
100
AcDbTrace
 10
3024.530588705089
 20
2821.098452253219
 30
0.0
 11
3022.830588705089
 21
2820.815118919886
 31
0.0
 12
3022.830588705089
 22
2821.381785586552
 32
0.0
 13
3022.830588705089
 23
2821.381785586552
 33
0.0
  0
MTEXT
  5
391
330
393
100
AcDbEntity
  8
0
  6
ByBlock
 62
     0
370
    -2
380
     1
100
AcDbMText
 10
2847.021034175089
 20
2822.742551843942
 30
0.0
 40
1.75
 41
0.0
 71
     5
 72
     1
  1
355
  7
H
 73
     1
 44
1.0
  0
ENDBLK
  5
5AC
330
393
100
AcDbEntity
  8
0
100
AcDbBlockEnd
  0
BLOCK
  5
5AD
330
39E
100
AcDbEntity
  8
0
100
AcDbBlockBegin
  2
*D28
 70
     1
 10
0.0
 20
0.0
 30
0.0
  3
*D28
  1

  0
POINT
  5
395
330
39E
100
AcDbEntity
  8
DEFPOINTS
  6
ByBlock
 62
     1
380
     1
100
AcDbPoint
 10
2685.529010735089
 20
2754.011747253219
 30
0.0
  0
POINT
  5
396
330
39E
100
AcDbEntity
  8
DEFPOINTS
  6
ByBlock
 62
     1
380
     1
100
AcDbPoint
 10
2780.819434205089
 20
2444.088962253219
 30
0.0
  0
LINE
  5
397
330
39E
100
AcDbEntity
  8
0
  6
ByBlock
 62
     1
370
    -2
380
     1
100
AcDbLine
 10
2684.529010735089
 20
2754.011747253219
 30
0.0
 11
2557.063149725087
 21
2754.011747253219
 31
0.0
  0
LINE
  5
398
330
39E
100
AcDbEntity
  8
0
  6
ByBlock
 62
     1
370
    -2
380
     1
100
AcDbLine
 10
2779.819434205089
 20
2444.088962253219
 30
0.0
 11
2557.063149725087
 21
2444.088962253219
 31
0.0
  0
LINE
  5
399
330
39E
100
AcDbEntity
  8
0
  6
ByBlock
 62
     1
370
    -2
380
     1
100
AcDbLine
 10
2557.363149725088
 20
2752.311747253219
 30
0.0
 11
2557.363149725088
 21
2445.788962253219
 31
0.0
  0
SOLID
  5
39A
330
39E
100
AcDbEntity
  8
0
  6
ByBlock
 62
     1
380
     1
100
AcDbTrace
 10
2557.363149725088
 20
2754.011747253219
 30
0.0
 11
2557.079816391754
 21
2752.311747253219
 31
0.0
 12
2557.646483058421
 22
2752.311747253219
 32
0.0
 13
2557.646483058421
 23
2752.311747253219
 33
0.0
  0
SOLID
  5
39B
330
39E
100
AcDbEntity
  8
0
  6
ByBlock
 62
     1
380
     1
100
AcDbTrace
 10
2557.363149725088
 20
2444.088962253219
 30
0.0
 11
2557.079816391754
 21
2445.788962253219
 31
0.0
 12
2557.646483058421
 22
2445.788962253219
 32
0.0
 13
2557.646483058421
 23
2445.788962253219
 33
0.0
  0
MTEXT
  5
39C
330
39E
100
AcDbEntity
  8
0
  6
ByBlock
 62
     0
370
    -2
380
     1
100
AcDbMText
 10
2555.719050134365
 20
2599.050354753219
 30
0.0
 40
1.75
 41
0.0
 71
     5
 72
     1
  1
310
  7
H
 11
6.123031769111886E-17
 21
1.0
 31
0.0
 73
     1
 44
1.0
  0
ENDBLK
  5
5AE
330
39E
100
AcDbEntity
  8
0
100
AcDbBlockEnd
  0
BLOCK
  5
5AF
330
3A9
100
AcDbEntity
  8
0
100
AcDbBlockBegin
  2
*D29
 70
     1
 10
0.0
 20
0.0
 30
0.0
  3
*D29
  1

  0
POINT
  5
3A0
330
3A9
100
AcDbEntity
  8
DEFPOINTS
  6
ByBlock
 62
     1
380
     1
100
AcDbPoint
 10
2688.112483055088
 20
2754.011747253219
 30
0.0
  0
POINT
  5
3A1
330
3A9
100
AcDbEntity
  8
DEFPOINTS
  6
ByBlock
 62
     1
380
     1
100
AcDbPoint
 10
2688.112483055088
 20
2540.918237253219
 30
0.0
  0
LINE
  5
3A2
330
3A9
100
AcDbEntity
  8
0
  6
ByBlock
 62
     1
370
    -2
380
     1
100
AcDbLine
 10
2687.112483055088
 20
2754.011747253219
 30
0.0
 11
2610.469009265089
 21
2754.011747253219
 31
0.0
  0
LINE
  5
3A3
330
3A9
100
AcDbEntity
  8
0
  6
ByBlock
 62
     1
370
    -2
380
     1
100
AcDbLine
 10
2687.112483055088
 20
2540.918237253219
 30
0.0
 11
2610.469009265089
 21
2540.918237253219
 31
0.0
  0
LINE
  5
3A4
330
3A9
100
AcDbEntity
  8
0
  6
ByBlock
 62
     1
370
    -2
380
     1
100
AcDbLine
 10
2610.769009265089
 20
2752.311747253219
 30
0.0
 11
2610.769009265089
 21
2542.618237253219
 31
0.0
  0
SOLID
  5
3A5
330
3A9
100
AcDbEntity
  8
0
  6
ByBlock
 62
     1
380
     1
100
AcDbTrace
 10
2610.769009265089
 20
2754.011747253219
 30
0.0
 11
2610.485675931756
 21
2752.311747253219
 31
0.0
 12
2611.052342598422
 22
2752.311747253219
 32
0.0
 13
2611.052342598422
 23
2752.311747253219
 33
0.0
  0
SOLID
  5
3A6
330
3A9
100
AcDbEntity
  8
0
  6
ByBlock
 62
     1
380
     1
100
AcDbTrace
 10
2610.769009265089
 20
2540.918237253219
 30
0.0
 11
2610.485675931756
 21
2542.618237253219
 31
0.0
 12
2611.052342598422
 22
2542.618237253219
 32
0.0
 13
2611.052342598422
 23
2542.618237253219
 33
0.0
  0
MTEXT
  5
3A7
330
3A9
100
AcDbEntity
  8
0
  6
ByBlock
 62
     0
370
    -2
380
     1
100
AcDbMText
 10
2609.124909674366
 20
2647.464992253219
 30
0.0
 40
1.75
 41
0.0
 71
     5
 72
     1
  1
230
  7
H
 11
6.123031769111886E-17
 21
1.0
 31
0.0
 73
     1
 44
1.0
  0
ENDBLK
  5
5B0
330
3A9
100
AcDbEntity
  8
0
100
AcDbBlockEnd
  0
BLOCK
  5
5B1
330
3B4
100
AcDbEntity
  8
0
100
AcDbBlockBegin
  2
*D30
 70
     1
 10
0.0
 20
0.0
 30
0.0
  3
*D30
  1

  0
POINT
  5
3AB
330
3B4
100
AcDbEntity
  8
DEFPOINTS
  6
ByBlock
 62
     1
380
     1
100
AcDbPoint
 10
3103.566814325088
 20
2647.464992253219
 30
0.0
  0
POINT
  5
3AC
330
3B4
100
AcDbEntity
  8
DEFPOINTS
  6
ByBlock
 62
     1
380
     1
100
AcDbPoint
 10
3254.854335875089
 20
2749.887362253219
 30
0.0
  0
LINE
  5
3AD
330
3B4
100
AcDbEntity
  8
0
  6
ByBlock
 62
     1
370
    -2
380
     1
100
AcDbLine
 10
3103.566814325088
 20
2648.464992253219
 30
0.0
 11
3103.566814325088
 21
2820.562757253219
 31
0.0
  0
LINE
  5
3AE
330
3B4
100
AcDbEntity
  8
0
  6
ByBlock
 62
     1
370
    -2
380
     1
100
AcDbLine
 10
3254.854335875089
 20
2750.887362253219
 30
0.0
 11
3254.854335875089
 21
2820.562757253219
 31
0.0
  0
LINE
  5
3AF
330
3B4
100
AcDbEntity
  8
0
  6
ByBlock
 62
     1
370
    -2
380
     1
100
AcDbLine
 10
3105.266814325088
 20
2820.262757253219
 30
0.0
 11
3253.154335875089
 21
2820.262757253219
 31
0.0
  0
SOLID
  5
3B0
330
3B4
100
AcDbEntity
  8
0
  6
ByBlock
 62
     1
380
     1
100
AcDbTrace
 10
3103.566814325088
 20
2820.262757253219
 30
0.0
 11
3105.266814325088
 21
2819.979423919885
 31
0.0
 12
3105.266814325088
 22
2820.546090586552
 32
0.0
 13
3105.266814325088
 23
2820.546090586552
 33
0.0
  0
SOLID
  5
3B1
330
3B4
100
AcDbEntity
  8
0
  6
ByBlock
 62
     1
380
     1
100
AcDbTrace
 10
3254.854335875089
 20
2820.262757253219
 30
0.0
 11
3253.154335875089
 21
2819.979423919885
 31
0.0
 12
3253.154335875089
 22
2820.546090586552
 32
0.0
 13
3253.154335875089
 23
2820.546090586552
 33
0.0
  0
MTEXT
  5
3B2
330
3B4
100
AcDbEntity
  8
0
  6
ByBlock
 62
     0
370
    -2
380
     1
100
AcDbMText
 10
3179.210575100088
 20
2821.906259981732
 30
0.0
 40
1.75
 41
0.0
 71
     5
 72
     1
  1
150
  7
H
 73
     1
 44
1.0
  0
ENDBLK
  5
5B2
330
3B4
100
AcDbEntity
  8
0
100
AcDbBlockEnd
  0
BLOCK
  5
5B3
330
3BF
100
AcDbEntity
  8
0
100
AcDbBlockBegin
  2
*D31
 70
     1
 10
0.0
 20
0.0
 30
0.0
  3
*D31
  1

  0
POINT
  5
3B6
330
3BF
100
AcDbEntity
  8
DEFPOINTS
  6
ByBlock
 62
     1
380
     1
100
AcDbPoint
 10
3251.134749455087
 20
2771.196707253219
 30
0.0
  0
POINT
  5
3B7
330
3BF
100
AcDbEntity
  8
DEFPOINTS
  6
ByBlock
 62
     1
380
     1
100
AcDbPoint
 10
3251.134749455087
 20
2523.733217253219
 30
0.0
  0
LINE
  5
3B8
330
3BF
100
AcDbEntity
  8
0
  6
ByBlock
 62
     1
370
    -2
380
     1
100
AcDbLine
 10
3252.134749455087
 20
2771.196707253219
 30
0.0
 11
3324.067672565089
 21
2771.196707253219
 31
0.0
  0
LINE
  5
3B9
330
3BF
100
AcDbEntity
  8
0
  6
ByBlock
 62
     1
370
    -2
380
     1
100
AcDbLine
 10
3252.134749455087
 20
2523.733217253219
 30
0.0
 11
3324.067672565089
 21
2523.733217253219
 31
0.0
  0
LINE
  5
3BA
330
3BF
100
AcDbEntity
  8
0
  6
ByBlock
 62
     1
370
    -2
380
     1
100
AcDbLine
 10
3323.767672565089
 20
2769.496707253219
 30
0.0
 11
3323.767672565089
 21
2525.433217253219
 31
0.0
  0
SOLID
  5
3BB
330
3BF
100
AcDbEntity
  8
0
  6
ByBlock
 62
     1
380
     1
100
AcDbTrace
 10
3323.767672565089
 20
2771.196707253219
 30
0.0
 11
3323.484339231756
 21
2769.496707253219
 31
0.0
 12
3324.051005898422
 22
2769.496707253219
 32
0.0
 13
3324.051005898422
 23
2769.496707253219
 33
0.0
  0
SOLID
  5
3BC
330
3BF
100
AcDbEntity
  8
0
  6
ByBlock
 62
     1
380
     1
100
AcDbTrace
 10
3323.767672565089
 20
2523.733217253219
 30
0.0
 11
3323.484339231756
 21
2525.433217253219
 31
0.0
 12
3324.051005898422
 22
2525.433217253219
 32
0.0
 13
3324.051005898422
 23
2525.433217253219
 33
0.0
  0
MTEXT
  5
3BD
330
3BF
100
AcDbEntity
  8
0
  6
ByBlock
 62
     0
370
    -2
380
     1
100
AcDbMText
 10
3322.124169836576
 20
2647.464962253219
 30
0.0
 40
1.75
 41
0.0
 71
     5
 72
     1
  1
270
  7
H
 11
6.123031769111886E-17
 21
1.0
 31
0.0
 73
     1
 44
1.0
  0
ENDBLK
  5
5B4
330
3BF
100
AcDbEntity
  8
0
100
AcDbBlockEnd
  0
BLOCK
  5
5B5
330
3CA
100
AcDbEntity
  8
0
100
AcDbBlockBegin
  2
*D32
 70
     1
 10
0.0
 20
0.0
 30
0.0
  3
*D32
  1

  0
POINT
  5
3C1
330
3CA
100
AcDbEntity
  8
DEFPOINTS
  6
ByBlock
 62
     0
380
     1
100
AcDbPoint
 10
2669.511479645089
 20
2786.994122253219
 30
0.0
  0
POINT
  5
3C2
330
3CA
100
AcDbEntity
  8
DEFPOINTS
  6
ByBlock
 62
     0
380
     1
100
AcDbPoint
 10
3024.530588705089
 20
2786.994122253219
 30
0.0
  0
LINE
  5
3C3
330
3CA
100
AcDbEntity
  8
0
  6
ByBlock
 62
     0
370
    -2
380
     1
100
AcDbLine
 10
2669.511479645089
 20
2787.619122253219
 30
0.0
 11
2669.511479645089
 21
2893.703450870104
 31
0.0
  0
LINE
  5
3C4
330
3CA
100
AcDbEntity
  8
0
  6
ByBlock
 62
     0
370
    -2
380
     1
100
AcDbLine
 10
3024.530588705089
 20
2787.619122253219
 30
0.0
 11
3024.530588705089
 21
2893.703450870104
 31
0.0
  0
LINE
  5
3C5
330
3CA
100
AcDbEntity
  8
0
  6
ByBlock
 62
     0
370
    -2
380
     1
100
AcDbLine
 10
2672.011479645089
 20
2892.453450870104
 30
0.0
 11
3022.030588705089
 21
2892.453450870104
 31
0.0
  0
SOLID
  5
3C6
330
3CA
100
AcDbEntity
  8
0
  6
ByBlock
 62
     0
380
     1
100
AcDbTrace
 10
2669.511479645089
 20
2892.453450870104
 30
0.0
 11
2672.011479645089
 21
2892.036784203437
 31
0.0
 12
2672.011479645089
 22
2892.87011753677
 32
0.0
 13
2672.011479645089
 23
2892.87011753677
 33
0.0
  0
SOLID
  5
3C7
330
3CA
100
AcDbEntity
  8
0
  6
ByBlock
 62
     0
380
     1
100
AcDbTrace
 10
3024.530588705089
 20
2892.453450870104
 30
0.0
 11
3022.030588705089
 21
2892.036784203437
 31
0.0
 12
3022.030588705089
 22
2892.87011753677
 32
0.0
 13
3022.030588705089
 23
2892.87011753677
 33
0.0
  0
MTEXT
  5
3C8
330
3CA
100
AcDbEntity
  8
0
  6
ByBlock
 62
     0
370
    -2
380
     1
100
AcDbMText
 10
2847.021034175089
 20
2894.536784203437
 30
0.0
 40
2.5
 41
0.0
 71
     5
 72
     1
  1
\A1;355,02
 73
     1
 44
1.0
  0
ENDBLK
  5
5B6
330
3CA
100
AcDbEntity
  8
0
100
AcDbBlockEnd
  0
BLOCK
  5
5B7
330
3D5
100
AcDbEntity
  8
0
100
AcDbBlockBegin
  2
*D33
 70
     1
 10
0.0
 20
0.0
 30
0.0
  3
*D33
  1

  0
POINT
  5
3CC
330
3D5
100
AcDbEntity
  8
DEFPOINTS
  6
ByBlock
 62
     0
380
     1
100
AcDbPoint
 10
2585.717281890335
 20
2754.011747253219
 30
0.0
  0
POINT
  5
3CD
330
3D5
100
AcDbEntity
  8
DEFPOINTS
  6
ByBlock
 62
     0
380
     1
100
AcDbPoint
 10
2585.717281890335
 20
2444.088962253219
 30
0.0
  0
LINE
  5
3CE
330
3D5
100
AcDbEntity
  8
0
  6
ByBlock
 62
     0
370
    -2
380
     1
100
AcDbLine
 10
2585.092281890335
 20
2754.011747253219
 30
0.0
 11
2486.722472909792
 21
2754.011747253219
 31
0.0
  0
LINE
  5
3CF
330
3D5
100
AcDbEntity
  8
0
  6
ByBlock
 62
     0
370
    -2
380
     1
100
AcDbLine
 10
2585.092281890335
 20
2444.088962253219
 30
0.0
 11
2486.722472909792
 21
2444.088962253219
 31
0.0
  0
LINE
  5
3D0
330
3D5
100
AcDbEntity
  8
0
  6
ByBlock
 62
     0
370
    -2
380
     1
100
AcDbLine
 10
2487.972472909792
 20
2751.511747253219
 30
0.0
 11
2487.972472909792
 21
2446.588962253219
 31
0.0
  0
SOLID
  5
3D1
330
3D5
100
AcDbEntity
  8
0
  6
ByBlock
 62
     0
380
     1
100
AcDbTrace
 10
2487.972472909792
 20
2754.011747253219
 30
0.0
 11
2487.555806243126
 21
2751.511747253219
 31
0.0
 12
2488.389139576459
 22
2751.511747253219
 32
0.0
 13
2488.389139576459
 23
2751.511747253219
 33
0.0
  0
SOLID
  5
3D2
330
3D5
100
AcDbEntity
  8
0
  6
ByBlock
 62
     0
380
     1
100
AcDbTrace
 10
2487.972472909792
 20
2444.088962253219
 30
0.0
 11
2487.555806243126
 21
2446.588962253219
 31
0.0
 12
2488.389139576459
 22
2446.588962253219
 32
0.0
 13
2488.389139576459
 23
2446.588962253219
 33
0.0
  0
MTEXT
  5
3D3
330
3D5
100
AcDbEntity
  8
0
  6
ByBlock
 62
     0
370
    -2
380
     1
100
AcDbMText
 10
2485.889139576459
 20
2599.050354753219
 30
0.0
 40
2.5
 41
0.0
 71
     5
 72
     1
  1
\A1;309,92
 11
6.123031769111886E-17
 21
1.0
 31
0.0
 73
     1
 44
1.0
  0
ENDBLK
  5
5B8
330
3D5
100
AcDbEntity
  8
0
100
AcDbBlockEnd
  0
BLOCK
  5
5B9
330
3E0
100
AcDbEntity
  8
0
100
AcDbBlockBegin
  2
*D34
 70
     1
 10
0.0
 20
0.0
 30
0.0
  3
*D34
  1

  0
POINT
  5
3D7
330
3E0
100
AcDbEntity
  8
DEFPOINTS
  6
ByBlock
 62
     0
380
     1
100
AcDbPoint
 10
2585.717281890335
 20
2754.011747253219
 30
0.0
  0
POINT
  5
3D8
330
3E0
100
AcDbEntity
  8
DEFPOINTS
  6
ByBlock
 62
     0
380
     1
100
AcDbPoint
 10
2585.717281890335
 20
2444.088962253219
 30
0.0
  0
LINE
  5
3D9
330
3E0
100
AcDbEntity
  8
0
  6
ByBlock
 62
     0
370
    -2
380
     1
100
AcDbLine
 10
2585.092281890335
 20
2754.011747253219
 30
0.0
 11
2486.722472909792
 21
2754.011747253219
 31
0.0
  0
LINE
  5
3DA
330
3E0
100
AcDbEntity
  8
0
  6
ByBlock
 62
     0
370
    -2
380
     1
100
AcDbLine
 10
2585.092281890335
 20
2444.088962253219
 30
0.0
 11
2486.722472909792
 21
2444.088962253219
 31
0.0
  0
LINE
  5
3DB
330
3E0
100
AcDbEntity
  8
0
  6
ByBlock
 62
     0
370
    -2
380
     1
100
AcDbLine
 10
2487.972472909792
 20
2751.511747253219
 30
0.0
 11
2487.972472909792
 21
2446.588962253219
 31
0.0
  0
SOLID
  5
3DC
330
3E0
100
AcDbEntity
  8
0
  6
ByBlock
 62
     0
380
     1
100
AcDbTrace
 10
2487.972472909792
 20
2754.011747253219
 30
0.0
 11
2487.555806243126
 21
2751.511747253219
 31
0.0
 12
2488.389139576459
 22
2751.511747253219
 32
0.0
 13
2488.389139576459
 23
2751.511747253219
 33
0.0
  0
SOLID
  5
3DD
330
3E0
100
AcDbEntity
  8
0
  6
ByBlock
 62
     0
380
     1
100
AcDbTrace
 10
2487.972472909792
 20
2444.088962253219
 30
0.0
 11
2487.555806243126
 21
2446.588962253219
 31
0.0
 12
2488.389139576459
 22
2446.588962253219
 32
0.0
 13
2488.389139576459
 23
2446.588962253219
 33
0.0
  0
MTEXT
  5
3DE
330
3E0
100
AcDbEntity
  8
0
  6
ByBlock
 62
     0
370
    -2
380
     1
100
AcDbMText
 10
2485.889139576459
 20
2599.050354753219
 30
0.0
 40
2.5
 41
0.0
 71
     5
 72
     1
  1
\A1;309,92
 11
6.123031769111886E-17
 21
1.0
 31
0.0
 73
     1
 44
1.0
  0
ENDBLK
  5
5BA
330
3E0
100
AcDbEntity
  8
0
100
AcDbBlockEnd
  0
BLOCK
  5
5BB
330
3EB
100
AcDbEntity
  8
0
100
AcDbBlockBegin
  2
*D35
 70
     1
 10
0.0
 20
0.0
 30
0.0
  3
*D35
  1

  0
POINT
  5
3E2
330
3EB
100
AcDbEntity
  8
DEFPOINTS
  6
ByBlock
 62
     0
380
     1
100
AcDbPoint
 10
2669.511479645089
 20
2786.994122253219
 30
0.0
  0
POINT
  5
3E3
330
3EB
100
AcDbEntity
  8
DEFPOINTS
  6
ByBlock
 62
     0
380
     1
100
AcDbPoint
 10
3024.530588705089
 20
2786.994122253219
 30
0.0
  0
LINE
  5
3E4
330
3EB
100
AcDbEntity
  8
0
  6
ByBlock
 62
     0
370
    -2
380
     1
100
AcDbLine
 10
2669.511479645089
 20
2787.619122253219
 30
0.0
 11
2669.511479645089
 21
2893.703450870104
 31
0.0
  0
LINE
  5
3E5
330
3EB
100
AcDbEntity
  8
0
  6
ByBlock
 62
     0
370
    -2
380
     1
100
AcDbLine
 10
3024.530588705089
 20
2787.619122253219
 30
0.0
 11
3024.530588705089
 21
2893.703450870104
 31
0.0
  0
LINE
  5
3E6
330
3EB
100
AcDbEntity
  8
0
  6
ByBlock
 62
     0
370
    -2
380
     1
100
AcDbLine
 10
2672.011479645089
 20
2892.453450870104
 30
0.0
 11
3022.030588705089
 21
2892.453450870104
 31
0.0
  0
SOLID
  5
3E7
330
3EB
100
AcDbEntity
  8
0
  6
ByBlock
 62
     0
380
     1
100
AcDbTrace
 10
2669.511479645089
 20
2892.453450870104
 30
0.0
 11
2672.011479645089
 21
2892.036784203437
 31
0.0
 12
2672.011479645089
 22
2892.87011753677
 32
0.0
 13
2672.011479645089
 23
2892.87011753677
 33
0.0
  0
SOLID
  5
3E8
330
3EB
100
AcDbEntity
  8
0
  6
ByBlock
 62
     0
380
     1
100
AcDbTrace
 10
3024.530588705089
 20
2892.453450870104
 30
0.0
 11
3022.030588705089
 21
2892.036784203437
 31
0.0
 12
3022.030588705089
 22
2892.87011753677
 32
0.0
 13
3022.030588705089
 23
2892.87011753677
 33
0.0
  0
MTEXT
  5
3E9
330
3EB
100
AcDbEntity
  8
0
  6
ByBlock
 62
     0
370
    -2
380
     1
100
AcDbMText
 10
2847.021034175089
 20
2894.536784203437
 30
0.0
 40
2.5
 41
0.0
 71
     5
 72
     1
  1
\A1;355,02
 73
     1
 44
1.0
  0
ENDBLK
  5
5BC
330
3EB
100
AcDbEntity
  8
0
100
AcDbBlockEnd
  0
BLOCK
  5
5BD
330
3F6
100
AcDbEntity
  8
0
100
AcDbBlockBegin
  2
*D36
 70
     1
 10
0.0
 20
0.0
 30
0.0
  3
*D36
  1

  0
POINT
  5
3ED
330
3F6
100
AcDbEntity
  8
DEFPOINTS
  6
ByBlock
 62
     1
380
     1
100
AcDbPoint
 10
3251.134749455087
 20
2771.196707253219
 30
0.0
  0
POINT
  5
3EE
330
3F6
100
AcDbEntity
  8
DEFPOINTS
  6
ByBlock
 62
     1
380
     1
100
AcDbPoint
 10
3251.134749455087
 20
2523.733217253219
 30
0.0
  0
LINE
  5
3EF
330
3F6
100
AcDbEntity
  8
0
  6
ByBlock
 62
     1
370
    -2
380
     1
100
AcDbLine
 10
3252.134749455087
 20
2771.196707253219
 30
0.0
 11
3324.067672565089
 21
2771.196707253219
 31
0.0
  0
LINE
  5
3F0
330
3F6
100
AcDbEntity
  8
0
  6
ByBlock
 62
     1
370
    -2
380
     1
100
AcDbLine
 10
3252.134749455087
 20
2523.733217253219
 30
0.0
 11
3324.067672565089
 21
2523.733217253219
 31
0.0
  0
LINE
  5
3F1
330
3F6
100
AcDbEntity
  8
0
  6
ByBlock
 62
     1
370
    -2
380
     1
100
AcDbLine
 10
3323.767672565089
 20
2769.496707253219
 30
0.0
 11
3323.767672565089
 21
2525.433217253219
 31
0.0
  0
SOLID
  5
3F2
330
3F6
100
AcDbEntity
  8
0
  6
ByBlock
 62
     1
380
     1
100
AcDbTrace
 10
3323.767672565089
 20
2771.196707253219
 30
0.0
 11
3323.484339231756
 21
2769.496707253219
 31
0.0
 12
3324.051005898422
 22
2769.496707253219
 32
0.0
 13
3324.051005898422
 23
2769.496707253219
 33
0.0
  0
SOLID
  5
3F3
330
3F6
100
AcDbEntity
  8
0
  6
ByBlock
 62
     1
380
     1
100
AcDbTrace
 10
3323.767672565089
 20
2523.733217253219
 30
0.0
 11
3323.484339231756
 21
2525.433217253219
 31
0.0
 12
3324.051005898422
 22
2525.433217253219
 32
0.0
 13
3324.051005898422
 23
2525.433217253219
 33
0.0
  0
MTEXT
  5
3F4
330
3F6
100
AcDbEntity
  8
0
  6
ByBlock
 62
     0
370
    -2
380
     1
100
AcDbMText
 10
3322.124169836576
 20
2647.464962253219
 30
0.0
 40
1.75
 41
0.0
 71
     5
 72
     1
  1
270
  7
H
 11
6.123031769111886E-17
 21
1.0
 31
0.0
 73
     1
 44
1.0
  0
ENDBLK
  5
5BE
330
3F6
100
AcDbEntity
  8
0
100
AcDbBlockEnd
  0
BLOCK
  5
5BF
330
401
100
AcDbEntity
  8
0
100
AcDbBlockBegin
  2
*D37
 70
     1
 10
0.0
 20
0.0
 30
0.0
  3
*D37
  1

  0
POINT
  5
3F8
330
401
100
AcDbEntity
  8
DEFPOINTS
  6
ByBlock
 62
     1
380
     1
100
AcDbPoint
 10
3103.566814325088
 20
2647.464992253219
 30
0.0
  0
POINT
  5
3F9
330
401
100
AcDbEntity
  8
DEFPOINTS
  6
ByBlock
 62
     1
380
     1
100
AcDbPoint
 10
3254.854335875089
 20
2749.887362253219
 30
0.0
  0
LINE
  5
3FA
330
401
100
AcDbEntity
  8
0
  6
ByBlock
 62
     1
370
    -2
380
     1
100
AcDbLine
 10
3103.566814325088
 20
2648.464992253219
 30
0.0
 11
3103.566814325088
 21
2820.562757253219
 31
0.0
  0
LINE
  5
3FB
330
401
100
AcDbEntity
  8
0
  6
ByBlock
 62
     1
370
    -2
380
     1
100
AcDbLine
 10
3254.854335875089
 20
2750.887362253219
 30
0.0
 11
3254.854335875089
 21
2820.562757253219
 31
0.0
  0
LINE
  5
3FC
330
401
100
AcDbEntity
  8
0
  6
ByBlock
 62
     1
370
    -2
380
     1
100
AcDbLine
 10
3105.266814325088
 20
2820.262757253219
 30
0.0
 11
3253.154335875089
 21
2820.262757253219
 31
0.0
  0
SOLID
  5
3FD
330
401
100
AcDbEntity
  8
0
  6
ByBlock
 62
     1
380
     1
100
AcDbTrace
 10
3103.566814325088
 20
2820.262757253219
 30
0.0
 11
3105.266814325088
 21
2819.979423919885
 31
0.0
 12
3105.266814325088
 22
2820.546090586552
 32
0.0
 13
3105.266814325088
 23
2820.546090586552
 33
0.0
  0
SOLID
  5
3FE
330
401
100
AcDbEntity
  8
0
  6
ByBlock
 62
     1
380
     1
100
AcDbTrace
 10
3254.854335875089
 20
2820.262757253219
 30
0.0
 11
3253.154335875089
 21
2819.979423919885
 31
0.0
 12
3253.154335875089
 22
2820.546090586552
 32
0.0
 13
3253.154335875089
 23
2820.546090586552
 33
0.0
  0
MTEXT
  5
3FF
330
401
100
AcDbEntity
  8
0
  6
ByBlock
 62
     0
370
    -2
380
     1
100
AcDbMText
 10
3179.210575100088
 20
2821.906259981732
 30
0.0
 40
1.75
 41
0.0
 71
     5
 72
     1
  1
150
  7
H
 73
     1
 44
1.0
  0
ENDBLK
  5
5C0
330
401
100
AcDbEntity
  8
0
100
AcDbBlockEnd
  0
BLOCK
  5
5C1
330
40C
100
AcDbEntity
  8
0
100
AcDbBlockBegin
  2
*D38
 70
     1
 10
0.0
 20
0.0
 30
0.0
  3
*D38
  1

  0
POINT
  5
403
330
40C
100
AcDbEntity
  8
DEFPOINTS
  6
ByBlock
 62
     1
380
     1
100
AcDbPoint
 10
2688.112483055088
 20
2754.011747253219
 30
0.0
  0
POINT
  5
404
330
40C
100
AcDbEntity
  8
DEFPOINTS
  6
ByBlock
 62
     1
380
     1
100
AcDbPoint
 10
2688.112483055088
 20
2540.918237253219
 30
0.0
  0
LINE
  5
405
330
40C
100
AcDbEntity
  8
0
  6
ByBlock
 62
     1
370
    -2
380
     1
100
AcDbLine
 10
2687.112483055088
 20
2754.011747253219
 30
0.0
 11
2610.469009265089
 21
2754.011747253219
 31
0.0
  0
LINE
  5
406
330
40C
100
AcDbEntity
  8
0
  6
ByBlock
 62
     1
370
    -2
380
     1
100
AcDbLine
 10
2687.112483055088
 20
2540.918237253219
 30
0.0
 11
2610.469009265089
 21
2540.918237253219
 31
0.0
  0
LINE
  5
407
330
40C
100
AcDbEntity
  8
0
  6
ByBlock
 62
     1
370
    -2
380
     1
100
AcDbLine
 10
2610.769009265089
 20
2752.311747253219
 30
0.0
 11
2610.769009265089
 21
2542.618237253219
 31
0.0
  0
SOLID
  5
408
330
40C
100
AcDbEntity
  8
0
  6
ByBlock
 62
     1
380
     1
100
AcDbTrace
 10
2610.769009265089
 20
2754.011747253219
 30
0.0
 11
2610.485675931756
 21
2752.311747253219
 31
0.0
 12
2611.052342598422
 22
2752.311747253219
 32
0.0
 13
2611.052342598422
 23
2752.311747253219
 33
0.0
  0
SOLID
  5
409
330
40C
100
AcDbEntity
  8
0
  6
ByBlock
 62
     1
380
     1
100
AcDbTrace
 10
2610.769009265089
 20
2540.918237253219
 30
0.0
 11
2610.485675931756
 21
2542.618237253219
 31
0.0
 12
2611.052342598422
 22
2542.618237253219
 32
0.0
 13
2611.052342598422
 23
2542.618237253219
 33
0.0
  0
MTEXT
  5
40A
330
40C
100
AcDbEntity
  8
0
  6
ByBlock
 62
     0
370
    -2
380
     1
100
AcDbMText
 10
2609.124909674366
 20
2647.464992253219
 30
0.0
 40
1.75
 41
0.0
 71
     5
 72
     1
  1
230
  7
H
 11
6.123031769111886E-17
 21
1.0
 31
0.0
 73
     1
 44
1.0
  0
ENDBLK
  5
5C2
330
40C
100
AcDbEntity
  8
0
100
AcDbBlockEnd
  0
BLOCK
  5
5C3
330
417
100
AcDbEntity
  8
0
100
AcDbBlockBegin
  2
*D39
 70
     1
 10
0.0
 20
0.0
 30
0.0
  3
*D39
  1

  0
POINT
  5
40E
330
417
100
AcDbEntity
  8
DEFPOINTS
  6
ByBlock
 62
     1
380
     1
100
AcDbPoint
 10
2685.529010735089
 20
2754.011747253219
 30
0.0
  0
POINT
  5
40F
330
417
100
AcDbEntity
  8
DEFPOINTS
  6
ByBlock
 62
     1
380
     1
100
AcDbPoint
 10
2780.819434205089
 20
2444.088962253219
 30
0.0
  0
LINE
  5
410
330
417
100
AcDbEntity
  8
0
  6
ByBlock
 62
     1
370
    -2
380
     1
100
AcDbLine
 10
2684.529010735089
 20
2754.011747253219
 30
0.0
 11
2557.063149725087
 21
2754.011747253219
 31
0.0
  0
LINE
  5
411
330
417
100
AcDbEntity
  8
0
  6
ByBlock
 62
     1
370
    -2
380
     1
100
AcDbLine
 10
2779.819434205089
 20
2444.088962253219
 30
0.0
 11
2557.063149725087
 21
2444.088962253219
 31
0.0
  0
LINE
  5
412
330
417
100
AcDbEntity
  8
0
  6
ByBlock
 62
     1
370
    -2
380
     1
100
AcDbLine
 10
2557.363149725088
 20
2752.311747253219
 30
0.0
 11
2557.363149725088
 21
2445.788962253219
 31
0.0
  0
SOLID
  5
413
330
417
100
AcDbEntity
  8
0
  6
ByBlock
 62
     1
380
     1
100
AcDbTrace
 10
2557.363149725088
 20
2754.011747253219
 30
0.0
 11
2557.079816391754
 21
2752.311747253219
 31
0.0
 12
2557.646483058421
 22
2752.311747253219
 32
0.0
 13
2557.646483058421
 23
2752.311747253219
 33
0.0
  0
SOLID
  5
414
330
417
100
AcDbEntity
  8
0
  6
ByBlock
 62
     1
380
     1
100
AcDbTrace
 10
2557.363149725088
 20
2444.088962253219
 30
0.0
 11
2557.079816391754
 21
2445.788962253219
 31
0.0
 12
2557.646483058421
 22
2445.788962253219
 32
0.0
 13
2557.646483058421
 23
2445.788962253219
 33
0.0
  0
MTEXT
  5
415
330
417
100
AcDbEntity
  8
0
  6
ByBlock
 62
     0
370
    -2
380
     1
100
AcDbMText
 10
2555.719050134365
 20
2599.050354753219
 30
0.0
 40
1.75
 41
0.0
 71
     5
 72
     1
  1
310
  7
H
 11
6.123031769111886E-17
 21
1.0
 31
0.0
 73
     1
 44
1.0
  0
ENDBLK
  5
5C4
330
417
100
AcDbEntity
  8
0
100
AcDbBlockEnd
  0
BLOCK
  5
5C5
330
422
100
AcDbEntity
  8
0
100
AcDbBlockBegin
  2
*D40
 70
     1
 10
0.0
 20
0.0
 30
0.0
  3
*D40
  1

  0
POINT
  5
419
330
422
100
AcDbEntity
  8
DEFPOINTS
  6
ByBlock
 62
     1
380
     1
100
AcDbPoint
 10
2669.511479645089
 20
2733.389792253219
 30
0.0
  0
POINT
  5
41A
330
422
100
AcDbEntity
  8
DEFPOINTS
  6
ByBlock
 62
     1
380
     1
100
AcDbPoint
 10
3024.530588705089
 20
2733.389792253219
 30
0.0
  0
LINE
  5
41B
330
422
100
AcDbEntity
  8
0
  6
ByBlock
 62
     1
370
    -2
380
     1
100
AcDbLine
 10
2669.511479645089
 20
2734.389792253219
 30
0.0
 11
2669.511479645089
 21
2821.398452253219
 31
0.0
  0
LINE
  5
41C
330
422
100
AcDbEntity
  8
0
  6
ByBlock
 62
     1
370
    -2
380
     1
100
AcDbLine
 10
3024.530588705089
 20
2734.389792253219
 30
0.0
 11
3024.530588705089
 21
2821.398452253219
 31
0.0
  0
LINE
  5
41D
330
422
100
AcDbEntity
  8
0
  6
ByBlock
 62
     1
370
    -2
380
     1
100
AcDbLine
 10
2671.211479645089
 20
2821.098452253219
 30
0.0
 11
3022.830588705089
 21
2821.098452253219
 31
0.0
  0
SOLID
  5
41E
330
422
100
AcDbEntity
  8
0
  6
ByBlock
 62
     1
380
     1
100
AcDbTrace
 10
2669.511479645089
 20
2821.098452253219
 30
0.0
 11
2671.211479645089
 21
2820.815118919886
 31
0.0
 12
2671.211479645089
 22
2821.381785586552
 32
0.0
 13
2671.211479645089
 23
2821.381785586552
 33
0.0
  0
SOLID
  5
41F
330
422
100
AcDbEntity
  8
0
  6
ByBlock
 62
     1
380
     1
100
AcDbTrace
 10
3024.530588705089
 20
2821.098452253219
 30
0.0
 11
3022.830588705089
 21
2820.815118919886
 31
0.0
 12
3022.830588705089
 22
2821.381785586552
 32
0.0
 13
3022.830588705089
 23
2821.381785586552
 33
0.0
  0
MTEXT
  5
420
330
422
100
AcDbEntity
  8
0
  6
ByBlock
 62
     0
370
    -2
380
     1
100
AcDbMText
 10
2847.021034175089
 20
2822.742551843942
 30
0.0
 40
1.75
 41
0.0
 71
     5
 72
     1
  1
355
  7
H
 73
     1
 44
1.0
  0
ENDBLK
  5
5C6
330
422
100
AcDbEntity
  8
0
100
AcDbBlockEnd
  0
BLOCK
  5
5C7
330
42E
100
AcDbEntity
  8
0
100
AcDbBlockBegin
  2
*D41
 70
     1
 10
0.0
 20
0.0
 30
0.0
  3
*D41
  1

  0
POINT
  5
425
330
42E
100
AcDbEntity
  8
DEFPOINTS
  6
ByBlock
 62
     0
380
     1
100
AcDbPoint
 10
2669.511479645089
 20
2684.870777065521
 30
0.0
  0
POINT
  5
426
330
42E
100
AcDbEntity
  8
DEFPOINTS
  6
ByBlock
 62
     0
380
     1
100
AcDbPoint
 10
3024.530588705089
 20
2684.870777065521
 30
0.0
  0
LINE
  5
427
330
42E
100
AcDbEntity
  8
0
  6
ByBlock
 62
     0
370
    -2
380
     1
100
AcDbLine
 10
2669.511479645089
 20
2685.495777065521
 30
0.0
 11
2669.511479645089
 21
2811.678040361974
 31
0.0
  0
LINE
  5
428
330
42E
100
AcDbEntity
  8
0
  6
ByBlock
 62
     0
370
    -2
380
     1
100
AcDbLine
 10
3024.530588705089
 20
2685.495777065521
 30
0.0
 11
3024.530588705089
 21
2811.678040361974
 31
0.0
  0
LINE
  5
429
330
42E
100
AcDbEntity
  8
0
  6
ByBlock
 62
     0
370
    -2
380
     1
100
AcDbLine
 10
2672.011479645089
 20
2810.428040361974
 30
0.0
 11
3022.030588705089
 21
2810.428040361974
 31
0.0
  0
SOLID
  5
42A
330
42E
100
AcDbEntity
  8
0
  6
ByBlock
 62
     0
380
     1
100
AcDbTrace
 10
2669.511479645089
 20
2810.428040361974
 30
0.0
 11
2672.011479645089
 21
2810.011373695307
 31
0.0
 12
2672.011479645089
 22
2810.84470702864
 32
0.0
 13
2672.011479645089
 23
2810.84470702864
 33
0.0
  0
SOLID
  5
42B
330
42E
100
AcDbEntity
  8
0
  6
ByBlock
 62
     0
380
     1
100
AcDbTrace
 10
3024.530588705089
 20
2810.428040361974
 30
0.0
 11
3022.030588705089
 21
2810.011373695307
 31
0.0
 12
3022.030588705089
 22
2810.84470702864
 32
0.0
 13
3022.030588705089
 23
2810.84470702864
 33
0.0
  0
MTEXT
  5
42C
330
42E
100
AcDbEntity
  8
0
  6
ByBlock
 62
     0
370
    -2
380
     1
100
AcDbMText
 10
2847.021034175089
 20
2812.511373695307
 30
0.0
 40
2.5
 41
0.0
 71
     5
 72
     1
  1
\A1;355,02
 73
     1
 44
1.0
  0
ENDBLK
  5
5C8
330
42E
100
AcDbEntity
  8
0
100
AcDbBlockEnd
  0
BLOCK
  5
5C9
330
439
100
AcDbEntity
  8
0
100
AcDbBlockBegin
  2
*D42
 70
     1
 10
0.0
 20
0.0
 30
0.0
  3
*D42
  1

  0
POINT
  5
430
330
439
100
AcDbEntity
  8
DEFPOINTS
  6
ByBlock
 62
     0
380
     1
100
AcDbPoint
 10
2669.511479645089
 20
2684.870777065521
 30
0.0
  0
POINT
  5
431
330
439
100
AcDbEntity
  8
DEFPOINTS
  6
ByBlock
 62
     0
380
     1
100
AcDbPoint
 10
3024.530588705089
 20
2684.870777065521
 30
0.0
  0
LINE
  5
432
330
439
100
AcDbEntity
  8
0
  6
ByBlock
 62
     0
370
    -2
380
     1
100
AcDbLine
 10
2669.511479645089
 20
2685.495777065521
 30
0.0
 11
2669.511479645089
 21
2811.678040361974
 31
0.0
  0
LINE
  5
433
330
439
100
AcDbEntity
  8
0
  6
ByBlock
 62
     0
370
    -2
380
     1
100
AcDbLine
 10
3024.530588705089
 20
2685.495777065521
 30
0.0
 11
3024.530588705089
 21
2811.678040361974
 31
0.0
  0
LINE
  5
434
330
439
100
AcDbEntity
  8
0
  6
ByBlock
 62
     0
370
    -2
380
     1
100
AcDbLine
 10
2672.011479645089
 20
2810.428040361974
 30
0.0
 11
3022.030588705089
 21
2810.428040361974
 31
0.0
  0
SOLID
  5
435
330
439
100
AcDbEntity
  8
0
  6
ByBlock
 62
     0
380
     1
100
AcDbTrace
 10
2669.511479645089
 20
2810.428040361974
 30
0.0
 11
2672.011479645089
 21
2810.011373695307
 31
0.0
 12
2672.011479645089
 22
2810.84470702864
 32
0.0
 13
2672.011479645089
 23
2810.84470702864
 33
0.0
  0
SOLID
  5
436
330
439
100
AcDbEntity
  8
0
  6
ByBlock
 62
     0
380
     1
100
AcDbTrace
 10
3024.530588705089
 20
2810.428040361974
 30
0.0
 11
3022.030588705089
 21
2810.011373695307
 31
0.0
 12
3022.030588705089
 22
2810.84470702864
 32
0.0
 13
3022.030588705089
 23
2810.84470702864
 33
0.0
  0
MTEXT
  5
437
330
439
100
AcDbEntity
  8
0
  6
ByBlock
 62
     0
370
    -2
380
     1
100
AcDbMText
 10
2847.021034175089
 20
2812.511373695307
 30
0.0
 40
2.5
 41
0.0
 71
     5
 72
     1
  1
\A1;355,02
 73
     1
 44
1.0
  0
ENDBLK
  5
5CA
330
439
100
AcDbEntity
  8
0
100
AcDbBlockEnd
  0
BLOCK
  5
5CB
330
444
100
AcDbEntity
  8
0
100
AcDbBlockBegin
  2
*D43
 70
     1
 10
0.0
 20
0.0
 30
0.0
  3
*D43
  1

  0
POINT
  5
43B
330
444
100
AcDbEntity
  8
DEFPOINTS
  6
ByBlock
 62
     7
380
     1
100
AcDbPoint
 10
2669.511479645089
 20
2684.870777065521
 30
0.0
  0
POINT
  5
43C
330
444
100
AcDbEntity
  8
DEFPOINTS
  6
ByBlock
 62
     7
380
     1
100
AcDbPoint
 10
3024.530588705089
 20
2684.870777065521
 30
0.0
  0
LINE
  5
43D
330
444
100
AcDbEntity
  8
0
  6
ByBlock
 62
     7
370
    -2
380
     1
100
AcDbLine
 10
2669.511479645089
 20
2685.495777065521
 30
0.0
 11
2669.511479645089
 21
2811.678040361974
 31
0.0
  0
LINE
  5
43E
330
444
100
AcDbEntity
  8
0
  6
ByBlock
 62
     7
370
    -2
380
     1
100
AcDbLine
 10
3024.530588705089
 20
2685.495777065521
 30
0.0
 11
3024.530588705089
 21
2811.678040361974
 31
0.0
  0
LINE
  5
43F
330
444
100
AcDbEntity
  8
0
  6
ByBlock
 62
     7
370
    -2
380
     1
100
AcDbLine
 10
2679.511479645089
 20
2810.428040361974
 30
0.0
 11
3014.530588705089
 21
2810.428040361974
 31
0.0
  0
SOLID
  5
440
330
444
100
AcDbEntity
  8
0
  6
ByBlock
 62
     7
380
     1
100
AcDbTrace
 10
2669.511479645089
 20
2810.428040361974
 30
0.0
 11
2679.511479645089
 21
2808.761373695307
 31
0.0
 12
2679.511479645089
 22
2812.09470702864
 32
0.0
 13
2679.511479645089
 23
2812.09470702864
 33
0.0
  0
SOLID
  5
441
330
444
100
AcDbEntity
  8
0
  6
ByBlock
 62
     7
380
     1
100
AcDbTrace
 10
3024.530588705089
 20
2810.428040361974
 30
0.0
 11
3014.530588705089
 21
2808.761373695307
 31
0.0
 12
3014.530588705089
 22
2812.09470702864
 32
0.0
 13
3014.530588705089
 23
2812.09470702864
 33
0.0
  0
MTEXT
  5
442
330
444
100
AcDbEntity
  8
0
  6
ByBlock
 62
     0
370
    -2
380
     1
100
AcDbMText
 10
2847.021034175089
 20
2823.59470702864
 30
0.0
 40
14.0
 41
0.0
 71
     5
 72
     1
  1
\A1;355,02
 73
     1
 44
1.0
  0
ENDBLK
  5
5CC
330
444
100
AcDbEntity
  8
0
100
AcDbBlockEnd
  0
BLOCK
  5
5CD
330
44F
100
AcDbEntity
  8
0
100
AcDbBlockBegin
  2
*D44
 70
     1
 10
0.0
 20
0.0
 30
0.0
  3
*D44
  1

  0
POINT
  5
446
330
44F
100
AcDbEntity
  8
DEFPOINTS
  6
ByBlock
 62
     7
380
     1
100
AcDbPoint
 10
2669.511479645089
 20
2684.870777065521
 30
0.0
  0
POINT
  5
447
330
44F
100
AcDbEntity
  8
DEFPOINTS
  6
ByBlock
 62
     7
380
     1
100
AcDbPoint
 10
3024.530588705089
 20
2684.870777065521
 30
0.0
  0
LINE
  5
448
330
44F
100
AcDbEntity
  8
0
  6
ByBlock
 62
     7
370
    -2
380
     1
100
AcDbLine
 10
2669.511479645089
 20
2685.495777065521
 30
0.0
 11
2669.511479645089
 21
2811.678040361974
 31
0.0
  0
LINE
  5
449
330
44F
100
AcDbEntity
  8
0
  6
ByBlock
 62
     7
370
    -2
380
     1
100
AcDbLine
 10
3024.530588705089
 20
2685.495777065521
 30
0.0
 11
3024.530588705089
 21
2811.678040361974
 31
0.0
  0
LINE
  5
44A
330
44F
100
AcDbEntity
  8
0
  6
ByBlock
 62
     7
370
    -2
380
     1
100
AcDbLine
 10
2679.511479645089
 20
2810.428040361974
 30
0.0
 11
3014.530588705089
 21
2810.428040361974
 31
0.0
  0
SOLID
  5
44B
330
44F
100
AcDbEntity
  8
0
  6
ByBlock
 62
     7
380
     1
100
AcDbTrace
 10
2669.511479645089
 20
2810.428040361974
 30
0.0
 11
2679.511479645089
 21
2808.761373695307
 31
0.0
 12
2679.511479645089
 22
2812.09470702864
 32
0.0
 13
2679.511479645089
 23
2812.09470702864
 33
0.0
  0
SOLID
  5
44C
330
44F
100
AcDbEntity
  8
0
  6
ByBlock
 62
     7
380
     1
100
AcDbTrace
 10
3024.530588705089
 20
2810.428040361974
 30
0.0
 11
3014.530588705089
 21
2808.761373695307
 31
0.0
 12
3014.530588705089
 22
2812.09470702864
 32
0.0
 13
3014.530588705089
 23
2812.09470702864
 33
0.0
  0
MTEXT
  5
44D
330
44F
100
AcDbEntity
  8
0
  6
ByBlock
 62
     0
370
    -2
380
     1
100
AcDbMText
 10
2847.021034175089
 20
2822.428040361974
 30
0.0
 40
14.0
 41
0.0
 71
     5
 72
     1
  1
355
 73
     1
 44
1.0
  0
ENDBLK
  5
5CE
330
44F
100
AcDbEntity
  8
0
100
AcDbBlockEnd
  0
BLOCK
  5
5CF
330
45B
100
AcDbEntity
  8
0
100
AcDbBlockBegin
  2
*D45
 70
     1
 10
0.0
 20
0.0
 30
0.0
  3
*D45
  1

  0
POINT
  5
452
330
45B
100
AcDbEntity
  8
DEFPOINTS
  6
ByBlock
 62
     0
380
     1
100
AcDbPoint
 10
2648.790746160088
 20
2754.011747253219
 30
0.0
  0
POINT
  5
453
330
45B
100
AcDbEntity
  8
DEFPOINTS
  6
ByBlock
 62
     0
380
     1
100
AcDbPoint
 10
2648.790746160088
 20
2540.918237253219
 30
0.0
  0
LINE
  5
454
330
45B
100
AcDbEntity
  8
0
  6
ByBlock
 62
     0
370
    -2
380
     1
100
AcDbLine
 10
2648.165746160088
 20
2754.011747253219
 30
0.0
 11
2588.967359907479
 21
2754.011747253219
 31
0.0
  0
LINE
  5
455
330
45B
100
AcDbEntity
  8
0
  6
ByBlock
 62
     0
370
    -2
380
     1
100
AcDbLine
 10
2648.165746160088
 20
2540.918237253219
 30
0.0
 11
2588.967359907479
 21
2540.918237253219
 31
0.0
  0
LINE
  5
456
330
45B
100
AcDbEntity
  8
0
  6
ByBlock
 62
     0
370
    -2
380
     1
100
AcDbLine
 10
2590.217359907479
 20
2751.511747253219
 30
0.0
 11
2590.217359907479
 21
2543.418237253219
 31
0.0
  0
SOLID
  5
457
330
45B
100
AcDbEntity
  8
0
  6
ByBlock
 62
     0
380
     1
100
AcDbTrace
 10
2590.217359907479
 20
2754.011747253219
 30
0.0
 11
2589.800693240813
 21
2751.511747253219
 31
0.0
 12
2590.634026574146
 22
2751.511747253219
 32
0.0
 13
2590.634026574146
 23
2751.511747253219
 33
0.0
  0
SOLID
  5
458
330
45B
100
AcDbEntity
  8
0
  6
ByBlock
 62
     0
380
     1
100
AcDbTrace
 10
2590.217359907479
 20
2540.918237253219
 30
0.0
 11
2589.800693240813
 21
2543.418237253219
 31
0.0
 12
2590.634026574146
 22
2543.418237253219
 32
0.0
 13
2590.634026574146
 23
2543.418237253219
 33
0.0
  0
MTEXT
  5
459
330
45B
100
AcDbEntity
  8
0
  6
ByBlock
 62
     0
370
    -2
380
     1
100
AcDbMText
 10
2588.134026574146
 20
2647.464992253219
 30
0.0
 40
2.5
 41
0.0
 71
     5
 72
     1
  1
\A1;213,09
 11
6.123031769111886E-17
 21
1.0
 31
0.0
 73
     1
 44
1.0
  0
ENDBLK
  5
5D0
330
45B
100
AcDbEntity
  8
0
100
AcDbBlockEnd
  0
BLOCK
  5
5D1
330
467
100
AcDbEntity
  8
0
100
AcDbBlockBegin
  2
*D46
 70
     1
 10
0.0
 20
0.0
 30
0.0
  3
*D46
  1

  0
POINT
  5
45E
330
467
100
AcDbEntity
  8
DEFPOINTS
  6
ByBlock
 62
     0
380
     1
100
AcDbPoint
 10
2695.318256630087
 20
2754.011747253219
 30
0.0
  0
POINT
  5
45F
330
467
100
AcDbEntity
  8
DEFPOINTS
  6
ByBlock
 62
     0
380
     1
100
AcDbPoint
 10
2695.318256630087
 20
2540.918237253219
 30
0.0
  0
LINE
  5
460
330
467
100
AcDbEntity
  8
0
  6
ByBlock
 62
     0
370
    -2
380
     1
100
AcDbLine
 10
2694.693256630087
 20
2754.011747253219
 30
0.0
 11
2592.288302316499
 21
2754.011747253219
 31
0.0
  0
LINE
  5
461
330
467
100
AcDbEntity
  8
0
  6
ByBlock
 62
     0
370
    -2
380
     1
100
AcDbLine
 10
2694.693256630087
 20
2540.918237253219
 30
0.0
 11
2592.288302316499
 21
2540.918237253219
 31
0.0
  0
LINE
  5
462
330
467
100
AcDbEntity
  8
0
  6
ByBlock
 62
     0
370
    -2
380
     1
100
AcDbLine
 10
2593.538302316499
 20
2751.511747253219
 30
0.0
 11
2593.538302316499
 21
2543.418237253219
 31
0.0
  0
SOLID
  5
463
330
467
100
AcDbEntity
  8
0
  6
ByBlock
 62
     0
380
     1
100
AcDbTrace
 10
2593.538302316499
 20
2754.011747253219
 30
0.0
 11
2593.121635649832
 21
2751.511747253219
 31
0.0
 12
2593.954968983165
 22
2751.511747253219
 32
0.0
 13
2593.954968983165
 23
2751.511747253219
 33
0.0
  0
SOLID
  5
464
330
467
100
AcDbEntity
  8
0
  6
ByBlock
 62
     0
380
     1
100
AcDbTrace
 10
2593.538302316499
 20
2540.918237253219
 30
0.0
 11
2593.121635649832
 21
2543.418237253219
 31
0.0
 12
2593.954968983165
 22
2543.418237253219
 32
0.0
 13
2593.954968983165
 23
2543.418237253219
 33
0.0
  0
MTEXT
  5
465
330
467
100
AcDbEntity
  8
0
  6
ByBlock
 62
     0
370
    -2
380
     1
100
AcDbMText
 10
2591.454968983166
 20
2647.464992253219
 30
0.0
 40
2.5
 41
0.0
 71
     5
 72
     1
  1
\A1;213,09
 11
6.123031769111886E-17
 21
1.0
 31
0.0
 73
     1
 44
1.0
  0
ENDBLK
  5
5D2
330
467
100
AcDbEntity
  8
0
100
AcDbBlockEnd
  0
BLOCK
  5
5D3
330
472
100
AcDbEntity
  8
0
100
AcDbBlockBegin
  2
*D47
 70
     1
 10
0.0
 20
0.0
 30
0.0
  3
*D47
  1

  0
POINT
  5
469
330
472
100
AcDbEntity
  8
DEFPOINTS
  6
ByBlock
 62
     0
380
     1
100
AcDbPoint
 10
2723.103726786397
 20
2754.011747253219
 30
0.0
  0
POINT
  5
46A
330
472
100
AcDbEntity
  8
DEFPOINTS
  6
ByBlock
 62
     0
380
     1
100
AcDbPoint
 10
2723.103726786397
 20
2540.918237253219
 30
0.0
  0
LINE
  5
46B
330
472
100
AcDbEntity
  8
0
  6
ByBlock
 62
     0
370
    -2
380
     1
100
AcDbLine
 10
2722.478726786397
 20
2754.011747253219
 30
0.0
 11
2620.073772472808
 21
2754.011747253219
 31
0.0
  0
LINE
  5
46C
330
472
100
AcDbEntity
  8
0
  6
ByBlock
 62
     0
370
    -2
380
     1
100
AcDbLine
 10
2722.478726786397
 20
2540.918237253219
 30
0.0
 11
2620.073772472808
 21
2540.918237253219
 31
0.0
  0
LINE
  5
46D
330
472
100
AcDbEntity
  8
0
  6
ByBlock
 62
     0
370
    -2
380
     1
100
AcDbLine
 10
2621.323772472808
 20
2751.511747253219
 30
0.0
 11
2621.323772472808
 21
2543.418237253219
 31
0.0
  0
SOLID
  5
46E
330
472
100
AcDbEntity
  8
0
  6
ByBlock
 62
     0
380
     1
100
AcDbTrace
 10
2621.323772472808
 20
2754.011747253219
 30
0.0
 11
2620.907105806141
 21
2751.511747253219
 31
0.0
 12
2621.740439139474
 22
2751.511747253219
 32
0.0
 13
2621.740439139474
 23
2751.511747253219
 33
0.0
  0
SOLID
  5
46F
330
472
100
AcDbEntity
  8
0
  6
ByBlock
 62
     0
380
     1
100
AcDbTrace
 10
2621.323772472808
 20
2540.918237253219
 30
0.0
 11
2620.907105806141
 21
2543.418237253219
 31
0.0
 12
2621.740439139474
 22
2543.418237253219
 32
0.0
 13
2621.740439139474
 23
2543.418237253219
 33
0.0
  0
MTEXT
  5
470
330
472
100
AcDbEntity
  8
0
  6
ByBlock
 62
     0
370
    -2
380
     1
100
AcDbMText
 10
2619.240439139475
 20
2647.464992253219
 30
0.0
 40
2.5
 41
0.0
 71
     5
 72
     1
  1
\A1;213,09
 11
6.123031769111886E-17
 21
1.0
 31
0.0
 73
     1
 44
1.0
  0
ENDBLK
  5
5D4
330
472
100
AcDbEntity
  8
0
100
AcDbBlockEnd
  0
BLOCK
  5
5D5
330
47D
100
AcDbEntity
  8
0
100
AcDbBlockBegin
  2
*D48
 70
     1
 10
0.0
 20
0.0
 30
0.0
  3
*D48
  1

  0
POINT
  5
474
330
47D
100
AcDbEntity
  8
DEFPOINTS
  6
ByBlock
 62
     0
380
     1
100
AcDbPoint
 10
2723.103726786397
 20
2754.011747253219
 30
0.0
  0
POINT
  5
475
330
47D
100
AcDbEntity
  8
DEFPOINTS
  6
ByBlock
 62
     0
380
     1
100
AcDbPoint
 10
2723.103726786397
 20
2540.918237253219
 30
0.0
  0
LINE
  5
476
330
47D
100
AcDbEntity
  8
0
  6
ByBlock
 62
     0
370
    -2
380
     1
100
AcDbLine
 10
2722.478726786397
 20
2754.011747253219
 30
0.0
 11
2620.073772472808
 21
2754.011747253219
 31
0.0
  0
LINE
  5
477
330
47D
100
AcDbEntity
  8
0
  6
ByBlock
 62
     0
370
    -2
380
     1
100
AcDbLine
 10
2722.478726786397
 20
2540.918237253219
 30
0.0
 11
2620.073772472808
 21
2540.918237253219
 31
0.0
  0
LINE
  5
478
330
47D
100
AcDbEntity
  8
0
  6
ByBlock
 62
     0
370
    -2
380
     1
100
AcDbLine
 10
2621.323772472808
 20
2751.511747253219
 30
0.0
 11
2621.323772472808
 21
2543.418237253219
 31
0.0
  0
SOLID
  5
479
330
47D
100
AcDbEntity
  8
0
  6
ByBlock
 62
     0
380
     1
100
AcDbTrace
 10
2621.323772472808
 20
2754.011747253219
 30
0.0
 11
2620.907105806141
 21
2751.511747253219
 31
0.0
 12
2621.740439139474
 22
2751.511747253219
 32
0.0
 13
2621.740439139474
 23
2751.511747253219
 33
0.0
  0
SOLID
  5
47A
330
47D
100
AcDbEntity
  8
0
  6
ByBlock
 62
     0
380
     1
100
AcDbTrace
 10
2621.323772472808
 20
2540.918237253219
 30
0.0
 11
2620.907105806141
 21
2543.418237253219
 31
0.0
 12
2621.740439139474
 22
2543.418237253219
 32
0.0
 13
2621.740439139474
 23
2543.418237253219
 33
0.0
  0
MTEXT
  5
47B
330
47D
100
AcDbEntity
  8
0
  6
ByBlock
 62
     0
370
    -2
380
     1
100
AcDbMText
 10
2619.240439139475
 20
2647.464992253219
 30
0.0
 40
2.5
 41
0.0
 71
     5
 72
     1
  1
\A1;213,09
 11
6.123031769111886E-17
 21
1.0
 31
0.0
 73
     1
 44
1.0
  0
ENDBLK
  5
5D6
330
47D
100
AcDbEntity
  8
0
100
AcDbBlockEnd
  0
BLOCK
  5
5D7
330
488
100
AcDbEntity
  8
0
100
AcDbBlockBegin
  2
*D49
 70
     1
 10
0.0
 20
0.0
 30
0.0
  3
*D49
  1

  0
POINT
  5
47F
330
488
100
AcDbEntity
  8
DEFPOINTS
  6
ByBlock
 62
     7
380
     1
100
AcDbPoint
 10
2723.103726786397
 20
2754.011747253219
 30
0.0
  0
POINT
  5
480
330
488
100
AcDbEntity
  8
DEFPOINTS
  6
ByBlock
 62
     7
380
     1
100
AcDbPoint
 10
2723.103726786397
 20
2540.918237253219
 30
0.0
  0
LINE
  5
481
330
488
100
AcDbEntity
  8
0
  6
ByBlock
 62
     7
370
    -2
380
     1
100
AcDbLine
 10
2722.478726786397
 20
2754.011747253219
 30
0.0
 11
2620.073772472808
 21
2754.011747253219
 31
0.0
  0
LINE
  5
482
330
488
100
AcDbEntity
  8
0
  6
ByBlock
 62
     7
370
    -2
380
     1
100
AcDbLine
 10
2722.478726786397
 20
2540.918237253219
 30
0.0
 11
2620.073772472808
 21
2540.918237253219
 31
0.0
  0
LINE
  5
483
330
488
100
AcDbEntity
  8
0
  6
ByBlock
 62
     7
370
    -2
380
     1
100
AcDbLine
 10
2621.323772472808
 20
2744.011747253219
 30
0.0
 11
2621.323772472808
 21
2550.918237253219
 31
0.0
  0
SOLID
  5
484
330
488
100
AcDbEntity
  8
0
  6
ByBlock
 62
     7
380
     1
100
AcDbTrace
 10
2621.323772472808
 20
2754.011747253219
 30
0.0
 11
2619.657105806141
 21
2744.011747253219
 31
0.0
 12
2622.990439139474
 22
2744.011747253219
 32
0.0
 13
2622.990439139474
 23
2744.011747253219
 33
0.0
  0
SOLID
  5
485
330
488
100
AcDbEntity
  8
0
  6
ByBlock
 62
     7
380
     1
100
AcDbTrace
 10
2621.323772472808
 20
2540.918237253219
 30
0.0
 11
2619.657105806141
 21
2550.918237253219
 31
0.0
 12
2622.990439139474
 22
2550.918237253219
 32
0.0
 13
2622.990439139474
 23
2550.918237253219
 33
0.0
  0
MTEXT
  5
486
330
488
100
AcDbEntity
  8
0
  6
ByBlock
 62
     0
370
    -2
380
     1
100
AcDbMText
 10
2608.157105806141
 20
2647.464992253219
 30
0.0
 40
14.0
 41
0.0
 71
     5
 72
     1
  1
\A1;213,09
 11
6.123031769111886E-17
 21
1.0
 31
0.0
 73
     1
 44
1.0
  0
ENDBLK
  5
5D8
330
488
100
AcDbEntity
  8
0
100
AcDbBlockEnd
  0
BLOCK
  5
5D9
330
494
100
AcDbEntity
  8
0
100
AcDbBlockBegin
  2
*D50
 70
     1
 10
0.0
 20
0.0
 30
0.0
  3
*D50
  1

  0
POINT
  5
48B
330
494
100
AcDbEntity
  8
DEFPOINTS
  6
ByBlock
 62
     0
380
     1
100
AcDbPoint
 10
2827.128176132816
 20
2754.011747253219
 30
0.0
  0
POINT
  5
48C
330
494
100
AcDbEntity
  8
DEFPOINTS
  6
ByBlock
 62
     0
380
     1
100
AcDbPoint
 10
2827.128176132816
 20
2444.088962253219
 30
0.0
  0
LINE
  5
48D
330
494
100
AcDbEntity
  8
0
  6
ByBlock
 62
     0
370
    -2
380
     1
100
AcDbLine
 10
2826.503176132816
 20
2754.011747253219
 30
0.0
 11
2548.961552958347
 21
2754.011747253219
 31
0.0
  0
LINE
  5
48E
330
494
100
AcDbEntity
  8
0
  6
ByBlock
 62
     0
370
    -2
380
     1
100
AcDbLine
 10
2826.503176132816
 20
2444.088962253219
 30
0.0
 11
2548.961552958347
 21
2444.088962253219
 31
0.0
  0
LINE
  5
48F
330
494
100
AcDbEntity
  8
0
  6
ByBlock
 62
     0
370
    -2
380
     1
100
AcDbLine
 10
2550.211552958347
 20
2751.511747253219
 30
0.0
 11
2550.211552958347
 21
2446.588962253219
 31
0.0
  0
SOLID
  5
490
330
494
100
AcDbEntity
  8
0
  6
ByBlock
 62
     0
380
     1
100
AcDbTrace
 10
2550.211552958347
 20
2754.011747253219
 30
0.0
 11
2549.79488629168
 21
2751.511747253219
 31
0.0
 12
2550.628219625013
 22
2751.511747253219
 32
0.0
 13
2550.628219625013
 23
2751.511747253219
 33
0.0
  0
SOLID
  5
491
330
494
100
AcDbEntity
  8
0
  6
ByBlock
 62
     0
380
     1
100
AcDbTrace
 10
2550.211552958347
 20
2444.088962253219
 30
0.0
 11
2549.79488629168
 21
2446.588962253219
 31
0.0
 12
2550.628219625013
 22
2446.588962253219
 32
0.0
 13
2550.628219625013
 23
2446.588962253219
 33
0.0
  0
MTEXT
  5
492
330
494
100
AcDbEntity
  8
0
  6
ByBlock
 62
     0
370
    -2
380
     1
100
AcDbMText
 10
2548.128219625013
 20
2599.050354753219
 30
0.0
 40
2.5
 41
0.0
 71
     5
 72
     1
  1
\A1;309,92
 11
6.123031769111886E-17
 21
1.0
 31
0.0
 73
     1
 44
1.0
  0
ENDBLK
  5
5DA
330
494
100
AcDbEntity
  8
0
100
AcDbBlockEnd
  0
BLOCK
  5
5DB
330
49F
100
AcDbEntity
  8
0
100
AcDbBlockBegin
  2
*D51
 70
     1
 10
0.0
 20
0.0
 30
0.0
  3
*D51
  1

  0
POINT
  5
496
330
49F
100
AcDbEntity
  8
DEFPOINTS
  6
ByBlock
 62
     7
380
     1
100
AcDbPoint
 10
2723.103726786397
 20
2754.011747253219
 30
0.0
  0
POINT
  5
497
330
49F
100
AcDbEntity
  8
DEFPOINTS
  6
ByBlock
 62
     7
380
     1
100
AcDbPoint
 10
2723.103726786397
 20
2540.918237253219
 30
0.0
  0
LINE
  5
498
330
49F
100
AcDbEntity
  8
0
  6
ByBlock
 62
     7
370
    -2
380
     1
100
AcDbLine
 10
2722.478726786397
 20
2754.011747253219
 30
0.0
 11
2620.073772472808
 21
2754.011747253219
 31
0.0
  0
LINE
  5
499
330
49F
100
AcDbEntity
  8
0
  6
ByBlock
 62
     7
370
    -2
380
     1
100
AcDbLine
 10
2722.478726786397
 20
2540.918237253219
 30
0.0
 11
2620.073772472808
 21
2540.918237253219
 31
0.0
  0
LINE
  5
49A
330
49F
100
AcDbEntity
  8
0
  6
ByBlock
 62
     7
370
    -2
380
     1
100
AcDbLine
 10
2621.323772472808
 20
2744.011747253219
 30
0.0
 11
2621.323772472808
 21
2550.918237253219
 31
0.0
  0
SOLID
  5
49B
330
49F
100
AcDbEntity
  8
0
  6
ByBlock
 62
     7
380
     1
100
AcDbTrace
 10
2621.323772472808
 20
2754.011747253219
 30
0.0
 11
2619.657105806141
 21
2744.011747253219
 31
0.0
 12
2622.990439139474
 22
2744.011747253219
 32
0.0
 13
2622.990439139474
 23
2744.011747253219
 33
0.0
  0
SOLID
  5
49C
330
49F
100
AcDbEntity
  8
0
  6
ByBlock
 62
     7
380
     1
100
AcDbTrace
 10
2621.323772472808
 20
2540.918237253219
 30
0.0
 11
2619.657105806141
 21
2550.918237253219
 31
0.0
 12
2622.990439139474
 22
2550.918237253219
 32
0.0
 13
2622.990439139474
 23
2550.918237253219
 33
0.0
  0
MTEXT
  5
49D
330
49F
100
AcDbEntity
  8
0
  6
ByBlock
 62
     0
370
    -2
380
     1
100
AcDbMText
 10
2609.323772472808
 20
2647.464992253219
 30
0.0
 40
14.0
 41
0.0
 71
     5
 72
     1
  1
213
 11
6.123031769111886E-17
 21
1.0
 31
0.0
 73
     1
 44
1.0
  0
ENDBLK
  5
5DC
330
49F
100
AcDbEntity
  8
0
100
AcDbBlockEnd
  0
BLOCK
  5
5DD
330
4AA
100
AcDbEntity
  8
0
100
AcDbBlockBegin
  2
*D52
 70
     1
 10
0.0
 20
0.0
 30
0.0
  3
*D52
  1

  0
POINT
  5
4A1
330
4AA
100
AcDbEntity
  8
DEFPOINTS
  6
ByBlock
 62
     0
380
     1
100
AcDbPoint
 10
2827.128176132816
 20
2754.011747253219
 30
0.0
  0
POINT
  5
4A2
330
4AA
100
AcDbEntity
  8
DEFPOINTS
  6
ByBlock
 62
     0
380
     1
100
AcDbPoint
 10
2827.128176132816
 20
2444.088962253219
 30
0.0
  0
LINE
  5
4A3
330
4AA
100
AcDbEntity
  8
0
  6
ByBlock
 62
     0
370
    -2
380
     1
100
AcDbLine
 10
2826.503176132816
 20
2754.011747253219
 30
0.0
 11
2548.961552958347
 21
2754.011747253219
 31
0.0
  0
LINE
  5
4A4
330
4AA
100
AcDbEntity
  8
0
  6
ByBlock
 62
     0
370
    -2
380
     1
100
AcDbLine
 10
2826.503176132816
 20
2444.088962253219
 30
0.0
 11
2548.961552958347
 21
2444.088962253219
 31
0.0
  0
LINE
  5
4A5
330
4AA
100
AcDbEntity
  8
0
  6
ByBlock
 62
     0
370
    -2
380
     1
100
AcDbLine
 10
2550.211552958347
 20
2751.511747253219
 30
0.0
 11
2550.211552958347
 21
2446.588962253219
 31
0.0
  0
SOLID
  5
4A6
330
4AA
100
AcDbEntity
  8
0
  6
ByBlock
 62
     0
380
     1
100
AcDbTrace
 10
2550.211552958347
 20
2754.011747253219
 30
0.0
 11
2549.79488629168
 21
2751.511747253219
 31
0.0
 12
2550.628219625013
 22
2751.511747253219
 32
0.0
 13
2550.628219625013
 23
2751.511747253219
 33
0.0
  0
SOLID
  5
4A7
330
4AA
100
AcDbEntity
  8
0
  6
ByBlock
 62
     0
380
     1
100
AcDbTrace
 10
2550.211552958347
 20
2444.088962253219
 30
0.0
 11
2549.79488629168
 21
2446.588962253219
 31
0.0
 12
2550.628219625013
 22
2446.588962253219
 32
0.0
 13
2550.628219625013
 23
2446.588962253219
 33
0.0
  0
MTEXT
  5
4A8
330
4AA
100
AcDbEntity
  8
0
  6
ByBlock
 62
     0
370
    -2
380
     1
100
AcDbMText
 10
2548.128219625013
 20
2599.050354753219
 30
0.0
 40
2.5
 41
0.0
 71
     5
 72
     1
  1
\A1;309,92
 11
6.123031769111886E-17
 21
1.0
 31
0.0
 73
     1
 44
1.0
  0
ENDBLK
  5
5DE
330
4AA
100
AcDbEntity
  8
0
100
AcDbBlockEnd
  0
BLOCK
  5
5DF
330
4B5
100
AcDbEntity
  8
0
100
AcDbBlockBegin
  2
*D53
 70
     1
 10
0.0
 20
0.0
 30
0.0
  3
*D53
  1

  0
POINT
  5
4AC
330
4B5
100
AcDbEntity
  8
DEFPOINTS
  6
ByBlock
 62
     7
380
     1
100
AcDbPoint
 10
2827.128176132816
 20
2754.011747253219
 30
0.0
  0
POINT
  5
4AD
330
4B5
100
AcDbEntity
  8
DEFPOINTS
  6
ByBlock
 62
     7
380
     1
100
AcDbPoint
 10
2827.128176132816
 20
2444.088962253219
 30
0.0
  0
LINE
  5
4AE
330
4B5
100
AcDbEntity
  8
0
  6
ByBlock
 62
     7
370
    -2
380
     1
100
AcDbLine
 10
2826.503176132816
 20
2754.011747253219
 30
0.0
 11
2548.961552958347
 21
2754.011747253219
 31
0.0
  0
LINE
  5
4AF
330
4B5
100
AcDbEntity
  8
0
  6
ByBlock
 62
     7
370
    -2
380
     1
100
AcDbLine
 10
2826.503176132816
 20
2444.088962253219
 30
0.0
 11
2548.961552958347
 21
2444.088962253219
 31
0.0
  0
LINE
  5
4B0
330
4B5
100
AcDbEntity
  8
0
  6
ByBlock
 62
     7
370
    -2
380
     1
100
AcDbLine
 10
2550.211552958347
 20
2744.011747253219
 30
0.0
 11
2550.211552958347
 21
2454.088962253219
 31
0.0
  0
SOLID
  5
4B1
330
4B5
100
AcDbEntity
  8
0
  6
ByBlock
 62
     7
380
     1
100
AcDbTrace
 10
2550.211552958347
 20
2754.011747253219
 30
0.0
 11
2548.54488629168
 21
2744.011747253219
 31
0.0
 12
2551.878219625013
 22
2744.011747253219
 32
0.0
 13
2551.878219625013
 23
2744.011747253219
 33
0.0
  0
SOLID
  5
4B2
330
4B5
100
AcDbEntity
  8
0
  6
ByBlock
 62
     7
380
     1
100
AcDbTrace
 10
2550.211552958347
 20
2444.088962253219
 30
0.0
 11
2548.54488629168
 21
2454.088962253219
 31
0.0
 12
2551.878219625013
 22
2454.088962253219
 32
0.0
 13
2551.878219625013
 23
2454.088962253219
 33
0.0
  0
MTEXT
  5
4B3
330
4B5
100
AcDbEntity
  8
0
  6
ByBlock
 62
     0
370
    -2
380
     1
100
AcDbMText
 10
2537.04488629168
 20
2599.050354753219
 30
0.0
 40
14.0
 41
0.0
 71
     5
 72
     1
  1
\A1;309,92
 11
6.123031769111886E-17
 21
1.0
 31
0.0
 73
     1
 44
1.0
  0
ENDBLK
  5
5E0
330
4B5
100
AcDbEntity
  8
0
100
AcDbBlockEnd
  0
BLOCK
  5
5E1
330
4C0
100
AcDbEntity
  8
0
100
AcDbBlockBegin
  2
*D54
 70
     1
 10
0.0
 20
0.0
 30
0.0
  3
*D54
  1

  0
POINT
  5
4B7
330
4C0
100
AcDbEntity
  8
DEFPOINTS
  6
ByBlock
 62
     7
380
     1
100
AcDbPoint
 10
2827.128176132816
 20
2754.011747253219
 30
0.0
  0
POINT
  5
4B8
330
4C0
100
AcDbEntity
  8
DEFPOINTS
  6
ByBlock
 62
     7
380
     1
100
AcDbPoint
 10
2827.128176132816
 20
2444.088962253219
 30
0.0
  0
LINE
  5
4B9
330
4C0
100
AcDbEntity
  8
0
  6
ByBlock
 62
     7
370
    -2
380
     1
100
AcDbLine
 10
2826.503176132816
 20
2754.011747253219
 30
0.0
 11
2548.961552958347
 21
2754.011747253219
 31
0.0
  0
LINE
  5
4BA
330
4C0
100
AcDbEntity
  8
0
  6
ByBlock
 62
     7
370
    -2
380
     1
100
AcDbLine
 10
2826.503176132816
 20
2444.088962253219
 30
0.0
 11
2548.961552958347
 21
2444.088962253219
 31
0.0
  0
LINE
  5
4BB
330
4C0
100
AcDbEntity
  8
0
  6
ByBlock
 62
     7
370
    -2
380
     1
100
AcDbLine
 10
2550.211552958347
 20
2744.011747253219
 30
0.0
 11
2550.211552958347
 21
2454.088962253219
 31
0.0
  0
SOLID
  5
4BC
330
4C0
100
AcDbEntity
  8
0
  6
ByBlock
 62
     7
380
     1
100
AcDbTrace
 10
2550.211552958347
 20
2754.011747253219
 30
0.0
 11
2548.54488629168
 21
2744.011747253219
 31
0.0
 12
2551.878219625013
 22
2744.011747253219
 32
0.0
 13
2551.878219625013
 23
2744.011747253219
 33
0.0
  0
SOLID
  5
4BD
330
4C0
100
AcDbEntity
  8
0
  6
ByBlock
 62
     7
380
     1
100
AcDbTrace
 10
2550.211552958347
 20
2444.088962253219
 30
0.0
 11
2548.54488629168
 21
2454.088962253219
 31
0.0
 12
2551.878219625013
 22
2454.088962253219
 32
0.0
 13
2551.878219625013
 23
2454.088962253219
 33
0.0
  0
MTEXT
  5
4BE
330
4C0
100
AcDbEntity
  8
0
  6
ByBlock
 62
     0
370
    -2
380
     1
100
AcDbMText
 10
2537.04488629168
 20
2599.050354753219
 30
0.0
 40
14.0
 41
0.0
 71
     5
 72
     1
  1
\A1;309,92
 11
6.123031769111886E-17
 21
1.0
 31
0.0
 73
     1
 44
1.0
  0
ENDBLK
  5
5E2
330
4C0
100
AcDbEntity
  8
0
100
AcDbBlockEnd
  0
BLOCK
  5
5E3
330
4CB
100
AcDbEntity
  8
0
100
AcDbBlockBegin
  2
*D55
 70
     1
 10
0.0
 20
0.0
 30
0.0
  3
*D55
  1

  0
POINT
  5
4C2
330
4CB
100
AcDbEntity
  8
DEFPOINTS
  6
ByBlock
 62
     7
380
     1
100
AcDbPoint
 10
2827.128176132816
 20
2754.011747253219
 30
0.0
  0
POINT
  5
4C3
330
4CB
100
AcDbEntity
  8
DEFPOINTS
  6
ByBlock
 62
     7
380
     1
100
AcDbPoint
 10
2827.128176132816
 20
2444.088962253219
 30
0.0
  0
LINE
  5
4C4
330
4CB
100
AcDbEntity
  8
0
  6
ByBlock
 62
     7
370
    -2
380
     1
100
AcDbLine
 10
2826.503176132816
 20
2754.011747253219
 30
0.0
 11
2548.961552958347
 21
2754.011747253219
 31
0.0
  0
LINE
  5
4C5
330
4CB
100
AcDbEntity
  8
0
  6
ByBlock
 62
     7
370
    -2
380
     1
100
AcDbLine
 10
2826.503176132816
 20
2444.088962253219
 30
0.0
 11
2548.961552958347
 21
2444.088962253219
 31
0.0
  0
LINE
  5
4C6
330
4CB
100
AcDbEntity
  8
0
  6
ByBlock
 62
     7
370
    -2
380
     1
100
AcDbLine
 10
2550.211552958347
 20
2744.011747253219
 30
0.0
 11
2550.211552958347
 21
2454.088962253219
 31
0.0
  0
SOLID
  5
4C7
330
4CB
100
AcDbEntity
  8
0
  6
ByBlock
 62
     7
380
     1
100
AcDbTrace
 10
2550.211552958347
 20
2754.011747253219
 30
0.0
 11
2548.54488629168
 21
2744.011747253219
 31
0.0
 12
2551.878219625013
 22
2744.011747253219
 32
0.0
 13
2551.878219625013
 23
2744.011747253219
 33
0.0
  0
SOLID
  5
4C8
330
4CB
100
AcDbEntity
  8
0
  6
ByBlock
 62
     7
380
     1
100
AcDbTrace
 10
2550.211552958347
 20
2444.088962253219
 30
0.0
 11
2548.54488629168
 21
2454.088962253219
 31
0.0
 12
2551.878219625013
 22
2454.088962253219
 32
0.0
 13
2551.878219625013
 23
2454.088962253219
 33
0.0
  0
MTEXT
  5
4C9
330
4CB
100
AcDbEntity
  8
0
  6
ByBlock
 62
     0
370
    -2
380
     1
100
AcDbMText
 10
2538.211552958347
 20
2599.050354753219
 30
0.0
 40
14.0
 41
0.0
 71
     5
 72
     1
  1
310
 11
6.123031769111886E-17
 21
1.0
 31
0.0
 73
     1
 44
1.0
  0
ENDBLK
  5
5E4
330
4CB
100
AcDbEntity
  8
0
100
AcDbBlockEnd
  0
BLOCK
  5
5E5
330
4E5
100
AcDbEntity
  8
0
100
AcDbBlockBegin
  2
*D56
 70
     1
 10
0.0
 20
0.0
 30
0.0
  3
*D56
  1

  0
POINT
  5
4DC
330
4E5
100
AcDbEntity
  8
DEFPOINTS
  6
ByBlock
 62
     0
380
     1
100
AcDbPoint
 10
3103.566814325088
 20
2766.374041194826
 30
0.0
  0
POINT
  5
4DD
330
4E5
100
AcDbEntity
  8
DEFPOINTS
  6
ByBlock
 62
     0
380
     1
100
AcDbPoint
 10
3254.854335875089
 20
2766.374041194826
 30
0.0
  0
LINE
  5
4DE
330
4E5
100
AcDbEntity
  8
0
  6
ByBlock
 62
     0
370
    -2
380
     1
100
AcDbLine
 10
3103.566814325088
 20
2766.999041194826
 30
0.0
 11
3103.566814325088
 21
2838.128035272995
 31
0.0
  0
LINE
  5
4DF
330
4E5
100
AcDbEntity
  8
0
  6
ByBlock
 62
     0
370
    -2
380
     1
100
AcDbLine
 10
3254.854335875089
 20
2766.999041194826
 30
0.0
 11
3254.854335875089
 21
2838.128035272995
 31
0.0
  0
LINE
  5
4E0
330
4E5
100
AcDbEntity
  8
0
  6
ByBlock
 62
     0
370
    -2
380
     1
100
AcDbLine
 10
3106.066814325088
 20
2836.878035272995
 30
0.0
 11
3252.354335875089
 21
2836.878035272995
 31
0.0
  0
SOLID
  5
4E1
330
4E5
100
AcDbEntity
  8
0
  6
ByBlock
 62
     0
380
     1
100
AcDbTrace
 10
3103.566814325088
 20
2836.878035272995
 30
0.0
 11
3106.066814325088
 21
2836.461368606329
 31
0.0
 12
3106.066814325088
 22
2837.294701939662
 32
0.0
 13
3106.066814325088
 23
2837.294701939662
 33
0.0
  0
SOLID
  5
4E2
330
4E5
100
AcDbEntity
  8
0
  6
ByBlock
 62
     0
380
     1
100
AcDbTrace
 10
3254.854335875089
 20
2836.878035272995
 30
0.0
 11
3252.354335875089
 21
2836.461368606329
 31
0.0
 12
3252.354335875089
 22
2837.294701939662
 32
0.0
 13
3252.354335875089
 23
2837.294701939662
 33
0.0
  0
MTEXT
  5
4E3
330
4E5
100
AcDbEntity
  8
0
  6
ByBlock
 62
     0
370
    -2
380
     1
100
AcDbMText
 10
3179.210575100088
 20
2838.961368606329
 30
0.0
 40
2.5
 41
0.0
 71
     5
 72
     1
  1
\A1;151,29
 73
     1
 44
1.0
  0
ENDBLK
  5
5E6
330
4E5
100
AcDbEntity
  8
0
100
AcDbBlockEnd
  0
BLOCK
  5
5E7
330
4F1
100
AcDbEntity
  8
0
100
AcDbBlockBegin
  2
*D57
 70
     1
 10
0.0
 20
0.0
 30
0.0
  3
*D57
  1

  0
POINT
  5
4E8
330
4F1
100
AcDbEntity
  8
DEFPOINTS
  6
ByBlock
 62
     0
380
     1
100
AcDbPoint
 10
3103.566814325089
 20
2647.464992253218
 30
0.0
  0
POINT
  5
4E9
330
4F1
100
AcDbEntity
  8
DEFPOINTS
  6
ByBlock
 62
     0
380
     1
100
AcDbPoint
 10
3254.854335875089
 20
2647.464999753219
 30
0.0
  0
LINE
  5
4EA
330
4F1
100
AcDbEntity
  8
0
  6
ByBlock
 62
     0
370
    -2
380
     1
100
AcDbLine
 10
3103.566814325089
 20
2648.089992253218
 30
0.0
 11
3103.566814325089
 21
2804.182927979944
 31
0.0
  0
LINE
  5
4EB
330
4F1
100
AcDbEntity
  8
0
  6
ByBlock
 62
     0
370
    -2
380
     1
100
AcDbLine
 10
3254.854335875089
 20
2648.089999753219
 30
0.0
 11
3254.854335875089
 21
2804.182927979944
 31
0.0
  0
LINE
  5
4EC
330
4F1
100
AcDbEntity
  8
0
  6
ByBlock
 62
     0
370
    -2
380
     1
100
AcDbLine
 10
3106.066814325089
 20
2802.932927979944
 30
0.0
 11
3252.354335875089
 21
2802.932927979944
 31
0.0
  0
SOLID
  5
4ED
330
4F1
100
AcDbEntity
  8
0
  6
ByBlock
 62
     0
380
     1
100
AcDbTrace
 10
3103.566814325089
 20
2802.932927979944
 30
0.0
 11
3106.066814325089
 21
2802.516261313278
 31
0.0
 12
3106.066814325089
 22
2803.349594646611
 32
0.0
 13
3106.066814325089
 23
2803.349594646611
 33
0.0
  0
SOLID
  5
4EE
330
4F1
100
AcDbEntity
  8
0
  6
ByBlock
 62
     0
380
     1
100
AcDbTrace
 10
3254.854335875089
 20
2802.932927979944
 30
0.0
 11
3252.354335875089
 21
2802.516261313278
 31
0.0
 12
3252.354335875089
 22
2803.349594646611
 32
0.0
 13
3252.354335875089
 23
2803.349594646611
 33
0.0
  0
MTEXT
  5
4EF
330
4F1
100
AcDbEntity
  8
0
  6
ByBlock
 62
     0
370
    -2
380
     1
100
AcDbMText
 10
3179.210575100089
 20
2805.016261313278
 30
0.0
 40
2.5
 41
0.0
 71
     5
 72
     1
  1
\A1;151,29
 73
     1
 44
1.0
  0
ENDBLK
  5
5E8
330
4F1
100
AcDbEntity
  8
0
100
AcDbBlockEnd
  0
BLOCK
  5
5E9
330
4FD
100
AcDbEntity
  8
0
100
AcDbBlockBegin
  2
*D58
 70
     1
 10
0.0
 20
0.0
 30
0.0
  3
*D58
  1

  0
POINT
  5
4F4
330
4FD
100
AcDbEntity
  8
DEFPOINTS
  6
ByBlock
 62
     0
380
     1
100
AcDbPoint
 10
3103.566814325089
 20
2654.185976678682
 30
0.0
  0
POINT
  5
4F5
330
4FD
100
AcDbEntity
  8
DEFPOINTS
  6
ByBlock
 62
     0
380
     1
100
AcDbPoint
 10
3254.854335875089
 20
2654.185984178682
 30
0.0
  0
LINE
  5
4F6
330
4FD
100
AcDbEntity
  8
0
  6
ByBlock
 62
     0
370
    -2
380
     1
100
AcDbLine
 10
3103.566814325089
 20
2654.810976678682
 30
0.0
 11
3103.566814325089
 21
2810.903912405408
 31
0.0
  0
LINE
  5
4F7
330
4FD
100
AcDbEntity
  8
0
  6
ByBlock
 62
     0
370
    -2
380
     1
100
AcDbLine
 10
3254.854335875089
 20
2654.810984178682
 30
0.0
 11
3254.854335875089
 21
2810.903912405408
 31
0.0
  0
LINE
  5
4F8
330
4FD
100
AcDbEntity
  8
0
  6
ByBlock
 62
     0
370
    -2
380
     1
100
AcDbLine
 10
3106.066814325089
 20
2809.653912405408
 30
0.0
 11
3252.354335875089
 21
2809.653912405408
 31
0.0
  0
SOLID
  5
4F9
330
4FD
100
AcDbEntity
  8
0
  6
ByBlock
 62
     0
380
     1
100
AcDbTrace
 10
3103.566814325089
 20
2809.653912405408
 30
0.0
 11
3106.066814325089
 21
2809.237245738741
 31
0.0
 12
3106.066814325089
 22
2810.070579072074
 32
0.0
 13
3106.066814325089
 23
2810.070579072074
 33
0.0
  0
SOLID
  5
4FA
330
4FD
100
AcDbEntity
  8
0
  6
ByBlock
 62
     0
380
     1
100
AcDbTrace
 10
3254.854335875089
 20
2809.653912405408
 30
0.0
 11
3252.354335875089
 21
2809.237245738741
 31
0.0
 12
3252.354335875089
 22
2810.070579072074
 32
0.0
 13
3252.354335875089
 23
2810.070579072074
 33
0.0
  0
MTEXT
  5
4FB
330
4FD
100
AcDbEntity
  8
0
  6
ByBlock
 62
     0
370
    -2
380
     1
100
AcDbMText
 10
3179.210575100089
 20
2811.737245738741
 30
0.0
 40
2.5
 41
0.0
 71
     5
 72
     1
  1
\A1;151,29
 73
     1
 44
1.0
  0
ENDBLK
  5
5EA
330
4FD
100
AcDbEntity
  8
0
100
AcDbBlockEnd
  0
BLOCK
  5
5EB
330
508
100
AcDbEntity
  8
0
100
AcDbBlockBegin
  2
*D59
 70
     1
 10
0.0
 20
0.0
 30
0.0
  3
*D59
  1

  0
POINT
  5
4FF
330
508
100
AcDbEntity
  8
DEFPOINTS
  6
ByBlock
 62
     0
380
     1
100
AcDbPoint
 10
3103.680763306911
 20
2654.869670569618
 30
0.0
  0
POINT
  5
500
330
508
100
AcDbEntity
  8
DEFPOINTS
  6
ByBlock
 62
     0
380
     1
100
AcDbPoint
 10
3254.968284856911
 20
2654.869678069619
 30
0.0
  0
LINE
  5
501
330
508
100
AcDbEntity
  8
0
  6
ByBlock
 62
     0
370
    -2
380
     1
100
AcDbLine
 10
3103.680763306911
 20
2655.494670569618
 30
0.0
 11
3103.680763306911
 21
2811.587606296344
 31
0.0
  0
LINE
  5
502
330
508
100
AcDbEntity
  8
0
  6
ByBlock
 62
     0
370
    -2
380
     1
100
AcDbLine
 10
3254.968284856911
 20
2655.494678069619
 30
0.0
 11
3254.968284856911
 21
2811.587606296344
 31
0.0
  0
LINE
  5
503
330
508
100
AcDbEntity
  8
0
  6
ByBlock
 62
     0
370
    -2
380
     1
100
AcDbLine
 10
3106.180763306911
 20
2810.337606296344
 30
0.0
 11
3252.468284856911
 21
2810.337606296344
 31
0.0
  0
SOLID
  5
504
330
508
100
AcDbEntity
  8
0
  6
ByBlock
 62
     0
380
     1
100
AcDbTrace
 10
3103.680763306911
 20
2810.337606296344
 30
0.0
 11
3106.180763306911
 21
2809.920939629678
 31
0.0
 12
3106.180763306911
 22
2810.754272963011
 32
0.0
 13
3106.180763306911
 23
2810.754272963011
 33
0.0
  0
SOLID
  5
505
330
508
100
AcDbEntity
  8
0
  6
ByBlock
 62
     0
380
     1
100
AcDbTrace
 10
3254.968284856911
 20
2810.337606296344
 30
0.0
 11
3252.468284856911
 21
2809.920939629678
 31
0.0
 12
3252.468284856911
 22
2810.754272963011
 32
0.0
 13
3252.468284856911
 23
2810.754272963011
 33
0.0
  0
MTEXT
  5
506
330
508
100
AcDbEntity
  8
0
  6
ByBlock
 62
     0
370
    -2
380
     1
100
AcDbMText
 10
3179.324524081911
 20
2812.420939629677
 30
0.0
 40
2.5
 41
0.0
 71
     5
 72
     1
  1
\A1;151,29
 73
     1
 44
1.0
  0
ENDBLK
  5
5EC
330
508
100
AcDbEntity
  8
0
100
AcDbBlockEnd
  0
BLOCK
  5
5ED
330
513
100
AcDbEntity
  8
0
100
AcDbBlockBegin
  2
*D60
 70
     1
 10
0.0
 20
0.0
 30
0.0
  3
*D60
  1

  0
POINT
  5
50A
330
513
100
AcDbEntity
  8
DEFPOINTS
  6
ByBlock
 62
     0
380
     1
100
AcDbPoint
 10
3103.680763306911
 20
2654.95565929419
 30
0.0
  0
POINT
  5
50B
330
513
100
AcDbEntity
  8
DEFPOINTS
  6
ByBlock
 62
     0
380
     1
100
AcDbPoint
 10
3254.968284856911
 20
2654.95566679419
 30
0.0
  0
LINE
  5
50C
330
513
100
AcDbEntity
  8
0
  6
ByBlock
 62
     0
370
    -2
380
     1
100
AcDbLine
 10
3103.680763306911
 20
2655.58065929419
 30
0.0
 11
3103.680763306911
 21
2811.673595020916
 31
0.0
  0
LINE
  5
50D
330
513
100
AcDbEntity
  8
0
  6
ByBlock
 62
     0
370
    -2
380
     1
100
AcDbLine
 10
3254.968284856911
 20
2655.58066679419
 30
0.0
 11
3254.968284856911
 21
2811.673595020916
 31
0.0
  0
LINE
  5
50E
330
513
100
AcDbEntity
  8
0
  6
ByBlock
 62
     0
370
    -2
380
     1
100
AcDbLine
 10
3106.180763306911
 20
2810.423595020916
 30
0.0
 11
3252.468284856911
 21
2810.423595020916
 31
0.0
  0
SOLID
  5
50F
330
513
100
AcDbEntity
  8
0
  6
ByBlock
 62
     0
380
     1
100
AcDbTrace
 10
3103.680763306911
 20
2810.423595020916
 30
0.0
 11
3106.180763306911
 21
2810.006928354249
 31
0.0
 12
3106.180763306911
 22
2810.840261687582
 32
0.0
 13
3106.180763306911
 23
2810.840261687582
 33
0.0
  0
SOLID
  5
510
330
513
100
AcDbEntity
  8
0
  6
ByBlock
 62
     0
380
     1
100
AcDbTrace
 10
3254.968284856911
 20
2810.423595020916
 30
0.0
 11
3252.468284856911
 21
2810.006928354249
 31
0.0
 12
3252.468284856911
 22
2810.840261687582
 32
0.0
 13
3252.468284856911
 23
2810.840261687582
 33
0.0
  0
MTEXT
  5
511
330
513
100
AcDbEntity
  8
0
  6
ByBlock
 62
     0
370
    -2
380
     1
100
AcDbMText
 10
3179.324524081911
 20
2812.506928354249
 30
0.0
 40
2.5
 41
0.0
 71
     5
 72
     1
  1
\A1;151,29
 73
     1
 44
1.0
  0
ENDBLK
  5
5EE
330
513
100
AcDbEntity
  8
0
100
AcDbBlockEnd
  0
BLOCK
  5
5EF
330
51E
100
AcDbEntity
  8
0
100
AcDbBlockBegin
  2
*D61
 70
     1
 10
0.0
 20
0.0
 30
0.0
  3
*D61
  1

  0
POINT
  5
515
330
51E
100
AcDbEntity
  8
DEFPOINTS
  6
ByBlock
 62
     0
380
     1
100
AcDbPoint
 10
3103.680383295787
 20
2654.959839416559
 30
0.0
  0
POINT
  5
516
330
51E
100
AcDbEntity
  8
DEFPOINTS
  6
ByBlock
 62
     0
380
     1
100
AcDbPoint
 10
3254.967904845787
 20
2654.959846916559
 30
0.0
  0
LINE
  5
517
330
51E
100
AcDbEntity
  8
0
  6
ByBlock
 62
     0
370
    -2
380
     1
100
AcDbLine
 10
3103.680383295787
 20
2655.584839416559
 30
0.0
 11
3103.680383295787
 21
2811.677775143285
 31
0.0
  0
LINE
  5
518
330
51E
100
AcDbEntity
  8
0
  6
ByBlock
 62
     0
370
    -2
380
     1
100
AcDbLine
 10
3254.967904845787
 20
2655.584846916559
 30
0.0
 11
3254.967904845787
 21
2811.677775143285
 31
0.0
  0
LINE
  5
519
330
51E
100
AcDbEntity
  8
0
  6
ByBlock
 62
     0
370
    -2
380
     1
100
AcDbLine
 10
3106.180383295787
 20
2810.427775143285
 30
0.0
 11
3252.467904845787
 21
2810.427775143285
 31
0.0
  0
SOLID
  5
51A
330
51E
100
AcDbEntity
  8
0
  6
ByBlock
 62
     0
380
     1
100
AcDbTrace
 10
3103.680383295787
 20
2810.427775143285
 30
0.0
 11
3106.180383295787
 21
2810.011108476618
 31
0.0
 12
3106.180383295787
 22
2810.844441809951
 32
0.0
 13
3106.180383295787
 23
2810.844441809951
 33
0.0
  0
SOLID
  5
51B
330
51E
100
AcDbEntity
  8
0
  6
ByBlock
 62
     0
380
     1
100
AcDbTrace
 10
3254.967904845787
 20
2810.427775143285
 30
0.0
 11
3252.467904845787
 21
2810.011108476618
 31
0.0
 12
3252.467904845787
 22
2810.844441809951
 32
0.0
 13
3252.467904845787
 23
2810.844441809951
 33
0.0
  0
MTEXT
  5
51C
330
51E
100
AcDbEntity
  8
0
  6
ByBlock
 62
     0
370
    -2
380
     1
100
AcDbMText
 10
3179.324144070787
 20
2812.511108476618
 30
0.0
 40
2.5
 41
0.0
 71
     5
 72
     1
  1
\A1;151,29
 73
     1
 44
1.0
  0
ENDBLK
  5
5F0
330
51E
100
AcDbEntity
  8
0
100
AcDbBlockEnd
  0
BLOCK
  5
5F1
330
529
100
AcDbEntity
  8
0
100
AcDbBlockBegin
  2
*D62
 70
     1
 10
0.0
 20
0.0
 30
0.0
  3
*D62
  1

  0
POINT
  5
520
330
529
100
AcDbEntity
  8
DEFPOINTS
  6
ByBlock
 62
     0
380
     1
100
AcDbPoint
 10
3103.680383295787
 20
2654.959839416559
 30
0.0
  0
POINT
  5
521
330
529
100
AcDbEntity
  8
DEFPOINTS
  6
ByBlock
 62
     0
380
     1
100
AcDbPoint
 10
3254.967904845787
 20
2654.959846916559
 30
0.0
  0
LINE
  5
522
330
529
100
AcDbEntity
  8
0
  6
ByBlock
 62
     0
370
    -2
380
     1
100
AcDbLine
 10
3103.680383295787
 20
2655.584839416559
 30
0.0
 11
3103.680383295787
 21
2811.677775143285
 31
0.0
  0
LINE
  5
523
330
529
100
AcDbEntity
  8
0
  6
ByBlock
 62
     0
370
    -2
380
     1
100
AcDbLine
 10
3254.967904845787
 20
2655.584846916559
 30
0.0
 11
3254.967904845787
 21
2811.677775143285
 31
0.0
  0
LINE
  5
524
330
529
100
AcDbEntity
  8
0
  6
ByBlock
 62
     0
370
    -2
380
     1
100
AcDbLine
 10
3106.180383295787
 20
2810.427775143285
 30
0.0
 11
3252.467904845787
 21
2810.427775143285
 31
0.0
  0
SOLID
  5
525
330
529
100
AcDbEntity
  8
0
  6
ByBlock
 62
     0
380
     1
100
AcDbTrace
 10
3103.680383295787
 20
2810.427775143285
 30
0.0
 11
3106.180383295787
 21
2810.011108476618
 31
0.0
 12
3106.180383295787
 22
2810.844441809951
 32
0.0
 13
3106.180383295787
 23
2810.844441809951
 33
0.0
  0
SOLID
  5
526
330
529
100
AcDbEntity
  8
0
  6
ByBlock
 62
     0
380
     1
100
AcDbTrace
 10
3254.967904845787
 20
2810.427775143285
 30
0.0
 11
3252.467904845787
 21
2810.011108476618
 31
0.0
 12
3252.467904845787
 22
2810.844441809951
 32
0.0
 13
3252.467904845787
 23
2810.844441809951
 33
0.0
  0
MTEXT
  5
527
330
529
100
AcDbEntity
  8
0
  6
ByBlock
 62
     0
370
    -2
380
     1
100
AcDbMText
 10
3179.324144070787
 20
2812.511108476618
 30
0.0
 40
2.5
 41
0.0
 71
     5
 72
     1
  1
\A1;151,29
 73
     1
 44
1.0
  0
ENDBLK
  5
5F2
330
529
100
AcDbEntity
  8
0
100
AcDbBlockEnd
  0
BLOCK
  5
5F3
330
534
100
AcDbEntity
  8
0
100
AcDbBlockBegin
  2
*D63
 70
     1
 10
0.0
 20
0.0
 30
0.0
  3
*D63
  1

  0
POINT
  5
52B
330
534
100
AcDbEntity
  8
DEFPOINTS
  6
ByBlock
 62
     7
380
     1
100
AcDbPoint
 10
3103.680383295787
 20
2654.959839416559
 30
0.0
  0
POINT
  5
52C
330
534
100
AcDbEntity
  8
DEFPOINTS
  6
ByBlock
 62
     7
380
     1
100
AcDbPoint
 10
3254.967904845787
 20
2654.959846916559
 30
0.0
  0
LINE
  5
52D
330
534
100
AcDbEntity
  8
0
  6
ByBlock
 62
     7
370
    -2
380
     1
100
AcDbLine
 10
3103.680383295787
 20
2655.584839416559
 30
0.0
 11
3103.680383295787
 21
2811.677775143285
 31
0.0
  0
LINE
  5
52E
330
534
100
AcDbEntity
  8
0
  6
ByBlock
 62
     7
370
    -2
380
     1
100
AcDbLine
 10
3254.967904845787
 20
2655.584846916559
 30
0.0
 11
3254.967904845787
 21
2811.677775143285
 31
0.0
  0
LINE
  5
52F
330
534
100
AcDbEntity
  8
0
  6
ByBlock
 62
     7
370
    -2
380
     1
100
AcDbLine
 10
3113.680383295787
 20
2810.427775143285
 30
0.0
 11
3244.967904845787
 21
2810.427775143285
 31
0.0
  0
SOLID
  5
530
330
534
100
AcDbEntity
  8
0
  6
ByBlock
 62
     7
380
     1
100
AcDbTrace
 10
3103.680383295787
 20
2810.427775143285
 30
0.0
 11
3113.680383295787
 21
2808.761108476618
 31
0.0
 12
3113.680383295787
 22
2812.094441809951
 32
0.0
 13
3113.680383295787
 23
2812.094441809951
 33
0.0
  0
SOLID
  5
531
330
534
100
AcDbEntity
  8
0
  6
ByBlock
 62
     7
380
     1
100
AcDbTrace
 10
3254.967904845787
 20
2810.427775143285
 30
0.0
 11
3244.967904845787
 21
2808.761108476618
 31
0.0
 12
3244.967904845787
 22
2812.094441809951
 32
0.0
 13
3244.967904845787
 23
2812.094441809951
 33
0.0
  0
MTEXT
  5
532
330
534
100
AcDbEntity
  8
0
  6
ByBlock
 62
     0
370
    -2
380
     1
100
AcDbMText
 10
3179.324144070787
 20
2823.594441809952
 30
0.0
 40
14.0
 41
0.0
 71
     5
 72
     1
  1
\A1;151,29
 73
     1
 44
1.0
  0
ENDBLK
  5
5F4
330
534
100
AcDbEntity
  8
0
100
AcDbBlockEnd
  0
BLOCK
  5
5F5
330
53F
100
AcDbEntity
  8
0
100
AcDbBlockBegin
  2
*D64
 70
     1
 10
0.0
 20
0.0
 30
0.0
  3
*D64
  1

  0
POINT
  5
536
330
53F
100
AcDbEntity
  8
DEFPOINTS
  6
ByBlock
 62
     7
380
     1
100
AcDbPoint
 10
3103.680383295787
 20
2654.959839416559
 30
0.0
  0
POINT
  5
537
330
53F
100
AcDbEntity
  8
DEFPOINTS
  6
ByBlock
 62
     7
380
     1
100
AcDbPoint
 10
3254.967904845787
 20
2654.959846916559
 30
0.0
  0
LINE
  5
538
330
53F
100
AcDbEntity
  8
0
  6
ByBlock
 62
     7
370
    -2
380
     1
100
AcDbLine
 10
3103.680383295787
 20
2655.584839416559
 30
0.0
 11
3103.680383295787
 21
2811.677775143285
 31
0.0
  0
LINE
  5
539
330
53F
100
AcDbEntity
  8
0
  6
ByBlock
 62
     7
370
    -2
380
     1
100
AcDbLine
 10
3254.967904845787
 20
2655.584846916559
 30
0.0
 11
3254.967904845787
 21
2811.677775143285
 31
0.0
  0
LINE
  5
53A
330
53F
100
AcDbEntity
  8
0
  6
ByBlock
 62
     7
370
    -2
380
     1
100
AcDbLine
 10
3113.680383295787
 20
2810.427775143285
 30
0.0
 11
3244.967904845787
 21
2810.427775143285
 31
0.0
  0
SOLID
  5
53B
330
53F
100
AcDbEntity
  8
0
  6
ByBlock
 62
     7
380
     1
100
AcDbTrace
 10
3103.680383295787
 20
2810.427775143285
 30
0.0
 11
3113.680383295787
 21
2808.761108476618
 31
0.0
 12
3113.680383295787
 22
2812.094441809951
 32
0.0
 13
3113.680383295787
 23
2812.094441809951
 33
0.0
  0
SOLID
  5
53C
330
53F
100
AcDbEntity
  8
0
  6
ByBlock
 62
     7
380
     1
100
AcDbTrace
 10
3254.967904845787
 20
2810.427775143285
 30
0.0
 11
3244.967904845787
 21
2808.761108476618
 31
0.0
 12
3244.967904845787
 22
2812.094441809951
 32
0.0
 13
3244.967904845787
 23
2812.094441809951
 33
0.0
  0
MTEXT
  5
53D
330
53F
100
AcDbEntity
  8
0
  6
ByBlock
 62
     0
370
    -2
380
     1
100
AcDbMText
 10
3179.324144070787
 20
2822.427775143285
 30
0.0
 40
14.0
 41
0.0
 71
     5
 72
     1
  1
152
 73
     1
 44
1.0
  0
ENDBLK
  5
5F6
330
53F
100
AcDbEntity
  8
0
100
AcDbBlockEnd
  0
BLOCK
  5
5F7
330
54B
100
AcDbEntity
  8
0
100
AcDbBlockBegin
  2
*D65
 70
     1
 10
0.0
 20
0.0
 30
0.0
  3
*D65
  1

  0
POINT
  5
542
330
54B
100
AcDbEntity
  8
DEFPOINTS
  6
ByBlock
 62
     0
380
     1
100
AcDbPoint
 10
3244.015125675653
 20
2771.196707253219
 30
0.0
  0
POINT
  5
543
330
54B
100
AcDbEntity
  8
DEFPOINTS
  6
ByBlock
 62
     0
380
     1
100
AcDbPoint
 10
3237.804032825087
 20
2523.733217253219
 30
0.0
  0
LINE
  5
544
330
54B
100
AcDbEntity
  8
0
  6
ByBlock
 62
     0
370
    -2
380
     1
100
AcDbLine
 10
3244.640125675653
 20
2771.196707253219
 30
0.0
 11
3289.351211010088
 21
2771.196707253219
 31
0.0
  0
LINE
  5
545
330
54B
100
AcDbEntity
  8
0
  6
ByBlock
 62
     0
370
    -2
380
     1
100
AcDbLine
 10
3238.429032825087
 20
2523.733217253219
 30
0.0
 11
3289.351211010088
 21
2523.733217253219
 31
0.0
  0
LINE
  5
546
330
54B
100
AcDbEntity
  8
0
  6
ByBlock
 62
     0
370
    -2
380
     1
100
AcDbLine
 10
3288.101211010088
 20
2768.696707253219
 30
0.0
 11
3288.101211010088
 21
2526.233217253219
 31
0.0
  0
SOLID
  5
547
330
54B
100
AcDbEntity
  8
0
  6
ByBlock
 62
     0
380
     1
100
AcDbTrace
 10
3288.101211010088
 20
2771.196707253219
 30
0.0
 11
3287.684544343422
 21
2768.696707253219
 31
0.0
 12
3288.517877676755
 22
2768.696707253219
 32
0.0
 13
3288.517877676755
 23
2768.696707253219
 33
0.0
  0
SOLID
  5
548
330
54B
100
AcDbEntity
  8
0
  6
ByBlock
 62
     0
380
     1
100
AcDbTrace
 10
3288.101211010088
 20
2523.733217253219
 30
0.0
 11
3287.684544343422
 21
2526.233217253219
 31
0.0
 12
3288.517877676755
 22
2526.233217253219
 32
0.0
 13
3288.517877676755
 23
2526.233217253219
 33
0.0
  0
MTEXT
  5
549
330
54B
100
AcDbEntity
  8
0
  6
ByBlock
 62
     0
370
    -2
380
     1
100
AcDbMText
 10
3286.017877676755
 20
2647.464962253219
 30
0.0
 40
2.5
 41
0.0
 71
     5
 72
     1
  1
\A1;247,46
 11
6.123031769111886E-17
 21
1.0
 31
0.0
 73
     1
 44
1.0
  0
ENDBLK
  5
5F8
330
54B
100
AcDbEntity
  8
0
100
AcDbBlockEnd
  0
BLOCK
  5
5F9
330
556
100
AcDbEntity
  8
0
100
AcDbBlockBegin
  2
*D66
 70
     1
 10
0.0
 20
0.0
 30
0.0
  3
*D66
  1

  0
POINT
  5
54D
330
556
100
AcDbEntity
  8
DEFPOINTS
  6
ByBlock
 62
     0
380
     1
100
AcDbPoint
 10
3244.015125675653
 20
2771.196707253219
 30
0.0
  0
POINT
  5
54E
330
556
100
AcDbEntity
  8
DEFPOINTS
  6
ByBlock
 62
     0
380
     1
100
AcDbPoint
 10
3237.804032825087
 20
2523.733217253219
 30
0.0
  0
LINE
  5
54F
330
556
100
AcDbEntity
  8
0
  6
ByBlock
 62
     0
370
    -2
380
     1
100
AcDbLine
 10
3244.640125675653
 20
2771.196707253219
 30
0.0
 11
3289.351211010088
 21
2771.196707253219
 31
0.0
  0
LINE
  5
550
330
556
100
AcDbEntity
  8
0
  6
ByBlock
 62
     0
370
    -2
380
     1
100
AcDbLine
 10
3238.429032825087
 20
2523.733217253219
 30
0.0
 11
3289.351211010088
 21
2523.733217253219
 31
0.0
  0
LINE
  5
551
330
556
100
AcDbEntity
  8
0
  6
ByBlock
 62
     0
370
    -2
380
     1
100
AcDbLine
 10
3288.101211010088
 20
2768.696707253219
 30
0.0
 11
3288.101211010088
 21
2526.233217253219
 31
0.0
  0
SOLID
  5
552
330
556
100
AcDbEntity
  8
0
  6
ByBlock
 62
     0
380
     1
100
AcDbTrace
 10
3288.101211010088
 20
2771.196707253219
 30
0.0
 11
3287.684544343422
 21
2768.696707253219
 31
0.0
 12
3288.517877676755
 22
2768.696707253219
 32
0.0
 13
3288.517877676755
 23
2768.696707253219
 33
0.0
  0
SOLID
  5
553
330
556
100
AcDbEntity
  8
0
  6
ByBlock
 62
     0
380
     1
100
AcDbTrace
 10
3288.101211010088
 20
2523.733217253219
 30
0.0
 11
3287.684544343422
 21
2526.233217253219
 31
0.0
 12
3288.517877676755
 22
2526.233217253219
 32
0.0
 13
3288.517877676755
 23
2526.233217253219
 33
0.0
  0
MTEXT
  5
554
330
556
100
AcDbEntity
  8
0
  6
ByBlock
 62
     0
370
    -2
380
     1
100
AcDbMText
 10
3286.017877676755
 20
2647.464962253219
 30
0.0
 40
2.5
 41
0.0
 71
     5
 72
     1
  1
\A1;247,46
 11
6.123031769111886E-17
 21
1.0
 31
0.0
 73
     1
 44
1.0
  0
ENDBLK
  5
5FA
330
556
100
AcDbEntity
  8
0
100
AcDbBlockEnd
  0
BLOCK
  5
5FB
330
561
100
AcDbEntity
  8
0
100
AcDbBlockBegin
  2
*D67
 70
     1
 10
0.0
 20
0.0
 30
0.0
  3
*D67
  1

  0
POINT
  5
558
330
561
100
AcDbEntity
  8
DEFPOINTS
  6
ByBlock
 62
     7
380
     1
100
AcDbPoint
 10
3244.015125675653
 20
2771.196707253219
 30
0.0
  0
POINT
  5
559
330
561
100
AcDbEntity
  8
DEFPOINTS
  6
ByBlock
 62
     7
380
     1
100
AcDbPoint
 10
3237.804032825087
 20
2523.733217253219
 30
0.0
  0
LINE
  5
55A
330
561
100
AcDbEntity
  8
0
  6
ByBlock
 62
     7
370
    -2
380
     1
100
AcDbLine
 10
3244.640125675653
 20
2771.196707253219
 30
0.0
 11
3289.351211010088
 21
2771.196707253219
 31
0.0
  0
LINE
  5
55B
330
561
100
AcDbEntity
  8
0
  6
ByBlock
 62
     7
370
    -2
380
     1
100
AcDbLine
 10
3238.429032825087
 20
2523.733217253219
 30
0.0
 11
3289.351211010088
 21
2523.733217253219
 31
0.0
  0
LINE
  5
55C
330
561
100
AcDbEntity
  8
0
  6
ByBlock
 62
     7
370
    -2
380
     1
100
AcDbLine
 10
3288.101211010088
 20
2761.196707253219
 30
0.0
 11
3288.101211010088
 21
2533.733217253219
 31
0.0
  0
SOLID
  5
55D
330
561
100
AcDbEntity
  8
0
  6
ByBlock
 62
     7
380
     1
100
AcDbTrace
 10
3288.101211010088
 20
2771.196707253219
 30
0.0
 11
3286.434544343422
 21
2761.196707253219
 31
0.0
 12
3289.767877676755
 22
2761.196707253219
 32
0.0
 13
3289.767877676755
 23
2761.196707253219
 33
0.0
  0
SOLID
  5
55E
330
561
100
AcDbEntity
  8
0
  6
ByBlock
 62
     7
380
     1
100
AcDbTrace
 10
3288.101211010088
 20
2523.733217253219
 30
0.0
 11
3286.434544343422
 21
2533.733217253219
 31
0.0
 12
3289.767877676755
 22
2533.733217253219
 32
0.0
 13
3289.767877676755
 23
2533.733217253219
 33
0.0
  0
MTEXT
  5
55F
330
561
100
AcDbEntity
  8
0
  6
ByBlock
 62
     0
370
    -2
380
     1
100
AcDbMText
 10
3274.934544343421
 20
2647.464962253219
 30
0.0
 40
14.0
 41
0.0
 71
     5
 72
     1
  1
\A1;247,46
 11
6.123031769111886E-17
 21
1.0
 31
0.0
 73
     1
 44
1.0
  0
ENDBLK
  5
5FC
330
561
100
AcDbEntity
  8
0
100
AcDbBlockEnd
  0
BLOCK
  5
5FD
330
56C
100
AcDbEntity
  8
0
100
AcDbBlockBegin
  2
*D68
 70
     1
 10
0.0
 20
0.0
 30
0.0
  3
*D68
  1

  0
POINT
  5
563
330
56C
100
AcDbEntity
  8
DEFPOINTS
  6
ByBlock
 62
     7
380
     1
100
AcDbPoint
 10
3244.015125675653
 20
2771.196707253219
 30
0.0
  0
POINT
  5
564
330
56C
100
AcDbEntity
  8
DEFPOINTS
  6
ByBlock
 62
     7
380
     1
100
AcDbPoint
 10
3237.804032825087
 20
2523.733217253219
 30
0.0
  0
LINE
  5
565
330
56C
100
AcDbEntity
  8
0
  6
ByBlock
 62
     7
370
    -2
380
     1
100
AcDbLine
 10
3244.640125675653
 20
2771.196707253219
 30
0.0
 11
3289.351211010088
 21
2771.196707253219
 31
0.0
  0
LINE
  5
566
330
56C
100
AcDbEntity
  8
0
  6
ByBlock
 62
     7
370
    -2
380
     1
100
AcDbLine
 10
3238.429032825087
 20
2523.733217253219
 30
0.0
 11
3289.351211010088
 21
2523.733217253219
 31
0.0
  0
LINE
  5
567
330
56C
100
AcDbEntity
  8
0
  6
ByBlock
 62
     7
370
    -2
380
     1
100
AcDbLine
 10
3288.101211010088
 20
2761.196707253219
 30
0.0
 11
3288.101211010088
 21
2533.733217253219
 31
0.0
  0
SOLID
  5
568
330
56C
100
AcDbEntity
  8
0
  6
ByBlock
 62
     7
380
     1
100
AcDbTrace
 10
3288.101211010088
 20
2771.196707253219
 30
0.0
 11
3286.434544343422
 21
2761.196707253219
 31
0.0
 12
3289.767877676755
 22
2761.196707253219
 32
0.0
 13
3289.767877676755
 23
2761.196707253219
 33
0.0
  0
SOLID
  5
569
330
56C
100
AcDbEntity
  8
0
  6
ByBlock
 62
     7
380
     1
100
AcDbTrace
 10
3288.101211010088
 20
2523.733217253219
 30
0.0
 11
3286.434544343422
 21
2533.733217253219
 31
0.0
 12
3289.767877676755
 22
2533.733217253219
 32
0.0
 13
3289.767877676755
 23
2533.733217253219
 33
0.0
  0
MTEXT
  5
56A
330
56C
100
AcDbEntity
  8
0
  6
ByBlock
 62
     0
370
    -2
380
     1
100
AcDbMText
 10
3276.101211010088
 20
2647.464962253219
 30
0.0
 40
14.0
 41
0.0
 71
     5
 72
     1
  1
247
 11
6.123031769111886E-17
 21
1.0
 31
0.0
 73
     1
 44
1.0
  0
ENDBLK
  5
5FE
330
56C
100
AcDbEntity
  8
0
100
AcDbBlockEnd
  0
ENDSEC
  0
SECTION
  2
ENTITIES
  0
LINE
  5
249
330
1F
100
AcDbEntity
  8
A
  6
Continuous
370
    60
100
AcDbLine
 10
2721.125033615087
 20
2540.918237253219
 30
0.0
 11
2847.021034175087
 21
2540.918237253219
 31
0.0
  0
LINE
  5
24A
330
1F
100
AcDbEntity
  8
A
  6
Continuous
370
    60
100
AcDbLine
 10
2688.112483055088
 20
2545.730027253219
 30
0.0
 11
3005.929585295089
 21
2545.730027253219
 31
0.0
  0
LINE
  5
24B
330
1F
100
AcDbEntity
  8
A
  6
Continuous
370
    60
100
AcDbLine
 10
2688.112483055088
 20
2749.199957253219
 30
0.0
 11
3005.929585295089
 21
2749.199957253219
 31
0.0
  0
LINE
  5
24C
330
1F
100
AcDbEntity
  8
A
  6
Continuous
370
    60
100
AcDbLine
 10
2689.352548145087
 20
2559.478007253219
 30
0.0
 11
3004.689520205089
 21
2559.478007253219
 31
0.0
  0
LINE
  5
24D
330
1F
100
AcDbEntity
  8
A
  6
Continuous
370
    60
100
AcDbLine
 10
2689.352548145087
 20
2735.451992253219
 30
0.0
 11
3004.689520205089
 21
2735.451992253219
 31
0.0
  0
LINE
  5
24E
330
1F
100
AcDbEntity
  8
A
  6
Continuous
370
    60
100
AcDbLine
 10
2721.125033615087
 20
2754.011747253219
 30
0.0
 11
2972.917034735089
 21
2754.011747253219
 31
0.0
  0
LINE
  5
25C
330
1F
100
AcDbEntity
  8
A
  6
Continuous
370
    60
100
AcDbLine
 10
2669.511479645089
 20
2733.389792253219
 30
0.0
 11
2669.511479645089
 21
2561.540132253219
 31
0.0
  0
LINE
  5
25D
330
1F
100
AcDbEntity
  8
A
  6
Continuous
370
    60
100
AcDbLine
 10
2673.851714225089
 20
2733.389792253219
 30
0.0
 11
2673.851714225089
 21
2561.540132253219
 31
0.0
  0
LINE
  5
25E
330
1F
100
AcDbEntity
  8
A
  6
Continuous
370
    60
100
AcDbLine
 10
2686.252378655087
 20
2732.014997253219
 30
0.0
 11
2686.252378655087
 21
2562.914987253219
 31
0.0
  0
ELLIPSE
  5
26B
330
1F
100
AcDbEntity
  8
A
  6
Continuous
370
    60
100
AcDbEllipse
 10
2688.112483055088
 20
2561.540192253219
 30
0.0
 11
0.0
 21
20.62195500000001
 31
0.0
210
0.0
220
0.0
230
1.0
 40
0.9020000000000001
 41
1.570796326794893
 42
3.14159265358979
  0
ELLIPSE
  5
26C
330
1F
100
AcDbEntity
  8
A
  6
Continuous
370
    60
100
AcDbEllipse
 10
2688.112483055088
 20
2561.540192253219
 30
0.0
 11
0.0
 21
15.81018
 31
0.0
210
0.0
220
0.0
230
1.0
 40
0.902
 41
1.570796326794893
 42
3.14159265358979
  0
ELLIPSE
  5
26D
330
1F
100
AcDbEntity
  8
A
  6
Continuous
370
    60
100
AcDbEllipse
 10
2689.352548145087
 20
2562.914987253219
 30
0.0
 11
0.0
 21
3.436994999999853
 31
0.0
210
0.0
220
0.0
230
1.0
 40
0.902
 41
1.570796326794893
 42
3.14159265358979
  0
LINE
  5
26E
330
1F
100
AcDbEntity
  8
A
  6
Continuous
370
    60
100
AcDbLine
 10
2702.524030205087
 20
2540.918237253219
 30
0.0
 11
2702.524030205087
 21
2530.607267253219
 31
0.0
  0
LINE
  5
26F
330
1F
100
AcDbEntity
  8
A
  6
Continuous
370
    60
100
AcDbLine
 10
2721.125033615087
 20
2540.918237253219
 30
0.0
 11
2721.125033615087
 21
2530.607267253219
 31
0.0
  0
ELLIPSE
  5
270
330
1F
100
AcDbEntity
  8
A
  6
Continuous
370
    60
100
AcDbEllipse
 10
2711.824525145089
 20
2530.607267253219
 30
0.0
 11
0.0
 21
7.05862499999995
 31
0.0
210
0.0
220
0.0
230
1.0
 40
0.902
 41
-1.5707963267949
 42
4.712388980384686
  0
ELLIPSE
  5
271
330
1F
100
AcDbEntity
  8
A
  6
Continuous
370
    60
100
AcDbEllipse
 10
2711.824525145089
 20
2530.607267253219
 30
0.0
 11
0.0
 21
10.31097000000045
 31
0.0
210
0.0
220
0.0
230
1.0
 40
0.902
 41
1.570796326794893
 42
4.712388980384686
  0
LINE
  5
272
330
1F
100
AcDbEntity
  8
A
  6
Continuous
370
    60
100
AcDbLine
 10
2688.112483055088
 20
2540.918237253219
 30
0.0
 11
2702.524030205087
 21
2540.918237253219
 31
0.0
  0
ELLIPSE
  5
273
330
1F
100
AcDbEntity
  8
A
  6
Continuous
370
    60
100
AcDbEllipse
 10
2711.824525145089
 20
2764.322717253219
 30
0.0
 11
0.0
 21
10.3109699999996
 31
0.0
210
0.0
220
0.0
230
1.0
 40
0.902
 41
-1.5707963267949
 42
1.570796326794893
  0
ELLIPSE
  5
274
330
1F
100
AcDbEntity
  8
A
  6
Continuous
370
    60
100
AcDbEllipse
 10
2688.112483055088
 20
2733.389792253219
 30
0.0
 11
0.0
 21
20.62195500000001
 31
0.0
210
0.0
220
0.0
230
1.0
 40
0.9020000000000001
 41
-0.0000000000000036
 42
1.570796326794893
  0
ELLIPSE
  5
275
330
1F
100
AcDbEntity
  8
A
  6
Continuous
370
    60
100
AcDbEllipse
 10
2688.112483055088
 20
2733.389792253219
 30
0.0
 11
0.0
 21
15.81018
 31
0.0
210
0.0
220
0.0
230
1.0
 40
0.902
 41
-0.0000000000000036
 42
1.570796326794893
  0
ELLIPSE
  5
276
330
1F
100
AcDbEntity
  8
A
  6
Continuous
370
    60
100
AcDbEllipse
 10
2689.352548145087
 20
2732.014997253219
 30
0.0
 11
0.0
 21
3.43699500000028
 31
0.0
210
0.0
220
0.0
230
1.0
 40
0.902
 41
-0.0000000000000036
 42
1.570796326794893
  0
ELLIPSE
  5
277
330
1F
100
AcDbEntity
  8
A
  6
Continuous
370
    60
100
AcDbEllipse
 10
2711.824525145089
 20
2764.322717253219
 30
0.0
 11
0.0
 21
7.05862499999995
 31
0.0
210
0.0
220
0.0
230
1.0
 40
0.902
 41
-1.5707963267949
 42
4.712388980384686
  0
LINE
  5
278
330
1F
100
AcDbEntity
  8
A
  6
Continuous
370
    60
100
AcDbLine
 10
2688.112483055088
 20
2754.011747253219
 30
0.0
 11
2702.524030205087
 21
2754.011747253219
 31
0.0
  0
LINE
  5
279
330
1F
100
AcDbEntity
  8
A
  6
Continuous
370
    60
100
AcDbLine
 10
2702.524030205087
 20
2754.011747253219
 30
0.0
 11
2702.524030205087
 21
2764.322717253219
 31
0.0
  0
LINE
  5
27A
330
1F
100
AcDbEntity
  8
A
  6
Continuous
370
    60
100
AcDbLine
 10
2721.125033615087
 20
2754.011747253219
 30
0.0
 11
2721.125033615087
 21
2764.322717253219
 31
0.0
  0
LINE
  5
29B
330
1F
100
AcDbEntity
  8
A
  6
Continuous
370
    60
100
AcDbLine
 10
3024.530588705089
 20
2733.389792253219
 30
0.0
 11
3024.530588705089
 21
2561.540132253219
 31
0.0
  0
LINE
  5
29C
330
1F
100
AcDbEntity
  8
A
  6
Continuous
370
    60
100
AcDbLine
 10
3020.190354125089
 20
2733.389792253219
 30
0.0
 11
3020.190354125089
 21
2561.540132253219
 31
0.0
  0
LINE
  5
29D
330
1F
100
AcDbEntity
  8
A
  6
Continuous
370
    60
100
AcDbLine
 10
3007.789676165087
 20
2732.014997253219
 30
0.0
 11
3007.789676165087
 21
2562.914987253219
 31
0.0
  0
LINE
  5
29E
330
1F
100
AcDbEntity
  8
A
  6
Continuous
370
    60
100
AcDbLine
 10
2857.744912175087
 20
2520.296297253219
 30
0.0
 11
2881.624374485088
 21
2520.296297253219
 31
0.0
  0
ELLIPSE
  5
29F
330
1F
100
AcDbEntity
  8
0
370
    60
100
AcDbEllipse
 10
2869.684650095089
 20
2576.903642253219
 30
0.0
 11
0.0
 21
56.60728500000027
 31
0.0
210
0.0
220
0.0
230
1.0
 40
0.9020000000000001
 41
2.986951978913616
 42
3.296233328265951
  0
ELLIPSE
  5
2A0
330
1F
100
AcDbEntity
  8
0
370
    60
100
AcDbEllipse
 10
2869.684650095089
 20
2470.562987253219
 30
0.0
 11
0.0
 21
56.60728499999978
 31
0.0
210
0.0
220
0.0
230
1.0
 40
0.902
 41
-0.154640674676169
 42
0.1546406746761666
  0
LINE
  5
2A1
330
1F
100
AcDbEntity
  8
0
370
    60
100
AcDbLine
 10
2861.820161705088
 20
2527.170272253219
 30
0.0
 11
2877.549124955087
 21
2527.170272253219
 31
0.0
  0
LINE
  5
2A2
330
1F
100
AcDbEntity
  8
A
  6
Continuous
370
    60
100
AcDbLine
 10
2853.537948095088
 20
2540.918237253219
 30
0.0
 11
2885.831352095089
 21
2540.918237253219
 31
0.0
  0
LINE
  5
2A3
330
1F
100
AcDbEntity
  8
A
  6
Continuous
370
    60
100
AcDbLine
 10
2847.021034175087
 20
2540.918237253219
 30
0.0
 11
2972.917034735089
 21
2540.918237253219
 31
0.0
  0
LINE
  5
2A4
330
1F
100
AcDbEntity
  8
A
  6
Continuous
370
    60
100
AcDbLine
 10
2767.134556295089
 20
2444.088962253219
 30
0.0
 11
2926.907512055089
 21
2444.088962253219
 31
0.0
  0
LINE
  5
2A5
330
1F
100
AcDbEntity
  8
A
  6
Continuous
370
    60
100
AcDbLine
 10
2770.234725785087
 20
2447.525942253219
 30
0.0
 11
2923.807342565087
 21
2447.525942253219
 31
0.0
  0
LINE
  5
2A6
330
1F
100
AcDbEntity
  8
A
  6
Continuous
370
    60
100
AcDbLine
 10
2729.458918295088
 20
2540.918237253219
 30
0.0
 11
2729.458918295088
 21
2485.857962253219
 31
0.0
  0
LINE
  5
2A7
330
1F
100
AcDbEntity
  8
A
  6
Continuous
370
    60
100
AcDbLine
 10
2732.559087785089
 20
2540.918237253219
 30
0.0
 11
2732.559087785089
 21
2489.294942253219
 31
0.0
  0
LINE
  5
2A8
330
1F
100
AcDbEntity
  8
A
  6
Continuous
370
    60
100
AcDbLine
 10
2729.458918295088
 20
2485.857962253219
 30
0.0
 11
2767.134556295089
 21
2444.088962253219
 31
0.0
  0
LINE
  5
2A9
330
1F
100
AcDbEntity
  8
A
  6
Continuous
370
    60
100
AcDbLine
 10
2732.559087785089
 20
2489.294942253219
 30
0.0
 11
2770.234725785087
 21
2447.525942253219
 31
0.0
  0
LINE
  5
2AB
330
1F
100
AcDbEntity
  8
0
370
    60
100
AcDbLine
 10
2877.395559455089
 20
2527.170272253219
 30
0.0
 11
2877.395559455089
 21
2540.918237253219
 31
0.0
  0
LINE
  5
2AC
330
1F
100
AcDbEntity
  8
0
370
    60
100
AcDbLine
 10
2861.973727205089
 20
2527.170272253219
 30
0.0
 11
2861.973727205089
 21
2540.918237253219
 31
0.0
  0
LINE
  5
2AD
330
1F
100
AcDbEntity
  8
A
  6
Continuous
370
    60
100
AcDbLine
 10
2853.537948095088
 20
2540.918237253219
 30
0.0
 11
2853.537948095088
 21
2520.971852253219
 31
0.0
  0
LINE
  5
2AE
330
1F
100
AcDbEntity
  8
A
  6
Continuous
370
    60
100
AcDbLine
 10
2857.679048135087
 20
2527.170272253219
 30
0.0
 11
2861.820161705088
 21
2527.170272253219
 31
0.0
  0
ELLIPSE
  5
2AF
330
1F
100
AcDbEntity
  8
0
370
    60
100
AcDbEllipse
 10
2857.679048135087
 20
2536.235597253219
 30
0.0
 11
0.0
 21
15.93924000000055
 31
0.0
210
0.0
220
0.0
230
1.0
 40
0.902
 41
2.849420278202553
 42
3.433765028977004
  0
ELLIPSE
  5
2B0
330
1F
100
AcDbEntity
  8
0
370
    60
100
AcDbEllipse
 10
2857.679048135087
 20
2511.231032253219
 30
0.0
 11
0.0
 21
15.93924000000014
 31
0.0
210
0.0
220
0.0
230
1.0
 40
0.902
 41
-0.2921723753872449
 42
0.2921723753872068
  0
LINE
  5
2B1
330
1F
100
AcDbEntity
  8
A
  6
Continuous
370
    60
100
AcDbLine
 10
2861.820161705088
 20
2526.494777253219
 30
0.0
 11
2861.820161705088
 21
2520.971852253219
 31
0.0
  0
LINE
  5
2B2
330
1F
100
AcDbEntity
  8
A
  6
Continuous
370
    60
100
AcDbLine
 10
2926.907512055089
 20
2444.088962253219
 30
0.0
 11
2964.583150055088
 21
2485.857962253219
 31
0.0
  0
LINE
  5
2B3
330
1F
100
AcDbEntity
  8
A
  6
Continuous
370
    60
100
AcDbLine
 10
2961.482980565087
 20
2489.294942253219
 30
0.0
 11
2923.807342565087
 21
2447.525942253219
 31
0.0
  0
LINE
  5
2B5
330
1F
100
AcDbEntity
  8
A
  6
Continuous
370
    60
100
AcDbLine
 10
2885.831352095089
 20
2540.918237253219
 30
0.0
 11
2885.831352095089
 21
2520.971852253219
 31
0.0
  0
LINE
  5
2B6
330
1F
100
AcDbEntity
  8
A
  6
Continuous
370
    60
100
AcDbLine
 10
2877.549124955087
 20
2526.494777253219
 30
0.0
 11
2877.549124955087
 21
2520.971852253219
 31
0.0
  0
LINE
  5
2B7
330
1F
100
AcDbEntity
  8
0
370
    60
100
AcDbLine
 10
2877.549124955087
 20
2527.170272253219
 30
0.0
 11
2881.968131195089
 21
2527.170272253219
 31
0.0
  0
ELLIPSE
  5
2B8
330
1F
100
AcDbEntity
  8
0
370
    60
100
AcDbEllipse
 10
2881.690238525087
 20
2536.235597253219
 30
0.0
 11
0.0
 21
15.93924000000042
 31
0.0
210
0.0
220
0.0
230
1.0
 40
0.902
 41
2.84942027820258
 42
3.433765028977032
  0
ELLIPSE
  5
2B9
330
1F
100
AcDbEntity
  8
0
370
    60
100
AcDbEllipse
 10
2881.690238525087
 20
2511.231032253219
 30
0.0
 11
0.0
 21
15.93924000000014
 31
0.0
210
0.0
220
0.0
230
1.0
 40
0.902
 41
-0.2921723753872449
 42
0.2921723753872068
  0
LINE
  5
2BA
330
1F
100
AcDbEntity
  8
A
  6
Continuous
370
    60
100
AcDbLine
 10
2961.482980565087
 20
2540.918237253219
 30
0.0
 11
2961.482980565087
 21
2489.294942253219
 31
0.0
  0
LINE
  5
2BB
330
1F
100
AcDbEntity
  8
A
  6
Continuous
370
    60
100
AcDbLine
 10
2964.583150055088
 20
2540.918237253219
 30
0.0
 11
2964.583150055088
 21
2485.857962253219
 31
0.0
  0
LINE
  5
2BC
330
1F
100
AcDbEntity
  8
A
  6
Continuous
370
    60
100
AcDbLine
 10
2991.518038145089
 20
2540.918237253219
 30
0.0
 11
3005.929585295089
 21
2540.918237253219
 31
0.0
  0
ELLIPSE
  5
2BD
330
1F
100
AcDbEntity
  8
A
  6
Continuous
370
    60
100
AcDbEllipse
 10
2982.217543205088
 20
2530.607267253219
 30
0.0
 11
0.0
 21
7.05862499999995
 31
0.0
210
0.0
220
0.0
230
1.0
 40
0.902
 41
-1.5707963267949
 42
4.712388980384686
  0
LINE
  5
2BE
330
1F
100
AcDbEntity
  8
A
  6
Continuous
370
    60
100
AcDbLine
 10
2972.917034735089
 20
2540.918237253219
 30
0.0
 11
2972.917034735089
 21
2530.607267253219
 31
0.0
  0
LINE
  5
2BF
330
1F
100
AcDbEntity
  8
A
  6
Continuous
370
    60
100
AcDbLine
 10
2991.518038145089
 20
2540.918237253219
 30
0.0
 11
2991.518038145089
 21
2530.607267253219
 31
0.0
  0
ELLIPSE
  5
2C0
330
1F
100
AcDbEntity
  8
A
  6
Continuous
370
    60
100
AcDbEllipse
 10
2982.217543205088
 20
2530.607267253219
 30
0.0
 11
0.0
 21
10.3109699999996
 31
0.0
210
0.0
220
0.0
230
1.0
 40
0.902
 41
1.570796326794893
 42
4.712388980384686
  0
ELLIPSE
  5
2C1
330
1F
100
AcDbEntity
  8
A
  6
Continuous
370
    60
100
AcDbEllipse
 10
3005.929585295089
 20
2561.540192253219
 30
0.0
 11
0.0
 21
20.62195500000001
 31
0.0
210
0.0
220
0.0
230
1.0
 40
0.9020000000000001
 41
3.14159265358979
 42
4.712388980384686
  0
ELLIPSE
  5
2C2
330
1F
100
AcDbEntity
  8
A
  6
Continuous
370
    60
100
AcDbEllipse
 10
3005.929585295089
 20
2561.540192253219
 30
0.0
 11
0.0
 21
15.81018
 31
0.0
210
0.0
220
0.0
230
1.0
 40
0.902
 41
3.14159265358979
 42
4.712388980384686
  0
ELLIPSE
  5
2C3
330
1F
100
AcDbEntity
  8
A
  6
Continuous
370
    60
100
AcDbEllipse
 10
3004.689520205089
 20
2562.914987253219
 30
0.0
 11
0.0
 21
3.436994999999853
 31
0.0
210
0.0
220
0.0
230
1.0
 40
0.902
 41
3.14159265358979
 42
4.712388980384686
  0
ELLIPSE
  5
2C4
330
1F
100
AcDbEntity
  8
A
  6
Continuous
370
    60
100
AcDbEllipse
 10
2982.217543205088
 20
2764.322717253219
 30
0.0
 11
0.0
 21
10.31097000000045
 31
0.0
210
0.0
220
0.0
230
1.0
 40
0.902
 41
-1.5707963267949
 42
1.570796326794893
  0
LINE
  5
2C5
330
1F
100
AcDbEntity
  8
A
  6
Continuous
370
    60
100
AcDbLine
 10
2991.518038145089
 20
2754.011747253219
 30
0.0
 11
3005.929585295089
 21
2754.011747253219
 31
0.0
  0
LINE
  5
2C6
330
1F
100
AcDbEntity
  8
A
  6
Continuous
370
    60
100
AcDbLine
 10
2991.518038145089
 20
2754.011747253219
 30
0.0
 11
2991.518038145089
 21
2764.322717253219
 31
0.0
  0
LINE
  5
2C7
330
1F
100
AcDbEntity
  8
A
  6
Continuous
370
    60
100
AcDbLine
 10
2972.917034735089
 20
2754.011747253219
 30
0.0
 11
2972.917034735089
 21
2764.322717253219
 31
0.0
  0
ELLIPSE
  5
2C8
330
1F
100
AcDbEntity
  8
A
  6
Continuous
370
    60
100
AcDbEllipse
 10
2982.217543205088
 20
2764.322717253219
 30
0.0
 11
0.0
 21
7.05862499999995
 31
0.0
210
0.0
220
0.0
230
1.0
 40
0.902
 41
-1.5707963267949
 42
4.712388980384686
  0
ELLIPSE
  5
2C9
330
1F
100
AcDbEntity
  8
A
  6
Continuous
370
    60
100
AcDbEllipse
 10
3005.929585295089
 20
2733.389792253219
 30
0.0
 11
0.0
 21
20.62195500000001
 31
0.0
210
0.0
220
0.0
230
1.0
 40
0.9020000000000001
 41
-1.5707963267949
 42
-0.0000000000000036
  0
ELLIPSE
  5
2CA
330
1F
100
AcDbEntity
  8
A
  6
Continuous
370
    60
100
AcDbEllipse
 10
3005.929585295089
 20
2733.389792253219
 30
0.0
 11
0.0
 21
15.81015000000008
 31
0.0
210
0.0
220
0.0
230
1.0
 40
0.902
 41
-1.5707963267949
 42
-0.0000000000000036
  0
ELLIPSE
  5
2CB
330
1F
100
AcDbEntity
  8
A
  6
Continuous
370
    60
100
AcDbEllipse
 10
3004.689520205089
 20
2732.014997253219
 30
0.0
 11
0.0
 21
3.436994999999853
 31
0.0
210
0.0
220
0.0
230
1.0
 40
0.902
 41
-1.5707963267949
 42
-0.0000000000000036
  0
LINE
  5
2CC
330
1F
100
AcDbEntity
  8
A
  6
Continuous
370
    60
100
AcDbLine
 10
3254.854335875089
 20
2545.042637253219
 30
0.0
 11
3254.854335875089
 21
2749.887362253219
 31
0.0
  0
LINE
  5
2CD
330
1F
100
AcDbEntity
  8
A
  6
Continuous
370
    60
100
AcDbLine
 10
3233.773824665087
 20
2726.515817253219
 30
0.0
 11
3123.455007815089
 21
2679.550697253219
 31
0.0
  0
ELLIPSE
  5
2CE
330
1F
100
AcDbEntity
  8
A
  6
Continuous
370
    60
100
AcDbEllipse
 10
3159.369824555088
 20
2693.861642253219
 30
0.0
 11
0.0
 21
13.74796499999985
 31
0.0
210
0.0
220
0.0
230
1.0
 40
0.902
 41
0.3666343346494414
 42
1.570796326794893
  0
LINE
  5
2CF
330
1F
100
AcDbEntity
  8
A
  6
Continuous
370
    60
100
AcDbLine
 10
3233.773824665087
 20
2540.918177253219
 30
0.0
 11
3233.773824665087
 21
2754.011747253219
 31
0.0
  0
LINE
  5
2D0
330
1F
100
AcDbEntity
  8
A
  6
Continuous
370
    60
100
AcDbLine
 10
3251.134749455087
 20
2523.733217253219
 30
0.0
 11
3251.134749455087
 21
2771.196707253219
 31
0.0
  0
ELLIPSE
  5
2E9
330
1F
100
AcDbEntity
  8
0
370
    60
100
AcDbEllipse
 10
3175.620464015087
 20
2560.468862253219
 30
0.0
 11
0.0
 21
17.5069200000005
 31
0.0
210
0.0
220
0.0
230
1.0
 40
0.902
 41
4.644678391001507
 42
7.921692223357674
  0
LINE
  5
2EA
330
1F
100
AcDbEntity
  8
0
370
    60
100
AcDbLine
 10
3159.865401395087
 20
2479.882352253219
 30
0.0
 11
3191.375513105089
 21
2479.882352253219
 31
0.0
  0
LINE
  5
2EB
330
1F
100
AcDbEntity
  8
A
  6
Continuous
370
    60
100
AcDbLine
 10
3233.773824665087
 20
2568.414107253219
 30
0.0
 11
3123.455007815089
 21
2615.379362253219
 31
0.0
  0
LINE
  5
2EC
330
1F
100
AcDbEntity
  8
A
  6
Continuous
370
    60
100
AcDbLine
 10
3230.790216125087
 20
2555.936177253219
 30
0.0
 11
3154.924177745087
 21
2588.234147253219
 31
0.0
  0
LINE
  5
2EF
330
1F
100
AcDbEntity
  8
A
  6
Continuous
370
    60
100
AcDbLine
 10
3159.865401395087
 20
2440.862942253219
 30
0.0
 11
3191.375513105089
 21
2440.862942253219
 31
0.0
  0
ELLIPSE
  5
2F0
330
1F
100
AcDbEntity
  8
0
370
    60
100
AcDbEllipse
 10
3294.753994685089
 20
2570.618987253219
 30
0.0
 11
0.0
 21
195.9642750000003
 31
0.0
210
0.0
220
0.0
230
1.0
 40
0.9020000000000001
 41
1.434919425107529
 42
1.667610316361671
  0
LINE
  5
2F1
330
1F
100
AcDbEntity
  8
A
  6
Continuous
370
    60
100
AcDbLine
 10
3147.668512295088
 20
2551.676537253219
 30
0.0
 11
3147.668512295088
 21
2596.516772253219
 31
0.0
  0
LINE
  5
2F2
330
1F
100
AcDbEntity
  8
A
  6
Continuous
370
    60
100
AcDbLine
 10
3121.869427115088
 20
2597.164157253219
 30
0.0
 11
3121.869427115088
 21
2551.676537253219
 31
0.0
  0
LINE
  5
2F3
330
1F
100
AcDbEntity
  8
A
  6
Continuous
370
    60
100
AcDbLine
 10
3159.865401395087
 20
2565.188177253219
 30
0.0
 11
3159.865401395087
 21
2586.130547253219
 31
0.0
  0
LINE
  5
2F4
330
1F
100
AcDbEntity
  8
A
  6
Continuous
370
    60
100
AcDbLine
 10
3168.983958425088
 20
2565.251492253219
 30
0.0
 11
3175.427972705089
 21
2569.375892253219
 31
0.0
  0
LINE
  5
2F5
330
1F
100
AcDbEntity
  8
A
  6
Continuous
370
    60
100
AcDbLine
 10
3175.427972705089
 20
2569.375817253219
 30
0.0
 11
3181.871351075088
 21
2565.251432253219
 31
0.0
  0
LINE
  5
2F7
330
1F
100
AcDbEntity
  8
A
  6
CONTINUA
370
    60
100
AcDbLine
 10
3159.865401395087
 20
2565.188177253219
 30
0.0
 11
3159.865401395087
 21
2440.862942253219
 31
0.0
  0
ELLIPSE
  5
2F8
330
1F
100
AcDbEntity
  8
0
370
    60
100
AcDbEllipse
 10
3142.203393515088
 20
2569.271957253219
 30
0.0
 11
0.0
 21
48.97900499999982
 31
0.0
210
0.0
220
0.0
230
1.0
 40
0.9020000000000001
 41
2.957818384533976
 42
3.304645518554602
  0
ELLIPSE
  5
2F9
330
1F
100
AcDbEntity
  8
0
370
    60
100
AcDbEllipse
 10
3142.203393515088
 20
2479.706762253219
 30
0.0
 11
0.0
 21
48.97900500000024
 31
0.0
210
0.0
220
0.0
230
1.0
 40
0.902
 41
-0.1837742690558151
 42
0.1837742690558191
  0
LINE
  5
2FA
330
1F
100
AcDbEntity
  8
A
  6
Continuous
370
    60
100
AcDbLine
 10
3117.983340515089
 20
2541.612932253219
 30
0.0
 11
3150.276744515087
 21
2541.612932253219
 31
0.0
  0
LINE
  5
2FB
330
1F
100
AcDbEntity
  8
A
  6
CONTINUA
370
    60
100
AcDbLine
 10
3118.821956975089
 20
2551.676537253219
 30
0.0
 11
3147.668512295088
 21
2551.676537253219
 31
0.0
  0
LINE
  5
2FC
330
1F
100
AcDbEntity
  8
A
  6
Continuous
370
    60
100
AcDbLine
 10
3117.983340515089
 20
2541.612932253219
 30
0.0
 11
3117.983340515089
 21
2522.120177253219
 31
0.0
  0
ELLIPSE
  5
2FD
330
1F
100
AcDbEntity
  8
0
370
    60
100
AcDbEllipse
 10
3126.056691515089
 20
2479.706762253219
 30
0.0
 11
0.0
 21
48.97900500000024
 31
0.0
210
0.0
220
0.0
230
1.0
 40
0.902
 41
-0.1837742690558151
 42
0.1837742690558191
  0
ELLIPSE
  5
2FE
330
1F
100
AcDbEntity
  8
0
370
    60
100
AcDbEllipse
 10
3126.056691515089
 20
2569.271957253219
 30
0.0
 11
0.0
 21
48.97900499999975
 31
0.0
210
0.0
220
0.0
230
1.0
 40
0.9019999999999999
 41
2.978539788624983
 42
3.325366922645608
  0
ELLIPSE
  5
2FF
330
1F
100
AcDbEntity
  8
0
370
    60
100
AcDbEllipse
 10
3119.059787315088
 20
2522.120177253219
 30
0.0
 11
0.0
 21
1.193399999999798
 31
0.0
210
0.0
220
0.0
230
1.0
 40
0.902
 41
1.570796326794893
 42
2.978539788624992
  0
LINE
  5
300
330
1F
100
AcDbEntity
  8
A
  6
Continuous
370
    60
100
AcDbLine
 10
3134.130042515088
 20
2527.860992253219
 30
0.0
 11
3134.130042515088
 21
2521.117712253219
 31
0.0
  0
LINE
  5
301
330
1F
100
AcDbEntity
  8
A
  6
Continuous
370
    60
100
AcDbLine
 10
3143.049559715088
 20
2528.685752253219
 30
0.0
 11
3134.130042515088
 21
2528.685752253219
 31
0.0
  0
LINE
  5
302
330
1F
100
AcDbEntity
  8
A
  6
Continuous
370
    60
100
AcDbLine
 10
3134.130042515088
 20
2527.860992253219
 30
0.0
 11
3134.130042515088
 21
2521.117712253219
 31
0.0
  0
LINE
  5
303
330
1F
100
AcDbEntity
  8
A
  6
Continuous
370
    60
100
AcDbLine
 10
3126.875012975089
 20
2528.685752253219
 30
0.0
 11
3134.130042515088
 21
2528.685752253219
 31
0.0
  0
LINE
  5
304
330
1F
100
AcDbEntity
  8
A
  6
Continuous
370
    60
100
AcDbLine
 10
3134.130042515088
 20
2527.860992253219
 30
0.0
 11
3134.130042515088
 21
2521.117712253219
 31
0.0
  0
LINE
  5
305
330
1F
100
AcDbEntity
  8
A
  6
Continuous
370
    60
100
AcDbLine
 10
3126.025829585088
 20
2520.292877253219
 30
0.0
 11
3143.039912825087
 21
2520.292877253219
 31
0.0
  0
LINE
  5
306
330
1F
100
AcDbEntity
  8
0
370
    60
100
AcDbLine
 10
3122.746752905089
 20
2541.612932253219
 30
0.0
 11
3122.746752905089
 21
2551.676537253219
 31
0.0
  0
LINE
  5
307
330
1F
100
AcDbEntity
  8
A
  6
Continuous
370
    60
100
AcDbLine
 10
3150.276744515087
 20
2541.612932253219
 30
0.0
 11
3150.276744515087
 21
2522.120177253219
 31
0.0
  0
ELLIPSE
  5
308
330
1F
100
AcDbEntity
  8
0
370
    60
100
AcDbEllipse
 10
3149.200297715089
 20
2522.120177253219
 30
0.0
 11
0.0
 21
1.193400000000042
 31
0.0
210
0.0
220
0.0
230
1.0
 40
0.9019999999999999
 41
3.304645518554474
 42
4.712388980384686
  0
LINE
  5
309
330
1F
100
AcDbEntity
  8
0
370
    60
100
AcDbLine
 10
3145.024357925088
 20
2541.612932253219
 30
0.0
 11
3145.024357925088
 21
2551.676537253219
 31
0.0
  0
LINE
  5
30A
330
1F
100
AcDbEntity
  8
A
  6
Continuous
370
    60
100
AcDbLine
 10
3168.983958425088
 20
2565.251492253219
 30
0.0
 11
3168.983958425088
 21
2557.002707253219
 31
0.0
  0
LINE
  5
30B
330
1F
100
AcDbEntity
  8
A
  6
Continuous
370
    60
100
AcDbLine
 10
3181.871351075088
 20
2565.251492253219
 30
0.0
 11
3181.871351075088
 21
2557.002707253219
 31
0.0
  0
LINE
  5
30C
330
1F
100
AcDbEntity
  8
A
  6
Continuous
370
    60
100
AcDbLine
 10
3168.983958425088
 20
2557.002647253219
 30
0.0
 11
3175.427972705089
 21
2552.878322253219
 31
0.0
  0
LINE
  5
30D
330
1F
100
AcDbEntity
  8
A
  6
Continuous
370
    60
100
AcDbLine
 10
3175.427972705089
 20
2552.878322253219
 30
0.0
 11
3181.871351075088
 21
2557.002647253219
 31
0.0
  0
ELLIPSE
  5
30E
330
1F
100
AcDbEntity
  8
A
  6
Continuous
370
    60
100
AcDbEllipse
 10
3134.568482165089
 20
2647.464992253219
 30
0.0
 11
0.0
 21
34.36992000000009
 31
0.0
210
0.0
220
0.0
230
1.0
 40
0.902
 41
0.3666395706372065
 42
2.774953082952606
  0
LINE
  5
30F
330
1F
100
AcDbEntity
  8
A
  6
CONTINUA
370
    60
100
AcDbLine
 10
3119.623420055089
 20
2597.164157253219
 30
0.0
 11
3147.479714675088
 21
2597.164157253219
 31
0.0
  0
ELLIPSE
  5
310
330
1F
100
AcDbEntity
  8
A
  6
Continuous
370
    60
100
AcDbEllipse
 10
3159.369824555088
 20
2601.068417253219
 30
0.0
 11
0.0
 21
13.74796499999991
 31
0.0
210
0.0
220
0.0
230
1.0
 40
0.902
 41
1.27067093979193
 42
2.774954828281841
  0
LINE
  5
311
330
1F
100
AcDbEntity
  8
0
370
    60
100
AcDbLine
 10
3159.865401395087
 20
2578.133987253219
 30
0.0
 11
3147.668512295088
 21
2578.133987253219
 31
0.0
  0
LINE
  5
312
330
1F
100
AcDbEntity
  8
A
  6
Continuous
370
    60
100
AcDbLine
 10
3146.969146595089
 20
2689.561277253219
 30
0.0
 11
3146.969146595089
 21
2693.861642253219
 31
0.0
  0
LINE
  5
313
330
1F
100
AcDbEntity
  8
A
  6
Continuous
370
    60
100
AcDbLine
 10
3191.375513105089
 20
2559.284357253219
 30
0.0
 11
3191.375513105089
 21
2440.862942253219
 31
0.0
  0
LINE
  5
314
330
1F
100
AcDbEntity
  8
A
  6
Continuous
370
    60
100
AcDbLine
 10
3224.473316195087
 20
2532.229532253219
 30
0.0
 11
3191.375513105089
 21
2535.853907253219
 31
0.0
  0
LINE
  5
315
330
1F
100
AcDbEntity
  8
A
  6
Continuous
370
    60
100
AcDbLine
 10
3233.773824665087
 20
2523.733217253219
 30
0.0
 11
3233.773824665087
 21
2540.918177253219
 31
0.0
  0
LINE
  5
316
330
1F
100
AcDbEntity
  8
A
  6
Continuous
370
    60
100
AcDbLine
 10
3224.473316195087
 20
2558.625437253219
 30
0.0
 11
3224.473316195087
 21
2523.733277253219
 31
0.0
  0
LINE
  5
317
330
1F
100
AcDbEntity
  8
A
  6
Continuous
370
    60
100
AcDbLine
 10
3224.473316195087
 20
2523.733217253219
 30
0.0
 11
3251.134749455087
 21
2523.733217253219
 31
0.0
  0
LINE
  5
318
330
1F
100
AcDbEntity
  8
A
  6
Continuous
370
    60
100
AcDbLine
 10
3233.773824665087
 20
2540.918177253219
 30
0.0
 11
3251.134749455087
 21
2540.918177253219
 31
0.0
  0
ELLIPSE
  5
319
330
1F
100
AcDbEntity
  8
A
  6
Continuous
370
    60
100
AcDbEllipse
 10
3229.123577195087
 20
2551.123367253219
 30
0.0
 11
0.0
 21
5.155485000000225
 31
0.0
210
0.0
220
0.0
230
1.0
 40
0.902
 41
-1.5707963267949
 42
-0.3666390470384229
  0
LINE
  5
31A
330
1F
100
AcDbEntity
  8
A
  6
Continuous
370
    60
100
AcDbLine
 10
3251.134749455087
 20
2545.042637253219
 30
0.0
 11
3254.854958255089
 21
2545.042637253219
 31
0.0
  0
LINE
  5
31B
330
1F
100
AcDbEntity
  8
A
  6
Continuous
370
    60
100
AcDbLine
 10
3230.790216125087
 20
2738.993462253219
 30
0.0
 11
3154.924177745087
 21
2706.696047253219
 31
0.0
  0
ELLIPSE
  5
31C
330
1F
100
AcDbEntity
  8
A
  6
Continuous
370
    60
100
AcDbEllipse
 10
3215.457411275087
 20
2737.988492253219
 30
0.0
 11
0.0
 21
5.15546999999996
 31
0.0
210
0.0
220
0.0
230
1.0
 40
0.902
 41
3.508230478897776
 42
4.514189390528255
  0
LINE
  5
31D
330
1F
100
AcDbEntity
  8
A
  6
Continuous
370
    60
100
AcDbLine
 10
3224.473316195087
 20
2761.573127253219
 30
0.0
 11
3220.016520665089
 21
2736.973202253219
 31
0.0
  0
ELLIPSE
  5
31E
330
1F
100
AcDbEntity
  8
A
  6
Continuous
370
    60
100
AcDbEllipse
 10
3229.123577195087
 20
2743.806632253219
 30
0.0
 11
0.0
 21
5.155485000000315
 31
0.0
210
0.0
220
0.0
230
1.0
 40
0.902
 41
3.508232224227062
 42
4.712388980384686
  0
LINE
  5
31F
330
1F
100
AcDbEntity
  8
A
  6
Continuous
370
    60
100
AcDbLine
 10
3233.773824665087
 20
2754.011747253219
 30
0.0
 11
3251.134749455087
 21
2754.011747253219
 31
0.0
  0
LINE
  5
320
330
1F
100
AcDbEntity
  8
A
  6
Continuous
370
    60
100
AcDbLine
 10
3224.473316195087
 20
2771.196707253219
 30
0.0
 11
3251.134749455087
 21
2771.196707253219
 31
0.0
  0
LINE
  5
321
330
1F
100
AcDbEntity
  8
A
  6
Continuous
370
    60
100
AcDbLine
 10
3233.773824665087
 20
2754.011747253219
 30
0.0
 11
3233.773824665087
 21
2771.196707253219
 31
0.0
  0
LINE
  5
322
330
1F
100
AcDbEntity
  8
A
  6
Continuous
370
    60
100
AcDbLine
 10
3224.473316195087
 20
2761.573127253219
 30
0.0
 11
3224.473316195087
 21
2771.196707253219
 31
0.0
  0
LINE
  5
323
330
1F
100
AcDbEntity
  8
A
  6
Continuous
370
    60
100
AcDbLine
 10
3254.854335875089
 20
2749.887362253219
 30
0.0
 11
3251.134140605087
 21
2749.887362253219
 31
0.0
  0
DIMENSION
  5
423
330
1F
100
AcDbEntity
  8
0
370
    25
100
AcDbDimension
  2
*D44
 10
3024.530588705089
 20
2810.428040361974
 30
0.0
 11
2847.021034175089
 21
2822.428040361974
 31
0.0
 70
    32
  1
355
 71
     5
 41
2.5
 42
355.0191090599997
  3
ISO-25
100
AcDbAlignedDimension
 13
2669.511479645089
 23
2684.870777065521
 33
0.0
 14
3024.530588705089
 24
2684.870777065521
 34
0.0
100
AcDbRotatedDimension
1001
ACAD
1000
DSTYLE
1002
{
1070
    41
1040
10.0
1070
   140
1040
14.0
1070
   147
1040
5.0
1070
   176
1070
     7
1070
   177
1070
     7
1002
}
  0
DIMENSION
  5
45C
330
1F
100
AcDbEntity
  8
0
370
    25
100
AcDbDimension
  2
*D51
 10
2621.323772472808
 20
2540.918237253219
 30
0.0
 11
2609.323772472808
 21
2647.464992253219
 31
0.0
 70
    32
  1
213
 71
     5
 41
2.5
 42
213.0935099999997
  3
ISO-25
100
AcDbAlignedDimension
 13
2723.103726786397
 23
2754.011747253219
 33
0.0
 14
2723.103726786397
 24
2540.918237253219
 34
0.0
 50
90.0
100
AcDbRotatedDimension
1001
ACAD
1000
DSTYLE
1002
{
1070
    41
1040
10.0
1070
   140
1040
14.0
1070
   147
1040
5.0
1070
   176
1070
     7
1070
   177
1070
     7
1002
}
  0
DIMENSION
  5
489
330
1F
100
AcDbEntity
  8
0
370
    25
100
AcDbDimension
  2
*D55
 10
2550.211552958347
 20
2444.088962253219
 30
0.0
 11
2538.211552958347
 21
2599.050354753219
 31
0.0
 70
    32
  1
310
 71
     5
 41
2.5
 42
309.9227849999997
  3
ISO-25
100
AcDbAlignedDimension
 13
2827.128176132816
 23
2754.011747253219
 33
0.0
 14
2827.128176132816
 24
2444.088962253219
 34
0.0
 50
90.0
100
AcDbRotatedDimension
1001
ACAD
1000
DSTYLE
1002
{
1070
    41
1040
10.0
1070
   140
1040
14.0
1070
   147
1040
5.0
1070
   176
1070
     7
1070
   177
1070
     7
1002
}
  0
LINE
  5
4D5
330
1F
100
AcDbEntity
  8
STANDARD_LAYER
370
    60
100
AcDbLine
 10
2835.699337072575
 20
2655.283528320017
 30
0.0
 11
2856.381018832573
 21
2683.196145000018
 31
0.0
  0
LINE
  5
4D6
330
1F
100
AcDbEntity
  8
STANDARD_LAYER
370
    60
100
AcDbLine
 10
2824.471148392573
 20
2626.195150100019
 30
0.0
 11
2845.154072512573
 21
2654.107954340016
 31
0.0
  0
LINE
  5
4D7
330
1F
100
AcDbEntity
  8
STANDARD_LAYER
370
    60
100
AcDbLine
 10
2819.448923752575
 20
2646.761562580019
 30
0.0
 11
2840.131043992574
 21
2674.674710680019
 31
0.0
  0
LINE
  5
4D8
330
1F
100
AcDbEntity
  8
STANDARD_LAYER
370
    60
100
AcDbLine
 10
2853.131182552575
 20
2614.148254660019
 30
0.0
 11
2873.813668192573
 21
2642.061038060016
 31
0.0
  0
LINE
  5
4D9
330
1F
100
AcDbEntity
  8
STANDARD_LAYER
370
    60
100
AcDbLine
 10
2870.268275512573
 20
2625.607118240018
 30
0.0
 11
2890.950500152574
 21
2653.519370220019
 31
0.0
  0
DIMENSION
  5
4E6
330
1F
100
AcDbEntity
  8
0
370
    25
100
AcDbDimension
  2
*D64
 10
3254.967904845787
 20
2810.427775143285
 30
0.0
 11
3179.324144070787
 21
2822.427775143285
 31
0.0
 70
    32
  1
152
 71
     5
 41
2.5
 42
151.2875215500003
  3
ISO-25
100
AcDbAlignedDimension
 13
3103.680383295787
 23
2654.959839416559
 33
0.0
 14
3254.967904845787
 24
2654.959846916559
 34
0.0
100
AcDbRotatedDimension
1001
ACAD
1000
DSTYLE
1002
{
1070
    41
1040
10.0
1070
   140
1040
14.0
1070
   147
1040
5.0
1070
   176
1070
     7
1070
   177
1070
     7
1002
}
  0
DIMENSION
  5
540
330
1F
100
AcDbEntity
  8
0
370
    25
100
AcDbDimension
  2
*D68
 10
3288.101211010088
 20
2523.733217253219
 30
0.0
 11
3276.101211010088
 21
2647.464962253219
 31
0.0
 70
    32
  1
247
 71
     5
 41
2.5
 42
247.4634900000001
  3
ISO-25
100
AcDbAlignedDimension
 13
3244.015125675653
 23
2771.196707253219
 33
0.0
 14
3237.804032825087
 24
2523.733217253219
 34
0.0
 50
90.0
100
AcDbRotatedDimension
1001
ACAD
1000
DSTYLE
1002
{
1070
    41
1040
10.0
1070
   140
1040
14.0
1070
   147
1040
5.0
1070
   176
1070
     7
1070
   177
1070
     7
1002
}
  0
VIEWPORT
  5
BB
330
73
100
AcDbEntity
 67
     1
  8
0
100
AcDbViewport
 10
7.8
 20
4.5
 30
0.0
 40
15.64
 41
9.0
 68
     1
 69
     1
 12
6.0
 22
4.5
 13
0.0
 23
0.0
 14
0.5
 24
0.5
 15
0.5
 25
0.5
 16
0.0
 26
0.0
 36
1.0
 17
0.0
 27
0.0
 37
0.0
 42
50.0
 43
0.0
 44
0.0
 45
12.0
 50
0.0
 51
0.0
 72
   100
 90
   557152
  1

281
     0
 71
     1
 74
     0
110
0.0
120
0.0
130
0.0
111
1.0
121
0.0
131
0.0
112
0.0
122
1.0
132
0.0
 79
     0
146
0.0
  0
ENDSEC
  0
SECTION
  2
OBJECTS
  0
DICTIONARY
  5
C
330
0
100
AcDbDictionary
281
     1
  3
ACAD_COLOR
350
6C
  3
ACAD_GROUP
350
D
  3
ACAD_LAYOUT
350
1A
  3
ACAD_MATERIAL
350
6B
  3
ACAD_MLEADERSTYLE
350
600
  3
ACAD_MLINESTYLE
350
17
  3
ACAD_PLOTSETTINGS
350
19
  3
ACAD_PLOTSTYLENAME
350
E
  3
ACAD_SCALELIST
350
99
  3
ACAD_TABLESTYLE
350
92
  3
ACDBHEADERROUNDTRIPXREC
350
601
  3
AcDbVariableDictionary
350
59
  3
DWGPROPS
350
604
  0
DICTIONARY
  5
6C
102
{ACAD_REACTORS
330
C
102
}
330
C
100
AcDbDictionary
281
     1
  0
DICTIONARY
  5
D
102
{ACAD_REACTORS
330
C
102
}
330
C
100
AcDbDictionary
281
     1
  0
DICTIONARY
  5
1A
102
{ACAD_REACTORS
330
C
102
}
330
C
100
AcDbDictionary
281
     1
  3
Layout1
350
74
  3
Layout2
350
574
  3
Model
350
22
  0
DICTIONARY
  5
6B
102
{ACAD_REACTORS
330
C
102
}
330
C
100
AcDbDictionary
281
     1
  0
DICTIONARY
  5
600
102
{ACAD_REACTORS
330
C
102
}
330
C
100
AcDbDictionary
281
     1
  0
DICTIONARY
  5
17
102
{ACAD_REACTORS
330
C
102
}
330
C
100
AcDbDictionary
281
     1
  3
Standard
350
18
  0
DICTIONARY
  5
19
102
{ACAD_REACTORS
330
C
102
}
330
C
100
AcDbDictionary
281
     1
  0
ACDBDICTIONARYWDFLT
  5
E
102
{ACAD_REACTORS
330
C
102
}
330
C
100
AcDbDictionary
281
     1
  3
Normal
350
F
100
AcDbDictionaryWithDefault
340
F
  0
DICTIONARY
  5
99
102
{ACAD_REACTORS
330
C
102
}
330
C
100
AcDbDictionary
281
     1
  3
A0
350
D5
  3
A1
350
D6
  3
A2
350
D7
  3
A3
350
D8
  3
A4
350
D9
  3
A5
350
DA
  3
A6
350
DB
  3
A7
350
DC
  3
A8
350
DD
  3
A9
350
DE
  3
B0
350
DF
  3
B1
350
E0
  3
B2
350
E1
  3
B3
350
E2
  3
B4
350
E3
  3
B5
350
E4
  3
B6
350
E5
  3
B7
350
E6
  3
B8
350
E7
  3
B9
350
E8
  3
C0
350
E9
  3
C1
350
EA
  3
C2
350
EB
  3
C3
350
EC
  3
C4
350
ED
  3
C5
350
EE
  3
C6
350
EF
  3
C7
350
F0
  3
C8
350
F1
  3
C9
350
F2
  3
D0
350
F3
  3
D1
350
F4
  3
D2
350
F5
  0
DICTIONARY
  5
92
102
{ACAD_REACTORS
330
C
102
}
330
C
100
AcDbDictionary
281
     1
  0
DICTIONARY
  5
601
102
{ACAD_REACTORS
330
C
102
}
330
C
100
AcDbDictionary
281
     1
  3
COLORDICT
350
602
  3
MATERIALDICT
350
603
  0
DICTIONARY
  5
59
102
{ACAD_REACTORS
330
C
102
}
330
C
100
AcDbDictionary
281
     1
  3
CTABLESTYLE
350
98
  3
DIMASSOC
350
5A
  3
HIDETEXT
350
5E
  0
XRECORD
  5
604
102
{ACAD_REACTORS
330
C
102
}
330
C
100
AcDbXrecord
280
     1
  1
DWGPROPS COOKIE
  2

  3

  4

  6

  7

  8
BelottiMc
  9

300
=
301
=
302
=
303
=
304
=
305
=
306
=
307
=
308
=
309
=
 40
0.0
 41
2455090.638903727
 42
2455090.680570382
  1

 90
        0
  0
LAYOUT
  5
74
102
{ACAD_REACTORS
330
1A
102
}
330
1A
100
AcDbPlotSettings
  1

  2
ProgeSOFT PDF Wizard
  4
A4
  6

 40
5.926666666666667
 41
6.011333333333317
 42
6.095999999999985
 43
5.926666666666667
 44
210.0
 45
297.0
 46
88.56200000000001
 47
136.531
 48
0.0
 49
0.0
140
0.0
141
0.0
142
1.0
143
1.0
 70
   692
 72
     1
 73
     0
 74
     0
  7

 75
    16
147
1.0
148
4.426666666666668
149
1.5
100
AcDbLayout
  1
Layout1
 70
     1
 71
     1
 10
0.0
 20
0.0
 11
0.0
 21
0.0
 12
0.0
 22
0.0
 32
0.0
 14
0.0
 24
0.0
 34
0.0
 15
0.0
 25
0.0
 35
0.0
146
0.0
 13
0.0
 23
0.0
 33
0.0
 16
1.0
 26
0.0
 36
0.0
 17
0.0
 27
1.0
 37
0.0
 76
     0
330
D1
331
5FF
1001
PROGE_PRINT_SETTINGS
1070
    73
1070
     1
  0
LAYOUT
  5
574
102
{ACAD_REACTORS
330
1A
102
}
330
1A
100
AcDbPlotSettings
  1

  2
ProgeSOFT PDF Wizard
  4
A4
  6

 40
5.926666666666667
 41
6.011333333333317
 42
6.095999999999985
 43
5.926666666666667
 44
210.0
 45
297.0
 46
88.562
 47
136.531
 48
0.0
 49
0.0
140
0.0
141
0.0
142
1.0
143
1.0
 70
   692
 72
     1
 73
     0
 74
     0
  7

 75
    16
147
1.0
148
0.0
149
0.0
100
AcDbLayout
  1
Layout2
 70
     1
 71
     2
 10
0.0
 20
0.0
 11
12.0
 21
9.0
 12
0.0
 22
0.0
 32
0.0
 14
0.0
 24
0.0
 34
0.0
 15
12.0
 25
9.0
 35
0.0
146
0.0
 13
0.0
 23
0.0
 33
0.0
 16
1.0
 26
0.0
 36
0.0
 17
0.0
 27
1.0
 37
0.0
 76
     0
330
73
331
BB
1001
PROGE_PRINT_SETTINGS
1070
    73
1070
     1
  0
LAYOUT
  5
22
102
{ACAD_REACTORS
330
1A
102
}
330
1A
100
AcDbPlotSettings
  1

  2
ProgeSOFT PDF Wizard
  4
A4
  6

 40
5.926666666666667
 41
6.011333333333317
 42
6.095999999999985
 43
5.926666666666667
 44
210.0
 45
297.0
 46
0.0000000000000075
 47
83.07219027892849
 48
0.0
 49
0.0
140
0.0
141
0.0
142
1.0
143
8.87180155554074
 70
 11956
 72
     1
 73
     0
 74
     0
  7

 75
     0
147
0.1127166780883941
148
-2151.828881898087
149
-2010.714560858167
100
AcDbLayout
  1
Model
 70
     1
 71
     0
 10
0.0
 20
0.0
 11
0.0
 21
0.0
 12
0.0
 22
0.0
 32
0.0
 14
2531.211552958347
 24
2440.862942253219
 34
0.0
 15
3330.474599934946
 25
2840.419701939662
 35
0.0
146
0.0
 13
0.0
 23
0.0
 33
0.0
 16
1.0
 26
0.0
 36
0.0
 17
0.0
 27
1.0
 37
0.0
 76
     0
330
1F
331
97
1001
PROGE_PRINT_SETTINGS
1070
    73
1070
     1
  0
MLINESTYLE
  5
18
102
{ACAD_REACTORS
330
17
102
}
330
17
100
AcDbMlineStyle
  2
STANDARD
 70
     0
  3

 62
   256
 51
90.0
 52
90.0
 71
     2
 49
0.5
 62
   256
  6
BYLAYER
 49
-0.5
 62
   256
  6
BYLAYER
  0
ACDBPLACEHOLDER
  5
F
102
{ACAD_REACTORS
330
E
102
}
330
E
  0
SCALE
  5
D5
102
{ACAD_REACTORS
330
99
102
}
330
99
100
AcDbScale
 70
     0
300
1:1
140
1.0
141
1.0
290
     1
  0
SCALE
  5
D6
102
{ACAD_REACTORS
330
99
102
}
330
99
100
AcDbScale
 70
     0
300
1:2
140
1.0
141
2.0
290
     0
  0
SCALE
  5
D7
102
{ACAD_REACTORS
330
99
102
}
330
99
100
AcDbScale
 70
     0
300
1:4
140
1.0
141
4.0
290
     0
  0
SCALE
  5
D8
102
{ACAD_REACTORS
330
99
102
}
330
99
100
AcDbScale
 70
     0
300
1:5
140
1.0
141
5.0
290
     0
  0
SCALE
  5
D9
102
{ACAD_REACTORS
330
99
102
}
330
99
100
AcDbScale
 70
     0
300
1:8
140
1.0
141
8.0
290
     0
  0
SCALE
  5
DA
102
{ACAD_REACTORS
330
99
102
}
330
99
100
AcDbScale
 70
     0
300
1:10
140
1.0
141
10.0
290
     0
  0
SCALE
  5
DB
102
{ACAD_REACTORS
330
99
102
}
330
99
100
AcDbScale
 70
     0
300
1:16
140
1.0
141
16.0
290
     0
  0
SCALE
  5
DC
102
{ACAD_REACTORS
330
99
102
}
330
99
100
AcDbScale
 70
     0
300
1:20
140
1.0
141
20.0
290
     0
  0
SCALE
  5
DD
102
{ACAD_REACTORS
330
99
102
}
330
99
100
AcDbScale
 70
     0
300
1:30
140
1.0
141
30.0
290
     0
  0
SCALE
  5
DE
102
{ACAD_REACTORS
330
99
102
}
330
99
100
AcDbScale
 70
     0
300
1:40
140
1.0
141
40.0
290
     0
  0
SCALE
  5
DF
102
{ACAD_REACTORS
330
99
102
}
330
99
100
AcDbScale
 70
     0
300
1:50
140
1.0
141
50.0
290
     0
  0
SCALE
  5
E0
102
{ACAD_REACTORS
330
99
102
}
330
99
100
AcDbScale
 70
     0
300
1:100
140
1.0
141
100.0
290
     0
  0
SCALE
  5
E1
102
{ACAD_REACTORS
330
99
102
}
330
99
100
AcDbScale
 70
     0
300
2:1
140
2.0
141
1.0
290
     0
  0
SCALE
  5
E2
102
{ACAD_REACTORS
330
99
102
}
330
99
100
AcDbScale
 70
     0
300
4:1
140
4.0
141
1.0
290
     0
  0
SCALE
  5
E3
102
{ACAD_REACTORS
330
99
102
}
330
99
100
AcDbScale
 70
     0
300
8:1
140
8.0
141
1.0
290
     0
  0
SCALE
  5
E4
102
{ACAD_REACTORS
330
99
102
}
330
99
100
AcDbScale
 70
     0
300
10:1
140
10.0
141
1.0
290
     0
  0
SCALE
  5
E5
102
{ACAD_REACTORS
330
99
102
}
330
99
100
AcDbScale
 70
     0
300
100:1
140
100.0
141
1.0
290
     0
  0
SCALE
  5
E6
102
{ACAD_REACTORS
330
99
102
}
330
99
100
AcDbScale
 70
     0
300
1/128" = 1'-0"
140
0.0078125
141
12.0
290
     0
  0
SCALE
  5
E7
102
{ACAD_REACTORS
330
99
102
}
330
99
100
AcDbScale
 70
     0
300
1/64" = 1'-0"
140
0.015625
141
12.0
290
     0
  0
SCALE
  5
E8
102
{ACAD_REACTORS
330
99
102
}
330
99
100
AcDbScale
 70
     0
300
1/32" = 1'-0"
140
0.03125
141
12.0
290
     0
  0
SCALE
  5
E9
102
{ACAD_REACTORS
330
99
102
}
330
99
100
AcDbScale
 70
     0
300
1/16" = 1'-0"
140
0.0625
141
12.0
290
     0
  0
SCALE
  5
EA
102
{ACAD_REACTORS
330
99
102
}
330
99
100
AcDbScale
 70
     0
300
3/32" = 1'-0"
140
0.09375
141
12.0
290
     0
  0
SCALE
  5
EB
102
{ACAD_REACTORS
330
99
102
}
330
99
100
AcDbScale
 70
     0
300
1/8" = 1'-0"
140
0.125
141
12.0
290
     0
  0
SCALE
  5
EC
102
{ACAD_REACTORS
330
99
102
}
330
99
100
AcDbScale
 70
     0
300
3/16" = 1'-0"
140
0.1875
141
12.0
290
     0
  0
SCALE
  5
ED
102
{ACAD_REACTORS
330
99
102
}
330
99
100
AcDbScale
 70
     0
300
1/4" = 1'-0"
140
0.25
141
12.0
290
     0
  0
SCALE
  5
EE
102
{ACAD_REACTORS
330
99
102
}
330
99
100
AcDbScale
 70
     0
300
3/8" = 1'-0"
140
0.375
141
12.0
290
     0
  0
SCALE
  5
EF
102
{ACAD_REACTORS
330
99
102
}
330
99
100
AcDbScale
 70
     0
300
1/2" = 1'-0"
140
0.5
141
12.0
290
     0
  0
SCALE
  5
F0
102
{ACAD_REACTORS
330
99
102
}
330
99
100
AcDbScale
 70
     0
300
3/4" = 1'-0"
140
0.75
141
12.0
290
     0
  0
SCALE
  5
F1
102
{ACAD_REACTORS
330
99
102
}
330
99
100
AcDbScale
 70
     0
300
1" = 1'-0"
140
1.0
141
12.0
290
     0
  0
SCALE
  5
F2
102
{ACAD_REACTORS
330
99
102
}
330
99
100
AcDbScale
 70
     0
300
1-1/2" = 1'-0"
140
1.5
141
12.0
290
     0
  0
SCALE
  5
F3
102
{ACAD_REACTORS
330
99
102
}
330
99
100
AcDbScale
 70
     0
300
3" = 1'-0"
140
3.0
141
12.0
290
     0
  0
SCALE
  5
F4
102
{ACAD_REACTORS
330
99
102
}
330
99
100
AcDbScale
 70
     0
300
6" = 1'-0"
140
6.0
141
12.0
290
     0
  0
SCALE
  5
F5
102
{ACAD_REACTORS
330
99
102
}
330
99
100
AcDbScale
 70
     0
300
1'-0" = 1'-0"
140
12.0
141
12.0
290
     0
  0
XRECORD
  5
602
102
{ACAD_REACTORS
330
601
102
}
330
601
100
AcDbXrecord
280
     1
340
6C
  0
XRECORD
  5
603
102
{ACAD_REACTORS
330
601
102
}
330
601
100
AcDbXrecord
280
     1
340
6B
  0
DICTIONARYVAR
  5
98
102
{ACAD_REACTORS
330
59
102
}
330
59
100
DictionaryVariables
280
     0
  1
Standard
  0
DICTIONARYVAR
  5
5A
102
{ACAD_REACTORS
330
59
102
}
330
59
100
DictionaryVariables
280
     0
  1
2
  0
DICTIONARYVAR
  5
5E
102
{ACAD_REACTORS
330
59
102
}
330
59
100
DictionaryVariables
280
     0
  1
1
  0
ENDSEC
  0
EOF
